  0
SECTION
  2
HEADER
  9
$ACADVER
  1
AC1014
  9
$ACADMAINTVER
 70
     9
  9
$DWGCODEPAGE
  3
ANSI_932
  9
$INSBASE
 10
0.0
 20
0.0
 30
0.0
  9
$EXTMIN
 10
-137.0132436184367
 20
-43.00772035821307
 30
-0.0015258207003583
  9
$EXTMAX
 10
20.00183174270409
 20
61.01274150448478
 30
0.0000000349246037
  9
$LIMMIN
 10
0.0
 20
0.0
  9
$LIMMAX
 10
297.0
 20
210.0
  9
$ORTHOMODE
 70
     0
  9
$REGENMODE
 70
     1
  9
$FILLMODE
 70
     1
  9
$QTEXTMODE
 70
     0
  9
$MIRRTEXT
 70
     1
  9
$DRAGMODE
 70
     2
  9
$LTSCALE
 40
10.0
  9
$OSMODE
 70
   613
  9
$ATTMODE
 70
     1
  9
$TEXTSIZE
 40
3.0
  9
$TRACEWID
 40
1.0
  9
$TEXTSTYLE
  7
YOKO
  9
$CLAYER
  8
240
  9
$CELTYPE
  6
BYLAYER
  9
$CECOLOR
 62
   256
  9
$CELTSCALE
 40
1.0
  9
$DELOBJ
 70
     1
  9
$DISPSILH
 70
     0
  9
$DIMSCALE
 40
1.0
  9
$DIMASZ
 40
2.229999999999999
  9
$DIMEXO
 40
0.5
  9
$DIMDLI
 40
2.5
  9
$DIMRND
 40
0.0
  9
$DIMDLE
 40
0.0
  9
$DIMEXE
 40
1.0
  9
$DIMTP
 40
0.0
  9
$DIMTM
 40
0.0
  9
$DIMTXT
 40
3.0
  9
$DIMCEN
 40
0.0
  9
$DIMTSZ
 40
0.0
  9
$DIMTOL
 70
     0
  9
$DIMLIM
 70
     0
  9
$DIMTIH
 70
     0
  9
$DIMTOH
 70
     0
  9
$DIMSE1
 70
     0
  9
$DIMSE2
 70
     0
  9
$DIMTAD
 70
     3
  9
$DIMZIN
 70
     8
  9
$DIMBLK
  1
OPEN
  9
$DIMASO
 70
     1
  9
$DIMSHO
 70
     1
  9
$DIMPOST
  1

  9
$DIMAPOST
  1

  9
$DIMALT
 70
     0
  9
$DIMALTD
 70
     2
  9
$DIMALTF
 40
25.4
  9
$DIMLFAC
 40
1.0
  9
$DIMTOFL
 70
     1
  9
$DIMTVP
 40
0.0
  9
$DIMTIX
 70
     0
  9
$DIMSOXD
 70
     0
  9
$DIMSAH
 70
     0
  9
$DIMBLK1
  1

  9
$DIMBLK2
  1

  9
$DIMSTYLE
  2
BIGT
  9
$DIMCLRD
 70
   256
  9
$DIMCLRE
 70
   256
  9
$DIMCLRT
 70
    40
  9
$DIMTFAC
 40
1.0
  9
$DIMGAP
 40
1.0
  9
$DIMJUST
 70
     0
  9
$DIMSD1
 70
     0
  9
$DIMSD2
 70
     0
  9
$DIMTOLJ
 70
     1
  9
$DIMTZIN
 70
     8
  9
$DIMALTZ
 70
     0
  9
$DIMALTTZ
 70
     0
  9
$DIMFIT
 70
     2
  9
$DIMUPT
 70
     0
  9
$DIMUNIT
 70
     2
  9
$DIMDEC
 70
     3
  9
$DIMTDEC
 70
     3
  9
$DIMALTU
 70
     2
  9
$DIMALTTD
 70
     2
  9
$DIMTXSTY
  7
STANDARD
  9
$DIMAUNIT
 70
     0
  9
$LUNITS
 70
     2
  9
$LUPREC
 70
     3
  9
$SKETCHINC
 40
1.0
  9
$FILLETRAD
 40
1.0
  9
$AUNITS
 70
     0
  9
$AUPREC
 70
     3
  9
$MENU
  1
.
  9
$ELEVATION
 40
0.0
  9
$PELEVATION
 40
0.0
  9
$THICKNESS
 40
0.0
  9
$LIMCHECK
 70
     0
  9
$BLIPMODE
 70
     0
  9
$CHAMFERA
 40
0.5
  9
$CHAMFERB
 40
0.5
  9
$CHAMFERC
 40
0.0
  9
$CHAMFERD
 40
0.0
  9
$SKPOLY
 70
     0
  9
$TDCREATE
 40
2452181.595245949
  9
$TDUPDATE
 40
2452737.405381400
  9
$TDINDWG
 40
0.0507157755
  9
$TDUSRTIMER
 40
0.0507157755
  9
$USRTIMER
 70
     1
  9
$ANGBASE
 50
0.0
  9
$ANGDIR
 70
     0
  9
$PDMODE
 70
    35
  9
$PDSIZE
 40
2.0
  9
$PLINEWID
 40
0.0
  9
$COORDS
 70
     2
  9
$SPLFRAME
 70
     0
  9
$SPLINETYPE
 70
     6
  9
$SPLINESEGS
 70
     8
  9
$ATTDIA
 70
     0
  9
$ATTREQ
 70
     0
  9
$HANDLING
 70
-16383
  9
$HANDSEED
  5
1BD6
  9
$SURFTAB1
 70
     6
  9
$SURFTAB2
 70
     6
  9
$SURFTYPE
 70
     6
  9
$SURFU
 70
     6
  9
$SURFV
 70
     6
  9
$UCSNAME
  2

  9
$UCSORG
 10
0.0
 20
0.0
 30
0.0
  9
$UCSXDIR
 10
1.0
 20
0.0
 30
0.0
  9
$UCSYDIR
 10
0.0
 20
1.0
 30
0.0
  9
$PUCSNAME
  2

  9
$PUCSORG
 10
0.0
 20
0.0
 30
0.0
  9
$PUCSXDIR
 10
1.0
 20
0.0
 30
0.0
  9
$PUCSYDIR
 10
0.0
 20
1.0
 30
0.0
  9
$USERI1
 70
     1
  9
$USERI2
 70
     0
  9
$USERI3
 70
     0
  9
$USERI4
 70
     0
  9
$USERI5
 70
     0
  9
$USERR1
 40
0.0
  9
$USERR2
 40
0.0
  9
$USERR3
 40
0.0
  9
$USERR4
 40
0.0
  9
$USERR5
 40
0.0
  9
$WORLDVIEW
 70
     1
  9
$SHADEDGE
 70
     3
  9
$SHADEDIF
 70
    70
  9
$TILEMODE
 70
     1
  9
$MAXACTVP
 70
    16
  9
$PINSBASE
 10
0.0
 20
0.0
 30
0.0
  9
$PLIMCHECK
 70
     0
  9
$PEXTMIN
 10
1.000000000000000E+20
 20
1.000000000000000E+20
 30
1.000000000000000E+20
  9
$PEXTMAX
 10
-1.000000000000000E+20
 20
-1.000000000000000E+20
 30
-1.000000000000000E+20
  9
$PLIMMIN
 10
0.0
 20
0.0
  9
$PLIMMAX
 10
420.0
 20
297.0
  9
$UNITMODE
 70
     0
  9
$VISRETAIN
 70
     0
  9
$PLINEGEN
 70
     0
  9
$PSLTSCALE
 70
     1
  9
$TREEDEPTH
 70
  3020
  9
$PICKSTYLE
 70
     0
  9
$CMLSTYLE
  2
STANDARD
  9
$CMLJUST
 70
     0
  9
$CMLSCALE
 40
1.0
  9
$PROXYGRAPHICS
 70
     1
  9
$MEASUREMENT
 70
     1
  0
ENDSEC
  0
SECTION
  2
CLASSES
  0
CLASS
  1
XRECORD
  2
AcDbXrecord
  3
AutoCAD 2000
 90
        0
280
     0
281
     0
  0
CLASS
  1
ACDBDICTIONARYWDFLT
  2
AcDbDictionaryWithDefault
  3
AutoCAD 2000
 90
        0
280
     0
281
     0
  0
CLASS
  1
ACDBPLACEHOLDER
  2
AcDbPlaceHolder
  3
AutoCAD 2000
 90
        0
280
     0
281
     0
  0
CLASS
  1
LAYOUT
  2
AcDbLayout
  3
AutoCAD 2000
 90
        0
280
     0
281
     0
  0
CLASS
  1
DICTIONARYVAR
  2
AcDbDictionaryVar
  3
AutoCAD 2000
 90
        0
280
     0
281
     0
  0
CLASS
  1
LONG_TRANSACTION
  2
AcDbLongTransaction
  3
AutoCAD 2000
 90
        0
280
     0
281
     0
  0
CLASS
  1
LWPOLYLINE
  2
AcDbPolyline
  3
AutoCAD 2000
 90
        0
280
     0
281
     1
  0
CLASS
  1
HATCH
  2
AcDbHatch
  3
AutoCAD 2000
 90
        0
280
     0
281
     1
  0
CLASS
  1
XRECORD
  2
AcDbXrecord
  3
AutoCAD 2000
 90
        0
280
     0
281
     0
  0
ENDSEC
  0
SECTION
  2
TABLES
  0
TABLE
  2
VPORT
  5
8
330
0
100
AcDbSymbolTable
 70
     2
  0
VPORT
  5
1BB0
330
8
100
AcDbSymbolTableRecord
100
AcDbViewportTableRecord
  2
*ACTIVE
 70
     0
 10
0.0
 20
0.0
 11
1.0
 21
1.0
 12
-58.50570593786631
 22
9.00251057313585
 13
0.0
 23
0.0
 14
7.0
 24
7.0
 15
7.0
 25
7.0
 16
0.0
 26
0.0
 36
1.0
 17
0.0
 27
0.0
 37
0.0
 40
111.2095655786423
 41
1.419235511713933
 42
50.0
 43
0.0
 44
0.0
 50
0.0
 51
0.0
 71
     0
 72
  2000
 73
     1
 74
     0
 75
     0
 76
     1
 77
     0
 78
     0
  0
ENDTAB
  0
TABLE
  2
LTYPE
  5
5
330
0
100
AcDbSymbolTable
 70
     3
  0
LTYPE
  5
14
330
5
100
AcDbSymbolTableRecord
100
AcDbLinetypeTableRecord
  2
BYBLOCK
 70
     0
  3

 72
    65
 73
     0
 40
0.0
  0
LTYPE
  5
15
330
5
100
AcDbSymbolTableRecord
100
AcDbLinetypeTableRecord
  2
BYLAYER
 70
     0
  3

 72
    65
 73
     0
 40
0.0
  0
LTYPE
  5
16
330
5
100
AcDbSymbolTableRecord
100
AcDbLinetypeTableRecord
  2
CONTINUOUS
 70
     0
  3
Solid line
 72
    65
 73
     0
 40
0.0
  0
LTYPE
  5
258
330
5
100
AcDbSymbolTableRecord
100
AcDbLinetypeTableRecord
  2
CENTER2
 70
     0
  3
___ _ ___ _ ___ _ ___ _ ___ _ ___ _ ___ _ ___ _
 72
    65
 73
     4
 40
1.125
 49
0.75
 74
     0
 49
-0.125
 74
     0
 49
0.125
 74
     0
 49
-0.125
 74
     0
  0
LTYPE
  5
25D
330
5
100
AcDbSymbolTableRecord
100
AcDbLinetypeTableRecord
  2
PHANTOM2
 70
     0
  3
___ _ _ ___ _ _ ___ _ _ ___ _ _ ___ _ _ ___ _ _
 72
    65
 73
     6
 40
1.25
 49
0.625
 74
     0
 49
-0.125
 74
     0
 49
0.125
 74
     0
 49
-0.125
 74
     0
 49
0.125
 74
     0
 49
-0.125
 74
     0
  0
ENDTAB
  0
TABLE
  2
LAYER
  5
2
330
0
100
AcDbSymbolTable
 70
    10
  0
LAYER
  5
F
330
2
100
AcDbSymbolTableRecord
100
AcDbLayerTableRecord
  2
0
 70
     0
 62
     7
  6
CONTINUOUS
  0
LAYER
  5
1AA
330
2
100
AcDbSymbolTableRecord
100
AcDbLayerTableRecord
  2
240
 70
     0
 62
     4
  6
CONTINUOUS
  0
LAYER
  5
1AB
330
2
100
AcDbSymbolTableRecord
100
AcDbLayerTableRecord
  2
241
 70
     0
 62
   211
  6
CONTINUOUS
  0
LAYER
  5
1AC
330
2
100
AcDbSymbolTableRecord
100
AcDbLayerTableRecord
  2
242
 70
     0
 62
     3
  6
CONTINUOUS
  0
LAYER
  5
1AF
330
2
100
AcDbSymbolTableRecord
100
AcDbLayerTableRecord
  2
245
 70
     0
 62
     2
  6
CENTER2
  0
LAYER
  5
21A
330
2
100
AcDbSymbolTableRecord
100
AcDbLayerTableRecord
  2
246
 70
     0
 62
     3
  6
PHANTOM2
  0
LAYER
  5
21E
330
2
100
AcDbSymbolTableRecord
100
AcDbLayerTableRecord
  2
250
 70
     0
 62
     3
  6
CONTINUOUS
  0
LAYER
  5
5C4
330
2
100
AcDbSymbolTableRecord
100
AcDbLayerTableRecord
  2
DEFPOINTS
 70
     0
 62
     7
  6
CONTINUOUS
  0
LAYER
  5
198F
330
2
100
AcDbSymbolTableRecord
100
AcDbLayerTableRecord
  2
247
 70
     0
 62
    60
  6
CONTINUOUS
  0
ENDTAB
  0
TABLE
  2
STYLE
  5
3
330
0
100
AcDbSymbolTable
 70
     2
  0
STYLE
  5
10
330
3
100
AcDbSymbolTableRecord
100
AcDbTextStyleTableRecord
  2
STANDARD
 70
     0
 40
0.0
 41
1.0
 50
0.0
 71
     0
 42
3.0
  3
romans.shx
  4
BIGFONT.SHX
  0
STYLE
  5
339
330
3
100
AcDbSymbolTableRecord
100
AcDbTextStyleTableRecord
  2
YOKO
 70
     0
 40
0.0
 41
1.0
 50
0.0
 71
     0
 42
3.0
  3
romans.shx
  4
extfont.shx
  0
ENDTAB
  0
TABLE
  2
VIEW
  5
6
330
0
100
AcDbSymbolTable
 70
     0
  0
ENDTAB
  0
TABLE
  2
UCS
  5
7
330
0
100
AcDbSymbolTable
 70
     0
  0
ENDTAB
  0
TABLE
  2
APPID
  5
9
330
0
100
AcDbSymbolTable
 70
     9
  0
APPID
  5
11
330
9
100
AcDbSymbolTableRecord
100
AcDbRegAppTableRecord
  2
ACAD
 70
     0
  0
APPID
  5
1B1
330
9
100
AcDbSymbolTableRecord
100
AcDbRegAppTableRecord
  2
GLOBAL
 70
     0
  0
APPID
  5
2A4
330
9
100
AcDbSymbolTableRecord
100
AcDbRegAppTableRecord
  2
DETAIL
 70
     0
  0
APPID
  5
5FD
330
9
100
AcDbSymbolTableRecord
100
AcDbRegAppTableRecord
  2
GRPNAME
 70
     0
  0
APPID
  5
5FE
330
9
100
AcDbSymbolTableRecord
100
AcDbRegAppTableRecord
  2
GPARA
 70
     0
  0
APPID
  5
7CF
330
9
100
AcDbSymbolTableRecord
100
AcDbRegAppTableRecord
  2
ITEMNAME
 70
     0
  0
APPID
  5
7D0
330
9
100
AcDbSymbolTableRecord
100
AcDbRegAppTableRecord
  2
HATCH_TYPE
 70
     0
  0
APPID
  5
7D1
330
9
100
AcDbSymbolTableRecord
100
AcDbRegAppTableRecord
  2
HATCH_DISPLAY
 70
     0
  0
APPID
  5
7D2
330
9
100
AcDbSymbolTableRecord
100
AcDbRegAppTableRecord
  2
HATCH_DISTANCE
 70
     0
  0
ENDTAB
  0
TABLE
  2
DIMSTYLE
  5
A
330
0
100
AcDbSymbolTable
 70
     2
  0
DIMSTYLE
105
48F
330
A
100
AcDbSymbolTableRecord
100
AcDbDimStyleTableRecord
  2
STANDARD
 70
     0
  3

  4

  5

  6

  7

 40
1.0
 41
2.0
 42
2.0
 43
3.75
 44
2.0
 45
0.0
 46
0.0
 47
0.0
 48
0.0
140
4.0
141
0.09
142
0.0
143
25.4
144
1.0
145
0.0
146
1.0
147
1.0
 71
     0
 72
     0
 73
     1
 74
     1
 75
     0
 76
     0
 77
     0
 78
     8
170
     0
171
     2
172
     0
173
     1
174
     0
175
     0
176
   256
177
   256
178
   256
270
     2
271
     3
272
     4
273
     2
274
     2
340
10
275
     0
280
     0
281
     0
282
     0
283
     1
284
     8
285
     0
286
     0
287
     3
288
     0
  0
DIMSTYLE
105
59A
102
{ACAD_REACTORS
330
14BD
330
14BE
330
14BF
330
18CF
330
18DF
330
18EC
330
18FB
102
}
330
A
100
AcDbSymbolTableRecord
100
AcDbDimStyleTableRecord
  2
BIGT
 70
     0
  3

  4

  5
OPEN
  6

  7

 40
1.0
 41
2.229999999999999
 42
0.5
 43
2.5
 44
1.0
 45
0.0
 46
0.0
 47
0.0
 48
0.0
140
3.5
141
0.0
142
0.0
143
25.4
144
1.0
145
0.0
146
1.0
147
1.0
 71
     0
 72
     0
 73
     0
 74
     0
 75
     0
 76
     0
 77
     3
 78
     9
170
     0
171
     2
172
     1
173
     0
174
     0
175
     0
176
   256
177
   256
178
    40
270
     2
271
     3
272
     3
273
     2
274
     2
340
10
275
     0
280
     0
281
     0
282
     0
283
     1
284
     8
285
     0
286
     0
287
     2
288
     0
  0
ENDTAB
  0
TABLE
  2
BLOCK_RECORD
  5
1
330
0
100
AcDbSymbolTable
 70
     9
  0
BLOCK_RECORD
  5
1A
102
{ACAD_XDICTIONARY
360
1BD4
102
}
330
1
100
AcDbSymbolTableRecord
100
AcDbBlockTableRecord
  2
*MODEL_SPACE
  0
BLOCK_RECORD
  5
17
102
{ACAD_XDICTIONARY
360
1BD2
102
}
330
1
100
AcDbSymbolTableRecord
100
AcDbBlockTableRecord
  2
*PAPER_SPACE
  0
BLOCK_RECORD
  5
594
330
1
100
AcDbSymbolTableRecord
100
AcDbBlockTableRecord
  2
_OPEN
  0
BLOCK_RECORD
  5
14E5
330
1
100
AcDbSymbolTableRecord
100
AcDbBlockTableRecord
  2
*D1
  0
BLOCK_RECORD
  5
14F1
330
1
100
AcDbSymbolTableRecord
100
AcDbBlockTableRecord
  2
*D2
  0
BLOCK_RECORD
  5
14FD
330
1
100
AcDbSymbolTableRecord
100
AcDbBlockTableRecord
  2
*D3
  0
BLOCK_RECORD
  5
18D0
330
1
100
AcDbSymbolTableRecord
100
AcDbBlockTableRecord
  2
*D4
  0
BLOCK_RECORD
  5
18E0
330
1
100
AcDbSymbolTableRecord
100
AcDbBlockTableRecord
  2
*D5
  0
BLOCK_RECORD
  5
18ED
330
1
100
AcDbSymbolTableRecord
100
AcDbBlockTableRecord
  2
*D6
  0
BLOCK_RECORD
  5
18FC
330
1
100
AcDbSymbolTableRecord
100
AcDbBlockTableRecord
  2
*D7
  0
BLOCK_RECORD
  5
1AD1
330
1
100
AcDbSymbolTableRecord
100
AcDbBlockTableRecord
  2
A$C2F5A1774
  0
ENDTAB
  0
ENDSEC
  0
SECTION
  2
BLOCKS
  0
BLOCK
  5
1B
330
1A
100
AcDbEntity
  8
0
100
AcDbBlockBegin
  2
*MODEL_SPACE
 70
     0
 10
0.0
 20
0.0
 30
0.0
  3
*MODEL_SPACE
  1

  0
ENDBLK
  5
1C
330
1A
100
AcDbEntity
  8
0
100
AcDbBlockEnd
  0
BLOCK
  5
18
330
17
100
AcDbEntity
 67
     1
  8
0
100
AcDbBlockBegin
  2
*PAPER_SPACE
 70
     0
 10
0.0
 20
0.0
 30
0.0
  3
*PAPER_SPACE
  1

  0
ENDBLK
  5
19
330
17
100
AcDbEntity
 67
     1
  8
0
100
AcDbBlockEnd
  0
BLOCK
  5
598
330
594
100
AcDbEntity
  8
0
100
AcDbBlockBegin
  2
_OPEN
 70
     0
 10
0.0
 20
0.0
 30
0.0
  3
_OPEN
  1

  0
LINE
  5
595
330
594
100
AcDbEntity
  8
0
  6
BYBLOCK
 62
     0
100
AcDbLine
 10
-1.0
 20
0.1666666666666666
 30
0.0
 11
0.0
 21
0.0
 31
0.0
  0
LINE
  5
596
330
594
100
AcDbEntity
  8
0
  6
BYBLOCK
 62
     0
100
AcDbLine
 10
-1.0
 20
-0.1666666666666666
 30
0.0
 11
0.0
 21
0.0
 31
0.0
  0
LINE
  5
597
330
594
100
AcDbEntity
  8
0
  6
BYBLOCK
 62
     0
100
AcDbLine
 10
0.0
 20
0.0
 30
0.0
 11
-1.0
 21
0.0
 31
0.0
  0
ENDBLK
  5
599
330
594
100
AcDbEntity
  8
0
100
AcDbBlockEnd
  0
BLOCK
  5
14EF
330
14E5
100
AcDbEntity
  8
0
100
AcDbBlockBegin
  2
*D1
 70
     1
 10
0.0
 20
0.0
 30
0.0
  3
*D1
  1

  0
LINE
  5
1530
330
14E5
100
AcDbEntity
  8
250
  6
CONTINUOUS
100
AcDbLine
 10
-1.414213999999901
 20
-23.0
 30
0.0
 11
20.00000000000004
 21
-23.0
 31
0.0
  0
LINE
  5
1531
330
14E5
100
AcDbEntity
  8
250
  6
CONTINUOUS
100
AcDbLine
 10
-1.414213999999901
 20
23.0
 30
0.0
 11
20.00000000000005
 21
22.99999999999999
 31
0.0
  0
LINE
  5
1532
330
14E5
100
AcDbEntity
  8
250
  6
CONTINUOUS
100
AcDbLine
 10
19.00000000000004
 20
-20.77
 30
0.0
 11
19.00000000000005
 21
20.76999999999999
 31
0.0
  0
INSERT
  5
1533
330
14E5
100
AcDbEntity
  8
250
  6
CONTINUOUS
100
AcDbBlockReference
  2
_OPEN
 10
19.00000000000004
 20
-23.0
 30
0.0
 41
2.229999999999999
 42
2.229999999999999
 43
2.229999999999999
 50
270.0
  0
INSERT
  5
1534
330
14E5
100
AcDbEntity
  8
250
  6
CONTINUOUS
100
AcDbBlockReference
  2
_OPEN
 10
19.00000000000005
 20
22.99999999999999
 30
0.0
 41
2.229999999999999
 42
2.229999999999999
 43
2.229999999999999
 50
90.0
  0
MTEXT
  5
1535
330
14E5
100
AcDbEntity
  8
250
  6
CONTINUOUS
 62
    40
100
AcDbMText
 10
16.50000000000005
 20
-0.0000000000000009
 30
0.0
 40
3.0
 41
0.0
 71
     5
 72
     1
  1
\A1;{\H3;\U+2205}46
 11
0.0000000000000001
 21
1.0
 31
0.0
1001
ACAD
1000
MTEXTBEGIN
1070
    73
1070
     1
1070
    44
1040
1.0
1070
    74
1070
     0
1000
MTEXTEND
  0
POINT
  5
1536
330
14E5
100
AcDbEntity
  8
DEFPOINTS
  6
CONTINUOUS
 62
     0
100
AcDbPoint
 10
-1.914213999999901
 20
-23.0
 30
0.0
  0
POINT
  5
1537
330
14E5
100
AcDbEntity
  8
DEFPOINTS
  6
CONTINUOUS
 62
     0
100
AcDbPoint
 10
-1.914213999999901
 20
23.0
 30
0.0
  0
POINT
  5
1538
330
14E5
100
AcDbEntity
  8
DEFPOINTS
  6
CONTINUOUS
 62
     0
100
AcDbPoint
 10
19.00000000000005
 20
22.99999999999999
 30
0.0
  0
ENDBLK
  5
14F0
330
14E5
100
AcDbEntity
  8
0
100
AcDbBlockEnd
  0
BLOCK
  5
14FB
330
14F1
100
AcDbEntity
  8
0
100
AcDbBlockBegin
  2
*D2
 70
     1
 10
0.0
 20
0.0
 30
0.0
  3
*D2
  1

  0
LINE
  5
1539
330
14F1
100
AcDbEntity
  8
250
  6
CONTINUOUS
100
AcDbLine
 10
0.5
 20
-10.0
 30
0.0
 11
13.00000000000002
 21
-10.0
 31
0.0
  0
LINE
  5
153A
330
14F1
100
AcDbEntity
  8
250
  6
CONTINUOUS
100
AcDbLine
 10
0.5
 20
10.0
 30
0.0
 11
13.00000000000002
 21
9.999999999999996
 31
0.0
  0
LINE
  5
153B
330
14F1
100
AcDbEntity
  8
250
  6
CONTINUOUS
100
AcDbLine
 10
12.00000000000002
 20
-7.770000000000002
 30
0.0
 11
12.00000000000002
 21
7.769999999999996
 31
0.0
  0
INSERT
  5
153C
330
14F1
100
AcDbEntity
  8
250
  6
CONTINUOUS
100
AcDbBlockReference
  2
_OPEN
 10
12.00000000000002
 20
-10.0
 30
0.0
 41
2.229999999999999
 42
2.229999999999999
 43
2.229999999999999
 50
270.0
  0
INSERT
  5
153D
330
14F1
100
AcDbEntity
  8
250
  6
CONTINUOUS
100
AcDbBlockReference
  2
_OPEN
 10
12.00000000000002
 20
9.999999999999996
 30
0.0
 41
2.229999999999999
 42
2.229999999999999
 43
2.229999999999999
 50
90.0
  0
MTEXT
  5
153E
330
14F1
100
AcDbEntity
  8
250
  6
CONTINUOUS
 62
    40
100
AcDbMText
 10
9.500000000000026
 20
-0.0000000000000004
 30
0.0
 40
3.0
 41
0.0
 71
     5
 72
     1
  1
\A1;MAX.%%c20
 11
0.0000000000000001
 21
1.0
 31
0.0
1001
ACAD
1000
MTEXTBEGIN
1070
    73
1070
     1
1070
    44
1040
1.0
1070
    74
1070
     0
1000
MTEXTEND
  0
POINT
  5
153F
330
14F1
100
AcDbEntity
  8
DEFPOINTS
  6
CONTINUOUS
 62
     0
100
AcDbPoint
 10
0.0
 20
-10.0
 30
0.0
  0
POINT
  5
1540
330
14F1
100
AcDbEntity
  8
DEFPOINTS
  6
CONTINUOUS
 62
     0
100
AcDbPoint
 10
0.0
 20
10.0
 30
0.0
  0
POINT
  5
1541
330
14F1
100
AcDbEntity
  8
DEFPOINTS
  6
CONTINUOUS
 62
     0
100
AcDbPoint
 10
12.00000000000002
 20
9.999999999999996
 30
0.0
  0
ENDBLK
  5
14FC
330
14F1
100
AcDbEntity
  8
0
100
AcDbBlockEnd
  0
BLOCK
  5
1507
330
14FD
100
AcDbEntity
  8
0
100
AcDbBlockBegin
  2
*D3
 70
     1
 10
0.0
 20
0.0
 30
0.0
  3
*D3
  1

  0
LINE
  5
1542
330
14FD
100
AcDbEntity
  8
250
  6
CONTINUOUS
100
AcDbLine
 10
-58.0
 20
-10.0
 30
0.0
 11
-58.0
 21
-43.0
 31
0.0
  0
LINE
  5
1543
330
14FD
100
AcDbEntity
  8
250
  6
CONTINUOUS
100
AcDbLine
 10
-0.0000000000000853
 20
-21.62720699999994
 30
0.0
 11
-0.0000000000000866
 21
-43.0
 31
0.0
  0
LINE
  5
1544
330
14FD
100
AcDbEntity
  8
250
  6
CONTINUOUS
100
AcDbLine
 10
-55.77
 20
-42.0
 30
0.0
 11
-2.230000000000086
 21
-42.0
 31
0.0
  0
INSERT
  5
1545
330
14FD
100
AcDbEntity
  8
250
  6
CONTINUOUS
100
AcDbBlockReference
  2
_OPEN
 10
-58.0
 20
-42.0
 30
0.0
 41
2.229999999999999
 42
2.229999999999999
 43
2.229999999999999
 50
180.0
  0
INSERT
  5
1546
330
14FD
100
AcDbEntity
  8
250
  6
CONTINUOUS
100
AcDbBlockReference
  2
_OPEN
 10
-0.0000000000000865
 20
-42.0
 30
0.0
 41
2.229999999999999
 42
2.229999999999999
 43
2.229999999999999
  0
MTEXT
  5
1547
330
14FD
100
AcDbEntity
  8
250
  6
CONTINUOUS
 62
    40
100
AcDbMText
 10
-29.00000000000004
 20
-39.5
 30
0.0
 40
3.0
 41
0.0
 71
     5
 72
     1
  1
\A1;48～65
1001
ACAD
1000
MTEXTBEGIN
1070
    73
1070
     1
1070
    44
1040
1.0
1070
    74
1070
     0
1000
MTEXTEND
  0
POINT
  5
1548
330
14FD
100
AcDbEntity
  8
DEFPOINTS
  6
CONTINUOUS
 62
     0
100
AcDbPoint
 10
-58.0
 20
-9.5
 30
0.0
  0
POINT
  5
1549
330
14FD
100
AcDbEntity
  8
DEFPOINTS
  6
CONTINUOUS
 62
     0
100
AcDbPoint
 10
-0.0000000000000853
 20
-21.12720699999994
 30
0.0
  0
POINT
  5
154A
330
14FD
100
AcDbEntity
  8
DEFPOINTS
  6
CONTINUOUS
 62
     0
100
AcDbPoint
 10
-0.0000000000000865
 20
-42.0
 30
0.0
  0
ENDBLK
  5
1508
330
14FD
100
AcDbEntity
  8
0
100
AcDbBlockEnd
  0
BLOCK
  5
18DA
330
18D0
100
AcDbEntity
  8
0
100
AcDbBlockBegin
  2
*D4
 70
     1
 10
0.0
 20
0.0
 30
0.0
  3
*D4
  1

  0
LINE
  5
18D1
330
18D0
100
AcDbEntity
  8
250
  6
CONTINUOUS
100
AcDbLine
 10
-121.5
 20
13.5
 30
0.0
 11
-121.5
 21
43.0
 31
0.0
  0
LINE
  5
18D2
330
18D0
100
AcDbEntity
  8
250
  6
CONTINUOUS
100
AcDbLine
 10
0.0
 20
21.62720800000005
 30
0.0
 11
0.0000000000000013
 21
43.0
 31
0.0
  0
LINE
  5
18D3
330
18D0
100
AcDbEntity
  8
250
  6
CONTINUOUS
100
AcDbLine
 10
-119.27
 20
42.0
 30
0.0
 11
-2.229999999999998
 21
42.0
 31
0.0
  0
INSERT
  5
18D4
330
18D0
100
AcDbEntity
  8
250
  6
CONTINUOUS
100
AcDbBlockReference
  2
_OPEN
 10
-121.5
 20
42.0
 30
0.0
 41
2.229999999999999
 42
2.229999999999999
 43
2.229999999999999
 50
180.0
  0
INSERT
  5
18D5
330
18D0
100
AcDbEntity
  8
250
  6
CONTINUOUS
100
AcDbBlockReference
  2
_OPEN
 10
0.0000000000000013
 20
42.0
 30
0.0
 41
2.229999999999999
 42
2.229999999999999
 43
2.229999999999999
  0
MTEXT
  5
18D6
330
18D0
100
AcDbEntity
  8
250
  6
CONTINUOUS
 62
    40
100
AcDbMText
 10
-60.75000000000001
 20
44.5
 30
0.0
 40
3.0
 41
0.0
 71
     5
 72
     1
  1
\A1;121.5
1001
ACAD
1000
MTEXTBEGIN
1070
    73
1070
     1
1070
    44
1040
1.0
1070
    74
1070
     0
1000
MTEXTEND
  0
POINT
  5
18D7
330
18D0
100
AcDbEntity
  8
DEFPOINTS
  6
CONTINUOUS
 62
     0
100
AcDbPoint
 10
-121.5
 20
13.0
 30
0.0
  0
POINT
  5
18D8
330
18D0
100
AcDbEntity
  8
DEFPOINTS
  6
CONTINUOUS
 62
     0
100
AcDbPoint
 10
0.0
 20
21.12720800000005
 30
0.0
  0
POINT
  5
18D9
330
18D0
100
AcDbEntity
  8
DEFPOINTS
  6
CONTINUOUS
 62
     0
100
AcDbPoint
 10
0.0000000000000013
 20
42.0
 30
0.0
  0
ENDBLK
  5
18DB
330
18D0
100
AcDbEntity
  8
0
100
AcDbBlockEnd
  0
BLOCK
  5
18EA
330
18E0
100
AcDbEntity
  8
0
100
AcDbBlockBegin
  2
*D5
 70
     1
 10
0.0
 20
0.0
 30
0.0
  3
*D5
  1

  0
LINE
  5
18E1
330
18E0
100
AcDbEntity
  8
250
  6
CONTINUOUS
100
AcDbLine
 10
-21.49999999999999
 20
17.5
 30
0.0
 11
-21.49999999999999
 21
36.0
 31
0.0
  0
LINE
  5
18E2
330
18E0
100
AcDbEntity
  8
250
  6
CONTINUOUS
100
AcDbLine
 10
0.0000000000000001
 20
22.12720800000005
 30
0.0
 11
0.0000000000000009
 21
36.0
 31
0.0
  0
LINE
  5
18E3
330
18E0
100
AcDbEntity
  8
250
  6
CONTINUOUS
100
AcDbLine
 10
-19.26999999999999
 20
35.0
 30
0.0
 11
-2.229999999999999
 21
35.0
 31
0.0
  0
INSERT
  5
18E4
330
18E0
100
AcDbEntity
  8
250
  6
CONTINUOUS
100
AcDbBlockReference
  2
_OPEN
 10
-21.49999999999999
 20
35.0
 30
0.0
 41
2.229999999999999
 42
2.229999999999999
 43
2.229999999999999
 50
180.0
  0
INSERT
  5
18E5
330
18E0
100
AcDbEntity
  8
250
  6
CONTINUOUS
100
AcDbBlockReference
  2
_OPEN
 10
0.0000000000000008
 20
35.0
 30
0.0
 41
2.229999999999999
 42
2.229999999999999
 43
2.229999999999999
  0
MTEXT
  5
18E6
330
18E0
100
AcDbEntity
  8
250
  6
CONTINUOUS
 62
    40
100
AcDbMText
 10
-10.74999999999999
 20
37.5
 30
0.0
 40
3.0
 41
0.0
 71
     5
 72
     1
  1
\A1;21.5
1001
ACAD
1000
MTEXTBEGIN
1070
    73
1070
     1
1070
    44
1040
1.0
1070
    74
1070
     0
1000
MTEXTEND
  0
POINT
  5
18E7
330
18E0
100
AcDbEntity
  8
DEFPOINTS
  6
CONTINUOUS
 62
     0
100
AcDbPoint
 10
-21.49999999999999
 20
17.0
 30
0.0
  0
POINT
  5
18E8
330
18E0
100
AcDbEntity
  8
DEFPOINTS
  6
CONTINUOUS
 62
     0
100
AcDbPoint
 10
0.0
 20
21.62720800000005
 30
0.0
  0
POINT
  5
18E9
330
18E0
100
AcDbEntity
  8
DEFPOINTS
  6
CONTINUOUS
 62
     0
100
AcDbPoint
 10
0.0000000000000008
 20
35.0
 30
0.0
  0
ENDBLK
  5
18EB
330
18E0
100
AcDbEntity
  8
0
100
AcDbBlockEnd
  0
BLOCK
  5
18F7
330
18ED
100
AcDbEntity
  8
0
100
AcDbBlockBegin
  2
*D6
 70
     1
 10
0.0
 20
0.0
 30
0.0
  3
*D6
  1

  0
LINE
  5
18EE
330
18ED
100
AcDbEntity
  8
250
  6
CONTINUOUS
100
AcDbLine
 10
-121.5
 20
13.5
 30
0.0
 11
-121.5
 21
36.0
 31
0.0
  0
LINE
  5
18EF
330
18ED
100
AcDbEntity
  8
250
  6
CONTINUOUS
100
AcDbLine
 10
-21.49999999999999
 20
17.5
 30
0.0
 11
-21.49999999999999
 21
36.0
 31
0.0
  0
LINE
  5
18F0
330
18ED
100
AcDbEntity
  8
250
  6
CONTINUOUS
100
AcDbLine
 10
-119.27
 20
35.0
 30
0.0
 11
-23.73
 21
35.0
 31
0.0
  0
INSERT
  5
18F1
330
18ED
100
AcDbEntity
  8
250
  6
CONTINUOUS
100
AcDbBlockReference
  2
_OPEN
 10
-121.5
 20
35.0
 30
0.0
 41
2.229999999999999
 42
2.229999999999999
 43
2.229999999999999
 50
180.0
  0
INSERT
  5
18F2
330
18ED
100
AcDbEntity
  8
250
  6
CONTINUOUS
100
AcDbBlockReference
  2
_OPEN
 10
-21.49999999999999
 20
35.0
 30
0.0
 41
2.229999999999999
 42
2.229999999999999
 43
2.229999999999999
  0
MTEXT
  5
18F3
330
18ED
100
AcDbEntity
  8
250
  6
CONTINUOUS
 62
    40
100
AcDbMText
 10
-71.5
 20
37.5
 30
0.0
 40
3.0
 41
0.0
 71
     5
 72
     1
  1
\A1;100
1001
ACAD
1000
MTEXTBEGIN
1070
    73
1070
     1
1070
    44
1040
1.0
1070
    74
1070
     0
1000
MTEXTEND
  0
POINT
  5
18F4
330
18ED
100
AcDbEntity
  8
DEFPOINTS
  6
CONTINUOUS
 62
     0
100
AcDbPoint
 10
-121.5
 20
13.0
 30
0.0
  0
POINT
  5
18F5
330
18ED
100
AcDbEntity
  8
DEFPOINTS
  6
CONTINUOUS
 62
     0
100
AcDbPoint
 10
-21.49999999999999
 20
17.0
 30
0.0
  0
POINT
  5
18F6
330
18ED
100
AcDbEntity
  8
DEFPOINTS
  6
CONTINUOUS
 62
     0
100
AcDbPoint
 10
-21.49999999999999
 20
35.0
 30
0.0
  0
ENDBLK
  5
18F8
330
18ED
100
AcDbEntity
  8
0
100
AcDbBlockEnd
  0
BLOCK
  5
1906
330
18FC
100
AcDbEntity
  8
0
100
AcDbBlockBegin
  2
*D7
 70
     1
 10
0.0
 20
0.0
 30
0.0
  3
*D7
  1

  0
LINE
  5
1908
330
18FC
100
AcDbEntity
  8
250
  6
CONTINUOUS
100
AcDbLine
 10
-107.5
 20
-16.0
 30
0.0
 11
-134.0
 21
-15.99999999999999
 31
0.0
  0
LINE
  5
1909
330
18FC
100
AcDbEntity
  8
250
  6
CONTINUOUS
100
AcDbLine
 10
-107.4999999999999
 20
16.0
 30
0.0
 11
-134.0
 21
16.0
 31
0.0
  0
LINE
  5
190A
330
18FC
100
AcDbEntity
  8
250
  6
CONTINUOUS
100
AcDbLine
 10
-133.0
 20
-13.76999999999999
 30
0.0
 11
-133.0
 21
13.77
 31
0.0
  0
INSERT
  5
190B
330
18FC
100
AcDbEntity
  8
250
  6
CONTINUOUS
100
AcDbBlockReference
  2
_OPEN
 10
-133.0
 20
-15.99999999999999
 30
0.0
 41
2.229999999999999
 42
2.229999999999999
 43
2.229999999999999
 50
270.0
  0
INSERT
  5
190C
330
18FC
100
AcDbEntity
  8
250
  6
CONTINUOUS
100
AcDbBlockReference
  2
_OPEN
 10
-133.0
 20
16.0
 30
0.0
 41
2.229999999999999
 42
2.229999999999999
 43
2.229999999999999
 50
90.0
  0
MTEXT
  5
190D
330
18FC
100
AcDbEntity
  8
250
  6
CONTINUOUS
 62
    40
100
AcDbMText
 10
-135.4999999999999
 20
-0.0000000000000146
 30
0.0
 40
3.0
 41
0.0
 71
     5
 72
     1
  1
\A1;{\H3;\U+2205}32
 11
0.0000000000000001
 21
1.0
 31
0.0
1001
ACAD
1000
MTEXTBEGIN
1070
    73
1070
     1
1070
    44
1040
1.0
1070
    74
1070
     0
1000
MTEXTEND
  0
POINT
  5
190E
330
18FC
100
AcDbEntity
  8
DEFPOINTS
  6
CONTINUOUS
 62
     0
100
AcDbPoint
 10
-107.0
 20
-16.0
 30
0.0
  0
POINT
  5
190F
330
18FC
100
AcDbEntity
  8
DEFPOINTS
  6
CONTINUOUS
 62
     0
100
AcDbPoint
 10
-106.9999999999999
 20
16.0
 30
0.0
  0
POINT
  5
1910
330
18FC
100
AcDbEntity
  8
DEFPOINTS
  6
CONTINUOUS
 62
     0
100
AcDbPoint
 10
-133.0
 20
16.0
 30
0.0
  0
ENDBLK
  5
1907
330
18FC
100
AcDbEntity
  8
0
100
AcDbBlockEnd
  0
BLOCK
  5
1BA5
330
1AD1
100
AcDbEntity
  8
0
100
AcDbBlockBegin
  2
A$C2F5A1774
 70
     0
 10
0.0
 20
0.0
 30
0.0
  3
A$C2F5A1774
  1

  0
LINE
  5
1AD2
330
1AD1
100
AcDbEntity
  8
240
100
AcDbLine
 10
-106.9999999999999
 20
16.0
 30
0.0
 11
-23.00000000000004
 21
16.0
 31
0.0
  0
LINE
  5
1AD3
330
1AD1
100
AcDbEntity
  8
240
100
AcDbLine
 10
-107.0
 20
-16.0
 30
0.0
 11
-23.00000000000004
 21
-16.0
 31
0.0
  0
LINE
  5
1AD4
330
1AD1
100
AcDbEntity
  8
245
100
AcDbLine
 10
4.119204999999965
 20
0.0
 30
0.0
 11
-123.8711774393534
 21
0.0
 31
0.0
  0
LINE
  5
1AD5
330
1AD1
100
AcDbEntity
  8
241
100
AcDbLine
 10
-36.50000000000003
 20
8.587782018658858
 30
0.0
 11
-121.5
 21
8.58778201865886
 31
0.0
  0
LINE
  5
1AD6
330
1AD1
100
AcDbEntity
  8
241
100
AcDbLine
 10
-36.50000000000003
 20
-8.587782018658856
 30
0.0
 11
-121.5
 21
-8.587782018658856
 31
0.0
  0
LINE
  5
1AD7
330
1AD1
100
AcDbEntity
  8
242
100
AcDbLine
 10
-36.50000000000003
 20
-8.587782018658854
 30
0.0
 11
-121.5
 21
8.58778201865886
 31
0.0
  0
LINE
  5
1AD8
330
1AD1
100
AcDbEntity
  8
242
100
AcDbLine
 10
-121.5
 20
-8.587782018658856
 30
0.0
 11
-36.50000000000003
 21
8.587782018658856
 31
0.0
  0
LINE
  5
1AD9
330
1AD1
100
AcDbEntity
  8
246
100
AcDbLine
 10
-58.0
 20
9.5
 30
0.0
 11
-65.19059900000013
 21
2.309401000000036
 31
0.0
  0
LINE
  5
1ADA
330
1AD1
100
AcDbEntity
  8
246
100
AcDbLine
 10
-58.0
 20
-9.799999999999954
 30
0.0
 11
-58.0
 21
9.800000000000011
 31
0.0
  0
LINE
  5
1ADB
330
1AD1
100
AcDbEntity
  8
246
100
AcDbLine
 10
-78.0
 20
8.75
 30
0.0
 11
-78.0
 21
-8.75
 31
0.0
  0
LINE
  5
1ADC
330
1AD1
100
AcDbEntity
  8
240
100
AcDbLine
 10
-121.5
 20
-13.0
 30
0.0
 11
-121.5
 21
13.0
 31
0.0
  0
LINE
  5
1ADD
330
1AD1
100
AcDbEntity
  8
240
100
AcDbLine
 10
-107.0
 20
-16.0
 30
0.0
 11
-109.4999999999999
 21
-13.5
 31
0.0
  0
LINE
  5
1ADE
330
1AD1
100
AcDbEntity
  8
240
100
AcDbLine
 10
-121.0
 20
-13.5
 30
0.0
 11
-109.4999999999999
 21
-13.5
 31
0.0
  0
LINE
  5
1ADF
330
1AD1
100
AcDbEntity
  8
240
100
AcDbLine
 10
-121.5
 20
-13.0
 30
0.0
 11
-121.0
 21
-13.5
 31
0.0
  0
LINE
  5
1AE0
330
1AD1
100
AcDbEntity
  8
246
100
AcDbLine
 10
-70.0
 20
3.0
 30
0.0
 11
-78.0
 21
3.0
 31
0.0
  0
LINE
  5
1AE1
330
1AD1
100
AcDbEntity
  8
246
100
AcDbLine
 10
-70.0
 20
-3.0
 30
0.0
 11
-78.0
 21
-3.0
 31
0.0
  0
LINE
  5
1AE2
330
1AD1
100
AcDbEntity
  8
246
100
AcDbLine
 10
-73.0
 20
-9.75
 30
0.0
 11
-72.25
 21
-10.5
 31
0.0
  0
LINE
  5
1AE3
330
1AD1
100
AcDbEntity
  8
246
100
AcDbLine
 10
-72.60000000000002
 20
-10.14999999999997
 30
0.0
 11
-58.35000000000002
 21
-10.14999999999997
 31
0.0
  0
LINE
  5
1AE4
330
1AD1
100
AcDbEntity
  8
246
100
AcDbLine
 10
-77.0
 20
-9.75
 30
0.0
 11
-73.0
 21
-9.75
 31
0.0
  0
ARC
  5
1AE5
330
1AD1
100
AcDbEntity
  8
246
100
AcDbCircle
 10
-77.0
 20
-8.75
 30
0.0
 40
1.0
100
AcDbArc
 50
180.0
 51
270.0
  0
LINE
  5
1AE6
330
1AD1
100
AcDbEntity
  8
246
100
AcDbLine
 10
-58.0
 20
-9.5
 30
0.0
 11
-65.19059900000013
 21
-2.309400999999979
 31
0.0
  0
LINE
  5
1AE7
330
1AD1
100
AcDbEntity
  8
246
100
AcDbLine
 10
-72.25
 20
-10.5
 30
0.0
 11
-58.70000000000004
 21
-10.5
 31
0.0
  0
LINE
  5
1AE8
330
1AD1
100
AcDbEntity
  8
246
100
AcDbLine
 10
-58.70000000000004
 20
-10.5
 30
0.0
 11
-58.0
 21
-9.799999999999954
 31
0.0
  0
LINE
  5
1AE9
330
1AD1
100
AcDbEntity
  8
246
100
AcDbLine
 10
-65.19059900000013
 20
-2.309400999999979
 30
0.0
 11
-65.19059900000013
 21
2.309401000000036
 31
0.0
  0
LINE
  5
1AEA
330
1AD1
100
AcDbEntity
  8
246
100
AcDbLine
 10
-69.60128300000008
 20
-2.309400999999979
 30
0.0
 11
-69.60128300000008
 21
2.309401000000036
 31
0.0
  0
LINE
  5
1AEB
330
1AD1
100
AcDbEntity
  8
246
100
AcDbLine
 10
-65.19059900000013
 20
-1.154699999999991
 30
0.0
 11
-69.60128300000008
 21
-1.154699999999991
 31
0.0
  0
LINE
  5
1AEC
330
1AD1
100
AcDbEntity
  8
246
100
AcDbLine
 10
-65.19059900000013
 20
-2.309400999999979
 30
0.0
 11
-69.60128300000008
 21
-2.309400999999979
 31
0.0
  0
LINE
  5
1AED
330
1AD1
100
AcDbEntity
  8
246
100
AcDbLine
 10
-70.0
 20
-3.0
 30
0.0
 11
-69.60128300000008
 21
-2.309400999999979
 31
0.0
  0
LINE
  5
1AEE
330
1AD1
100
AcDbEntity
  8
246
100
AcDbLine
 10
-70.0
 20
-1.71239300000002
 30
0.0
 11
-70.0
 21
-3.0
 31
0.0
  0
LINE
  5
1AEF
330
1AD1
100
AcDbEntity
  8
246
100
AcDbLine
 10
-65.19059900000013
 20
1.154701000000045
 30
0.0
 11
-69.60128300000008
 21
1.154701000000045
 31
0.0
  0
LINE
  5
1AF0
330
1AD1
100
AcDbEntity
  8
246
100
AcDbLine
 10
-65.19059900000013
 20
2.309401000000036
 30
0.0
 11
-69.60128300000008
 21
2.309401000000036
 31
0.0
  0
LINE
  5
1AF1
330
1AD1
100
AcDbEntity
  8
246
100
AcDbLine
 10
-70.0
 20
3.0
 30
0.0
 11
-69.60128300000008
 21
2.309401000000036
 31
0.0
  0
LINE
  5
1AF2
330
1AD1
100
AcDbEntity
  8
246
100
AcDbLine
 10
-70.0
 20
1.712394000000017
 30
0.0
 11
-70.0
 21
3.0
 31
0.0
  0
LINE
  5
1AF3
330
1AD1
100
AcDbEntity
  8
240
100
AcDbLine
 10
-106.9999999999999
 20
16.0
 30
0.0
 11
-109.4999999999999
 21
13.5
 31
0.0
  0
LINE
  5
1AF4
330
1AD1
100
AcDbEntity
  8
240
100
AcDbLine
 10
-121.0
 20
13.5
 30
0.0
 11
-109.4999999999999
 21
13.5
 31
0.0
  0
LINE
  5
1AF5
330
1AD1
100
AcDbEntity
  8
240
100
AcDbLine
 10
-121.0
 20
13.5
 30
0.0
 11
-121.5
 21
13.0
 31
0.0
  0
LINE
  5
1AF6
330
1AD1
100
AcDbEntity
  8
246
100
AcDbLine
 10
-73.0
 20
9.75
 30
0.0
 11
-72.25
 21
10.5
 31
0.0
  0
LINE
  5
1AF7
330
1AD1
100
AcDbEntity
  8
246
100
AcDbLine
 10
-72.60000000000002
 20
10.15000000000003
 30
0.0
 11
-58.35000000000002
 21
10.15000000000003
 31
0.0
  0
ARC
  5
1AF8
330
1AD1
100
AcDbEntity
  8
246
100
AcDbCircle
 10
-77.0
 20
8.75
 30
0.0
 40
1.0
100
AcDbArc
 50
90.0
 51
180.0
  0
LINE
  5
1AF9
330
1AD1
100
AcDbEntity
  8
246
100
AcDbLine
 10
-77.0
 20
9.75
 30
0.0
 11
-73.0
 21
9.75
 31
0.0
  0
LINE
  5
1AFA
330
1AD1
100
AcDbEntity
  8
246
100
AcDbLine
 10
-72.25
 20
10.5
 30
0.0
 11
-58.70000000000004
 21
10.5
 31
0.0
  0
LINE
  5
1AFB
330
1AD1
100
AcDbEntity
  8
246
100
AcDbLine
 10
-58.0
 20
9.800000000000011
 30
0.0
 11
-58.70000000000004
 21
10.5
 31
0.0
  0
LINE
  5
1AFC
330
1AD1
100
AcDbEntity
  8
246
100
AcDbLine
 10
-38.00000000000006
 20
-10.84462199999995
 30
0.0
 11
-38.00000000000014
 21
10.84462299999995
 31
0.0
  0
LINE
  5
1AFD
330
1AD1
100
AcDbEntity
  8
241
100
AcDbLine
 10
-1.914213999999901
 20
22.21381300000001
 30
0.0
 11
-1.914213999999901
 21
-22.34626299999996
 31
0.0
  0
LINE
  5
1AFE
330
1AD1
100
AcDbEntity
  8
241
100
AcDbLine
 10
-16.0
 20
18.0
 30
0.0
 11
-16.0
 21
-18.0
 31
0.0
  0
LINE
  5
1AFF
330
1AD1
100
AcDbEntity
  8
241
100
AcDbLine
 10
-15.5
 20
0.0
 30
0.0
 11
-15.5
 21
20.0
 31
0.0
  0
LINE
  5
1B00
330
1AD1
100
AcDbEntity
  8
241
100
AcDbLine
 10
-18.5
 20
17.5
 30
0.0
 11
-18.5
 21
0.0
 31
0.0
  0
LINE
  5
1B01
330
1AD1
100
AcDbEntity
  8
240
100
AcDbLine
 10
0.0
 20
0.0
 30
0.0
 11
0.0
 21
21.12720800000005
 31
0.0
  0
LINE
  5
1B02
330
1AD1
100
AcDbEntity
  8
241
100
AcDbLine
 10
-22.79999999999999
 20
-15.79999999999995
 30
0.0
 11
-22.79999999999999
 21
15.80000000000001
 31
0.0
  0
LINE
  5
1B03
330
1AD1
100
AcDbEntity
  8
241
100
AcDbLine
 10
-21.49999999999999
 20
-15.79999999999995
 30
0.0
 11
-21.49999999999999
 21
15.80000000000001
 31
0.0
  0
ARC
  5
1B04
330
1AD1
100
AcDbEntity
  8
241
100
AcDbCircle
 10
-50.0000000000001
 20
0.0000000000000018
 30
0.0
 40
16.00000000000007
100
AcDbArc
 50
327.5382374326638
 51
32.46174496724229
  0
LINE
  5
1B05
330
1AD1
100
AcDbEntity
  8
241
100
AcDbLine
 10
-36.50000000000003
 20
-8.587782018658856
 30
0.0
 11
-36.50000000000003
 21
8.587782018658858
 31
0.0
  0
LINE
  5
1B06
330
1AD1
100
AcDbEntity
  8
240
100
AcDbLine
 10
-22.79999999999999
 20
-15.79999999999995
 30
0.0
 11
-21.49999999999999
 21
-15.79999999999995
 31
0.0
  0
LINE
  5
1B07
330
1AD1
100
AcDbEntity
  8
246
100
AcDbLine
 10
-5.600000000000022
 20
-14.25
 30
0.0
 11
-38.0
 21
-10.84462199999995
 31
0.0
  0
LINE
  5
1B08
330
1AD1
100
AcDbEntity
  8
246
100
AcDbLine
 10
0.0
 20
-10.0
 30
0.0
 11
-38.0
 21
-10.0
 31
0.0
  0
LINE
  5
1B09
330
1AD1
100
AcDbEntity
  8
240
100
AcDbLine
 10
-23.00000000000004
 20
-16.0
 30
0.0
 11
-22.79999999999999
 21
-15.79999999999995
 31
0.0
  0
TEXT
  5
1B0A
330
1AD1
100
AcDbEntity
  8
247
100
AcDbText
 10
-47.51188847815466
 20
-14.43734376632893
 30
0.0
 40
1.5
  1
SL32-NBS20-100
  7
YOKO
 11
-47.51188847815466
 21
-14.43734376632893
 31
0.0
100
AcDbText
 73
     1
  0
HATCH
  5
1B0B
330
1AD1
100
AcDbEntity
  8
247
100
AcDbHatch
 10
0.0
 20
0.0
 30
0.0
210
0.0
220
0.0
230
1.0
  2
ANSI31
 70
     0
 71
     1
 91
        1
 92
       33
 93
       10
 72
     1
 10
-52.23648429118373
 20
-12.62473551626647
 11
-52.28863501750209
 21
-12.80661417837584
 72
     1
 10
-52.61208625041225
 20
-12.62473551626647
 11
-52.23648429118373
 21
-12.62473551626647
 72
     1
 10
-52.61208625041225
 20
-12.80661417837584
 11
-52.28863501750209
 21
-12.80661417837584
 72
     2
 10
-52.61208625041227
 20
-13.57959162588561
 40
0.7729774475097657
 50
90.0
 51
270.0
 73
     1
 72
     2
 10
-52.61208625041227
 20
-13.57959162588561
 40
0.9548561096191406
 50
90.0
 51
270.0
 73
     1
 72
     1
 10
-52.61208625041225
 20
-14.53444794540062
 11
-48.9199727555392
 21
-14.53444794540062
 72
     1
 10
-52.61208625041225
 20
-14.35256928797209
 11
-48.9199727555392
 21
-14.35256928797209
 72
     2
 10
-48.91997275553922
 20
-13.57959162588561
 40
0.9548561096191406
 50
270.0
 51
464.7707939660941
 73
     1
 72
     2
 10
-48.91997275553922
 20
-13.57959162588561
 40
0.7729774475097657
 50
270.0
 51
464.1274364964119
 73
     1
 72
     1
 10
-49.10864234172084
 20
-12.82998759146178
 11
-49.16341605387906
 21
-12.65628687735045
 97
       10
330
1B20
330
1B26
330
1B27
330
1B2D
330
1B17
330
1B0C
330
1B0D
330
1B48
330
1B4B
330
1B2F
 75
     0
 76
     1
 52
360.0
 41
0.045
 77
     0
 78
     1
 53
44.99999999999996
 43
-107.4769363518832
 44
-21.62194344397029
 45
-0.101027881362028
 46
0.101027881362028
 79
     0
 98
        1
 10
-107.4769363518832
 20
-21.62194344397029
  0
LINE
  5
1B0C
102
{ACAD_REACTORS
330
1B0B
102
}
330
1AD1
100
AcDbEntity
  8
247
100
AcDbLine
 10
-52.61208625041225
 20
-14.53444794540062
 30
0.0
 11
-48.9199727555392
 21
-14.53444794540062
 31
0.0
  0
LINE
  5
1B0D
102
{ACAD_REACTORS
330
1B0B
102
}
330
1AD1
100
AcDbEntity
  8
247
100
AcDbLine
 10
-52.61208625041225
 20
-14.35256928797209
 30
0.0
 11
-48.9199727555392
 21
-14.35256928797209
 31
0.0
  0
LINE
  5
1B0E
330
1AD1
100
AcDbEntity
  8
247
100
AcDbLine
 10
-52.027351336505
 20
-14.26162995691741
 30
0.0
 11
-51.35999717259036
 21
-13.5942757930028
 31
0.0
  0
LINE
  5
1B0F
330
1AD1
100
AcDbEntity
  8
247
100
AcDbLine
 10
-51.58914927654954
 20
-14.22753942241012
 30
0.0
 11
-51.34128918020614
 21
-13.9796793260667
 31
0.0
  0
ARC
  5
1B10
330
1AD1
100
AcDbEntity
  8
247
100
AcDbCircle
 10
-51.76188864909391
 20
-13.80693995352233
 30
0.0
 40
0.4546897888183594
100
AcDbArc
 50
270.0
 51
40.32984065416714
  0
LINE
  5
1B11
330
1AD1
100
AcDbEntity
  8
247
100
AcDbLine
 10
-51.82529557378091
 20
-14.26162995691744
 30
0.0
 11
-51.31110834336554
 21
-13.74744272650203
 31
0.0
  0
LINE
  5
1B12
330
1AD1
100
AcDbEntity
  8
247
100
AcDbLine
 10
-51.69827318069496
 20
-13.73049603838336
 30
0.0
 11
-51.10188537513611
 21
-13.13410823282451
 31
0.0
  0
LINE
  5
1B13
330
1AD1
100
AcDbEntity
  8
247
100
AcDbLine
 10
-51.76880489058604
 20
-13.5989719855504
 30
0.0
 11
-51.11795596602622
 21
-12.94812306099057
 31
0.0
  0
ARC
  5
1B14
330
1AD1
100
AcDbEntity
  8
247
100
AcDbCircle
 10
-51.5532788773654
 20
-13.07942530508483
 30
0.0
 40
0.4546936511993409
100
AcDbArc
 50
287.6695775473979
 51
90.23615984267163
  0
LINE
  5
1B15
330
1AD1
100
AcDbEntity
  8
247
100
AcDbLine
 10
-51.51251536194032
 20
-12.93857093145654
 30
0.0
 11
-51.2857261118145
 21
-12.71178168133073
 31
0.0
  0
LINE
  5
1B16
330
1AD1
100
AcDbEntity
  8
247
100
AcDbLine
 10
-51.48920368135502
 20
-13.11731501359528
 30
0.0
 11
-51.18484729881542
 21
-12.81295863105569
 31
0.0
  0
ARC
  5
1B17
102
{ACAD_REACTORS
330
1B0B
102
}
330
1AD1
100
AcDbEntity
  8
247
100
AcDbCircle
 10
-52.61208625041227
 20
-13.57959162588561
 30
0.0
 40
0.9548561096191406
100
AcDbArc
 50
90.0
 51
270.0
  0
ARC
  5
1B18
330
1AD1
100
AcDbEntity
  8
247
100
AcDbCircle
 10
-51.75618949137906
 20
-13.06124293203795
 30
0.0
 40
0.2728103756904602
100
AcDbArc
 50
261.6626016879294
 51
66.33815509518976
  0
LINE
  5
1B19
330
1AD1
100
AcDbEntity
  8
247
100
AcDbLine
 10
-51.60811533362926
 20
-12.83211514042148
 30
0.0
 11
-51.42053884584866
 21
-12.64453865264088
 31
0.0
  0
LINE
  5
1B1A
330
1AD1
100
AcDbEntity
  8
247
100
AcDbLine
 10
-51.64669961603821
 20
-12.81136802677093
 30
0.0
 11
-51.79574713494719
 21
-13.33117013318617
 31
0.0
  0
LINE
  5
1B1B
330
1AD1
100
AcDbEntity
  8
247
100
AcDbLine
 10
-52.19403586589097
 20
-12.80661417837584
 30
0.0
 11
-52.09942984782456
 21
-12.80661417837639
 31
0.0
  0
LINE
  5
1B1C
330
1AD1
100
AcDbEntity
  8
247
100
AcDbLine
 10
-52.1418851395723
 20
-12.62473551626647
 30
0.0
 11
-52.19403586589097
 21
-12.80661417837584
 31
0.0
  0
LINE
  5
1B1D
330
1AD1
100
AcDbEntity
  8
247
100
AcDbLine
 10
-52.14473960065047
 20
-12.96462788199452
 30
0.0
 11
-51.80484723492245
 21
-12.62473551626654
 31
0.0
  0
LINE
  5
1B1E
330
1AD1
100
AcDbEntity
  8
247
100
AcDbLine
 10
-52.22597097365665
 20
-13.24791501772478
 30
0.0
 11
-51.60279147219839
 21
-12.62473551626654
 31
0.0
  0
LINE
  5
1B1F
330
1AD1
100
AcDbEntity
  8
247
100
AcDbLine
 10
-52.18878165975587
 20
-12.80661417837588
 30
0.0
 11
-52.0069029976465
 21
-12.6247355162665
 31
0.0
  0
LINE
  5
1B20
102
{ACAD_REACTORS
330
1B0B
102
}
330
1AD1
100
AcDbEntity
  8
247
100
AcDbLine
 10
-52.23648429118373
 20
-12.62473551626647
 30
0.0
 11
-52.28863501750209
 21
-12.80661417837584
 31
0.0
  0
LINE
  5
1B21
330
1AD1
100
AcDbEntity
  8
247
100
AcDbLine
 10
-52.1418851395723
 20
-12.62473551626647
 30
0.0
 11
-51.55515301326157
 21
-12.62473551626654
 31
0.0
  0
ARC
  5
1B22
330
1AD1
100
AcDbEntity
  8
247
100
AcDbCircle
 10
-51.96479926310758
 20
-13.78875071402037
 30
0.0
 40
0.2728181809186935
100
AcDbArc
 50
261.6628542111488
 51
66.33819215911005
  0
LINE
  5
1B23
330
1AD1
100
AcDbEntity
  8
247
100
AcDbLine
 10
-51.85530721701161
 20
-13.5388682382813
 30
0.0
 11
-52.00435718794064
 21
-14.05868576254631
 31
0.0
  0
LINE
  5
1B24
330
1AD1
100
AcDbEntity
  8
247
100
AcDbLine
 10
-52.22940709922904
 20
-14.26162995691741
 30
0.0
 11
-51.99547060540605
 21
-14.02769346309444
 31
0.0
  0
LINE
  5
1B25
330
1AD1
100
AcDbEntity
  8
247
100
AcDbLine
 10
-52.30720234666286
 20
-13.531202153455
 30
0.0
 11
-51.67055150533119
 21
-12.89455131212335
 31
0.0
  0
LINE
  5
1B26
102
{ACAD_REACTORS
330
1B0B
102
}
330
1AD1
100
AcDbEntity
  8
247
100
AcDbLine
 10
-52.61208625041225
 20
-12.62473551626647
 30
0.0
 11
-52.23648429118373
 21
-12.62473551626647
 31
0.0
  0
LINE
  5
1B27
102
{ACAD_REACTORS
330
1B0B
102
}
330
1AD1
100
AcDbEntity
  8
247
100
AcDbLine
 10
-52.61208625041225
 20
-12.80661417837584
 30
0.0
 11
-52.28863501750209
 21
-12.80661417837584
 31
0.0
  0
LINE
  5
1B28
330
1AD1
100
AcDbEntity
  8
247
100
AcDbLine
 10
-52.43146286195308
 20
-14.26162995691741
 30
0.0
 11
-51.91424341794292
 21
-13.74441051290723
 31
0.0
  0
LINE
  5
1B29
330
1AD1
100
AcDbEntity
  8
247
100
AcDbLine
 10
-52.5166493912814
 20
-14.26162995691741
 30
0.0
 11
-51.7618886490939
 21
-14.26162995691741
 31
0.0
  0
LINE
  5
1B2A
330
1AD1
100
AcDbEntity
  8
247
100
AcDbLine
 10
-52.5166493912814
 20
-14.26162995691741
 30
0.0
 11
-52.09942984782456
 21
-12.80661417837639
 31
0.0
  0
LINE
  5
1B2B
330
1AD1
100
AcDbEntity
  8
247
100
AcDbLine
 10
-52.46966509267521
 20
-14.09777642491551
 30
0.0
 11
-51.70011740982175
 21
-13.32822874206203
 31
0.0
  0
LINE
  5
1B2C
330
1AD1
100
AcDbEntity
  8
247
100
AcDbLine
 10
-52.38843371966903
 20
-13.81448928918526
 30
0.0
 11
-51.75178019711311
 21
-13.17783576662937
 31
0.0
  0
ARC
  5
1B2D
102
{ACAD_REACTORS
330
1B0B
102
}
330
1AD1
100
AcDbEntity
  8
247
100
AcDbCircle
 10
-52.61208625041227
 20
-13.57959162588561
 30
0.0
 40
0.7729774475097657
100
AcDbArc
 50
90.0
 51
270.0
  0
HATCH
  5
1B2E
330
1AD1
100
AcDbEntity
  8
247
100
AcDbHatch
 10
0.0
 20
0.0
 30
0.0
210
0.0
220
0.0
230
1.0
  2
ANSI31
 70
     0
 71
     1
 91
        1
 92
       33
 93
       15
 72
     1
 10
-49.19537253581264
 20
-12.85733668203795
 11
-49.25014624797084
 21
-12.68363596792662
 72
     2
 10
-48.91997275553922
 20
-13.57959162588561
 40
0.7729795932769776
 50
110.8721834020771
 51
132.5419489373868
 73
     1
 72
     2
 10
-49.6334935685275
 20
-13.01577326651061
 40
0.1909725040197372
 50
1.710121382062765
 51
163.9983983544484
 73
     1
 72
     1
 10
-50.06218695842006
 20
-13.81795374746764
 11
-49.81706824504116
 21
-12.96312815542662
 72
     2
 10
-49.87861228190641
 20
-13.87059199209655
 40
0.1909723699092865
 50
164.0002730571837
 51
344.0002730571838
 73
     1
 72
     1
 10
-49.69503760539272
 20
-13.92323023672545
 11
-49.57824607096889
 21
-13.51593272085631
 72
     1
 10
-49.72961020671108
 20
-13.51593272085631
 11
-49.57824607096889
 21
-13.51593272085631
 72
     1
 10
-49.72961020671108
 20
-13.51593272085631
 11
-49.67745948039272
 21
-13.33405405874694
 72
     1
 10
-49.67745948039272
 20
-13.33405405874694
 11
-49.14767813883998
 21
-13.33405405874694
 72
     1
 10
-49.41365714274624
 20
-14.26162995691741
 11
-49.14767813883998
 21
-13.33405405874694
 72
     1
 10
-49.52034812175014
 20
-14.15494584436858
 11
-49.41365714274624
 21
-14.26162995691741
 72
     2
 10
-49.85908408366422
 20
-13.6705309569403
 40
0.5911056518554688
 50
163.9997507017292
 51
304.9638732916317
 73
     1
 72
     2
 10
-48.89265799723844
 20
-13.70160853262389
 40
1.546847534179687
 50
155.2051773698403
 51
172.794825962052
 73
     1
 72
     2
 10
-49.72870383464079
 20
-13.21583430166686
 40
0.5910996437072754
 50
53.44401219705754
 51
164.0001843876853
 73
     1
 72
     2
 10
-48.91997275553922
 20
-13.57959162588561
 40
0.954856538772583
 50
110.22964506332
 51
118.5716889237176
 73
     1
 97
       15
330
1B6F
330
1B6E
330
1B66
330
1B6B
330
1B69
330
1B67
330
1B68
330
1B6C
330
1B49
330
1B4A
330
1B6A
330
1B4C
330
1B65
330
1B4D
330
1B6D
 75
     0
 76
     1
 52
360.0
 41
0.045
 77
     0
 78
     1
 53
44.99999999999996
 43
-107.4769363518832
 44
-21.62194344397029
 45
-0.101027881362028
 46
0.101027881362028
 79
     0
 98
        1
 10
-107.4769363518832
 20
-21.62194344397029
  0
LINE
  5
1B2F
102
{ACAD_REACTORS
330
1B0B
102
}
330
1AD1
100
AcDbEntity
  8
247
100
AcDbLine
 10
-49.10864234172084
 20
-12.82998759146178
 30
0.0
 11
-49.16341605387906
 21
-12.65628687735045
 31
0.0
  0
POLYLINE
  5
1B30
330
1AD1
100
AcDbEntity
  8
247
100
AcDb2dPolyline
 66
     1
 10
0.0
 20
0.0
 30
0.0
 70
     1
  0
VERTEX
  5
1B31
330
1B30
100
AcDbEntity
  8
247
100
AcDbVertex
100
AcDb2dVertex
 10
-49.10864234172086
 20
-12.82998759146178
 30
0.0
  0
VERTEX
  5
1B32
330
1B30
100
AcDbEntity
  8
247
100
AcDbVertex
100
AcDb2dVertex
 10
-49.16341605387906
 20
-12.65628687735045
 30
0.0
  0
VERTEX
  5
1B33
330
1B30
100
AcDbEntity
  8
247
100
AcDbVertex
100
AcDb2dVertex
 10
-49.16341605387906
 20
-12.65628687735045
 30
0.0
  0
VERTEX
  5
1B34
330
1B30
100
AcDbEntity
  8
247
100
AcDbVertex
100
AcDb2dVertex
 10
-49.10864234172086
 20
-12.82998759146178
 30
0.0
  0
SEQEND
  5
1B35
330
1B30
100
AcDbEntity
  8
247
  0
POLYLINE
  5
1B36
330
1AD1
100
AcDbEntity
  8
247
100
AcDb2dPolyline
 66
     1
 10
0.0
 20
0.0
 30
0.0
 70
     1
1001
HATCH_DISTANCE
1040
1.0
1001
HATCH_DISPLAY
1070
     0
1001
HATCH_TYPE
1070
     7
  0
VERTEX
  5
1B37
330
1B36
100
AcDbEntity
  8
247
100
AcDbVertex
100
AcDb2dVertex
 10
-49.10864234172086
 20
-12.82998759146178
 30
0.0
  0
VERTEX
  5
1B38
330
1B36
100
AcDbEntity
  8
247
100
AcDbVertex
100
AcDb2dVertex
 10
-49.16341605387906
 20
-12.65628687735045
 30
0.0
  0
VERTEX
  5
1B39
330
1B36
100
AcDbEntity
  8
247
100
AcDbVertex
100
AcDb2dVertex
 10
-49.16341605387906
 20
-12.65628687735045
 30
0.0
  0
VERTEX
  5
1B3A
330
1B36
100
AcDbEntity
  8
247
100
AcDbVertex
100
AcDb2dVertex
 10
-49.10864234172086
 20
-12.82998759146178
 30
0.0
  0
SEQEND
  5
1B3B
330
1B36
100
AcDbEntity
  8
247
  0
POLYLINE
  5
1B3C
330
1AD1
100
AcDbEntity
  8
247
100
AcDb2dPolyline
 66
     1
 10
0.0
 20
0.0
 30
0.0
 70
     1
  0
VERTEX
  5
1B3D
330
1B3C
100
AcDbEntity
  8
247
100
AcDbVertex
100
AcDb2dVertex
 10
-49.10864234172086
 20
-12.82998759146178
 30
0.0
  0
VERTEX
  5
1B3E
330
1B3C
100
AcDbEntity
  8
247
100
AcDbVertex
100
AcDb2dVertex
 10
-49.16341605387906
 20
-12.65628687735045
 30
0.0
  0
VERTEX
  5
1B3F
330
1B3C
100
AcDbEntity
  8
247
100
AcDbVertex
100
AcDb2dVertex
 10
-49.16341605387906
 20
-12.65628687735045
 30
0.0
  0
VERTEX
  5
1B40
330
1B3C
100
AcDbEntity
  8
247
100
AcDbVertex
100
AcDb2dVertex
 10
-49.10864234172086
 20
-12.82998759146178
 30
0.0
  0
SEQEND
  5
1B41
330
1B3C
100
AcDbEntity
  8
247
  0
POLYLINE
  5
1B42
330
1AD1
100
AcDbEntity
  8
247
100
AcDb2dPolyline
 66
     1
 10
0.0
 20
0.0
 30
0.0
 70
     1
1001
HATCH_DISTANCE
1040
1.0
1001
HATCH_DISPLAY
1070
     0
1001
HATCH_TYPE
1070
     7
  0
VERTEX
  5
1B43
330
1B42
100
AcDbEntity
  8
247
100
AcDbVertex
100
AcDb2dVertex
 10
-49.10864234172086
 20
-12.82998759146178
 30
0.0
  0
VERTEX
  5
1B44
330
1B42
100
AcDbEntity
  8
247
100
AcDbVertex
100
AcDb2dVertex
 10
-49.16341605387906
 20
-12.65628687735045
 30
0.0
  0
VERTEX
  5
1B45
330
1B42
100
AcDbEntity
  8
247
100
AcDbVertex
100
AcDb2dVertex
 10
-49.16341605387906
 20
-12.65628687735045
 30
0.0
  0
VERTEX
  5
1B46
330
1B42
100
AcDbEntity
  8
247
100
AcDbVertex
100
AcDb2dVertex
 10
-49.10864234172086
 20
-12.82998759146178
 30
0.0
  0
SEQEND
  5
1B47
330
1B42
100
AcDbEntity
  8
247
  0
ARC
  5
1B48
102
{ACAD_REACTORS
330
1B0B
102
}
330
1AD1
100
AcDbEntity
  8
247
100
AcDbCircle
 10
-48.91997275553922
 20
-13.57959162588561
 30
0.0
 40
0.9548561096191406
100
AcDbArc
 50
270.0
 51
104.7707939660941
  0
LINE
  5
1B49
102
{ACAD_REACTORS
330
1B2E
102
}
330
1AD1
100
AcDbEntity
  8
247
100
AcDbLine
 10
-49.67745948039272
 20
-13.33405405874694
 30
0.0
 11
-49.14767813883998
 21
-13.33405405874694
 31
0.0
  0
LINE
  5
1B4A
102
{ACAD_REACTORS
330
1B2E
102
}
330
1AD1
100
AcDbEntity
  8
247
100
AcDbLine
 10
-49.41365714274624
 20
-14.26162995691741
 30
0.0
 11
-49.14767813883998
 21
-13.33405405874694
 31
0.0
  0
ARC
  5
1B4B
102
{ACAD_REACTORS
330
1B0B
102
}
330
1AD1
100
AcDbEntity
  8
247
100
AcDbCircle
 10
-48.91997275553922
 20
-13.57959162588561
 30
0.0
 40
0.7729774475097657
100
AcDbArc
 50
270.0
 51
104.1274364964119
  0
ARC
  5
1B4C
102
{ACAD_REACTORS
330
1B2E
102
}
330
1AD1
100
AcDbEntity
  8
247
100
AcDbCircle
 10
-49.85908408366422
 20
-13.6705309569403
 30
0.0
 40
0.5911056518554688
100
AcDbArc
 50
163.9997507017292
 51
304.9638732916317
  0
ARC
  5
1B4D
102
{ACAD_REACTORS
330
1B2E
102
}
330
1AD1
100
AcDbEntity
  8
247
100
AcDbCircle
 10
-49.72870383464079
 20
-13.21583430166686
 30
0.0
 40
0.5910996437072754
100
AcDbArc
 50
53.44401219705754
 51
164.0001843876853
  0
LINE
  5
1B4E
330
1AD1
100
AcDbEntity
  8
247
100
AcDbLine
 10
-50.80797324382045
 20
-12.62473551626647
 30
0.0
 11
-50.33495688639858
 21
-12.62473551626647
 31
0.0
  0
HATCH
  5
1B4F
330
1AD1
100
AcDbEntity
  8
247
100
AcDbHatch
 10
0.0
 20
0.0
 30
0.0
210
0.0
220
0.0
230
1.0
  2
ANSI31
 70
     0
 71
     0
 91
        1
 92
        7
 72
     0
 73
     1
 93
        6
 10
-50.33495688639858
 20
-12.62473551626646
 10
-50.80797324382045
 20
-12.62473551626646
 10
-50.86534247599818
 20
-12.82479655142271
 10
-50.79911551676967
 20
-12.82479655142271
 10
-51.21112342082241
 20
-14.26162995691741
 10
-50.80432715617398
 20
-14.26162995691741
 97
        0
 75
     0
 76
     1
 52
360.0
 41
0.045
 77
     0
 78
     1
 53
44.99999999999996
 43
-107.4769363518832
 44
-21.62194344397029
 45
-0.101027881362028
 46
0.101027881362028
 79
     0
 47
0.0134348504236232
 98
        1
 10
-50.76019890562104
 20
-13.40032149026572
  0
POLYLINE
  5
1B50
330
1AD1
100
AcDbEntity
  8
247
100
AcDb2dPolyline
 66
     1
 10
0.0
 20
0.0
 30
0.0
 70
     1
  0
VERTEX
  5
1B51
330
1B50
100
AcDbEntity
  8
247
100
AcDbVertex
100
AcDb2dVertex
 10
-50.80797324382047
 20
-12.62473551626647
 30
0.0
  0
VERTEX
  5
1B52
330
1B50
100
AcDbEntity
  8
247
100
AcDbVertex
100
AcDb2dVertex
 10
-50.86534247599821
 20
-12.82479655142272
 30
0.0
  0
VERTEX
  5
1B53
330
1B50
100
AcDbEntity
  8
247
100
AcDbVertex
100
AcDb2dVertex
 10
-50.79911551676969
 20
-12.82479655142272
 30
0.0
  0
VERTEX
  5
1B54
330
1B50
100
AcDbEntity
  8
247
100
AcDbVertex
100
AcDb2dVertex
 10
-51.21112342082242
 20
-14.26162995691741
 30
0.0
  0
VERTEX
  5
1B55
330
1B50
100
AcDbEntity
  8
247
100
AcDbVertex
100
AcDb2dVertex
 10
-50.80432715617399
 20
-14.26162995691741
 30
0.0
  0
VERTEX
  5
1B56
330
1B50
100
AcDbEntity
  8
247
100
AcDbVertex
100
AcDb2dVertex
 10
-50.3349568863986
 20
-12.62473551626647
 30
0.0
  0
SEQEND
  5
1B57
330
1B50
100
AcDbEntity
  8
247
  0
POLYLINE
  5
1B58
330
1AD1
100
AcDbEntity
  8
247
100
AcDb2dPolyline
 66
     1
 10
0.0
 20
0.0
 30
0.0
 70
     1
1001
HATCH_DISTANCE
1040
1.0
1001
HATCH_DISPLAY
1070
     0
1001
HATCH_TYPE
1070
     7
  0
VERTEX
  5
1B59
330
1B58
100
AcDbEntity
  8
247
100
AcDbVertex
100
AcDb2dVertex
 10
-50.80797324382047
 20
-12.62473551626647
 30
0.0
  0
VERTEX
  5
1B5A
330
1B58
100
AcDbEntity
  8
247
100
AcDbVertex
100
AcDb2dVertex
 10
-50.86534247599821
 20
-12.82479655142272
 30
0.0
  0
VERTEX
  5
1B5B
330
1B58
100
AcDbEntity
  8
247
100
AcDbVertex
100
AcDb2dVertex
 10
-50.79911551676969
 20
-12.82479655142272
 30
0.0
  0
VERTEX
  5
1B5C
330
1B58
100
AcDbEntity
  8
247
100
AcDbVertex
100
AcDb2dVertex
 10
-51.21112342082242
 20
-14.26162995691741
 30
0.0
  0
VERTEX
  5
1B5D
330
1B58
100
AcDbEntity
  8
247
100
AcDbVertex
100
AcDb2dVertex
 10
-50.80432715617399
 20
-14.26162995691741
 30
0.0
  0
VERTEX
  5
1B5E
330
1B58
100
AcDbEntity
  8
247
100
AcDbVertex
100
AcDb2dVertex
 10
-50.3349568863986
 20
-12.62473551626647
 30
0.0
  0
SEQEND
  5
1B5F
330
1B58
100
AcDbEntity
  8
247
  0
LINE
  5
1B60
330
1AD1
100
AcDbEntity
  8
247
100
AcDbLine
 10
-50.80432715617398
 20
-14.26162995691741
 30
0.0
 11
-50.33495688639858
 21
-12.62473551626647
 31
0.0
  0
LINE
  5
1B61
330
1AD1
100
AcDbEntity
  8
247
100
AcDbLine
 10
-50.86534247599818
 20
-12.82479655142272
 30
0.0
 11
-50.79911551676967
 21
-12.82479655142272
 31
0.0
  0
LINE
  5
1B62
330
1AD1
100
AcDbEntity
  8
247
100
AcDbLine
 10
-50.86534247599818
 20
-12.82479655142272
 30
0.0
 11
-50.80797324382045
 21
-12.62473551626647
 31
0.0
  0
LINE
  5
1B63
330
1AD1
100
AcDbEntity
  8
247
100
AcDbLine
 10
-51.21112342082241
 20
-14.26162995691741
 30
0.0
 11
-50.80432715617398
 21
-14.26162995691741
 31
0.0
  0
LINE
  5
1B64
330
1AD1
100
AcDbEntity
  8
247
100
AcDbLine
 10
-51.21112342082241
 20
-14.26162995691741
 30
0.0
 11
-50.79911551676967
 21
-12.82479655142272
 31
0.0
  0
ARC
  5
1B65
102
{ACAD_REACTORS
330
1B2E
102
}
330
1AD1
100
AcDbEntity
  8
247
100
AcDbCircle
 10
-48.89265799723844
 20
-13.70160853262389
 30
0.0
 40
1.546847534179687
100
AcDbArc
 50
155.2051773698403
 51
172.794825962052
  0
ARC
  5
1B66
102
{ACAD_REACTORS
330
1B2E
102
}
330
1AD1
100
AcDbEntity
  8
247
100
AcDbCircle
 10
-49.6334935685275
 20
-13.01577326651061
 30
0.0
 40
0.1909725040197372
100
AcDbArc
 50
1.710121382062765
 51
163.9983983544484
  0
LINE
  5
1B67
102
{ACAD_REACTORS
330
1B2E
102
}
330
1AD1
100
AcDbEntity
  8
247
100
AcDbLine
 10
-49.69503760539272
 20
-13.92323023672545
 30
0.0
 11
-49.57824607096889
 21
-13.51593272085631
 31
0.0
  0
LINE
  5
1B68
102
{ACAD_REACTORS
330
1B2E
102
}
330
1AD1
100
AcDbEntity
  8
247
100
AcDbLine
 10
-49.72961020671108
 20
-13.51593272085631
 30
0.0
 11
-49.57824607096889
 21
-13.51593272085631
 31
0.0
  0
ARC
  5
1B69
102
{ACAD_REACTORS
330
1B2E
102
}
330
1AD1
100
AcDbEntity
  8
247
100
AcDbCircle
 10
-49.87861228190641
 20
-13.87059199209655
 30
0.0
 40
0.1909723699092865
100
AcDbArc
 50
164.0002730571837
 51
344.0002730571838
  0
LINE
  5
1B6A
102
{ACAD_REACTORS
330
1B2E
102
}
330
1AD1
100
AcDbEntity
  8
247
100
AcDbLine
 10
-49.52034812175014
 20
-14.15494584436858
 30
0.0
 11
-49.41365714274624
 21
-14.26162995691741
 31
0.0
  0
LINE
  5
1B6B
102
{ACAD_REACTORS
330
1B2E
102
}
330
1AD1
100
AcDbEntity
  8
247
100
AcDbLine
 10
-50.06218695842006
 20
-13.81795374746764
 30
0.0
 11
-49.81706824504116
 21
-12.96312815542662
 31
0.0
  0
LINE
  5
1B6C
102
{ACAD_REACTORS
330
1B2E
102
}
330
1AD1
100
AcDbEntity
  8
247
100
AcDbLine
 10
-49.72961020671108
 20
-13.51593272085631
 30
0.0
 11
-49.67745948039272
 21
-13.33405405874694
 31
0.0
  0
ARC
  5
1B6D
102
{ACAD_REACTORS
330
1B2E
102
}
330
1AD1
100
AcDbEntity
  8
247
100
AcDbCircle
 10
-48.91997275553922
 20
-13.57959162588561
 30
0.0
 40
0.954856538772583
100
AcDbArc
 50
110.22964506332
 51
118.5716889237176
  0
ARC
  5
1B6E
102
{ACAD_REACTORS
330
1B2E
102
}
330
1AD1
100
AcDbEntity
  8
247
100
AcDbCircle
 10
-48.91997275553922
 20
-13.57959162588561
 30
0.0
 40
0.7729795932769776
100
AcDbArc
 50
110.8721834020771
 51
132.5419489373868
  0
LINE
  5
1B6F
102
{ACAD_REACTORS
330
1B2E
102
}
330
1AD1
100
AcDbEntity
  8
247
100
AcDbLine
 10
-49.19537253581264
 20
-12.85733668203795
 30
0.0
 11
-49.25014624797084
 21
-12.68363596792662
 31
0.0
  0
LINE
  5
1B70
330
1AD1
100
AcDbEntity
  8
241
100
AcDbLine
 10
-18.5
 20
-17.5
 30
0.0
 11
-18.5
 21
0.0
 31
0.0
  0
LINE
  5
1B71
330
1AD1
100
AcDbEntity
  8
241
100
AcDbLine
 10
-15.5
 20
0.0
 30
0.0
 11
-15.5
 21
-20.0
 31
0.0
  0
LINE
  5
1B72
330
1AD1
100
AcDbEntity
  8
240
100
AcDbLine
 10
0.0
 20
0.0
 30
0.0
 11
0.0
 21
-21.12720699999994
 31
0.0
  0
LINE
  5
1B73
330
1AD1
100
AcDbEntity
  8
240
100
AcDbLine
 10
-14.5
 20
-23.0
 30
0.0
 11
-1.914213999999901
 21
-23.0
 31
0.0
  0
LINE
  5
1B74
330
1AD1
100
AcDbEntity
  8
241
100
AcDbLine
 10
-6.5
 20
-18.84313500000001
 30
0.0
 11
-15.5
 21
-18.84313500000001
 31
0.0
  0
LINE
  5
1B75
330
1AD1
100
AcDbEntity
  8
241
100
AcDbLine
 10
-6.5
 20
-20.84313500000001
 30
0.0
 11
-15.5
 21
-20.84313500000001
 31
0.0
  0
LINE
  5
1B76
330
1AD1
100
AcDbEntity
  8
240
100
AcDbLine
 10
-15.5
 20
-22.0
 30
0.0
 11
-15.5
 21
-20.0
 31
0.0
  0
ARC
  5
1B77
330
1AD1
100
AcDbEntity
  8
240
100
AcDbCircle
 10
-14.5
 20
-22.0
 30
0.0
 40
1.0
100
AcDbArc
 50
180.0
 51
270.0
  0
LINE
  5
1B78
330
1AD1
100
AcDbEntity
  8
242
100
AcDbLine
 10
-16.0
 20
-17.5
 30
0.0
 11
-18.5
 21
-17.5
 31
0.0
  0
LINE
  5
1B79
330
1AD1
100
AcDbEntity
  8
240
100
AcDbLine
 10
-20.5
 20
-18.0
 30
0.0
 11
-16.0
 21
-18.0
 31
0.0
  0
LINE
  5
1B7A
330
1AD1
100
AcDbEntity
  8
240
100
AcDbLine
 10
-18.5
 20
-17.5
 30
0.0
 11
-19.0
 21
-18.0
 31
0.0
  0
LINE
  5
1B7B
330
1AD1
100
AcDbEntity
  8
240
100
AcDbLine
 10
-21.49999999999999
 20
-17.0
 30
0.0
 11
-21.49999999999999
 21
-15.79999999999995
 31
0.0
  0
ARC
  5
1B7C
330
1AD1
100
AcDbEntity
  8
240
100
AcDbCircle
 10
-20.5
 20
-17.0
 30
0.0
 40
1.0
100
AcDbArc
 50
180.0
 51
270.0
  0
LINE
  5
1B7D
330
1AD1
100
AcDbEntity
  8
240
100
AcDbLine
 10
-16.0
 20
-18.0
 30
0.0
 11
-16.0
 21
-19.5
 31
0.0
  0
LINE
  5
1B7E
330
1AD1
100
AcDbEntity
  8
240
100
AcDbLine
 10
-16.0
 20
-19.5
 30
0.0
 11
-15.5
 21
-20.0
 31
0.0
  0
LINE
  5
1B7F
330
1AD1
100
AcDbEntity
  8
241
100
AcDbLine
 10
-6.5
 20
-20.84313500000001
 30
0.0
 11
-6.5
 21
-18.84313500000001
 31
0.0
  0
LINE
  5
1B80
330
1AD1
100
AcDbEntity
  8
240
100
AcDbLine
 10
-1.207107000000064
 20
-22.70710600000001
 30
0.0
 11
-0.2636039999999866
 21
-21.76360399999998
 31
0.0
  0
ARC
  5
1B81
330
1AD1
100
AcDbEntity
  8
240
100
AcDbCircle
 10
-1.914213999999901
 20
-22.0
 30
0.0
 40
1.0
100
AcDbArc
 50
270.0
 51
315.0
  0
ARC
  5
1B82
330
1AD1
100
AcDbEntity
  8
240
100
AcDbCircle
 10
-0.9000000000000909
 20
-21.12720699999994
 30
0.0
 40
0.9
100
AcDbArc
 50
315.0
 51
0.0
  0
LINE
  5
1B83
330
1AD1
100
AcDbEntity
  8
246
100
AcDbLine
 10
-5.600000000000022
 20
-12.5
 30
0.0
 11
-3.200000000000045
 21
-12.5
 31
0.0
  0
LINE
  5
1B84
330
1AD1
100
AcDbEntity
  8
246
100
AcDbLine
 10
-5.600000000000022
 20
-12.5
 30
0.0
 11
-5.600000000000022
 21
-14.25
 31
0.0
  0
LINE
  5
1B85
330
1AD1
100
AcDbEntity
  8
241
100
AcDbLine
 10
-6.5
 20
2.0
 30
0.0
 11
-15.5
 21
2.0
 31
0.0
  0
LINE
  5
1B86
330
1AD1
100
AcDbEntity
  8
241
100
AcDbLine
 10
-6.5
 20
-2.0
 30
0.0
 11
-15.5
 21
-2.0
 31
0.0
  0
LINE
  5
1B87
330
1AD1
100
AcDbEntity
  8
241
100
AcDbLine
 10
-6.5
 20
-2.0
 30
0.0
 11
-6.5
 21
0.0
 31
0.0
  0
LINE
  5
1B88
330
1AD1
100
AcDbEntity
  8
241
100
AcDbLine
 10
-6.5
 20
2.0
 30
0.0
 11
-6.5
 21
0.0
 31
0.0
  0
LINE
  5
1B89
330
1AD1
100
AcDbEntity
  8
246
100
AcDbLine
 10
-3.0
 20
-14.25
 30
0.0
 11
0.0
 21
-12.51794899999993
 31
0.0
  0
LINE
  5
1B8A
330
1AD1
100
AcDbEntity
  8
246
100
AcDbLine
 10
-3.200000000000045
 20
-14.25
 30
0.0
 11
-3.0
 21
-14.25
 31
0.0
  0
LINE
  5
1B8B
330
1AD1
100
AcDbEntity
  8
246
100
AcDbLine
 10
-3.200000000000045
 20
-12.5
 30
0.0
 11
-3.200000000000045
 21
-14.25
 31
0.0
  0
LINE
  5
1B8C
330
1AD1
100
AcDbEntity
  8
240
100
AcDbLine
 10
-22.79999999999999
 20
15.80000000000001
 30
0.0
 11
-21.49999999999999
 21
15.80000000000001
 31
0.0
  0
LINE
  5
1B8D
330
1AD1
100
AcDbEntity
  8
246
100
AcDbLine
 10
-5.600000000000022
 20
14.25
 30
0.0
 11
-38.0
 21
10.84462300000001
 31
0.0
  0
LINE
  5
1B8E
330
1AD1
100
AcDbEntity
  8
246
100
AcDbLine
 10
0.0
 20
10.0
 30
0.0
 11
-38.0
 21
10.0
 31
0.0
  0
LINE
  5
1B8F
330
1AD1
100
AcDbEntity
  8
240
100
AcDbLine
 10
-23.00000000000004
 20
16.0
 30
0.0
 11
-22.79999999999999
 21
15.80000000000001
 31
0.0
  0
LINE
  5
1B90
330
1AD1
100
AcDbEntity
  8
246
100
AcDbLine
 10
-5.600000000000022
 20
12.5
 30
0.0
 11
-3.200000000000045
 21
12.5
 31
0.0
  0
LINE
  5
1B91
330
1AD1
100
AcDbEntity
  8
240
100
AcDbLine
 10
-14.5
 20
23.0
 30
0.0
 11
-1.914213999999901
 21
23.0
 31
0.0
  0
LINE
  5
1B92
330
1AD1
100
AcDbEntity
  8
246
100
AcDbLine
 10
-5.600000000000022
 20
12.5
 30
0.0
 11
-5.600000000000022
 21
14.25
 31
0.0
  0
LINE
  5
1B93
330
1AD1
100
AcDbEntity
  8
241
100
AcDbLine
 10
-6.5
 20
18.84313500000001
 30
0.0
 11
-15.5
 21
18.84313500000001
 31
0.0
  0
LINE
  5
1B94
330
1AD1
100
AcDbEntity
  8
241
100
AcDbLine
 10
-6.5
 20
20.84313500000001
 30
0.0
 11
-15.5
 21
20.84313500000001
 31
0.0
  0
LINE
  5
1B95
330
1AD1
100
AcDbEntity
  8
240
100
AcDbLine
 10
-16.0
 20
19.5
 30
0.0
 11
-16.0
 21
18.0
 31
0.0
  0
LINE
  5
1B96
330
1AD1
100
AcDbEntity
  8
242
100
AcDbLine
 10
-16.0
 20
17.5
 30
0.0
 11
-18.5
 21
17.5
 31
0.0
  0
LINE
  5
1B97
330
1AD1
100
AcDbEntity
  8
240
100
AcDbLine
 10
-20.5
 20
18.0
 30
0.0
 11
-16.0
 21
18.0
 31
0.0
  0
LINE
  5
1B98
330
1AD1
100
AcDbEntity
  8
240
100
AcDbLine
 10
-18.5
 20
17.5
 30
0.0
 11
-19.0
 21
18.0
 31
0.0
  0
LINE
  5
1B99
330
1AD1
100
AcDbEntity
  8
240
100
AcDbLine
 10
-21.49999999999999
 20
15.80000000000001
 30
0.0
 11
-21.49999999999999
 21
17.0
 31
0.0
  0
ARC
  5
1B9A
330
1AD1
100
AcDbEntity
  8
240
100
AcDbCircle
 10
-20.5
 20
17.0
 30
0.0
 40
1.0
100
AcDbArc
 50
90.0
 51
180.0
  0
LINE
  5
1B9B
330
1AD1
100
AcDbEntity
  8
240
100
AcDbLine
 10
-15.5
 20
22.0
 30
0.0
 11
-15.5
 21
20.0
 31
0.0
  0
ARC
  5
1B9C
330
1AD1
100
AcDbEntity
  8
240
100
AcDbCircle
 10
-14.5
 20
22.0
 30
0.0
 40
1.0
100
AcDbArc
 50
90.0
 51
180.0
  0
LINE
  5
1B9D
330
1AD1
100
AcDbEntity
  8
240
100
AcDbLine
 10
-16.0
 20
19.5
 30
0.0
 11
-15.5
 21
20.0
 31
0.0
  0
LINE
  5
1B9E
330
1AD1
100
AcDbEntity
  8
241
100
AcDbLine
 10
-6.5
 20
20.84313500000001
 30
0.0
 11
-6.5
 21
18.84313500000001
 31
0.0
  0
LINE
  5
1B9F
330
1AD1
100
AcDbEntity
  8
246
100
AcDbLine
 10
-3.0
 20
14.25
 30
0.0
 11
0.0
 21
12.51795000000004
 31
0.0
  0
LINE
  5
1BA0
330
1AD1
100
AcDbEntity
  8
246
100
AcDbLine
 10
-3.200000000000045
 20
14.25
 30
0.0
 11
-3.0
 21
14.25
 31
0.0
  0
LINE
  5
1BA1
330
1AD1
100
AcDbEntity
  8
246
100
AcDbLine
 10
-3.200000000000045
 20
12.5
 30
0.0
 11
-3.200000000000045
 21
14.25
 31
0.0
  0
LINE
  5
1BA2
330
1AD1
100
AcDbEntity
  8
240
100
AcDbLine
 10
-0.2636039999999866
 20
21.76360400000004
 30
0.0
 11
-1.207107000000064
 21
22.707107
 31
0.0
  0
ARC
  5
1BA3
330
1AD1
100
AcDbEntity
  8
240
100
AcDbCircle
 10
-1.914213999999901
 20
22.0
 30
0.0
 40
1.0
100
AcDbArc
 50
44.99999999999992
 51
90.0
  0
ARC
  5
1BA4
330
1AD1
100
AcDbEntity
  8
240
100
AcDbCircle
 10
-0.9000000000000909
 20
21.12720800000005
 30
0.0
 40
0.9
100
AcDbArc
 50
0.0
 51
44.99999999999992
  0
ENDBLK
  5
1BA6
330
1AD1
100
AcDbEntity
  8
0
100
AcDbBlockEnd
  0
ENDSEC
  0
SECTION
  2
ENTITIES
  0
TEXT
  5
14BC
330
1A
100
AcDbEntity
  8
241
100
AcDbText
 10
-118.5
 20
56.0
 30
0.0
 40
5.0
  1
SL32-NBS20-100
  7
YOKO
 11
-118.5
 21
56.0
 31
0.0
100
AcDbText
 73
     1
  0
DIMENSION
  5
14BD
330
1A
100
AcDbEntity
  8
250
  6
CONTINUOUS
100
AcDbDimension
  2
*D1
 10
19.00000000000005
 20
22.99999999999999
 30
0.0
 11
16.50000000000005
 21
-0.0000000000000009
 31
0.0
 70
    32
  1
{\H3;\U+2205}<>
  3
BIGT
100
AcDbAlignedDimension
 13
-1.914213999999901
 23
-23.0
 33
0.0
 14
-1.914213999999901
 24
23.0
 34
0.0
 50
90.0
100
AcDbRotatedDimension
1001
ACAD
1000
DSTYLE
1002
{
1070
    78
1070
     8
1070
   140
1040
3.0
1002
}
  0
DIMENSION
  5
14BE
330
1A
100
AcDbEntity
  8
250
  6
CONTINUOUS
100
AcDbDimension
  2
*D2
 10
12.00000000000002
 20
9.999999999999996
 30
0.0
 11
9.500000000000026
 21
-0.0000000000000004
 31
0.0
 70
    32
  1
MAX.%%c<>
  3
BIGT
100
AcDbAlignedDimension
 13
0.0
 23
-10.0
 33
0.0
 14
0.0
 24
10.0
 34
0.0
 50
90.0
100
AcDbRotatedDimension
1001
ACAD
1000
DSTYLE
1002
{
1070
    78
1070
     8
1070
   140
1040
3.0
1002
}
  0
DIMENSION
  5
14BF
330
1A
100
AcDbEntity
  8
250
  6
CONTINUOUS
100
AcDbDimension
  2
*D3
 10
-0.0000000000000865
 20
-42.0
 30
0.0
 11
-29.00000000000004
 21
-39.5
 31
0.0
 70
    32
  1
48～65
  3
BIGT
100
AcDbAlignedDimension
 13
-58.0
 23
-9.5
 33
0.0
 14
-0.0000000000000853
 24
-21.12720699999994
 34
0.0
100
AcDbRotatedDimension
1001
ACAD
1000
DSTYLE
1002
{
1070
    78
1070
     8
1070
   140
1040
3.0
1002
}
  0
DIMENSION
  5
18CF
330
1A
100
AcDbEntity
  8
250
  6
CONTINUOUS
100
AcDbDimension
  2
*D4
 10
0.0000000000000013
 20
42.0
 30
0.0
 11
-60.75000000000001
 21
44.5
 31
0.0
 70
    32
  3
BIGT
100
AcDbAlignedDimension
 13
-121.5
 23
13.0
 33
0.0
 14
0.0
 24
21.12720800000005
 34
0.0
100
AcDbRotatedDimension
1001
ACAD
1000
DSTYLE
1002
{
1070
    78
1070
     8
1070
   140
1040
3.0
1002
}
  0
DIMENSION
  5
18DF
330
1A
100
AcDbEntity
  8
250
  6
CONTINUOUS
100
AcDbDimension
  2
*D5
 10
0.0000000000000008
 20
35.0
 30
0.0
 11
-10.74999999999999
 21
37.5
 31
0.0
 70
    32
  3
BIGT
100
AcDbAlignedDimension
 13
-21.49999999999999
 23
17.0
 33
0.0
 14
0.0
 24
21.62720800000005
 34
0.0
100
AcDbRotatedDimension
1001
ACAD
1000
DSTYLE
1002
{
1070
    78
1070
     8
1070
   140
1040
3.0
1002
}
  0
DIMENSION
  5
18EC
330
1A
100
AcDbEntity
  8
250
  6
CONTINUOUS
100
AcDbDimension
  2
*D6
 10
-21.49999999999999
 20
35.0
 30
0.0
 11
-71.5
 21
37.5
 31
0.0
 70
    32
  3
BIGT
100
AcDbAlignedDimension
 13
-121.5
 23
13.0
 33
0.0
 14
-21.49999999999999
 24
17.0
 34
0.0
100
AcDbRotatedDimension
1001
ACAD
1000
DSTYLE
1002
{
1070
    78
1070
     8
1070
   140
1040
3.0
1002
}
  0
DIMENSION
  5
18FB
330
1A
100
AcDbEntity
  8
250
  6
CONTINUOUS
100
AcDbDimension
  2
*D7
 10
-133.0
 20
16.0
 30
0.0
 11
-135.4999999999999
 21
-0.0000000000000146
 31
0.0
 70
    32
  1
{\H3;\U+2205}<>
  3
BIGT
100
AcDbAlignedDimension
 13
-107.0
 23
-16.0
 33
0.0
 14
-106.9999999999999
 24
16.0
 34
0.0
 50
90.0
100
AcDbRotatedDimension
1001
ACAD
1000
DSTYLE
1002
{
1070
    78
1070
     8
1070
   140
1040
3.0
1002
}
  0
INSERT
  5
1BA7
330
1A
100
AcDbEntity
  8
240
100
AcDbBlockReference
  2
A$C2F5A1774
 10
0.0
 20
0.0
 30
0.0
  0
VIEWPORT
  5
22
330
17
100
AcDbEntity
 67
     1
  8
0
100
AcDbViewport
 10
261.5176991150442
 20
148.5
 30
0.0
 40
523.0353982300885
 41
297.0
 68
     1
 69
     1
1001
ACAD
1000
MVIEW
1002
{
1070
    16
1010
0.0
1020
0.0
1030
0.0
1010
0.0
1020
0.0
1030
1.0
1040
0.0
1040
297.0
1040
261.5176991150442
1040
148.5
1040
50.0
1040
0.0
1040
0.0
1070
     0
1070
   100
1070
     1
1070
     1
1070
     0
1070
     0
1070
     0
1070
     0
1040
0.0
1040
0.0
1040
0.0
1040
1.0
1040
1.0
1040
10.0
1040
10.0
1070
     0
1002
{
1002
}
1002
}
  0
ENDSEC
  0
SECTION
  2
OBJECTS
  0
DICTIONARY
  5
C
330
0
100
AcDbDictionary
  3
ACAD_GROUP
350
D
  3
ACAD_LAYOUT
350
565
  3
ACAD_MLINESTYLE
350
E
  3
ACAD_PLOTSETTINGS
350
566
  3
ACAD_PLOTSTYLENAME
350
563
  3
ACDBHEADERROUNDTRIPXREC
350
1BB1
  3
ACDBVARIABLEDICTIONARY
350
1556
  3
DWGPROPS
350
1784
  3
GRADE_DWG
350
540
  0
DICTIONARY
  5
1BD4
330
1A
100
AcDbDictionary
280
     1
  3
ACAD_LAYOUTSELFREF
360
1BD5
  0
DICTIONARY
  5
1BD2
330
17
100
AcDbDictionary
280
     1
  3
ACAD_LAYOUTSELFREF
360
1BD3
  0
DICTIONARY
  5
D
102
{ACAD_REACTORS
330
C
102
}
330
C
100
AcDbDictionary
  3
DREC-1
350
5FC
  3
DREC-2
350
654
  3
DREC-3
350
673
  0
DICTIONARY
  5
565
102
{ACAD_REACTORS
330
C
102
}
330
C
100
AcDbDictionary
  0
DICTIONARY
  5
E
102
{ACAD_REACTORS
330
C
102
}
330
C
100
AcDbDictionary
  3
STANDARD
350
13
  0
DICTIONARY
  5
566
102
{ACAD_REACTORS
330
C
102
}
330
C
100
AcDbDictionary
  0
ACDBDICTIONARYWDFLT
  5
563
102
{ACAD_REACTORS
330
C
102
}
330
C
100
AcDbDictionary
281
     1
  3
Normal
350
564
100
AcDbDictionaryWithDefault
340
564
  0
DICTIONARY
  5
1BB1
102
{ACAD_REACTORS
330
C
102
}
330
C
100
AcDbDictionary
  3
CEPSNTYPE
350
1BBB
  3
DIMSTYLEDATA
350
1BBF
  3
FINGERPRINTGUID
350
1BBC
  3
HYPERLINKBASE
350
1BB4
  3
INSUNITS
350
1BBA
  3
LAYOUTDICT
350
1BB6
  3
LWETCUNION
350
1BB9
  3
PLOTSETDICT
350
1BB7
  3
PLOTSTYLNAMDICT
350
1BB8
  3
PSVPSCALE
350
1BBE
  3
PUCSBASE
350
1BC2
  3
PUCSORGBACK
350
1BC8
  3
PUCSORGBOTTOM
350
1BC4
  3
PUCSORGFRONT
350
1BC7
  3
PUCSORGLEFT
350
1BC5
  3
PUCSORGRIGHT
350
1BC6
  3
PUCSORGTOP
350
1BC3
  3
PUCSORTHOREF
350
1BC0
  3
PUCSORTHOVIEW
350
1BC1
  3
STYLESHEET
350
1BB5
  3
TSTACKALIGN
350
1BB2
  3
TSTACKSIZE
350
1BB3
  3
UCSBASE
350
1BCB
  3
UCSORGBACK
350
1BD1
  3
UCSORGBOTTOM
350
1BCD
  3
UCSORGFRONT
350
1BD0
  3
UCSORGLEFT
350
1BCE
  3
UCSORGRIGHT
350
1BCF
  3
UCSORGTOP
350
1BCC
  3
UCSORTHOREF
350
1BC9
  3
UCSORTHOVIEW
350
1BCA
  3
VERSIONGUID
350
1BBD
  0
DICTIONARY
  5
1556
102
{ACAD_REACTORS
330
C
102
}
330
C
100
AcDbDictionary
  3
DIMASSOC
350
1557
  0
XRECORD
  5
1784
102
{ACAD_REACTORS
330
C
102
}
330
C
100
AcDbXrecord
  1
DWGPROPS COOKIE
  2

  3

  4

  6

  7

  8
ymat
  9

300
=
301
=
302
=
303
=
304
=
305
=
306
=
307
=
308
=
309
=
 40
0.0417749884259259
 41
2452181.595245949
 42
2452409.158880926
  1

 90
        0
  0
DICTIONARY
  5
540
102
{ACAD_REACTORS
330
C
102
}
330
C
100
AcDbDictionary
  3
VERSION
350
560
  0
XRECORD
  5
1BD5
102
{ACAD_REACTORS
330
1BD4
102
}
330
1BD4
100
AcDbXrecord
340
1A
  0
XRECORD
  5
1BD3
102
{ACAD_REACTORS
330
1BD2
102
}
330
1BD2
100
AcDbXrecord
340
17
  0
GROUP
  5
5FC
102
{ACAD_REACTORS
330
D
102
}
330
D
100
AcDbGroup
300

 70
     0
 71
     1
1001
GRPNAME
1000
DREC-
1001
GPARA
1000
xsiz
1000
44.182
1000
ysiz
1000
40.677
1000
angl
1000
0
1000
ctyp
1000
0
1000
csiz
1000
5
1000
lfnt
1000
cont
1000
hcnt
1000
hoff
1000
vcnt
1000
voff
1000
opnt
1000
4
1000
dxpt
1000
0
1000
dypt
1000
0
  0
GROUP
  5
654
102
{ACAD_REACTORS
330
D
102
}
330
D
100
AcDbGroup
300

 70
     0
 71
     1
1001
GRPNAME
1000
DREC-
1001
GPARA
1000
xsiz
1000
54.592
1000
ysiz
1000
53.036
1000
angl
1000
0
1000
ctyp
1000
0
1000
csiz
1000
5
1000
lfnt
1000
cont
1000
hcnt
1000
hoff
1000
vcnt
1000
voff
1000
opnt
1000
4
1000
dxpt
1000
0
1000
dypt
1000
0
  0
GROUP
  5
673
102
{ACAD_REACTORS
330
D
102
}
330
D
100
AcDbGroup
300

 70
     0
 71
     1
1001
GRPNAME
1000
DREC-
1001
GPARA
1000
xsiz
1000
30.363
1000
ysiz
1000
36.175
1000
angl
1000
0
1000
ctyp
1000
0
1000
csiz
1000
5
1000
lfnt
1000
cont
1000
hcnt
1000
hoff
1000
vcnt
1000
voff
1000
opnt
1000
4
1000
dxpt
1000
0
1000
dypt
1000
0
  0
MLINESTYLE
  5
13
102
{ACAD_REACTORS
330
E
102
}
330
E
100
AcDbMlineStyle
  2
STANDARD
 70
     0
  3

 62
     0
 51
90.0
 52
90.0
 71
     2
 49
0.5
 62
   256
  6
BYLAYER
 49
-0.5
 62
   256
  6
BYLAYER
  0
ACDBPLACEHOLDER
  5
564
102
{ACAD_REACTORS
330
563
102
}
330
563
100
AcDbPlaceHolder
280
     0
  0
XRECORD
  5
1BBB
102
{ACAD_REACTORS
330
1BB1
102
}
330
1BB1
100
AcDbXrecord
 90
        0
  0
XRECORD
  5
1BBF
102
{ACAD_REACTORS
330
1BB1
102
}
330
1BB1
100
AcDbXrecord
1000
DSTYLE
1002
{
1070
    79
 70
     2
1070
   179
 70
     3
1070
   289
 70
     2
1070
   341
340
594
1070
   342
340
594
1070
   371
 70
    -1
1070
   372
 70
    -1
1002
}
  0
XRECORD
  5
1BBC
102
{ACAD_REACTORS
330
1BB1
102
}
330
1BB1
100
AcDbXrecord
  1
{51294030-9CB4-11D3-8E18-00A0C925D94D}
  0
XRECORD
  5
1BB4
102
{ACAD_REACTORS
330
1BB1
102
}
330
1BB1
100
AcDbXrecord
  1

  0
XRECORD
  5
1BBA
102
{ACAD_REACTORS
330
1BB1
102
}
330
1BB1
100
AcDbXrecord
 90
        0
  0
XRECORD
  5
1BB6
102
{ACAD_REACTORS
330
1BB1
102
}
330
1BB1
100
AcDbXrecord
340
565
  0
XRECORD
  5
1BB9
102
{ACAD_REACTORS
330
1BB1
102
}
330
1BB1
100
AcDbXrecord
 90
    10781
  0
XRECORD
  5
1BB7
102
{ACAD_REACTORS
330
1BB1
102
}
330
1BB1
100
AcDbXrecord
340
566
  0
XRECORD
  5
1BB8
102
{ACAD_REACTORS
330
1BB1
102
}
330
1BB1
100
AcDbXrecord
340
563
  0
XRECORD
  5
1BBE
102
{ACAD_REACTORS
330
1BB1
102
}
330
1BB1
100
AcDbXrecord
 40
0.0
  0
XRECORD
  5
1BC2
102
{ACAD_REACTORS
330
1BB1
102
}
330
1BB1
100
AcDbXrecord
340
0
  0
XRECORD
  5
1BC8
102
{ACAD_REACTORS
330
1BB1
102
}
330
1BB1
100
AcDbXrecord
 10
0.0
 20
0.0
 30
0.0
  0
XRECORD
  5
1BC4
102
{ACAD_REACTORS
330
1BB1
102
}
330
1BB1
100
AcDbXrecord
 10
0.0
 20
0.0
 30
0.0
  0
XRECORD
  5
1BC7
102
{ACAD_REACTORS
330
1BB1
102
}
330
1BB1
100
AcDbXrecord
 10
0.0
 20
0.0
 30
0.0
  0
XRECORD
  5
1BC5
102
{ACAD_REACTORS
330
1BB1
102
}
330
1BB1
100
AcDbXrecord
 10
0.0
 20
0.0
 30
0.0
  0
XRECORD
  5
1BC6
102
{ACAD_REACTORS
330
1BB1
102
}
330
1BB1
100
AcDbXrecord
 10
0.0
 20
0.0
 30
0.0
  0
XRECORD
  5
1BC3
102
{ACAD_REACTORS
330
1BB1
102
}
330
1BB1
100
AcDbXrecord
 10
0.0
 20
0.0
 30
0.0
  0
XRECORD
  5
1BC0
102
{ACAD_REACTORS
330
1BB1
102
}
330
1BB1
100
AcDbXrecord
340
0
  0
XRECORD
  5
1BC1
102
{ACAD_REACTORS
330
1BB1
102
}
330
1BB1
100
AcDbXrecord
 70
     0
  0
XRECORD
  5
1BB5
102
{ACAD_REACTORS
330
1BB1
102
}
330
1BB1
100
AcDbXrecord
  1
technical_osaka.ctb
  0
XRECORD
  5
1BB2
102
{ACAD_REACTORS
330
1BB1
102
}
330
1BB1
100
AcDbXrecord
 90
        1
  0
XRECORD
  5
1BB3
102
{ACAD_REACTORS
330
1BB1
102
}
330
1BB1
100
AcDbXrecord
 90
       70
  0
XRECORD
  5
1BCB
102
{ACAD_REACTORS
330
1BB1
102
}
330
1BB1
100
AcDbXrecord
340
0
  0
XRECORD
  5
1BD1
102
{ACAD_REACTORS
330
1BB1
102
}
330
1BB1
100
AcDbXrecord
 10
0.0
 20
0.0
 30
0.0
  0
XRECORD
  5
1BCD
102
{ACAD_REACTORS
330
1BB1
102
}
330
1BB1
100
AcDbXrecord
 10
0.0
 20
0.0
 30
0.0
  0
XRECORD
  5
1BD0
102
{ACAD_REACTORS
330
1BB1
102
}
330
1BB1
100
AcDbXrecord
 10
0.0
 20
0.0
 30
0.0
  0
XRECORD
  5
1BCE
102
{ACAD_REACTORS
330
1BB1
102
}
330
1BB1
100
AcDbXrecord
 10
0.0
 20
0.0
 30
0.0
  0
XRECORD
  5
1BCF
102
{ACAD_REACTORS
330
1BB1
102
}
330
1BB1
100
AcDbXrecord
 10
0.0
 20
0.0
 30
0.0
  0
XRECORD
  5
1BCC
102
{ACAD_REACTORS
330
1BB1
102
}
330
1BB1
100
AcDbXrecord
 10
0.0
 20
0.0
 30
0.0
  0
XRECORD
  5
1BC9
102
{ACAD_REACTORS
330
1BB1
102
}
330
1BB1
100
AcDbXrecord
340
0
  0
XRECORD
  5
1BCA
102
{ACAD_REACTORS
330
1BB1
102
}
330
1BB1
100
AcDbXrecord
 70
     0
  0
XRECORD
  5
1BBD
102
{ACAD_REACTORS
330
1BB1
102
}
330
1BB1
100
AcDbXrecord
  1
{EDD58F75-688C-11D7-AD80-0010B5C7BFCA}
  0
DICTIONARYVAR
  5
1557
102
{ACAD_REACTORS
330
1556
102
}
330
1556
100
DictionaryVariables
280
     0
  1
1
  0
XRECORD
  5
560
102
{ACAD_REACTORS
330
540
102
}
330
540
100
AcDbXrecord
  1
2.0.0
  0
ENDSEC
  0
EOF
