  0
SECTION
  2
HEADER
  9
$ACADVER
  1
AC1014
  9
$ACADMAINTVER
 70
     9
  9
$DWGCODEPAGE
  3
ANSI_932
  9
$INSBASE
 10
0.0
 20
0.0
 30
0.0
  9
$EXTMIN
 10
-137.0132436184367
 20
-43.00772035821307
 30
-0.0015258207003583
  9
$EXTMAX
 10
20.00183174270409
 20
61.01274150448478
 30
0.0000000349246037
  9
$LIMMIN
 10
0.0
 20
0.0
  9
$LIMMAX
 10
297.0
 20
210.0
  9
$ORTHOMODE
 70
     1
  9
$REGENMODE
 70
     1
  9
$FILLMODE
 70
     1
  9
$QTEXTMODE
 70
     0
  9
$MIRRTEXT
 70
     1
  9
$DRAGMODE
 70
     2
  9
$LTSCALE
 40
10.0
  9
$OSMODE
 70
   613
  9
$ATTMODE
 70
     1
  9
$TEXTSIZE
 40
3.0
  9
$TRACEWID
 40
1.0
  9
$TEXTSTYLE
  7
YOKO
  9
$CLAYER
  8
240
  9
$CELTYPE
  6
BYLAYER
  9
$CECOLOR
 62
   256
  9
$CELTSCALE
 40
1.0
  9
$DELOBJ
 70
     1
  9
$DISPSILH
 70
     0
  9
$DIMSCALE
 40
1.0
  9
$DIMASZ
 40
2.229999999999999
  9
$DIMEXO
 40
0.5
  9
$DIMDLI
 40
2.5
  9
$DIMRND
 40
0.0
  9
$DIMDLE
 40
0.0
  9
$DIMEXE
 40
1.0
  9
$DIMTP
 40
0.0
  9
$DIMTM
 40
0.0
  9
$DIMTXT
 40
3.0
  9
$DIMCEN
 40
0.0
  9
$DIMTSZ
 40
0.0
  9
$DIMTOL
 70
     0
  9
$DIMLIM
 70
     0
  9
$DIMTIH
 70
     0
  9
$DIMTOH
 70
     0
  9
$DIMSE1
 70
     0
  9
$DIMSE2
 70
     0
  9
$DIMTAD
 70
     3
  9
$DIMZIN
 70
     8
  9
$DIMBLK
  1
OPEN
  9
$DIMASO
 70
     1
  9
$DIMSHO
 70
     1
  9
$DIMPOST
  1

  9
$DIMAPOST
  1

  9
$DIMALT
 70
     0
  9
$DIMALTD
 70
     2
  9
$DIMALTF
 40
25.4
  9
$DIMLFAC
 40
1.0
  9
$DIMTOFL
 70
     1
  9
$DIMTVP
 40
0.0
  9
$DIMTIX
 70
     0
  9
$DIMSOXD
 70
     0
  9
$DIMSAH
 70
     0
  9
$DIMBLK1
  1

  9
$DIMBLK2
  1

  9
$DIMSTYLE
  2
BIGT
  9
$DIMCLRD
 70
   256
  9
$DIMCLRE
 70
   256
  9
$DIMCLRT
 70
    40
  9
$DIMTFAC
 40
1.0
  9
$DIMGAP
 40
1.0
  9
$DIMJUST
 70
     0
  9
$DIMSD1
 70
     0
  9
$DIMSD2
 70
     0
  9
$DIMTOLJ
 70
     1
  9
$DIMTZIN
 70
     8
  9
$DIMALTZ
 70
     0
  9
$DIMALTTZ
 70
     0
  9
$DIMFIT
 70
     2
  9
$DIMUPT
 70
     0
  9
$DIMUNIT
 70
     2
  9
$DIMDEC
 70
     3
  9
$DIMTDEC
 70
     3
  9
$DIMALTU
 70
     2
  9
$DIMALTTD
 70
     2
  9
$DIMTXSTY
  7
STANDARD
  9
$DIMAUNIT
 70
     0
  9
$LUNITS
 70
     2
  9
$LUPREC
 70
     3
  9
$SKETCHINC
 40
1.0
  9
$FILLETRAD
 40
0.0
  9
$AUNITS
 70
     0
  9
$AUPREC
 70
     3
  9
$MENU
  1
.
  9
$ELEVATION
 40
0.0
  9
$PELEVATION
 40
0.0
  9
$THICKNESS
 40
0.0
  9
$LIMCHECK
 70
     0
  9
$BLIPMODE
 70
     0
  9
$CHAMFERA
 40
0.5
  9
$CHAMFERB
 40
0.5
  9
$CHAMFERC
 40
0.0
  9
$CHAMFERD
 40
0.0
  9
$SKPOLY
 70
     0
  9
$TDCREATE
 40
2452181.575331666
  9
$TDUPDATE
 40
2452737.404927662
  9
$TDINDWG
 40
0.0728996644
  9
$TDUSRTIMER
 40
0.0728996644
  9
$USRTIMER
 70
     1
  9
$ANGBASE
 50
0.0
  9
$ANGDIR
 70
     0
  9
$PDMODE
 70
    35
  9
$PDSIZE
 40
2.0
  9
$PLINEWID
 40
0.0
  9
$COORDS
 70
     2
  9
$SPLFRAME
 70
     0
  9
$SPLINETYPE
 70
     6
  9
$SPLINESEGS
 70
     8
  9
$ATTDIA
 70
     0
  9
$ATTREQ
 70
     0
  9
$HANDLING
 70
-16383
  9
$HANDSEED
  5
196F
  9
$SURFTAB1
 70
     6
  9
$SURFTAB2
 70
     6
  9
$SURFTYPE
 70
     6
  9
$SURFU
 70
     6
  9
$SURFV
 70
     6
  9
$UCSNAME
  2

  9
$UCSORG
 10
0.0
 20
0.0
 30
0.0
  9
$UCSXDIR
 10
1.0
 20
0.0
 30
0.0
  9
$UCSYDIR
 10
0.0
 20
1.0
 30
0.0
  9
$PUCSNAME
  2

  9
$PUCSORG
 10
0.0
 20
0.0
 30
0.0
  9
$PUCSXDIR
 10
1.0
 20
0.0
 30
0.0
  9
$PUCSYDIR
 10
0.0
 20
1.0
 30
0.0
  9
$USERI1
 70
     1
  9
$USERI2
 70
     0
  9
$USERI3
 70
     0
  9
$USERI4
 70
     0
  9
$USERI5
 70
     0
  9
$USERR1
 40
0.0
  9
$USERR2
 40
0.0
  9
$USERR3
 40
0.0
  9
$USERR4
 40
0.0
  9
$USERR5
 40
0.0
  9
$WORLDVIEW
 70
     1
  9
$SHADEDGE
 70
     3
  9
$SHADEDIF
 70
    70
  9
$TILEMODE
 70
     1
  9
$MAXACTVP
 70
    16
  9
$PINSBASE
 10
0.0
 20
0.0
 30
0.0
  9
$PLIMCHECK
 70
     0
  9
$PEXTMIN
 10
1.000000000000000E+20
 20
1.000000000000000E+20
 30
1.000000000000000E+20
  9
$PEXTMAX
 10
-1.000000000000000E+20
 20
-1.000000000000000E+20
 30
-1.000000000000000E+20
  9
$PLIMMIN
 10
0.0
 20
0.0
  9
$PLIMMAX
 10
420.0
 20
297.0
  9
$UNITMODE
 70
     0
  9
$VISRETAIN
 70
     0
  9
$PLINEGEN
 70
     0
  9
$PSLTSCALE
 70
     1
  9
$TREEDEPTH
 70
  3020
  9
$PICKSTYLE
 70
     0
  9
$CMLSTYLE
  2
STANDARD
  9
$CMLJUST
 70
     0
  9
$CMLSCALE
 40
1.0
  9
$PROXYGRAPHICS
 70
     1
  9
$MEASUREMENT
 70
     1
  0
ENDSEC
  0
SECTION
  2
CLASSES
  0
CLASS
  1
XRECORD
  2
AcDbXrecord
  3
AutoCAD 2000
 90
        0
280
     0
281
     0
  0
CLASS
  1
ACDBDICTIONARYWDFLT
  2
AcDbDictionaryWithDefault
  3
AutoCAD 2000
 90
        0
280
     0
281
     0
  0
CLASS
  1
ACDBPLACEHOLDER
  2
AcDbPlaceHolder
  3
AutoCAD 2000
 90
        0
280
     0
281
     0
  0
CLASS
  1
LAYOUT
  2
AcDbLayout
  3
AutoCAD 2000
 90
        0
280
     0
281
     0
  0
CLASS
  1
DICTIONARYVAR
  2
AcDbDictionaryVar
  3
AutoCAD 2000
 90
        0
280
     0
281
     0
  0
CLASS
  1
LONG_TRANSACTION
  2
AcDbLongTransaction
  3
AutoCAD 2000
 90
        0
280
     0
281
     0
  0
CLASS
  1
LWPOLYLINE
  2
AcDbPolyline
  3
AutoCAD 2000
 90
        0
280
     0
281
     1
  0
CLASS
  1
HATCH
  2
AcDbHatch
  3
AutoCAD 2000
 90
        0
280
     0
281
     1
  0
CLASS
  1
XRECORD
  2
AcDbXrecord
  3
AutoCAD 2000
 90
        0
280
     0
281
     0
  0
ENDSEC
  0
SECTION
  2
TABLES
  0
TABLE
  2
VPORT
  5
8
330
0
100
AcDbSymbolTable
 70
     2
  0
VPORT
  5
1940
330
8
100
AcDbSymbolTableRecord
100
AcDbViewportTableRecord
  2
*ACTIVE
 70
     0
 10
0.0
 20
0.0
 11
1.0
 21
1.0
 12
-58.50570593786631
 22
9.00251057313585
 13
0.0
 23
0.0
 14
7.0
 24
7.0
 15
7.0
 25
7.0
 16
0.0
 26
0.0
 36
1.0
 17
0.0
 27
0.0
 37
0.0
 40
111.2095655786423
 41
1.419235511713933
 42
50.0
 43
0.0
 44
0.0
 50
0.0
 51
0.0
 71
     0
 72
  2000
 73
     1
 74
     0
 75
     0
 76
     1
 77
     0
 78
     0
  0
ENDTAB
  0
TABLE
  2
LTYPE
  5
5
330
0
100
AcDbSymbolTable
 70
     3
  0
LTYPE
  5
14
330
5
100
AcDbSymbolTableRecord
100
AcDbLinetypeTableRecord
  2
BYBLOCK
 70
     0
  3

 72
    65
 73
     0
 40
0.0
  0
LTYPE
  5
15
330
5
100
AcDbSymbolTableRecord
100
AcDbLinetypeTableRecord
  2
BYLAYER
 70
     0
  3

 72
    65
 73
     0
 40
0.0
  0
LTYPE
  5
16
330
5
100
AcDbSymbolTableRecord
100
AcDbLinetypeTableRecord
  2
CONTINUOUS
 70
     0
  3
Solid line
 72
    65
 73
     0
 40
0.0
  0
LTYPE
  5
258
330
5
100
AcDbSymbolTableRecord
100
AcDbLinetypeTableRecord
  2
CENTER2
 70
     0
  3
___ _ ___ _ ___ _ ___ _ ___ _ ___ _ ___ _ ___ _
 72
    65
 73
     4
 40
1.125
 49
0.75
 74
     0
 49
-0.125
 74
     0
 49
0.125
 74
     0
 49
-0.125
 74
     0
  0
LTYPE
  5
25D
330
5
100
AcDbSymbolTableRecord
100
AcDbLinetypeTableRecord
  2
PHANTOM2
 70
     0
  3
___ _ _ ___ _ _ ___ _ _ ___ _ _ ___ _ _ ___ _ _
 72
    65
 73
     6
 40
1.25
 49
0.625
 74
     0
 49
-0.125
 74
     0
 49
0.125
 74
     0
 49
-0.125
 74
     0
 49
0.125
 74
     0
 49
-0.125
 74
     0
  0
ENDTAB
  0
TABLE
  2
LAYER
  5
2
330
0
100
AcDbSymbolTable
 70
    11
  0
LAYER
  5
F
330
2
100
AcDbSymbolTableRecord
100
AcDbLayerTableRecord
  2
0
 70
     0
 62
     7
  6
CONTINUOUS
  0
LAYER
  5
1AA
330
2
100
AcDbSymbolTableRecord
100
AcDbLayerTableRecord
  2
240
 70
     0
 62
     4
  6
CONTINUOUS
  0
LAYER
  5
1AB
330
2
100
AcDbSymbolTableRecord
100
AcDbLayerTableRecord
  2
241
 70
     0
 62
   211
  6
CONTINUOUS
  0
LAYER
  5
1AC
330
2
100
AcDbSymbolTableRecord
100
AcDbLayerTableRecord
  2
242
 70
     0
 62
     3
  6
CONTINUOUS
  0
LAYER
  5
1AF
330
2
100
AcDbSymbolTableRecord
100
AcDbLayerTableRecord
  2
245
 70
     0
 62
     2
  6
CENTER2
  0
LAYER
  5
21A
330
2
100
AcDbSymbolTableRecord
100
AcDbLayerTableRecord
  2
246
 70
     0
 62
     3
  6
PHANTOM2
  0
LAYER
  5
21B
330
2
100
AcDbSymbolTableRecord
100
AcDbLayerTableRecord
  2
247
 70
     0
 62
    60
  6
CONTINUOUS
  0
LAYER
  5
21E
330
2
100
AcDbSymbolTableRecord
100
AcDbLayerTableRecord
  2
250
 70
     0
 62
     3
  6
CONTINUOUS
  0
LAYER
  5
5C4
330
2
100
AcDbSymbolTableRecord
100
AcDbLayerTableRecord
  2
DEFPOINTS
 70
     0
 62
     7
  6
CONTINUOUS
  0
ENDTAB
  0
TABLE
  2
STYLE
  5
3
330
0
100
AcDbSymbolTable
 70
     2
  0
STYLE
  5
10
330
3
100
AcDbSymbolTableRecord
100
AcDbTextStyleTableRecord
  2
STANDARD
 70
     0
 40
0.0
 41
1.0
 50
0.0
 71
     0
 42
3.0
  3
romans.shx
  4
BIGFONT.SHX
  0
STYLE
  5
339
330
3
100
AcDbSymbolTableRecord
100
AcDbTextStyleTableRecord
  2
YOKO
 70
     0
 40
0.0
 41
1.0
 50
0.0
 71
     0
 42
3.0
  3
romans.shx
  4
extfont.shx
  0
ENDTAB
  0
TABLE
  2
VIEW
  5
6
330
0
100
AcDbSymbolTable
 70
     0
  0
ENDTAB
  0
TABLE
  2
UCS
  5
7
330
0
100
AcDbSymbolTable
 70
     0
  0
ENDTAB
  0
TABLE
  2
APPID
  5
9
330
0
100
AcDbSymbolTable
 70
     9
  0
APPID
  5
11
330
9
100
AcDbSymbolTableRecord
100
AcDbRegAppTableRecord
  2
ACAD
 70
     0
  0
APPID
  5
1B1
330
9
100
AcDbSymbolTableRecord
100
AcDbRegAppTableRecord
  2
GLOBAL
 70
     0
  0
APPID
  5
2A4
330
9
100
AcDbSymbolTableRecord
100
AcDbRegAppTableRecord
  2
DETAIL
 70
     0
  0
APPID
  5
5FD
330
9
100
AcDbSymbolTableRecord
100
AcDbRegAppTableRecord
  2
GRPNAME
 70
     0
  0
APPID
  5
5FE
330
9
100
AcDbSymbolTableRecord
100
AcDbRegAppTableRecord
  2
GPARA
 70
     0
  0
APPID
  5
9D4
330
9
100
AcDbSymbolTableRecord
100
AcDbRegAppTableRecord
  2
ITEMNAME
 70
     0
  0
APPID
  5
9D5
330
9
100
AcDbSymbolTableRecord
100
AcDbRegAppTableRecord
  2
HATCH_TYPE
 70
     0
  0
APPID
  5
9D6
330
9
100
AcDbSymbolTableRecord
100
AcDbRegAppTableRecord
  2
HATCH_DISPLAY
 70
     0
  0
APPID
  5
9D7
330
9
100
AcDbSymbolTableRecord
100
AcDbRegAppTableRecord
  2
HATCH_DISTANCE
 70
     0
  0
ENDTAB
  0
TABLE
  2
DIMSTYLE
  5
A
330
0
100
AcDbSymbolTable
 70
     2
  0
DIMSTYLE
105
48F
330
A
100
AcDbSymbolTableRecord
100
AcDbDimStyleTableRecord
  2
STANDARD
 70
     0
  3

  4

  5

  6

  7

 40
1.0
 41
2.0
 42
2.0
 43
3.75
 44
2.0
 45
0.0
 46
0.0
 47
0.0
 48
0.0
140
4.0
141
0.09
142
0.0
143
25.4
144
1.0
145
0.0
146
1.0
147
1.0
 71
     0
 72
     0
 73
     1
 74
     1
 75
     0
 76
     0
 77
     0
 78
     8
170
     0
171
     2
172
     0
173
     1
174
     0
175
     0
176
   256
177
   256
178
   256
270
     2
271
     3
272
     4
273
     2
274
     2
340
10
275
     0
280
     0
281
     0
282
     0
283
     1
284
     8
285
     0
286
     0
287
     3
288
     0
  0
DIMSTYLE
105
59A
102
{ACAD_REACTORS
330
13C9
330
13CA
330
13CB
330
1730
330
173F
330
1777
330
1784
102
}
330
A
100
AcDbSymbolTableRecord
100
AcDbDimStyleTableRecord
  2
BIGT
 70
     0
  3

  4

  5
OPEN
  6

  7

 40
1.0
 41
2.229999999999999
 42
0.5
 43
2.5
 44
1.0
 45
0.0
 46
0.0
 47
0.0
 48
0.0
140
3.5
141
0.0
142
0.0
143
25.4
144
1.0
145
0.0
146
1.0
147
1.0
 71
     0
 72
     0
 73
     0
 74
     0
 75
     0
 76
     0
 77
     3
 78
     9
170
     0
171
     2
172
     1
173
     0
174
     0
175
     0
176
   256
177
   256
178
    40
270
     2
271
     3
272
     3
273
     2
274
     2
340
10
275
     0
280
     0
281
     0
282
     0
283
     1
284
     8
285
     0
286
     0
287
     2
288
     0
  0
ENDTAB
  0
TABLE
  2
BLOCK_RECORD
  5
1
330
0
100
AcDbSymbolTable
 70
    16
  0
BLOCK_RECORD
  5
1A
102
{ACAD_XDICTIONARY
360
1964
102
}
330
1
100
AcDbSymbolTableRecord
100
AcDbBlockTableRecord
  2
*MODEL_SPACE
  0
BLOCK_RECORD
  5
17
102
{ACAD_XDICTIONARY
360
1962
102
}
330
1
100
AcDbSymbolTableRecord
100
AcDbBlockTableRecord
  2
*PAPER_SPACE
  0
BLOCK_RECORD
  5
594
330
1
100
AcDbSymbolTableRecord
100
AcDbBlockTableRecord
  2
_OPEN
  0
BLOCK_RECORD
  5
13F1
330
1
100
AcDbSymbolTableRecord
100
AcDbBlockTableRecord
  2
*D4
  0
BLOCK_RECORD
  5
13FD
330
1
100
AcDbSymbolTableRecord
100
AcDbBlockTableRecord
  2
*D5
  0
BLOCK_RECORD
  5
1409
330
1
100
AcDbSymbolTableRecord
100
AcDbBlockTableRecord
  2
*D6
  0
BLOCK_RECORD
  5
1731
330
1
100
AcDbSymbolTableRecord
100
AcDbBlockTableRecord
  2
*D9
  0
BLOCK_RECORD
  5
1740
330
1
100
AcDbSymbolTableRecord
100
AcDbBlockTableRecord
  2
*D10
  0
BLOCK_RECORD
  5
1778
330
1
100
AcDbSymbolTableRecord
100
AcDbBlockTableRecord
  2
*D13
  0
BLOCK_RECORD
  5
1785
330
1
100
AcDbSymbolTableRecord
100
AcDbBlockTableRecord
  2
*D14
  0
BLOCK_RECORD
  5
1870
330
1
100
AcDbSymbolTableRecord
100
AcDbBlockTableRecord
  2
A$C1CBD0FE5
  0
ENDTAB
  0
ENDSEC
  0
SECTION
  2
BLOCKS
  0
BLOCK
  5
1B
330
1A
100
AcDbEntity
  8
0
100
AcDbBlockBegin
  2
*MODEL_SPACE
 70
     0
 10
0.0
 20
0.0
 30
0.0
  3
*MODEL_SPACE
  1

  0
ENDBLK
  5
1C
330
1A
100
AcDbEntity
  8
0
100
AcDbBlockEnd
  0
BLOCK
  5
18
330
17
100
AcDbEntity
 67
     1
  8
0
100
AcDbBlockBegin
  2
*PAPER_SPACE
 70
     0
 10
0.0
 20
0.0
 30
0.0
  3
*PAPER_SPACE
  1

  0
ENDBLK
  5
19
330
17
100
AcDbEntity
 67
     1
  8
0
100
AcDbBlockEnd
  0
BLOCK
  5
598
330
594
100
AcDbEntity
  8
0
100
AcDbBlockBegin
  2
_OPEN
 70
     0
 10
0.0
 20
0.0
 30
0.0
  3
_OPEN
  1

  0
LINE
  5
595
330
594
100
AcDbEntity
  8
0
  6
BYBLOCK
 62
     0
100
AcDbLine
 10
-1.0
 20
0.1666666666666666
 30
0.0
 11
0.0
 21
0.0
 31
0.0
  0
LINE
  5
596
330
594
100
AcDbEntity
  8
0
  6
BYBLOCK
 62
     0
100
AcDbLine
 10
-1.0
 20
-0.1666666666666666
 30
0.0
 11
0.0
 21
0.0
 31
0.0
  0
LINE
  5
597
330
594
100
AcDbEntity
  8
0
  6
BYBLOCK
 62
     0
100
AcDbLine
 10
0.0
 20
0.0
 30
0.0
 11
-1.0
 21
0.0
 31
0.0
  0
ENDBLK
  5
599
330
594
100
AcDbEntity
  8
0
100
AcDbBlockEnd
  0
BLOCK
  5
13FB
330
13F1
100
AcDbEntity
  8
0
100
AcDbBlockBegin
  2
*D4
 70
     1
 10
0.0
 20
0.0
 30
0.0
  3
*D4
  1

  0
LINE
  5
143C
330
13F1
100
AcDbEntity
  8
250
  6
CONTINUOUS
100
AcDbLine
 10
-1.372792000000004
 20
-21.0
 30
0.0
 11
20.00000000000002
 21
-21.0
 31
0.0
  0
LINE
  5
143D
330
13F1
100
AcDbEntity
  8
250
  6
CONTINUOUS
100
AcDbLine
 10
-1.372792000000004
 20
21.0
 30
0.0
 11
20.00000000000003
 21
20.99999999999999
 31
0.0
  0
LINE
  5
143E
330
13F1
100
AcDbEntity
  8
250
  6
CONTINUOUS
100
AcDbLine
 10
19.00000000000002
 20
-18.77
 30
0.0
 11
19.00000000000003
 21
18.76999999999999
 31
0.0
  0
INSERT
  5
143F
330
13F1
100
AcDbEntity
  8
250
  6
CONTINUOUS
100
AcDbBlockReference
  2
_OPEN
 10
19.00000000000002
 20
-21.0
 30
0.0
 41
2.229999999999999
 42
2.229999999999999
 43
2.229999999999999
 50
270.0
  0
INSERT
  5
1440
330
13F1
100
AcDbEntity
  8
250
  6
CONTINUOUS
100
AcDbBlockReference
  2
_OPEN
 10
19.00000000000003
 20
20.99999999999999
 30
0.0
 41
2.229999999999999
 42
2.229999999999999
 43
2.229999999999999
 50
90.0
  0
MTEXT
  5
1441
330
13F1
100
AcDbEntity
  8
250
  6
CONTINUOUS
 62
    40
100
AcDbMText
 10
16.50000000000002
 20
-0.0000000000000009
 30
0.0
 40
3.0
 41
0.0
 71
     5
 72
     1
  1
\A1;{\H3;\U+2205}42
 11
0.0000000000000001
 21
1.0
 31
0.0
1001
ACAD
1000
MTEXTBEGIN
1070
    73
1070
     1
1070
    44
1040
1.0
1070
    74
1070
     0
1000
MTEXTEND
  0
POINT
  5
1442
330
13F1
100
AcDbEntity
  8
DEFPOINTS
  6
CONTINUOUS
 62
     0
100
AcDbPoint
 10
-1.872792000000004
 20
-21.0
 30
0.0
  0
POINT
  5
1443
330
13F1
100
AcDbEntity
  8
DEFPOINTS
  6
CONTINUOUS
 62
     0
100
AcDbPoint
 10
-1.872792000000004
 20
21.0
 30
0.0
  0
POINT
  5
1444
330
13F1
100
AcDbEntity
  8
DEFPOINTS
  6
CONTINUOUS
 62
     0
100
AcDbPoint
 10
19.00000000000003
 20
20.99999999999999
 30
0.0
  0
ENDBLK
  5
13FC
330
13F1
100
AcDbEntity
  8
0
100
AcDbBlockEnd
  0
BLOCK
  5
1407
330
13FD
100
AcDbEntity
  8
0
100
AcDbBlockBegin
  2
*D5
 70
     1
 10
0.0
 20
0.0
 30
0.0
  3
*D5
  1

  0
LINE
  5
1966
330
13FD
100
AcDbEntity
  8
250
  6
CONTINUOUS
100
AcDbLine
 10
0.5
 20
-8.0
 30
0.0
 11
12.99999999999999
 21
-8.000000000000003
 31
0.0
  0
LINE
  5
1967
330
13FD
100
AcDbEntity
  8
250
  6
CONTINUOUS
100
AcDbLine
 10
0.5
 20
8.0
 30
0.0
 11
13.0
 21
7.999999999999996
 31
0.0
  0
LINE
  5
1968
330
13FD
100
AcDbEntity
  8
250
  6
CONTINUOUS
100
AcDbLine
 10
11.99999999999999
 20
-5.770000000000002
 30
0.0
 11
12.0
 21
5.769999999999996
 31
0.0
  0
MTEXT
  5
1969
330
13FD
100
AcDbEntity
  8
250
  6
CONTINUOUS
 62
    40
100
AcDbMText
 10
9.467372055810528
 20
3.746398860227145
 30
0.0
 40
3.0
 41
0.0
 71
     5
 72
     1
  1
\A1;MAX.%%C16
 11
0.0000000000000001
 21
1.0
 31
0.0
  0
INSERT
  5
196A
330
13FD
100
AcDbEntity
  8
250
  6
CONTINUOUS
100
AcDbBlockReference
  2
_OPEN
 10
11.99999999999999
 20
-8.000000000000001
 30
0.0
 41
2.229999999999999
 42
2.229999999999999
 43
2.229999999999999
 50
270.0
  0
INSERT
  5
196B
330
13FD
100
AcDbEntity
  8
250
  6
CONTINUOUS
100
AcDbBlockReference
  2
_OPEN
 10
12.0
 20
7.999999999999996
 30
0.0
 41
2.229999999999999
 42
2.229999999999999
 43
2.229999999999999
 50
90.0
  0
POINT
  5
196C
330
13FD
100
AcDbEntity
  8
DEFPOINTS
  6
CONTINUOUS
 62
     0
100
AcDbPoint
 10
0.0
 20
-8.0
 30
0.0
  0
POINT
  5
196D
330
13FD
100
AcDbEntity
  8
DEFPOINTS
  6
CONTINUOUS
 62
     0
100
AcDbPoint
 10
0.0
 20
8.0
 30
0.0
  0
POINT
  5
196E
330
13FD
100
AcDbEntity
  8
DEFPOINTS
  6
CONTINUOUS
 62
     0
100
AcDbPoint
 10
12.0
 20
7.999999999999996
 30
0.0
  0
ENDBLK
  5
1408
330
13FD
100
AcDbEntity
  8
0
100
AcDbBlockEnd
  0
BLOCK
  5
1413
330
1409
100
AcDbEntity
  8
0
100
AcDbBlockBegin
  2
*D6
 70
     1
 10
0.0
 20
0.0
 30
0.0
  3
*D6
  1

  0
LINE
  5
144E
330
1409
100
AcDbEntity
  8
250
  6
CONTINUOUS
100
AcDbLine
 10
-58.0
 20
-8.5
 30
0.0
 11
-58.0
 21
-43.0
 31
0.0
  0
LINE
  5
144F
330
1409
100
AcDbEntity
  8
250
  6
CONTINUOUS
100
AcDbLine
 10
0.0
 20
-19.668629
 30
0.0
 11
-0.0000000000000015
 21
-43.0
 31
0.0
  0
LINE
  5
1450
330
1409
100
AcDbEntity
  8
250
  6
CONTINUOUS
100
AcDbLine
 10
-55.77
 20
-42.0
 30
0.0
 11
-2.230000000000001
 21
-42.0
 31
0.0
  0
INSERT
  5
1451
330
1409
100
AcDbEntity
  8
250
  6
CONTINUOUS
100
AcDbBlockReference
  2
_OPEN
 10
-58.0
 20
-42.0
 30
0.0
 41
2.229999999999999
 42
2.229999999999999
 43
2.229999999999999
 50
180.0
  0
INSERT
  5
1452
330
1409
100
AcDbEntity
  8
250
  6
CONTINUOUS
100
AcDbBlockReference
  2
_OPEN
 10
-0.0000000000000014
 20
-42.0
 30
0.0
 41
2.229999999999999
 42
2.229999999999999
 43
2.229999999999999
  0
MTEXT
  5
1453
330
1409
100
AcDbEntity
  8
250
  6
CONTINUOUS
 62
    40
100
AcDbMText
 10
-29.0
 20
-39.5
 30
0.0
 40
3.0
 41
0.0
 71
     5
 72
     1
  1
\A1;45～65
1001
ACAD
1000
MTEXTBEGIN
1070
    73
1070
     1
1070
    44
1040
1.0
1070
    74
1070
     0
1000
MTEXTEND
  0
POINT
  5
1454
330
1409
100
AcDbEntity
  8
DEFPOINTS
  6
CONTINUOUS
 62
     0
100
AcDbPoint
 10
-58.0
 20
-8.0
 30
0.0
  0
POINT
  5
1455
330
1409
100
AcDbEntity
  8
DEFPOINTS
  6
CONTINUOUS
 62
     0
100
AcDbPoint
 10
0.0
 20
-19.168629
 30
0.0
  0
POINT
  5
1456
330
1409
100
AcDbEntity
  8
DEFPOINTS
  6
CONTINUOUS
 62
     0
100
AcDbPoint
 10
-0.0000000000000014
 20
-42.0
 30
0.0
  0
ENDBLK
  5
1414
330
1409
100
AcDbEntity
  8
0
100
AcDbBlockEnd
  0
BLOCK
  5
173B
330
1731
100
AcDbEntity
  8
0
100
AcDbBlockBegin
  2
*D9
 70
     1
 10
0.0
 20
0.0
 30
0.0
  3
*D9
  1

  0
LINE
  5
1866
330
1731
100
AcDbEntity
  8
250
  6
CONTINUOUS
100
AcDbLine
 10
-107.5
 20
-16.0
 30
0.0
 11
-134.0
 21
-15.99999999999999
 31
0.0
  0
LINE
  5
1867
330
1731
100
AcDbEntity
  8
250
  6
CONTINUOUS
100
AcDbLine
 10
-107.4999999999999
 20
16.0
 30
0.0
 11
-134.0
 21
16.0
 31
0.0
  0
LINE
  5
1868
330
1731
100
AcDbEntity
  8
250
  6
CONTINUOUS
100
AcDbLine
 10
-133.0
 20
-13.76999999999999
 30
0.0
 11
-133.0
 21
13.77
 31
0.0
  0
INSERT
  5
1869
330
1731
100
AcDbEntity
  8
250
  6
CONTINUOUS
100
AcDbBlockReference
  2
_OPEN
 10
-133.0
 20
-15.99999999999999
 30
0.0
 41
2.229999999999999
 42
2.229999999999999
 43
2.229999999999999
 50
270.0
  0
INSERT
  5
186A
330
1731
100
AcDbEntity
  8
250
  6
CONTINUOUS
100
AcDbBlockReference
  2
_OPEN
 10
-133.0
 20
16.0
 30
0.0
 41
2.229999999999999
 42
2.229999999999999
 43
2.229999999999999
 50
90.0
  0
MTEXT
  5
186B
330
1731
100
AcDbEntity
  8
250
  6
CONTINUOUS
 62
    40
100
AcDbMText
 10
-135.4999999999999
 20
-0.0000000000000146
 30
0.0
 40
3.0
 41
0.0
 71
     5
 72
     1
  1
\A1;{\H3;\U+2205}32
 11
0.0000000000000001
 21
1.0
 31
0.0
1001
ACAD
1000
MTEXTBEGIN
1070
    73
1070
     1
1070
    44
1040
1.0
1070
    74
1070
     0
1000
MTEXTEND
  0
POINT
  5
186C
330
1731
100
AcDbEntity
  8
DEFPOINTS
  6
CONTINUOUS
 62
     0
100
AcDbPoint
 10
-107.0
 20
-16.0
 30
0.0
  0
POINT
  5
186D
330
1731
100
AcDbEntity
  8
DEFPOINTS
  6
CONTINUOUS
 62
     0
100
AcDbPoint
 10
-106.9999999999999
 20
16.0
 30
0.0
  0
POINT
  5
186E
330
1731
100
AcDbEntity
  8
DEFPOINTS
  6
CONTINUOUS
 62
     0
100
AcDbPoint
 10
-133.0
 20
16.0
 30
0.0
  0
ENDBLK
  5
173C
330
1731
100
AcDbEntity
  8
0
100
AcDbBlockEnd
  0
BLOCK
  5
174A
330
1740
100
AcDbEntity
  8
0
100
AcDbBlockBegin
  2
*D10
 70
     1
 10
0.0
 20
0.0
 30
0.0
  3
*D10
  1

  0
LINE
  5
174D
330
1740
100
AcDbEntity
  8
250
  6
CONTINUOUS
100
AcDbLine
 10
-121.5
 20
13.5
 30
0.0
 11
-121.5
 21
43.0
 31
0.0
  0
LINE
  5
174E
330
1740
100
AcDbEntity
  8
250
  6
CONTINUOUS
100
AcDbLine
 10
0.0
 20
19.668629
 30
0.0
 11
0.0000000000000015
 21
43.0
 31
0.0
  0
LINE
  5
174F
330
1740
100
AcDbEntity
  8
250
  6
CONTINUOUS
100
AcDbLine
 10
-119.27
 20
42.0
 30
0.0
 11
-2.229999999999998
 21
42.0
 31
0.0
  0
INSERT
  5
1750
330
1740
100
AcDbEntity
  8
250
  6
CONTINUOUS
100
AcDbBlockReference
  2
_OPEN
 10
-121.5
 20
42.0
 30
0.0
 41
2.229999999999999
 42
2.229999999999999
 43
2.229999999999999
 50
180.0
  0
INSERT
  5
1751
330
1740
100
AcDbEntity
  8
250
  6
CONTINUOUS
100
AcDbBlockReference
  2
_OPEN
 10
0.0000000000000014
 20
42.0
 30
0.0
 41
2.229999999999999
 42
2.229999999999999
 43
2.229999999999999
  0
MTEXT
  5
1752
330
1740
100
AcDbEntity
  8
250
  6
CONTINUOUS
 62
    40
100
AcDbMText
 10
-60.75
 20
44.5
 30
0.0
 40
3.0
 41
0.0
 71
     5
 72
     1
  1
\A1;121.5
1001
ACAD
1000
MTEXTBEGIN
1070
    73
1070
     1
1070
    44
1040
1.0
1070
    74
1070
     0
1000
MTEXTEND
  0
POINT
  5
1753
330
1740
100
AcDbEntity
  8
DEFPOINTS
  6
CONTINUOUS
 62
     0
100
AcDbPoint
 10
-121.5
 20
13.0
 30
0.0
  0
POINT
  5
1754
330
1740
100
AcDbEntity
  8
DEFPOINTS
  6
CONTINUOUS
 62
     0
100
AcDbPoint
 10
0.0
 20
19.168629
 30
0.0
  0
POINT
  5
1755
330
1740
100
AcDbEntity
  8
DEFPOINTS
  6
CONTINUOUS
 62
     0
100
AcDbPoint
 10
0.0000000000000014
 20
42.0
 30
0.0
  0
ENDBLK
  5
174B
330
1740
100
AcDbEntity
  8
0
100
AcDbBlockEnd
  0
BLOCK
  5
1782
330
1778
100
AcDbEntity
  8
0
100
AcDbBlockBegin
  2
*D13
 70
     1
 10
0.0
 20
0.0
 30
0.0
  3
*D13
  1

  0
LINE
  5
1779
330
1778
100
AcDbEntity
  8
250
  6
CONTINUOUS
100
AcDbLine
 10
-16.0
 20
18.5
 30
0.0
 11
-15.99999999999999
 21
36.0
 31
0.0
  0
LINE
  5
177A
330
1778
100
AcDbEntity
  8
250
  6
CONTINUOUS
100
AcDbLine
 10
0.0
 20
19.668629
 30
0.0
 11
0.000000000000001
 21
36.0
 31
0.0
  0
LINE
  5
177B
330
1778
100
AcDbEntity
  8
250
  6
CONTINUOUS
100
AcDbLine
 10
-13.76999999999999
 20
35.0
 30
0.0
 11
-2.229999999999999
 21
35.0
 31
0.0
  0
INSERT
  5
177C
330
1778
100
AcDbEntity
  8
250
  6
CONTINUOUS
100
AcDbBlockReference
  2
_OPEN
 10
-15.99999999999999
 20
35.0
 30
0.0
 41
2.229999999999999
 42
2.229999999999999
 43
2.229999999999999
 50
180.0
  0
INSERT
  5
177D
330
1778
100
AcDbEntity
  8
250
  6
CONTINUOUS
100
AcDbBlockReference
  2
_OPEN
 10
0.000000000000001
 20
35.0
 30
0.0
 41
2.229999999999999
 42
2.229999999999999
 43
2.229999999999999
  0
MTEXT
  5
177E
330
1778
100
AcDbEntity
  8
250
  6
CONTINUOUS
 62
    40
100
AcDbMText
 10
-7.999999999999998
 20
37.5
 30
0.0
 40
3.0
 41
0.0
 71
     5
 72
     1
  1
\A1;16
1001
ACAD
1000
MTEXTBEGIN
1070
    73
1070
     1
1070
    44
1040
1.0
1070
    74
1070
     0
1000
MTEXTEND
  0
POINT
  5
177F
330
1778
100
AcDbEntity
  8
DEFPOINTS
  6
CONTINUOUS
 62
     0
100
AcDbPoint
 10
-16.0
 20
18.0
 30
0.0
  0
POINT
  5
1780
330
1778
100
AcDbEntity
  8
DEFPOINTS
  6
CONTINUOUS
 62
     0
100
AcDbPoint
 10
0.0
 20
19.168629
 30
0.0
  0
POINT
  5
1781
330
1778
100
AcDbEntity
  8
DEFPOINTS
  6
CONTINUOUS
 62
     0
100
AcDbPoint
 10
0.000000000000001
 20
35.0
 30
0.0
  0
ENDBLK
  5
1783
330
1778
100
AcDbEntity
  8
0
100
AcDbBlockEnd
  0
BLOCK
  5
178F
330
1785
100
AcDbEntity
  8
0
100
AcDbBlockBegin
  2
*D14
 70
     1
 10
0.0
 20
0.0
 30
0.0
  3
*D14
  1

  0
LINE
  5
1786
330
1785
100
AcDbEntity
  8
250
  6
CONTINUOUS
100
AcDbLine
 10
-121.5
 20
13.5
 30
0.0
 11
-121.5
 21
36.0
 31
0.0
  0
LINE
  5
1787
330
1785
100
AcDbEntity
  8
250
  6
CONTINUOUS
100
AcDbLine
 10
-16.0
 20
18.5
 30
0.0
 11
-15.99999999999999
 21
36.0
 31
0.0
  0
LINE
  5
1788
330
1785
100
AcDbEntity
  8
250
  6
CONTINUOUS
100
AcDbLine
 10
-119.27
 20
35.0
 30
0.0
 11
-18.22999999999999
 21
35.0
 31
0.0
  0
INSERT
  5
1789
330
1785
100
AcDbEntity
  8
250
  6
CONTINUOUS
100
AcDbBlockReference
  2
_OPEN
 10
-121.5
 20
35.0
 30
0.0
 41
2.229999999999999
 42
2.229999999999999
 43
2.229999999999999
 50
180.0
  0
INSERT
  5
178A
330
1785
100
AcDbEntity
  8
250
  6
CONTINUOUS
100
AcDbBlockReference
  2
_OPEN
 10
-15.99999999999999
 20
35.0
 30
0.0
 41
2.229999999999999
 42
2.229999999999999
 43
2.229999999999999
  0
MTEXT
  5
178B
330
1785
100
AcDbEntity
  8
250
  6
CONTINUOUS
 62
    40
100
AcDbMText
 10
-68.75
 20
37.5
 30
0.0
 40
3.0
 41
0.0
 71
     5
 72
     1
  1
\A1;105.5
1001
ACAD
1000
MTEXTBEGIN
1070
    73
1070
     1
1070
    44
1040
1.0
1070
    74
1070
     0
1000
MTEXTEND
  0
POINT
  5
178C
330
1785
100
AcDbEntity
  8
DEFPOINTS
  6
CONTINUOUS
 62
     0
100
AcDbPoint
 10
-121.5
 20
13.0
 30
0.0
  0
POINT
  5
178D
330
1785
100
AcDbEntity
  8
DEFPOINTS
  6
CONTINUOUS
 62
     0
100
AcDbPoint
 10
-16.0
 20
18.0
 30
0.0
  0
POINT
  5
178E
330
1785
100
AcDbEntity
  8
DEFPOINTS
  6
CONTINUOUS
 62
     0
100
AcDbPoint
 10
-15.99999999999999
 20
35.0
 30
0.0
  0
ENDBLK
  5
1790
330
1785
100
AcDbEntity
  8
0
100
AcDbBlockEnd
  0
BLOCK
  5
1937
330
1870
100
AcDbEntity
  8
0
100
AcDbBlockBegin
  2
A$C1CBD0FE5
 70
     0
 10
0.0
 20
0.0
 30
0.0
  3
A$C1CBD0FE5
  1

  0
LINE
  5
1871
330
1870
100
AcDbEntity
  8
240
100
AcDbLine
 10
-106.9999999999999
 20
16.0
 30
0.0
 11
-16.0
 21
16.0
 31
0.0
  0
ARC
  5
1872
330
1870
100
AcDbEntity
  8
247
100
AcDbCircle
 10
-45.45618949137907
 20
-12.56124293203795
 30
0.0
 40
0.2728103756904602
100
AcDbArc
 50
261.6626016879294
 51
66.33815509518976
  0
LINE
  5
1873
330
1870
100
AcDbEntity
  8
247
100
AcDbLine
 10
-45.30811533362927
 20
-12.33211514042148
 30
0.0
 11
-45.12053884584866
 21
-12.14453865264088
 31
0.0
  0
HATCH
  5
1874
330
1870
100
AcDbEntity
  8
247
100
AcDbHatch
 10
0.0
 20
0.0
 30
0.0
210
0.0
220
0.0
230
1.0
  2
ANSI31
 70
     0
 71
     1
 91
        1
 92
       33
 93
       10
 72
     1
 10
-45.93648429118373
 20
-12.12473551626647
 11
-45.98863501750209
 21
-12.30661417837584
 72
     1
 10
-46.31208625041225
 20
-12.12473551626647
 11
-45.93648429118373
 21
-12.12473551626647
 72
     1
 10
-46.31208625041225
 20
-12.30661417837584
 11
-45.98863501750209
 21
-12.30661417837584
 72
     2
 10
-46.31208625041227
 20
-13.07959162588561
 40
0.7729774475097657
 50
90.0
 51
270.0
 73
     1
 72
     2
 10
-46.31208625041227
 20
-13.07959162588561
 40
0.9548561096191406
 50
90.0
 51
270.0
 73
     1
 72
     1
 10
-46.31208625041225
 20
-14.03444794540062
 11
-42.6199727555392
 21
-14.03444794540062
 72
     1
 10
-46.31208625041225
 20
-13.85256928797209
 11
-42.6199727555392
 21
-13.85256928797209
 72
     2
 10
-42.61997275553922
 20
-13.07959162588561
 40
0.9548561096191406
 50
270.0
 51
464.7707939660941
 73
     1
 72
     2
 10
-42.61997275553922
 20
-13.07959162588561
 40
0.7729774475097657
 50
270.0
 51
464.1274364964119
 73
     1
 72
     1
 10
-42.80864234172084
 20
-12.32998759146178
 11
-42.86341605387906
 21
-12.15628687735045
 97
       10
330
18A9
330
18AF
330
18B0
330
18B6
330
1889
330
1875
330
1876
330
18BF
330
18E4
330
1904
 75
     0
 76
     1
 52
360.0
 41
0.045
 77
     0
 78
     1
 53
44.99999999999996
 43
-101.1769363518832
 44
-21.12194344397029
 45
-0.101027881362028
 46
0.101027881362028
 79
     0
 98
        1
 10
-101.1769363518832
 20
-21.12194344397029
  0
LINE
  5
1875
102
{ACAD_REACTORS
330
1874
102
}
330
1870
100
AcDbEntity
  8
247
100
AcDbLine
 10
-46.31208625041225
 20
-14.03444794540062
 30
0.0
 11
-42.6199727555392
 21
-14.03444794540062
 31
0.0
  0
LINE
  5
1876
102
{ACAD_REACTORS
330
1874
102
}
330
1870
100
AcDbEntity
  8
247
100
AcDbLine
 10
-46.31208625041225
 20
-13.85256928797209
 30
0.0
 11
-42.6199727555392
 21
-13.85256928797209
 31
0.0
  0
LINE
  5
1877
330
1870
100
AcDbEntity
  8
247
100
AcDbLine
 10
-45.727351336505
 20
-13.76162995691741
 30
0.0
 11
-45.05999717259036
 21
-13.0942757930028
 31
0.0
  0
LINE
  5
1878
330
1870
100
AcDbEntity
  8
247
100
AcDbLine
 10
-45.28914927654954
 20
-13.72753942241012
 30
0.0
 11
-45.04128918020614
 21
-13.4796793260667
 31
0.0
  0
ARC
  5
1879
330
1870
100
AcDbEntity
  8
247
100
AcDbCircle
 10
-45.46188864909392
 20
-13.30693995352233
 30
0.0
 40
0.4546897888183594
100
AcDbArc
 50
270.0
 51
40.32984065416715
  0
LINE
  5
187A
330
1870
100
AcDbEntity
  8
247
100
AcDbLine
 10
-45.52529557378091
 20
-13.76162995691744
 30
0.0
 11
-45.01110834336554
 21
-13.24744272650203
 31
0.0
  0
LINE
  5
187B
330
1870
100
AcDbEntity
  8
247
100
AcDbLine
 10
-45.39827318069496
 20
-13.23049603838336
 30
0.0
 11
-44.80188537513611
 21
-12.63410823282451
 31
0.0
  0
LINE
  5
187C
330
1870
100
AcDbEntity
  8
247
100
AcDbLine
 10
-45.46880489058604
 20
-13.09897198555041
 30
0.0
 11
-44.81795596602622
 21
-12.44812306099057
 31
0.0
  0
ARC
  5
187D
330
1870
100
AcDbEntity
  8
247
100
AcDbCircle
 10
-45.2532788773654
 20
-12.57942530508483
 30
0.0
 40
0.4546936511993409
100
AcDbArc
 50
287.6695775473979
 51
90.23615984267163
  0
LINE
  5
187E
330
1870
100
AcDbEntity
  8
240
100
AcDbLine
 10
-107.0
 20
-16.0
 30
0.0
 11
-16.0
 21
-16.0
 31
0.0
  0
LINE
  5
187F
330
1870
100
AcDbEntity
  8
242
100
AcDbLine
 10
-26.5
 20
8.58778201865878
 30
0.0
 11
-121.5
 21
-8.58778201865878
 31
0.0
  0
LINE
  5
1880
330
1870
100
AcDbEntity
  8
242
100
AcDbLine
 10
-121.5
 20
8.587782018658778
 30
0.0
 11
-26.50000263799197
 21
-8.5877861655828
 31
0.0
  0
LINE
  5
1881
330
1870
100
AcDbEntity
  8
241
100
AcDbLine
 10
-26.5
 20
8.58778201865878
 30
0.0
 11
-121.5
 21
8.587782018658778
 31
0.0
  0
LINE
  5
1882
330
1870
100
AcDbEntity
  8
241
100
AcDbLine
 10
-26.5
 20
-8.587782018658781
 30
0.0
 11
-121.5
 21
-8.58778201865878
 31
0.0
  0
LINE
  5
1883
330
1870
100
AcDbEntity
  8
245
100
AcDbLine
 10
3.18173200000001
 20
0.0
 30
0.0
 11
-124.2208440928115
 21
0.0
 31
0.0
  0
LINE
  5
1884
330
1870
100
AcDbEntity
  8
240
100
AcDbLine
 10
-109.4999999999999
 20
13.5
 30
0.0
 11
-121.0
 21
13.5
 31
0.0
  0
LINE
  5
1885
330
1870
100
AcDbEntity
  8
240
100
AcDbLine
 10
-109.4999999999999
 20
-13.5
 30
0.0
 11
-121.0
 21
-13.5
 31
0.0
  0
LINE
  5
1886
330
1870
100
AcDbEntity
  8
240
100
AcDbLine
 10
-121.5
 20
-13.0
 30
0.0
 11
-121.5
 21
13.0
 31
0.0
  0
LINE
  5
1887
330
1870
100
AcDbEntity
  8
240
100
AcDbLine
 10
-121.5
 20
-13.0
 30
0.0
 11
-121.0
 21
-13.5
 31
0.0
  0
LINE
  5
1888
330
1870
100
AcDbEntity
  8
240
100
AcDbLine
 10
-121.0
 20
13.5
 30
0.0
 11
-121.5
 21
13.0
 31
0.0
  0
ARC
  5
1889
102
{ACAD_REACTORS
330
1874
102
}
330
1870
100
AcDbEntity
  8
247
100
AcDbCircle
 10
-46.31208625041227
 20
-13.07959162588561
 30
0.0
 40
0.9548561096191406
100
AcDbArc
 50
90.0
 51
270.0
  0
LINE
  5
188A
330
1870
100
AcDbEntity
  8
240
100
AcDbLine
 10
-107.0
 20
-16.0
 30
0.0
 11
-109.4999999999999
 21
-13.5
 31
0.0
  0
ARC
  5
188B
330
1870
100
AcDbEntity
  8
246
100
AcDbCircle
 10
-77.0
 20
7.25
 30
0.0
 40
1.0
100
AcDbArc
 50
90.0
 51
180.0
  0
ARC
  5
188C
330
1870
100
AcDbEntity
  8
246
100
AcDbCircle
 10
-77.0
 20
-7.25
 30
0.0
 40
1.0
100
AcDbArc
 50
180.0
 51
270.0
  0
LINE
  5
188D
330
1870
100
AcDbEntity
  8
240
100
AcDbLine
 10
-106.9999999999999
 20
16.0
 30
0.0
 11
-109.4999999999999
 21
13.5
 31
0.0
  0
LINE
  5
188E
330
1870
100
AcDbEntity
  8
246
100
AcDbLine
 10
-58.0
 20
8.0
 30
0.0
 11
-63.69059900000014
 21
2.309400999999979
 31
0.0
  0
LINE
  5
188F
330
1870
100
AcDbEntity
  8
246
100
AcDbLine
 10
-78.0
 20
7.25
 30
0.0
 11
-78.0
 21
-7.25
 31
0.0
  0
LINE
  5
1890
330
1870
100
AcDbEntity
  8
246
100
AcDbLine
 10
-58.0
 20
-8.300000000000068
 30
0.0
 11
-58.0
 21
8.299999999999954
 31
0.0
  0
LINE
  5
1891
330
1870
100
AcDbEntity
  8
246
100
AcDbLine
 10
-58.0
 20
-8.0
 30
0.0
 11
-63.69059900000014
 21
-2.309400999999979
 31
0.0
  0
LINE
  5
1892
330
1870
100
AcDbEntity
  8
246
100
AcDbLine
 10
-72.25
 20
-9.0
 30
0.0
 11
-58.70000000000004
 21
-9.0
 31
0.0
  0
LINE
  5
1893
330
1870
100
AcDbEntity
  8
246
100
AcDbLine
 10
-72.60000000000002
 20
-8.65000000000009
 30
0.0
 11
-58.35000000000002
 21
-8.65000000000009
 31
0.0
  0
LINE
  5
1894
330
1870
100
AcDbEntity
  8
246
100
AcDbLine
 10
-77.0
 20
-8.25
 30
0.0
 11
-73.0
 21
-8.25
 31
0.0
  0
LINE
  5
1895
330
1870
100
AcDbEntity
  8
246
100
AcDbLine
 10
-73.0
 20
-8.25
 30
0.0
 11
-72.25
 21
-9.0
 31
0.0
  0
LINE
  5
1896
330
1870
100
AcDbEntity
  8
246
100
AcDbLine
 10
-68.0
 20
-3.0
 30
0.0
 11
-78.0
 21
-3.0
 31
0.0
  0
LINE
  5
1897
330
1870
100
AcDbEntity
  8
246
100
AcDbLine
 10
-68.0
 20
3.0
 30
0.0
 11
-78.0
 21
3.0
 31
0.0
  0
LINE
  5
1898
330
1870
100
AcDbEntity
  8
246
100
AcDbLine
 10
-67.60128300000008
 20
-2.309400999999979
 30
0.0
 11
-67.60128300000008
 21
2.309400999999979
 31
0.0
  0
LINE
  5
1899
330
1870
100
AcDbEntity
  8
246
100
AcDbLine
 10
-63.69059900000014
 20
-2.309400999999979
 30
0.0
 11
-63.69059900000014
 21
2.309400999999979
 31
0.0
  0
LINE
  5
189A
330
1870
100
AcDbEntity
  8
246
100
AcDbLine
 10
-67.60128300000008
 20
-1.154701000000045
 30
0.0
 11
-63.69059900000014
 21
-1.154701000000045
 31
0.0
  0
LINE
  5
189B
330
1870
100
AcDbEntity
  8
246
100
AcDbLine
 10
-67.60128300000008
 20
-2.309400999999979
 30
0.0
 11
-63.69059900000014
 21
-2.309400999999979
 31
0.0
  0
LINE
  5
189C
330
1870
100
AcDbEntity
  8
246
100
AcDbLine
 10
-68.0
 20
-3.0
 30
0.0
 11
-68.0
 21
-1.893369000000006
 31
0.0
  0
LINE
  5
189D
330
1870
100
AcDbEntity
  8
246
100
AcDbLine
 10
-67.60128300000008
 20
-2.309400999999979
 30
0.0
 11
-68.0
 21
-3.0
 31
0.0
  0
LINE
  5
189E
330
1870
100
AcDbEntity
  8
246
100
AcDbLine
 10
-67.60128300000008
 20
2.309400999999979
 30
0.0
 11
-63.69059900000014
 21
2.309400999999979
 31
0.0
  0
LINE
  5
189F
330
1870
100
AcDbEntity
  8
246
100
AcDbLine
 10
-67.60128300000008
 20
1.154699999999934
 30
0.0
 11
-63.69059900000014
 21
1.154699999999934
 31
0.0
  0
LINE
  5
18A0
330
1870
100
AcDbEntity
  8
246
100
AcDbLine
 10
-68.0
 20
3.0
 30
0.0
 11
-68.0
 21
1.893367999999895
 31
0.0
  0
LINE
  5
18A1
330
1870
100
AcDbEntity
  8
246
100
AcDbLine
 10
-67.60128300000008
 20
2.309400999999979
 30
0.0
 11
-68.0
 21
3.0
 31
0.0
  0
LINE
  5
18A2
330
1870
100
AcDbEntity
  8
246
100
AcDbLine
 10
-58.70000000000004
 20
-9.0
 30
0.0
 11
-58.0
 21
-8.300000000000068
 31
0.0
  0
LINE
  5
18A3
330
1870
100
AcDbEntity
  8
247
100
AcDbLine
 10
-45.34669961603821
 20
-12.31136802677093
 30
0.0
 11
-45.49574713494719
 21
-12.83117013318617
 31
0.0
  0
LINE
  5
18A4
330
1870
100
AcDbEntity
  8
247
100
AcDbLine
 10
-45.89403586589098
 20
-12.30661417837584
 30
0.0
 11
-45.79942984782456
 21
-12.30661417837639
 31
0.0
  0
LINE
  5
18A5
330
1870
100
AcDbEntity
  8
247
100
AcDbLine
 10
-45.8418851395723
 20
-12.12473551626647
 30
0.0
 11
-45.89403586589098
 21
-12.30661417837584
 31
0.0
  0
LINE
  5
18A6
330
1870
100
AcDbEntity
  8
247
100
AcDbLine
 10
-45.84473960065047
 20
-12.46462788199452
 30
0.0
 11
-45.50484723492245
 21
-12.12473551626654
 31
0.0
  0
LINE
  5
18A7
330
1870
100
AcDbEntity
  8
247
100
AcDbLine
 10
-45.92597097365665
 20
-12.74791501772478
 30
0.0
 11
-45.3027914721984
 21
-12.12473551626654
 31
0.0
  0
LINE
  5
18A8
330
1870
100
AcDbEntity
  8
247
100
AcDbLine
 10
-45.88878165975587
 20
-12.30661417837588
 30
0.0
 11
-45.7069029976465
 21
-12.1247355162665
 31
0.0
  0
LINE
  5
18A9
102
{ACAD_REACTORS
330
1874
102
}
330
1870
100
AcDbEntity
  8
247
100
AcDbLine
 10
-45.93648429118373
 20
-12.12473551626647
 30
0.0
 11
-45.98863501750209
 21
-12.30661417837584
 31
0.0
  0
LINE
  5
18AA
330
1870
100
AcDbEntity
  8
247
100
AcDbLine
 10
-45.8418851395723
 20
-12.12473551626647
 30
0.0
 11
-45.25515301326157
 21
-12.12473551626654
 31
0.0
  0
ARC
  5
18AB
330
1870
100
AcDbEntity
  8
247
100
AcDbCircle
 10
-45.66479926310758
 20
-13.28875071402037
 30
0.0
 40
0.2728181809186935
100
AcDbArc
 50
261.6628542111488
 51
66.33819215911005
  0
LINE
  5
18AC
330
1870
100
AcDbEntity
  8
247
100
AcDbLine
 10
-45.55530721701161
 20
-13.0388682382813
 30
0.0
 11
-45.70435718794064
 21
-13.55868576254631
 31
0.0
  0
LINE
  5
18AD
330
1870
100
AcDbEntity
  8
247
100
AcDbLine
 10
-45.92940709922904
 20
-13.76162995691741
 30
0.0
 11
-45.69547060540605
 21
-13.52769346309444
 31
0.0
  0
LINE
  5
18AE
330
1870
100
AcDbEntity
  8
247
100
AcDbLine
 10
-46.00720234666286
 20
-13.031202153455
 30
0.0
 11
-45.37055150533119
 21
-12.39455131212335
 31
0.0
  0
LINE
  5
18AF
102
{ACAD_REACTORS
330
1874
102
}
330
1870
100
AcDbEntity
  8
247
100
AcDbLine
 10
-46.31208625041225
 20
-12.12473551626647
 30
0.0
 11
-45.93648429118373
 21
-12.12473551626647
 31
0.0
  0
LINE
  5
18B0
102
{ACAD_REACTORS
330
1874
102
}
330
1870
100
AcDbEntity
  8
247
100
AcDbLine
 10
-46.31208625041225
 20
-12.30661417837584
 30
0.0
 11
-45.98863501750209
 21
-12.30661417837584
 31
0.0
  0
LINE
  5
18B1
330
1870
100
AcDbEntity
  8
247
100
AcDbLine
 10
-46.13146286195308
 20
-13.76162995691741
 30
0.0
 11
-45.61424341794292
 21
-13.24441051290723
 31
0.0
  0
LINE
  5
18B2
330
1870
100
AcDbEntity
  8
247
100
AcDbLine
 10
-46.2166493912814
 20
-13.76162995691741
 30
0.0
 11
-45.4618886490939
 21
-13.76162995691741
 31
0.0
  0
LINE
  5
18B3
330
1870
100
AcDbEntity
  8
247
100
AcDbLine
 10
-46.2166493912814
 20
-13.76162995691741
 30
0.0
 11
-45.79942984782456
 21
-12.30661417837639
 31
0.0
  0
LINE
  5
18B4
330
1870
100
AcDbEntity
  8
247
100
AcDbLine
 10
-46.16966509267521
 20
-13.59777642491551
 30
0.0
 11
-45.40011740982175
 21
-12.82822874206203
 31
0.0
  0
LINE
  5
18B5
330
1870
100
AcDbEntity
  8
247
100
AcDbLine
 10
-46.08843371966903
 20
-13.31448928918526
 30
0.0
 11
-45.45178019711311
 21
-12.67783576662937
 31
0.0
  0
ARC
  5
18B6
102
{ACAD_REACTORS
330
1874
102
}
330
1870
100
AcDbEntity
  8
247
100
AcDbCircle
 10
-46.31208625041227
 20
-13.07959162588561
 30
0.0
 40
0.7729774475097657
100
AcDbArc
 50
90.0
 51
270.0
  0
LINE
  5
18B7
330
1870
100
AcDbEntity
  8
246
100
AcDbLine
 10
-72.25
 20
9.0
 30
0.0
 11
-58.70000000000004
 21
9.0
 31
0.0
  0
LINE
  5
18B8
330
1870
100
AcDbEntity
  8
246
100
AcDbLine
 10
-72.60000000000002
 20
8.649999999999977
 30
0.0
 11
-58.35000000000002
 21
8.649999999999977
 31
0.0
  0
LINE
  5
18B9
330
1870
100
AcDbEntity
  8
246
100
AcDbLine
 10
-73.0
 20
8.25
 30
0.0
 11
-72.25
 21
9.0
 31
0.0
  0
LINE
  5
18BA
330
1870
100
AcDbEntity
  8
246
100
AcDbLine
 10
-77.0
 20
8.25
 30
0.0
 11
-73.0
 21
8.25
 31
0.0
  0
LINE
  5
18BB
330
1870
100
AcDbEntity
  8
246
100
AcDbLine
 10
-58.0
 20
8.299999999999954
 30
0.0
 11
-58.70000000000004
 21
9.0
 31
0.0
  0
LINE
  5
18BC
330
1870
100
AcDbEntity
  8
241
100
AcDbLine
 10
-15.5
 20
0.0
 30
0.0
 11
-15.5
 21
-18.5
 31
0.0
  0
LINE
  5
18BD
330
1870
100
AcDbEntity
  8
241
100
AcDbLine
 10
-18.5
 20
-15.5
 30
0.0
 11
-18.5
 21
0.0
 31
0.0
  0
ARC
  5
18BE
102
{ACAD_REACTORS
330
18DF
102
}
330
1870
100
AcDbEntity
  8
247
100
AcDbCircle
 10
-43.55908408366422
 20
-13.1705309569403
 30
0.0
 40
0.5911056518554688
100
AcDbArc
 50
163.9997507017292
 51
304.9638732916317
  0
ARC
  5
18BF
102
{ACAD_REACTORS
330
1874
102
}
330
1870
100
AcDbEntity
  8
247
100
AcDbCircle
 10
-42.61997275553922
 20
-13.07959162588561
 30
0.0
 40
0.9548561096191406
100
AcDbArc
 50
270.0
 51
104.7707939660941
  0
LINE
  5
18C0
330
1870
100
AcDbEntity
  8
241
100
AcDbLine
 10
-16.0
 20
16.0
 30
0.0
 11
-16.0
 21
-16.0
 31
0.0
  0
LINE
  5
18C1
330
1870
100
AcDbEntity
  8
241
100
AcDbLine
 10
-1.872792000000004
 20
20.18921399999987
 30
0.0
 11
-1.872792000000004
 21
-20.46357599999998
 31
0.0
  0
LINE
  5
18C2
330
1870
100
AcDbEntity
  8
240
100
AcDbLine
 10
0.0
 20
19.168629
 30
0.0
 11
0.0
 21
-19.168629
 31
0.0
  0
LINE
  5
18C3
330
1870
100
AcDbEntity
  8
241
100
AcDbLine
 10
-6.5
 20
-17.10386700000003
 30
0.0
 11
-15.5
 21
-17.10386700000003
 31
0.0
  0
LINE
  5
18C4
330
1870
100
AcDbEntity
  8
241
100
AcDbLine
 10
-6.5
 20
-19.10386700000003
 30
0.0
 11
-15.5
 21
-19.10386700000003
 31
0.0
  0
LINE
  5
18C5
330
1870
100
AcDbEntity
  8
240
100
AcDbLine
 10
-14.60000000000002
 20
-21.0
 30
0.0
 11
-1.872792000000004
 21
-21.0
 31
0.0
  0
LINE
  5
18C6
330
1870
100
AcDbEntity
  8
240
100
AcDbLine
 10
-16.0
 20
-18.0
 30
0.0
 11
-15.5
 21
-18.5
 31
0.0
  0
LINE
  5
18C7
330
1870
100
AcDbEntity
  8
240
100
AcDbLine
 10
-15.5
 20
-20.10000000000002
 30
0.0
 11
-15.5
 21
-18.5
 31
0.0
  0
ARC
  5
18C8
330
1870
100
AcDbEntity
  8
240
100
AcDbCircle
 10
-14.60000000000002
 20
-20.10000000000002
 30
0.0
 40
0.9
100
AcDbArc
 50
180.0
 51
270.0
  0
LINE
  5
18C9
330
1870
100
AcDbEntity
  8
242
100
AcDbLine
 10
-16.0
 20
-15.5
 30
0.0
 11
-18.5
 21
-15.5
 31
0.0
  0
LINE
  5
18CA
330
1870
100
AcDbEntity
  8
242
100
AcDbLine
 10
-18.5
 20
-15.5
 30
0.0
 11
-19.0
 21
-16.0
 31
0.0
  0
LINE
  5
18CB
330
1870
100
AcDbEntity
  8
240
100
AcDbLine
 10
-16.0
 20
-16.0
 30
0.0
 11
-16.0
 21
-18.0
 31
0.0
  0
LINE
  5
18CC
330
1870
100
AcDbEntity
  8
241
100
AcDbLine
 10
-6.5
 20
-19.10386700000003
 30
0.0
 11
-6.5
 21
-17.10386700000003
 31
0.0
  0
ARC
  5
18CD
330
1870
100
AcDbEntity
  8
240
100
AcDbCircle
 10
-0.8000000000000682
 20
-19.168629
 30
0.0
 40
0.8
100
AcDbArc
 50
315.0
 51
0.0
  0
LINE
  5
18CE
330
1870
100
AcDbEntity
  8
240
100
AcDbLine
 10
-1.236396000000013
 20
-20.73639600000001
 30
0.0
 11
-0.2343150000000378
 21
-19.73431500000003
 31
0.0
  0
ARC
  5
18CF
330
1870
100
AcDbEntity
  8
240
100
AcDbCircle
 10
-1.872792000000004
 20
-20.10000000000002
 30
0.0
 40
0.9
100
AcDbArc
 50
270.0
 51
315.0
  0
LINE
  5
18D0
330
1870
100
AcDbEntity
  8
241
100
AcDbLine
 10
-6.5
 20
19.10386699999992
 30
0.0
 11
-15.5
 21
19.10386699999992
 31
0.0
  0
LINE
  5
18D1
330
1870
100
AcDbEntity
  8
241
100
AcDbLine
 10
-6.5
 20
17.10386699999992
 30
0.0
 11
-15.5
 21
17.10386699999992
 31
0.0
  0
LINE
  5
18D2
330
1870
100
AcDbEntity
  8
240
100
AcDbLine
 10
-14.60000000000002
 20
21.0
 30
0.0
 11
-1.872792000000004
 21
21.0
 31
0.0
  0
LINE
  5
18D3
330
1870
100
AcDbEntity
  8
246
100
AcDbLine
 10
-35.0
 20
8.0
 30
0.0
 11
0.0
 21
8.0
 31
0.0
  0
LINE
  5
18D4
330
1870
100
AcDbEntity
  8
246
100
AcDbLine
 10
-5.600000000000022
 20
12.75
 30
0.0
 11
-35.0
 21
9.659935000000018
 31
0.0
  0
LINE
  5
18D5
330
1870
100
AcDbEntity
  8
241
100
AcDbLine
 10
-6.5
 20
2.0
 30
0.0
 11
-15.5
 21
2.0
 31
0.0
  0
LINE
  5
18D6
330
1870
100
AcDbEntity
  8
241
100
AcDbLine
 10
-6.5
 20
-2.0
 30
0.0
 11
-15.5
 21
-2.0
 31
0.0
  0
LINE
  5
18D7
330
1870
100
AcDbEntity
  8
246
100
AcDbLine
 10
-5.600000000000022
 20
-12.75
 30
0.0
 11
-35.0
 21
-9.659936000000129
 31
0.0
  0
LINE
  5
18D8
330
1870
100
AcDbEntity
  8
246
100
AcDbLine
 10
-35.0
 20
-8.0
 30
0.0
 11
0.0
 21
-8.0
 31
0.0
  0
LINE
  5
18D9
330
1870
100
AcDbEntity
  8
241
100
AcDbLine
 10
-26.5
 20
-8.587782018658781
 30
0.0
 11
-26.5
 21
8.58778201865878
 31
0.0
  0
ARC
  5
18DA
330
1870
100
AcDbEntity
  8
241
100
AcDbCircle
 10
-39.99999999999982
 20
-0.0000000000000018
 30
0.0
 40
15.99999999999982
100
AcDbArc
 50
327.5382374326635
 51
32.46174496724255
  0
LINE
  5
18DB
330
1870
100
AcDbEntity
  8
241
100
AcDbLine
 10
-15.5
 20
0.0
 30
0.0
 11
-15.5
 21
18.5
 31
0.0
  0
LINE
  5
18DC
330
1870
100
AcDbEntity
  8
246
100
AcDbLine
 10
-35.0
 20
9.659935000000075
 30
0.0
 11
-34.99999999999997
 21
-9.659935999999959
 31
0.0
  0
LINE
  5
18DD
330
1870
100
AcDbEntity
  8
241
100
AcDbLine
 10
-18.5
 20
15.5
 30
0.0
 11
-18.5
 21
0.0
 31
0.0
  0
TEXT
  5
18DE
330
1870
100
AcDbEntity
  8
247
100
AcDbText
 10
-41.21188847815466
 20
-13.93734376632893
 30
0.0
 40
1.5
  1
SL32-NBS16-100
  7
YOKO
 11
-41.21188847815466
 21
-13.93734376632893
 31
0.0
100
AcDbText
 73
     1
  0
HATCH
  5
18DF
330
1870
100
AcDbEntity
  8
247
100
AcDbHatch
 10
0.0
 20
0.0
 30
0.0
210
0.0
220
0.0
230
1.0
  2
ANSI31
 70
     0
 71
     1
 91
        1
 92
       33
 93
       15
 72
     1
 10
-42.89537253581264
 20
-12.35733668203795
 11
-42.95014624797084
 21
-12.18363596792662
 72
     2
 10
-42.61997275553922
 20
-13.07959162588561
 40
0.7729795932769776
 50
110.8721834020771
 51
132.5419489373868
 73
     1
 72
     2
 10
-43.33349356852751
 20
-12.51577326651061
 40
0.1909725040197372
 50
1.71012138206276
 51
163.9983983544484
 73
     1
 72
     1
 10
-43.76218695842006
 20
-13.31795374746764
 11
-43.51706824504116
 21
-12.46312815542662
 72
     2
 10
-43.57861228190641
 20
-13.37059199209654
 40
0.1909723699092865
 50
164.0002730571838
 51
344.0002730571838
 73
     1
 72
     1
 10
-43.39503760539272
 20
-13.42323023672545
 11
-43.27824607096889
 21
-13.01593272085631
 72
     1
 10
-43.42961020671108
 20
-13.01593272085631
 11
-43.27824607096889
 21
-13.01593272085631
 72
     1
 10
-43.42961020671108
 20
-13.01593272085631
 11
-43.37745948039272
 21
-12.83405405874693
 72
     1
 10
-43.37745948039272
 20
-12.83405405874693
 11
-42.84767813883998
 21
-12.83405405874693
 72
     1
 10
-43.11365714274624
 20
-13.76162995691741
 11
-42.84767813883998
 21
-12.83405405874693
 72
     1
 10
-43.22034812175014
 20
-13.65494584436858
 11
-43.11365714274624
 21
-13.76162995691741
 72
     2
 10
-43.55908408366422
 20
-13.1705309569403
 40
0.5911056518554688
 50
163.9997507017292
 51
304.9638732916317
 73
     1
 72
     2
 10
-42.59265799723844
 20
-13.20160853262389
 40
1.546847534179687
 50
155.2051773698404
 51
172.7948259620521
 73
     1
 72
     2
 10
-43.42870383464079
 20
-12.71583430166686
 40
0.5910996437072754
 50
53.44401219705754
 51
164.0001843876853
 73
     1
 72
     2
 10
-42.61997275553922
 20
-13.07959162588561
 40
0.954856538772583
 50
110.22964506332
 51
118.5716889237176
 73
     1
 97
       15
330
191D
330
18E2
330
18FD
330
1902
330
1900
330
18FE
330
18FF
330
1903
330
18E1
330
18E3
330
1901
330
18BE
330
18FC
330
18E0
330
191E
 75
     0
 76
     1
 52
360.0
 41
0.045
 77
     0
 78
     1
 53
44.99999999999996
 43
-101.1769363518832
 44
-21.12194344397029
 45
-0.101027881362028
 46
0.101027881362028
 79
     0
 98
        1
 10
-101.1769363518832
 20
-21.12194344397029
  0
ARC
  5
18E0
102
{ACAD_REACTORS
330
18DF
102
}
330
1870
100
AcDbEntity
  8
247
100
AcDbCircle
 10
-43.42870383464079
 20
-12.71583430166686
 30
0.0
 40
0.5910996437072754
100
AcDbArc
 50
53.44401219705754
 51
164.0001843876853
  0
LINE
  5
18E1
102
{ACAD_REACTORS
330
18DF
102
}
330
1870
100
AcDbEntity
  8
247
100
AcDbLine
 10
-43.37745948039272
 20
-12.83405405874693
 30
0.0
 11
-42.84767813883998
 21
-12.83405405874693
 31
0.0
  0
ARC
  5
18E2
102
{ACAD_REACTORS
330
18DF
102
}
330
1870
100
AcDbEntity
  8
247
100
AcDbCircle
 10
-42.61997275553922
 20
-13.07959162588561
 30
0.0
 40
0.7729795932769776
100
AcDbArc
 50
110.8721834020771
 51
132.5419489373868
  0
LINE
  5
18E3
102
{ACAD_REACTORS
330
18DF
102
}
330
1870
100
AcDbEntity
  8
247
100
AcDbLine
 10
-43.11365714274624
 20
-13.76162995691741
 30
0.0
 11
-42.84767813883998
 21
-12.83405405874693
 31
0.0
  0
ARC
  5
18E4
102
{ACAD_REACTORS
330
1874
102
}
330
1870
100
AcDbEntity
  8
247
100
AcDbCircle
 10
-42.61997275553922
 20
-13.07959162588561
 30
0.0
 40
0.7729774475097657
100
AcDbArc
 50
270.0
 51
104.1274364964119
  0
LINE
  5
18E5
330
1870
100
AcDbEntity
  8
247
100
AcDbLine
 10
-44.50797324382045
 20
-12.12473551626647
 30
0.0
 11
-44.03495688639858
 21
-12.12473551626647
 31
0.0
  0
HATCH
  5
18E6
330
1870
100
AcDbEntity
  8
247
100
AcDbHatch
 10
0.0
 20
0.0
 30
0.0
210
0.0
220
0.0
230
1.0
  2
ANSI31
 70
     0
 71
     0
 91
        1
 92
        7
 72
     0
 73
     1
 93
        6
 10
-44.03495688639858
 20
-12.12473551626646
 10
-44.50797324382045
 20
-12.12473551626646
 10
-44.56534247599818
 20
-12.32479655142271
 10
-44.49911551676967
 20
-12.32479655142271
 10
-44.91112342082241
 20
-13.76162995691741
 10
-44.50432715617398
 20
-13.76162995691741
 97
        0
 75
     0
 76
     1
 52
360.0
 41
0.045
 77
     0
 78
     1
 53
44.99999999999996
 43
-101.1769363518832
 44
-21.12194344397029
 45
-0.101027881362028
 46
0.101027881362028
 79
     0
 47
0.0134348504236232
 98
        1
 10
-44.46019890562104
 20
-12.90032149026572
  0
POLYLINE
  5
18E7
330
1870
100
AcDbEntity
  8
247
100
AcDb2dPolyline
 66
     1
 10
0.0
 20
0.0
 30
0.0
 70
     1
  0
VERTEX
  5
18E8
330
18E7
100
AcDbEntity
  8
247
100
AcDbVertex
100
AcDb2dVertex
 10
-44.50797324382048
 20
-12.12473551626647
 30
0.0
  0
VERTEX
  5
18E9
330
18E7
100
AcDbEntity
  8
247
100
AcDbVertex
100
AcDb2dVertex
 10
-44.56534247599821
 20
-12.32479655142272
 30
0.0
  0
VERTEX
  5
18EA
330
18E7
100
AcDbEntity
  8
247
100
AcDbVertex
100
AcDb2dVertex
 10
-44.4991155167697
 20
-12.32479655142272
 30
0.0
  0
VERTEX
  5
18EB
330
18E7
100
AcDbEntity
  8
247
100
AcDbVertex
100
AcDb2dVertex
 10
-44.91112342082242
 20
-13.76162995691741
 30
0.0
  0
VERTEX
  5
18EC
330
18E7
100
AcDbEntity
  8
247
100
AcDbVertex
100
AcDb2dVertex
 10
-44.50432715617399
 20
-13.76162995691741
 30
0.0
  0
VERTEX
  5
18ED
330
18E7
100
AcDbEntity
  8
247
100
AcDbVertex
100
AcDb2dVertex
 10
-44.0349568863986
 20
-12.12473551626647
 30
0.0
  0
SEQEND
  5
18EE
330
18E7
100
AcDbEntity
  8
247
  0
POLYLINE
  5
18EF
330
1870
100
AcDbEntity
  8
247
100
AcDb2dPolyline
 66
     1
 10
0.0
 20
0.0
 30
0.0
 70
     1
1001
HATCH_DISTANCE
1040
1.0
1001
HATCH_DISPLAY
1070
     0
1001
HATCH_TYPE
1070
     7
  0
VERTEX
  5
18F0
330
18EF
100
AcDbEntity
  8
247
100
AcDbVertex
100
AcDb2dVertex
 10
-44.50797324382048
 20
-12.12473551626647
 30
0.0
  0
VERTEX
  5
18F1
330
18EF
100
AcDbEntity
  8
247
100
AcDbVertex
100
AcDb2dVertex
 10
-44.56534247599821
 20
-12.32479655142272
 30
0.0
  0
VERTEX
  5
18F2
330
18EF
100
AcDbEntity
  8
247
100
AcDbVertex
100
AcDb2dVertex
 10
-44.4991155167697
 20
-12.32479655142272
 30
0.0
  0
VERTEX
  5
18F3
330
18EF
100
AcDbEntity
  8
247
100
AcDbVertex
100
AcDb2dVertex
 10
-44.91112342082242
 20
-13.76162995691741
 30
0.0
  0
VERTEX
  5
18F4
330
18EF
100
AcDbEntity
  8
247
100
AcDbVertex
100
AcDb2dVertex
 10
-44.50432715617399
 20
-13.76162995691741
 30
0.0
  0
VERTEX
  5
18F5
330
18EF
100
AcDbEntity
  8
247
100
AcDbVertex
100
AcDb2dVertex
 10
-44.0349568863986
 20
-12.12473551626647
 30
0.0
  0
SEQEND
  5
18F6
330
18EF
100
AcDbEntity
  8
247
  0
LINE
  5
18F7
330
1870
100
AcDbEntity
  8
247
100
AcDbLine
 10
-44.50432715617398
 20
-13.76162995691741
 30
0.0
 11
-44.03495688639858
 21
-12.12473551626647
 31
0.0
  0
LINE
  5
18F8
330
1870
100
AcDbEntity
  8
247
100
AcDbLine
 10
-44.56534247599818
 20
-12.32479655142272
 30
0.0
 11
-44.49911551676967
 21
-12.32479655142272
 31
0.0
  0
LINE
  5
18F9
330
1870
100
AcDbEntity
  8
247
100
AcDbLine
 10
-44.56534247599818
 20
-12.32479655142272
 30
0.0
 11
-44.50797324382045
 21
-12.12473551626647
 31
0.0
  0
LINE
  5
18FA
330
1870
100
AcDbEntity
  8
247
100
AcDbLine
 10
-44.91112342082241
 20
-13.76162995691741
 30
0.0
 11
-44.50432715617398
 21
-13.76162995691741
 31
0.0
  0
LINE
  5
18FB
330
1870
100
AcDbEntity
  8
247
100
AcDbLine
 10
-44.91112342082241
 20
-13.76162995691741
 30
0.0
 11
-44.49911551676967
 21
-12.32479655142272
 31
0.0
  0
ARC
  5
18FC
102
{ACAD_REACTORS
330
18DF
102
}
330
1870
100
AcDbEntity
  8
247
100
AcDbCircle
 10
-42.59265799723844
 20
-13.20160853262389
 30
0.0
 40
1.546847534179687
100
AcDbArc
 50
155.2051773698404
 51
172.7948259620521
  0
ARC
  5
18FD
102
{ACAD_REACTORS
330
18DF
102
}
330
1870
100
AcDbEntity
  8
247
100
AcDbCircle
 10
-43.33349356852751
 20
-12.51577326651061
 30
0.0
 40
0.1909725040197372
100
AcDbArc
 50
1.71012138206276
 51
163.9983983544484
  0
LINE
  5
18FE
102
{ACAD_REACTORS
330
18DF
102
}
330
1870
100
AcDbEntity
  8
247
100
AcDbLine
 10
-43.39503760539272
 20
-13.42323023672545
 30
0.0
 11
-43.27824607096889
 21
-13.01593272085631
 31
0.0
  0
LINE
  5
18FF
102
{ACAD_REACTORS
330
18DF
102
}
330
1870
100
AcDbEntity
  8
247
100
AcDbLine
 10
-43.42961020671108
 20
-13.01593272085631
 30
0.0
 11
-43.27824607096889
 21
-13.01593272085631
 31
0.0
  0
ARC
  5
1900
102
{ACAD_REACTORS
330
18DF
102
}
330
1870
100
AcDbEntity
  8
247
100
AcDbCircle
 10
-43.57861228190641
 20
-13.37059199209654
 30
0.0
 40
0.1909723699092865
100
AcDbArc
 50
164.0002730571838
 51
344.0002730571838
  0
LINE
  5
1901
102
{ACAD_REACTORS
330
18DF
102
}
330
1870
100
AcDbEntity
  8
247
100
AcDbLine
 10
-43.22034812175014
 20
-13.65494584436858
 30
0.0
 11
-43.11365714274624
 21
-13.76162995691741
 31
0.0
  0
LINE
  5
1902
102
{ACAD_REACTORS
330
18DF
102
}
330
1870
100
AcDbEntity
  8
247
100
AcDbLine
 10
-43.76218695842006
 20
-13.31795374746764
 30
0.0
 11
-43.51706824504116
 21
-12.46312815542662
 31
0.0
  0
LINE
  5
1903
102
{ACAD_REACTORS
330
18DF
102
}
330
1870
100
AcDbEntity
  8
247
100
AcDbLine
 10
-43.42961020671108
 20
-13.01593272085631
 30
0.0
 11
-43.37745948039272
 21
-12.83405405874693
 31
0.0
  0
LINE
  5
1904
102
{ACAD_REACTORS
330
1874
102
}
330
1870
100
AcDbEntity
  8
247
100
AcDbLine
 10
-42.80864234172084
 20
-12.32998759146178
 30
0.0
 11
-42.86341605387906
 21
-12.15628687735045
 31
0.0
  0
POLYLINE
  5
1905
330
1870
100
AcDbEntity
  8
247
100
AcDb2dPolyline
 66
     1
 10
0.0
 20
0.0
 30
0.0
 70
     1
  0
VERTEX
  5
1906
330
1905
100
AcDbEntity
  8
247
100
AcDbVertex
100
AcDb2dVertex
 10
-42.80864234172086
 20
-12.32998759146178
 30
0.0
  0
VERTEX
  5
1907
330
1905
100
AcDbEntity
  8
247
100
AcDbVertex
100
AcDb2dVertex
 10
-42.86341605387907
 20
-12.15628687735045
 30
0.0
  0
VERTEX
  5
1908
330
1905
100
AcDbEntity
  8
247
100
AcDbVertex
100
AcDb2dVertex
 10
-42.86341605387907
 20
-12.15628687735045
 30
0.0
  0
VERTEX
  5
1909
330
1905
100
AcDbEntity
  8
247
100
AcDbVertex
100
AcDb2dVertex
 10
-42.80864234172086
 20
-12.32998759146178
 30
0.0
  0
SEQEND
  5
190A
330
1905
100
AcDbEntity
  8
247
  0
POLYLINE
  5
190B
330
1870
100
AcDbEntity
  8
247
100
AcDb2dPolyline
 66
     1
 10
0.0
 20
0.0
 30
0.0
 70
     1
1001
HATCH_DISTANCE
1040
1.0
1001
HATCH_DISPLAY
1070
     0
1001
HATCH_TYPE
1070
     7
  0
VERTEX
  5
190C
330
190B
100
AcDbEntity
  8
247
100
AcDbVertex
100
AcDb2dVertex
 10
-42.80864234172086
 20
-12.32998759146178
 30
0.0
  0
VERTEX
  5
190D
330
190B
100
AcDbEntity
  8
247
100
AcDbVertex
100
AcDb2dVertex
 10
-42.86341605387907
 20
-12.15628687735045
 30
0.0
  0
VERTEX
  5
190E
330
190B
100
AcDbEntity
  8
247
100
AcDbVertex
100
AcDb2dVertex
 10
-42.86341605387907
 20
-12.15628687735045
 30
0.0
  0
VERTEX
  5
190F
330
190B
100
AcDbEntity
  8
247
100
AcDbVertex
100
AcDb2dVertex
 10
-42.80864234172086
 20
-12.32998759146178
 30
0.0
  0
SEQEND
  5
1910
330
190B
100
AcDbEntity
  8
247
  0
POLYLINE
  5
1911
330
1870
100
AcDbEntity
  8
247
100
AcDb2dPolyline
 66
     1
 10
0.0
 20
0.0
 30
0.0
 70
     1
  0
VERTEX
  5
1912
330
1911
100
AcDbEntity
  8
247
100
AcDbVertex
100
AcDb2dVertex
 10
-42.80864234172086
 20
-12.32998759146178
 30
0.0
  0
VERTEX
  5
1913
330
1911
100
AcDbEntity
  8
247
100
AcDbVertex
100
AcDb2dVertex
 10
-42.86341605387907
 20
-12.15628687735045
 30
0.0
  0
VERTEX
  5
1914
330
1911
100
AcDbEntity
  8
247
100
AcDbVertex
100
AcDb2dVertex
 10
-42.86341605387907
 20
-12.15628687735045
 30
0.0
  0
VERTEX
  5
1915
330
1911
100
AcDbEntity
  8
247
100
AcDbVertex
100
AcDb2dVertex
 10
-42.80864234172086
 20
-12.32998759146178
 30
0.0
  0
SEQEND
  5
1916
330
1911
100
AcDbEntity
  8
247
  0
POLYLINE
  5
1917
330
1870
100
AcDbEntity
  8
247
100
AcDb2dPolyline
 66
     1
 10
0.0
 20
0.0
 30
0.0
 70
     1
1001
HATCH_DISTANCE
1040
1.0
1001
HATCH_DISPLAY
1070
     0
1001
HATCH_TYPE
1070
     7
  0
VERTEX
  5
1918
330
1917
100
AcDbEntity
  8
247
100
AcDbVertex
100
AcDb2dVertex
 10
-42.80864234172086
 20
-12.32998759146178
 30
0.0
  0
VERTEX
  5
1919
330
1917
100
AcDbEntity
  8
247
100
AcDbVertex
100
AcDb2dVertex
 10
-42.86341605387907
 20
-12.15628687735045
 30
0.0
  0
VERTEX
  5
191A
330
1917
100
AcDbEntity
  8
247
100
AcDbVertex
100
AcDb2dVertex
 10
-42.86341605387907
 20
-12.15628687735045
 30
0.0
  0
VERTEX
  5
191B
330
1917
100
AcDbEntity
  8
247
100
AcDbVertex
100
AcDb2dVertex
 10
-42.80864234172086
 20
-12.32998759146178
 30
0.0
  0
SEQEND
  5
191C
330
1917
100
AcDbEntity
  8
247
  0
LINE
  5
191D
102
{ACAD_REACTORS
330
18DF
102
}
330
1870
100
AcDbEntity
  8
247
100
AcDbLine
 10
-42.89537253581264
 20
-12.35733668203795
 30
0.0
 11
-42.95014624797084
 21
-12.18363596792662
 31
0.0
  0
ARC
  5
191E
102
{ACAD_REACTORS
330
18DF
102
}
330
1870
100
AcDbEntity
  8
247
100
AcDbCircle
 10
-42.61997275553922
 20
-13.07959162588561
 30
0.0
 40
0.954856538772583
100
AcDbArc
 50
110.22964506332
 51
118.5716889237176
  0
LINE
  5
191F
330
1870
100
AcDbEntity
  8
247
100
AcDbLine
 10
-45.21251536194032
 20
-12.43857093145654
 30
0.0
 11
-44.9857261118145
 21
-12.21178168133073
 31
0.0
  0
LINE
  5
1920
330
1870
100
AcDbEntity
  8
247
100
AcDbLine
 10
-45.18920368135502
 20
-12.61731501359528
 30
0.0
 11
-44.88484729881542
 21
-12.31295863105569
 31
0.0
  0
LINE
  5
1921
330
1870
100
AcDbEntity
  8
240
100
AcDbLine
 10
-16.0
 20
18.0
 30
0.0
 11
-16.0
 21
16.0
 31
0.0
  0
LINE
  5
1922
330
1870
100
AcDbEntity
  8
242
100
AcDbLine
 10
-16.0
 20
15.5
 30
0.0
 11
-18.5
 21
15.5
 31
0.0
  0
LINE
  5
1923
330
1870
100
AcDbEntity
  8
242
100
AcDbLine
 10
-18.5
 20
15.5
 30
0.0
 11
-19.0
 21
16.0
 31
0.0
  0
ARC
  5
1924
330
1870
100
AcDbEntity
  8
240
100
AcDbCircle
 10
-14.60000000000002
 20
20.0999999999999
 30
0.0
 40
0.9
100
AcDbArc
 50
90.0
 51
180.0
  0
LINE
  5
1925
330
1870
100
AcDbEntity
  8
240
100
AcDbLine
 10
-16.0
 20
18.0
 30
0.0
 11
-15.5
 21
18.5
 31
0.0
  0
LINE
  5
1926
330
1870
100
AcDbEntity
  8
240
100
AcDbLine
 10
-15.5
 20
20.0999999999999
 30
0.0
 11
-15.5
 21
18.5
 31
0.0
  0
LINE
  5
1927
330
1870
100
AcDbEntity
  8
246
100
AcDbLine
 10
-5.600000000000022
 20
-11.0
 30
0.0
 11
-3.200000000000045
 21
-11.0
 31
0.0
  0
LINE
  5
1928
330
1870
100
AcDbEntity
  8
246
100
AcDbLine
 10
-5.600000000000022
 20
-11.0
 30
0.0
 11
-5.600000000000022
 21
-12.75
 31
0.0
  0
LINE
  5
1929
330
1870
100
AcDbEntity
  8
246
100
AcDbLine
 10
-3.0
 20
-12.75
 30
0.0
 11
0.0
 21
-11.01794900000004
 31
0.0
  0
LINE
  5
192A
330
1870
100
AcDbEntity
  8
246
100
AcDbLine
 10
-3.200000000000045
 20
-12.75
 30
0.0
 11
-3.200000000000045
 21
-11.0
 31
0.0
  0
LINE
  5
192B
330
1870
100
AcDbEntity
  8
246
100
AcDbLine
 10
-3.200000000000045
 20
-12.75
 30
0.0
 11
-3.0
 21
-12.75
 31
0.0
  0
LINE
  5
192C
330
1870
100
AcDbEntity
  8
241
100
AcDbLine
 10
-6.5
 20
-2.0
 30
0.0
 11
-6.5
 21
0.0
 31
0.0
  0
LINE
  5
192D
330
1870
100
AcDbEntity
  8
241
100
AcDbLine
 10
-6.5
 20
2.0
 30
0.0
 11
-6.5
 21
0.0
 31
0.0
  0
LINE
  5
192E
330
1870
100
AcDbEntity
  8
246
100
AcDbLine
 10
-5.600000000000022
 20
11.0
 30
0.0
 11
-3.200000000000045
 21
11.0
 31
0.0
  0
LINE
  5
192F
330
1870
100
AcDbEntity
  8
246
100
AcDbLine
 10
-5.600000000000022
 20
11.0
 30
0.0
 11
-5.600000000000022
 21
12.75
 31
0.0
  0
LINE
  5
1930
330
1870
100
AcDbEntity
  8
246
100
AcDbLine
 10
-3.0
 20
12.75
 30
0.0
 11
0.0
 21
11.01794899999993
 31
0.0
  0
LINE
  5
1931
330
1870
100
AcDbEntity
  8
246
100
AcDbLine
 10
-3.200000000000045
 20
12.75
 30
0.0
 11
-3.0
 21
12.75
 31
0.0
  0
LINE
  5
1932
330
1870
100
AcDbEntity
  8
246
100
AcDbLine
 10
-3.200000000000045
 20
12.75
 30
0.0
 11
-3.200000000000045
 21
11.0
 31
0.0
  0
LINE
  5
1933
330
1870
100
AcDbEntity
  8
241
100
AcDbLine
 10
-6.5
 20
19.10386699999992
 30
0.0
 11
-6.5
 21
17.10386699999992
 31
0.0
  0
ARC
  5
1934
330
1870
100
AcDbEntity
  8
240
100
AcDbCircle
 10
-0.8000000000000682
 20
19.168629
 30
0.0
 40
0.8
100
AcDbArc
 50
0.0
 51
44.99999999999992
  0
LINE
  5
1935
330
1870
100
AcDbEntity
  8
240
100
AcDbLine
 10
-0.2343150000000378
 20
19.73431399999992
 30
0.0
 11
-1.236396000000013
 21
20.7363959999999
 31
0.0
  0
ARC
  5
1936
330
1870
100
AcDbEntity
  8
240
100
AcDbCircle
 10
-1.872792000000004
 20
20.0999999999999
 30
0.0
 40
0.9
100
AcDbArc
 50
44.99999999999992
 51
90.0
  0
ENDBLK
  5
1938
330
1870
100
AcDbEntity
  8
0
100
AcDbBlockEnd
  0
ENDSEC
  0
SECTION
  2
ENTITIES
  0
TEXT
  5
13C8
330
1A
100
AcDbEntity
  8
241
100
AcDbText
 10
-118.5
 20
56.0
 30
0.0
 40
5.0
  1
SL32-NBS16-100
  7
YOKO
 11
-118.5
 21
56.0
 31
0.0
100
AcDbText
 73
     1
  0
DIMENSION
  5
13C9
330
1A
100
AcDbEntity
  8
250
  6
CONTINUOUS
100
AcDbDimension
  2
*D4
 10
19.00000000000003
 20
20.99999999999999
 30
0.0
 11
16.50000000000002
 21
-0.0000000000000009
 31
0.0
 70
    32
  1
{\H3;\U+2205}<>
  3
BIGT
100
AcDbAlignedDimension
 13
-1.872792000000004
 23
-21.0
 33
0.0
 14
-1.872792000000004
 24
21.0
 34
0.0
 50
90.0
100
AcDbRotatedDimension
1001
ACAD
1000
DSTYLE
1002
{
1070
    78
1070
     8
1070
   140
1040
3.0
1002
}
  0
DIMENSION
  5
13CA
330
1A
100
AcDbEntity
  8
250
  6
CONTINUOUS
100
AcDbDimension
  2
*D5
 10
12.0
 20
7.999999999999996
 30
0.0
 11
9.467372055810528
 21
3.746398860227145
 31
0.0
 70
   160
  1
MAX.%%C<>
  3
BIGT
100
AcDbAlignedDimension
 13
0.0
 23
-8.0
 33
0.0
 14
0.0
 24
8.0
 34
0.0
 50
90.0
100
AcDbRotatedDimension
1001
ACAD
1000
DSTYLE
1002
{
1070
   287
1070
     5
1070
    78
1070
     8
1070
   140
1040
3.0
1070
   279
1070
     2
1002
}
  0
DIMENSION
  5
13CB
330
1A
100
AcDbEntity
  8
250
  6
CONTINUOUS
100
AcDbDimension
  2
*D6
 10
-0.0000000000000014
 20
-42.0
 30
0.0
 11
-29.0
 21
-39.5
 31
0.0
 70
    32
  1
45～65
  3
BIGT
100
AcDbAlignedDimension
 13
-58.0
 23
-8.0
 33
0.0
 14
0.0
 24
-19.168629
 34
0.0
100
AcDbRotatedDimension
1001
ACAD
1000
DSTYLE
1002
{
1070
    78
1070
     8
1070
   140
1040
3.0
1002
}
  0
DIMENSION
  5
1730
330
1A
100
AcDbEntity
  8
250
  6
CONTINUOUS
100
AcDbDimension
  2
*D9
 10
-133.0
 20
16.0
 30
0.0
 11
-135.4999999999999
 21
-0.0000000000000146
 31
0.0
 70
    32
  1
{\H3;\U+2205}<>
  3
BIGT
100
AcDbAlignedDimension
 13
-107.0
 23
-16.0
 33
0.0
 14
-106.9999999999999
 24
16.0
 34
0.0
 50
90.0
100
AcDbRotatedDimension
1001
ACAD
1000
DSTYLE
1002
{
1070
    78
1070
     8
1070
   140
1040
3.0
1002
}
  0
DIMENSION
  5
173F
330
1A
100
AcDbEntity
  8
250
  6
CONTINUOUS
100
AcDbDimension
  2
*D10
 10
0.0000000000000014
 20
42.0
 30
0.0
 11
-60.75
 21
44.5
 31
0.0
 70
    32
  3
BIGT
100
AcDbAlignedDimension
 13
-121.5
 23
13.0
 33
0.0
 14
0.0
 24
19.168629
 34
0.0
100
AcDbRotatedDimension
1001
ACAD
1000
DSTYLE
1002
{
1070
    78
1070
     8
1070
   140
1040
3.0
1002
}
  0
DIMENSION
  5
1777
330
1A
100
AcDbEntity
  8
250
  6
CONTINUOUS
100
AcDbDimension
  2
*D13
 10
0.000000000000001
 20
35.0
 30
0.0
 11
-7.999999999999998
 21
37.5
 31
0.0
 70
    32
  3
BIGT
100
AcDbAlignedDimension
 13
-16.0
 23
18.0
 33
0.0
 14
0.0
 24
19.168629
 34
0.0
100
AcDbRotatedDimension
1001
ACAD
1000
DSTYLE
1002
{
1070
    78
1070
     8
1070
   140
1040
3.0
1002
}
  0
DIMENSION
  5
1784
330
1A
100
AcDbEntity
  8
250
  6
CONTINUOUS
100
AcDbDimension
  2
*D14
 10
-15.99999999999999
 20
35.0
 30
0.0
 11
-68.75
 21
37.5
 31
0.0
 70
    32
  3
BIGT
100
AcDbAlignedDimension
 13
-121.5
 23
13.0
 33
0.0
 14
-16.0
 24
18.0
 34
0.0
100
AcDbRotatedDimension
1001
ACAD
1000
DSTYLE
1002
{
1070
    78
1070
     8
1070
   140
1040
3.0
1002
}
  0
INSERT
  5
1939
330
1A
100
AcDbEntity
  8
240
100
AcDbBlockReference
  2
A$C1CBD0FE5
 10
0.0
 20
0.0
 30
0.0
  0
VIEWPORT
  5
22
330
17
100
AcDbEntity
 67
     1
  8
0
100
AcDbViewport
 10
261.5176991150442
 20
148.5
 30
0.0
 40
523.0353982300885
 41
297.0
 68
     1
 69
     1
1001
ACAD
1000
MVIEW
1002
{
1070
    16
1010
0.0
1020
0.0
1030
0.0
1010
0.0
1020
0.0
1030
1.0
1040
0.0
1040
297.0
1040
261.5176991150442
1040
148.5
1040
50.0
1040
0.0
1040
0.0
1070
     0
1070
   100
1070
     1
1070
     1
1070
     0
1070
     0
1070
     0
1070
     0
1040
0.0
1040
0.0
1040
0.0
1040
1.0
1040
1.0
1040
10.0
1040
10.0
1070
     0
1002
{
1002
}
1002
}
  0
ENDSEC
  0
SECTION
  2
OBJECTS
  0
DICTIONARY
  5
C
330
0
100
AcDbDictionary
  3
ACAD_GROUP
350
D
  3
ACAD_LAYOUT
350
565
  3
ACAD_MLINESTYLE
350
E
  3
ACAD_PLOTSETTINGS
350
566
  3
ACAD_PLOTSTYLENAME
350
563
  3
ACDBHEADERROUNDTRIPXREC
350
1941
  3
ACDBVARIABLEDICTIONARY
350
161F
  3
DWGPROPS
350
161D
  3
GRADE_DWG
350
540
  0
DICTIONARY
  5
1964
330
1A
100
AcDbDictionary
280
     1
  3
ACAD_LAYOUTSELFREF
360
1965
  0
DICTIONARY
  5
1962
330
17
100
AcDbDictionary
280
     1
  3
ACAD_LAYOUTSELFREF
360
1963
  0
DICTIONARY
  5
D
102
{ACAD_REACTORS
330
C
102
}
330
C
100
AcDbDictionary
  3
DREC-1
350
5FC
  3
DREC-2
350
654
  3
DREC-3
350
673
  0
DICTIONARY
  5
565
102
{ACAD_REACTORS
330
C
102
}
330
C
100
AcDbDictionary
  0
DICTIONARY
  5
E
102
{ACAD_REACTORS
330
C
102
}
330
C
100
AcDbDictionary
  3
STANDARD
350
13
  0
DICTIONARY
  5
566
102
{ACAD_REACTORS
330
C
102
}
330
C
100
AcDbDictionary
  0
ACDBDICTIONARYWDFLT
  5
563
102
{ACAD_REACTORS
330
C
102
}
330
C
100
AcDbDictionary
281
     1
  3
Normal
350
564
100
AcDbDictionaryWithDefault
340
564
  0
DICTIONARY
  5
1941
102
{ACAD_REACTORS
330
C
102
}
330
C
100
AcDbDictionary
  3
CEPSNTYPE
350
194B
  3
DIMSTYLEDATA
350
194F
  3
FINGERPRINTGUID
350
194C
  3
HYPERLINKBASE
350
1944
  3
INSUNITS
350
194A
  3
LAYOUTDICT
350
1946
  3
LWETCUNION
350
1949
  3
PLOTSETDICT
350
1947
  3
PLOTSTYLNAMDICT
350
1948
  3
PSVPSCALE
350
194E
  3
PUCSBASE
350
1952
  3
PUCSORGBACK
350
1958
  3
PUCSORGBOTTOM
350
1954
  3
PUCSORGFRONT
350
1957
  3
PUCSORGLEFT
350
1955
  3
PUCSORGRIGHT
350
1956
  3
PUCSORGTOP
350
1953
  3
PUCSORTHOREF
350
1950
  3
PUCSORTHOVIEW
350
1951
  3
STYLESHEET
350
1945
  3
TSTACKALIGN
350
1942
  3
TSTACKSIZE
350
1943
  3
UCSBASE
350
195B
  3
UCSORGBACK
350
1961
  3
UCSORGBOTTOM
350
195D
  3
UCSORGFRONT
350
1960
  3
UCSORGLEFT
350
195E
  3
UCSORGRIGHT
350
195F
  3
UCSORGTOP
350
195C
  3
UCSORTHOREF
350
1959
  3
UCSORTHOVIEW
350
195A
  3
VERSIONGUID
350
194D
  0
DICTIONARY
  5
161F
102
{ACAD_REACTORS
330
C
102
}
330
C
100
AcDbDictionary
  3
DIMASSOC
350
1620
  0
XRECORD
  5
161D
102
{ACAD_REACTORS
330
C
102
}
330
C
100
AcDbXrecord
  1
DWGPROPS COOKIE
  2

  3

  4

  6

  7

  8
ymat
  9

300
=
301
=
302
=
303
=
304
=
305
=
306
=
307
=
308
=
309
=
 40
0.0654472337962963
 41
2452181.575331666
 42
2452409.151096273
  1

 90
        0
  0
DICTIONARY
  5
540
102
{ACAD_REACTORS
330
C
102
}
330
C
100
AcDbDictionary
  3
VERSION
350
560
  0
XRECORD
  5
1965
102
{ACAD_REACTORS
330
1964
102
}
330
1964
100
AcDbXrecord
340
1A
  0
XRECORD
  5
1963
102
{ACAD_REACTORS
330
1962
102
}
330
1962
100
AcDbXrecord
340
17
  0
GROUP
  5
5FC
102
{ACAD_REACTORS
330
D
102
}
330
D
100
AcDbGroup
300

 70
     0
 71
     1
1001
GRPNAME
1000
DREC-
1001
GPARA
1000
xsiz
1000
44.182
1000
ysiz
1000
40.677
1000
angl
1000
0
1000
ctyp
1000
0
1000
csiz
1000
5
1000
lfnt
1000
cont
1000
hcnt
1000
hoff
1000
vcnt
1000
voff
1000
opnt
1000
4
1000
dxpt
1000
0
1000
dypt
1000
0
  0
GROUP
  5
654
102
{ACAD_REACTORS
330
D
102
}
330
D
100
AcDbGroup
300

 70
     0
 71
     1
1001
GRPNAME
1000
DREC-
1001
GPARA
1000
xsiz
1000
54.592
1000
ysiz
1000
53.036
1000
angl
1000
0
1000
ctyp
1000
0
1000
csiz
1000
5
1000
lfnt
1000
cont
1000
hcnt
1000
hoff
1000
vcnt
1000
voff
1000
opnt
1000
4
1000
dxpt
1000
0
1000
dypt
1000
0
  0
GROUP
  5
673
102
{ACAD_REACTORS
330
D
102
}
330
D
100
AcDbGroup
300

 70
     0
 71
     1
1001
GRPNAME
1000
DREC-
1001
GPARA
1000
xsiz
1000
30.363
1000
ysiz
1000
36.175
1000
angl
1000
0
1000
ctyp
1000
0
1000
csiz
1000
5
1000
lfnt
1000
cont
1000
hcnt
1000
hoff
1000
vcnt
1000
voff
1000
opnt
1000
4
1000
dxpt
1000
0
1000
dypt
1000
0
  0
MLINESTYLE
  5
13
102
{ACAD_REACTORS
330
E
102
}
330
E
100
AcDbMlineStyle
  2
STANDARD
 70
     0
  3

 62
     0
 51
90.0
 52
90.0
 71
     2
 49
0.5
 62
   256
  6
BYLAYER
 49
-0.5
 62
   256
  6
BYLAYER
  0
ACDBPLACEHOLDER
  5
564
102
{ACAD_REACTORS
330
563
102
}
330
563
100
AcDbPlaceHolder
280
     0
  0
XRECORD
  5
194B
102
{ACAD_REACTORS
330
1941
102
}
330
1941
100
AcDbXrecord
 90
        0
  0
XRECORD
  5
194F
102
{ACAD_REACTORS
330
1941
102
}
330
1941
100
AcDbXrecord
1000
DSTYLE
1002
{
1070
    79
 70
     2
1070
   179
 70
     3
1070
   289
 70
     2
1070
   341
340
594
1070
   342
340
594
1070
   371
 70
    -1
1070
   372
 70
    -1
1002
}
  0
XRECORD
  5
194C
102
{ACAD_REACTORS
330
1941
102
}
330
1941
100
AcDbXrecord
  1
{51294030-9CB4-11D3-8E18-00A0C925D94D}
  0
XRECORD
  5
1944
102
{ACAD_REACTORS
330
1941
102
}
330
1941
100
AcDbXrecord
  1

  0
XRECORD
  5
194A
102
{ACAD_REACTORS
330
1941
102
}
330
1941
100
AcDbXrecord
 90
        0
  0
XRECORD
  5
1946
102
{ACAD_REACTORS
330
1941
102
}
330
1941
100
AcDbXrecord
340
565
  0
XRECORD
  5
1949
102
{ACAD_REACTORS
330
1941
102
}
330
1941
100
AcDbXrecord
 90
    10781
  0
XRECORD
  5
1947
102
{ACAD_REACTORS
330
1941
102
}
330
1941
100
AcDbXrecord
340
566
  0
XRECORD
  5
1948
102
{ACAD_REACTORS
330
1941
102
}
330
1941
100
AcDbXrecord
340
563
  0
XRECORD
  5
194E
102
{ACAD_REACTORS
330
1941
102
}
330
1941
100
AcDbXrecord
 40
0.0
  0
XRECORD
  5
1952
102
{ACAD_REACTORS
330
1941
102
}
330
1941
100
AcDbXrecord
340
0
  0
XRECORD
  5
1958
102
{ACAD_REACTORS
330
1941
102
}
330
1941
100
AcDbXrecord
 10
0.0
 20
0.0
 30
0.0
  0
XRECORD
  5
1954
102
{ACAD_REACTORS
330
1941
102
}
330
1941
100
AcDbXrecord
 10
0.0
 20
0.0
 30
0.0
  0
XRECORD
  5
1957
102
{ACAD_REACTORS
330
1941
102
}
330
1941
100
AcDbXrecord
 10
0.0
 20
0.0
 30
0.0
  0
XRECORD
  5
1955
102
{ACAD_REACTORS
330
1941
102
}
330
1941
100
AcDbXrecord
 10
0.0
 20
0.0
 30
0.0
  0
XRECORD
  5
1956
102
{ACAD_REACTORS
330
1941
102
}
330
1941
100
AcDbXrecord
 10
0.0
 20
0.0
 30
0.0
  0
XRECORD
  5
1953
102
{ACAD_REACTORS
330
1941
102
}
330
1941
100
AcDbXrecord
 10
0.0
 20
0.0
 30
0.0
  0
XRECORD
  5
1950
102
{ACAD_REACTORS
330
1941
102
}
330
1941
100
AcDbXrecord
340
0
  0
XRECORD
  5
1951
102
{ACAD_REACTORS
330
1941
102
}
330
1941
100
AcDbXrecord
 70
     0
  0
XRECORD
  5
1945
102
{ACAD_REACTORS
330
1941
102
}
330
1941
100
AcDbXrecord
  1
big.ctb
  0
XRECORD
  5
1942
102
{ACAD_REACTORS
330
1941
102
}
330
1941
100
AcDbXrecord
 90
        1
  0
XRECORD
  5
1943
102
{ACAD_REACTORS
330
1941
102
}
330
1941
100
AcDbXrecord
 90
       70
  0
XRECORD
  5
195B
102
{ACAD_REACTORS
330
1941
102
}
330
1941
100
AcDbXrecord
340
0
  0
XRECORD
  5
1961
102
{ACAD_REACTORS
330
1941
102
}
330
1941
100
AcDbXrecord
 10
0.0
 20
0.0
 30
0.0
  0
XRECORD
  5
195D
102
{ACAD_REACTORS
330
1941
102
}
330
1941
100
AcDbXrecord
 10
0.0
 20
0.0
 30
0.0
  0
XRECORD
  5
1960
102
{ACAD_REACTORS
330
1941
102
}
330
1941
100
AcDbXrecord
 10
0.0
 20
0.0
 30
0.0
  0
XRECORD
  5
195E
102
{ACAD_REACTORS
330
1941
102
}
330
1941
100
AcDbXrecord
 10
0.0
 20
0.0
 30
0.0
  0
XRECORD
  5
195F
102
{ACAD_REACTORS
330
1941
102
}
330
1941
100
AcDbXrecord
 10
0.0
 20
0.0
 30
0.0
  0
XRECORD
  5
195C
102
{ACAD_REACTORS
330
1941
102
}
330
1941
100
AcDbXrecord
 10
0.0
 20
0.0
 30
0.0
  0
XRECORD
  5
1959
102
{ACAD_REACTORS
330
1941
102
}
330
1941
100
AcDbXrecord
340
0
  0
XRECORD
  5
195A
102
{ACAD_REACTORS
330
1941
102
}
330
1941
100
AcDbXrecord
 70
     0
  0
XRECORD
  5
194D
102
{ACAD_REACTORS
330
1941
102
}
330
1941
100
AcDbXrecord
  1
{EDD58F74-688C-11D7-AD80-0010B5C7BFCA}
  0
DICTIONARYVAR
  5
1620
102
{ACAD_REACTORS
330
161F
102
}
330
161F
100
DictionaryVariables
280
     0
  1
1
  0
XRECORD
  5
560
102
{ACAD_REACTORS
330
540
102
}
330
540
100
AcDbXrecord
  1
2.0.0
  0
ENDSEC
  0
EOF
