  0
SECTION
  2
HEADER
  9
$ACADVER
  1
AC1014
  9
$ACADMAINTVER
 70
     9
  9
$DWGCODEPAGE
  3
ANSI_932
  9
$INSBASE
 10
0.0
 20
0.0
 30
0.0
  9
$EXTMIN
 10
-137.0132436184367
 20
-36.00750675146412
 30
-0.0015258207003583
  9
$EXTMAX
 10
22.02163765325872
 20
61.0058902918895
 30
0.0000000349246037
  9
$LIMMIN
 10
0.0
 20
0.0
  9
$LIMMAX
 10
297.0
 20
210.0
  9
$ORTHOMODE
 70
     0
  9
$REGENMODE
 70
     1
  9
$FILLMODE
 70
     1
  9
$QTEXTMODE
 70
     0
  9
$MIRRTEXT
 70
     1
  9
$DRAGMODE
 70
     2
  9
$LTSCALE
 40
10.0
  9
$OSMODE
 70
   613
  9
$ATTMODE
 70
     1
  9
$TEXTSIZE
 40
3.0
  9
$TRACEWID
 40
1.0
  9
$TEXTSTYLE
  7
YOKO
  9
$CLAYER
  8
240
  9
$CELTYPE
  6
BYLAYER
  9
$CECOLOR
 62
   256
  9
$CELTSCALE
 40
1.0
  9
$DELOBJ
 70
     1
  9
$DISPSILH
 70
     0
  9
$DIMSCALE
 40
1.0
  9
$DIMASZ
 40
2.229999999999999
  9
$DIMEXO
 40
0.5
  9
$DIMDLI
 40
2.5
  9
$DIMRND
 40
0.0
  9
$DIMDLE
 40
0.0
  9
$DIMEXE
 40
1.0
  9
$DIMTP
 40
0.0
  9
$DIMTM
 40
0.0
  9
$DIMTXT
 40
3.0
  9
$DIMCEN
 40
0.0
  9
$DIMTSZ
 40
0.0
  9
$DIMTOL
 70
     0
  9
$DIMLIM
 70
     0
  9
$DIMTIH
 70
     0
  9
$DIMTOH
 70
     0
  9
$DIMSE1
 70
     0
  9
$DIMSE2
 70
     0
  9
$DIMTAD
 70
     3
  9
$DIMZIN
 70
     8
  9
$DIMBLK
  1
OPEN
  9
$DIMASO
 70
     1
  9
$DIMSHO
 70
     1
  9
$DIMPOST
  1

  9
$DIMAPOST
  1

  9
$DIMALT
 70
     0
  9
$DIMALTD
 70
     2
  9
$DIMALTF
 40
25.4
  9
$DIMLFAC
 40
1.0
  9
$DIMTOFL
 70
     1
  9
$DIMTVP
 40
0.0
  9
$DIMTIX
 70
     0
  9
$DIMSOXD
 70
     0
  9
$DIMSAH
 70
     0
  9
$DIMBLK1
  1

  9
$DIMBLK2
  1

  9
$DIMSTYLE
  2
BIGT
  9
$DIMCLRD
 70
   256
  9
$DIMCLRE
 70
   256
  9
$DIMCLRT
 70
    40
  9
$DIMTFAC
 40
1.0
  9
$DIMGAP
 40
1.0
  9
$DIMJUST
 70
     0
  9
$DIMSD1
 70
     0
  9
$DIMSD2
 70
     0
  9
$DIMTOLJ
 70
     1
  9
$DIMTZIN
 70
     8
  9
$DIMALTZ
 70
     0
  9
$DIMALTTZ
 70
     0
  9
$DIMFIT
 70
     2
  9
$DIMUPT
 70
     0
  9
$DIMUNIT
 70
     2
  9
$DIMDEC
 70
     3
  9
$DIMTDEC
 70
     3
  9
$DIMALTU
 70
     2
  9
$DIMALTTD
 70
     2
  9
$DIMTXSTY
  7
STANDARD
  9
$DIMAUNIT
 70
     0
  9
$LUNITS
 70
     2
  9
$LUPREC
 70
     3
  9
$SKETCHINC
 40
1.0
  9
$FILLETRAD
 40
1.0
  9
$AUNITS
 70
     0
  9
$AUPREC
 70
     3
  9
$MENU
  1
.
  9
$ELEVATION
 40
0.0
  9
$PELEVATION
 40
0.0
  9
$THICKNESS
 40
0.0
  9
$LIMCHECK
 70
     0
  9
$BLIPMODE
 70
     0
  9
$CHAMFERA
 40
0.5
  9
$CHAMFERB
 40
0.5
  9
$CHAMFERC
 40
0.0
  9
$CHAMFERD
 40
0.0
  9
$SKPOLY
 70
     0
  9
$TDCREATE
 40
2452181.551227928
  9
$TDUPDATE
 40
2452737.404050925
  9
$TDINDWG
 40
0.1006633449
  9
$TDUSRTIMER
 40
0.1006633449
  9
$USRTIMER
 70
     1
  9
$ANGBASE
 50
0.0
  9
$ANGDIR
 70
     0
  9
$PDMODE
 70
    35
  9
$PDSIZE
 40
2.0
  9
$PLINEWID
 40
0.0
  9
$COORDS
 70
     2
  9
$SPLFRAME
 70
     0
  9
$SPLINETYPE
 70
     6
  9
$SPLINESEGS
 70
     8
  9
$ATTDIA
 70
     0
  9
$ATTREQ
 70
     0
  9
$HANDLING
 70
-16383
  9
$HANDSEED
  5
1AF3
  9
$SURFTAB1
 70
     6
  9
$SURFTAB2
 70
     6
  9
$SURFTYPE
 70
     6
  9
$SURFU
 70
     6
  9
$SURFV
 70
     6
  9
$UCSNAME
  2

  9
$UCSORG
 10
0.0
 20
0.0
 30
0.0
  9
$UCSXDIR
 10
1.0
 20
0.0
 30
0.0
  9
$UCSYDIR
 10
0.0
 20
1.0
 30
0.0
  9
$PUCSNAME
  2

  9
$PUCSORG
 10
0.0
 20
0.0
 30
0.0
  9
$PUCSXDIR
 10
1.0
 20
0.0
 30
0.0
  9
$PUCSYDIR
 10
0.0
 20
1.0
 30
0.0
  9
$USERI1
 70
     1
  9
$USERI2
 70
     0
  9
$USERI3
 70
     0
  9
$USERI4
 70
     0
  9
$USERI5
 70
     0
  9
$USERR1
 40
0.0
  9
$USERR2
 40
0.0
  9
$USERR3
 40
0.0
  9
$USERR4
 40
0.0
  9
$USERR5
 40
0.0
  9
$WORLDVIEW
 70
     1
  9
$SHADEDGE
 70
     3
  9
$SHADEDIF
 70
    70
  9
$TILEMODE
 70
     1
  9
$MAXACTVP
 70
    16
  9
$PINSBASE
 10
0.0
 20
0.0
 30
0.0
  9
$PLIMCHECK
 70
     0
  9
$PEXTMIN
 10
1.000000000000000E+20
 20
1.000000000000000E+20
 30
1.000000000000000E+20
  9
$PEXTMAX
 10
-1.000000000000000E+20
 20
-1.000000000000000E+20
 30
-1.000000000000000E+20
  9
$PLIMMIN
 10
0.0
 20
0.0
  9
$PLIMMAX
 10
420.0
 20
297.0
  9
$UNITMODE
 70
     0
  9
$VISRETAIN
 70
     0
  9
$PLINEGEN
 70
     0
  9
$PSLTSCALE
 70
     1
  9
$TREEDEPTH
 70
  3020
  9
$PICKSTYLE
 70
     0
  9
$CMLSTYLE
  2
STANDARD
  9
$CMLJUST
 70
     0
  9
$CMLSCALE
 40
1.0
  9
$PROXYGRAPHICS
 70
     1
  9
$MEASUREMENT
 70
     1
  0
ENDSEC
  0
SECTION
  2
CLASSES
  0
CLASS
  1
XRECORD
  2
AcDbXrecord
  3
AutoCAD 2000
 90
        0
280
     0
281
     0
  0
CLASS
  1
ACDBDICTIONARYWDFLT
  2
AcDbDictionaryWithDefault
  3
AutoCAD 2000
 90
        0
280
     0
281
     0
  0
CLASS
  1
ACDBPLACEHOLDER
  2
AcDbPlaceHolder
  3
AutoCAD 2000
 90
        0
280
     0
281
     0
  0
CLASS
  1
LAYOUT
  2
AcDbLayout
  3
AutoCAD 2000
 90
        0
280
     0
281
     0
  0
CLASS
  1
DICTIONARYVAR
  2
AcDbDictionaryVar
  3
AutoCAD 2000
 90
        0
280
     0
281
     0
  0
CLASS
  1
LONG_TRANSACTION
  2
AcDbLongTransaction
  3
AutoCAD 2000
 90
        0
280
     0
281
     0
  0
CLASS
  1
LWPOLYLINE
  2
AcDbPolyline
  3
AutoCAD 2000
 90
        0
280
     0
281
     1
  0
CLASS
  1
HATCH
  2
AcDbHatch
  3
AutoCAD 2000
 90
        0
280
     0
281
     1
  0
CLASS
  1
XRECORD
  2
AcDbXrecord
  3
AutoCAD 2000
 90
        0
280
     0
281
     0
  0
ENDSEC
  0
SECTION
  2
TABLES
  0
TABLE
  2
VPORT
  5
8
330
0
100
AcDbSymbolTable
 70
     2
  0
VPORT
  5
1AC4
330
8
100
AcDbSymbolTableRecord
100
AcDbViewportTableRecord
  2
*ACTIVE
 70
     0
 10
0.0
 20
0.0
 11
1.0
 21
1.0
 12
-57.495802982589
 22
12.49919177021268
 13
0.0
 23
0.0
 14
7.0
 24
7.0
 15
7.0
 25
7.0
 16
0.0
 26
0.0
 36
1.0
 17
0.0
 27
0.0
 37
0.0
 40
112.6401399190317
 41
1.419235511713933
 42
50.0
 43
0.0
 44
0.0
 50
0.0
 51
0.0
 71
     0
 72
  2000
 73
     1
 74
     0
 75
     0
 76
     1
 77
     0
 78
     0
  0
ENDTAB
  0
TABLE
  2
LTYPE
  5
5
330
0
100
AcDbSymbolTable
 70
     3
  0
LTYPE
  5
14
330
5
100
AcDbSymbolTableRecord
100
AcDbLinetypeTableRecord
  2
BYBLOCK
 70
     0
  3

 72
    65
 73
     0
 40
0.0
  0
LTYPE
  5
15
330
5
100
AcDbSymbolTableRecord
100
AcDbLinetypeTableRecord
  2
BYLAYER
 70
     0
  3

 72
    65
 73
     0
 40
0.0
  0
LTYPE
  5
16
330
5
100
AcDbSymbolTableRecord
100
AcDbLinetypeTableRecord
  2
CONTINUOUS
 70
     0
  3
Solid line
 72
    65
 73
     0
 40
0.0
  0
LTYPE
  5
258
330
5
100
AcDbSymbolTableRecord
100
AcDbLinetypeTableRecord
  2
CENTER2
 70
     0
  3
___ _ ___ _ ___ _ ___ _ ___ _ ___ _ ___ _ ___ _
 72
    65
 73
     4
 40
1.125
 49
0.75
 74
     0
 49
-0.125
 74
     0
 49
0.125
 74
     0
 49
-0.125
 74
     0
  0
LTYPE
  5
25D
330
5
100
AcDbSymbolTableRecord
100
AcDbLinetypeTableRecord
  2
PHANTOM2
 70
     0
  3
___ _ _ ___ _ _ ___ _ _ ___ _ _ ___ _ _ ___ _ _
 72
    65
 73
     6
 40
1.25
 49
0.625
 74
     0
 49
-0.125
 74
     0
 49
0.125
 74
     0
 49
-0.125
 74
     0
 49
0.125
 74
     0
 49
-0.125
 74
     0
  0
ENDTAB
  0
TABLE
  2
LAYER
  5
2
330
0
100
AcDbSymbolTable
 70
    10
  0
LAYER
  5
F
330
2
100
AcDbSymbolTableRecord
100
AcDbLayerTableRecord
  2
0
 70
     0
 62
     7
  6
CONTINUOUS
  0
LAYER
  5
1AA
330
2
100
AcDbSymbolTableRecord
100
AcDbLayerTableRecord
  2
240
 70
     0
 62
     4
  6
CONTINUOUS
  0
LAYER
  5
1AB
330
2
100
AcDbSymbolTableRecord
100
AcDbLayerTableRecord
  2
241
 70
     0
 62
   211
  6
CONTINUOUS
  0
LAYER
  5
1AC
330
2
100
AcDbSymbolTableRecord
100
AcDbLayerTableRecord
  2
242
 70
     0
 62
     3
  6
CONTINUOUS
  0
LAYER
  5
1AF
330
2
100
AcDbSymbolTableRecord
100
AcDbLayerTableRecord
  2
245
 70
     0
 62
     2
  6
CENTER2
  0
LAYER
  5
21A
330
2
100
AcDbSymbolTableRecord
100
AcDbLayerTableRecord
  2
246
 70
     0
 62
     3
  6
PHANTOM2
  0
LAYER
  5
21B
330
2
100
AcDbSymbolTableRecord
100
AcDbLayerTableRecord
  2
247
 70
     0
 62
    60
  6
CONTINUOUS
  0
LAYER
  5
21E
330
2
100
AcDbSymbolTableRecord
100
AcDbLayerTableRecord
  2
250
 70
     0
 62
     3
  6
CONTINUOUS
  0
LAYER
  5
5C4
330
2
100
AcDbSymbolTableRecord
100
AcDbLayerTableRecord
  2
DEFPOINTS
 70
     0
 62
     7
  6
CONTINUOUS
  0
ENDTAB
  0
TABLE
  2
STYLE
  5
3
330
0
100
AcDbSymbolTable
 70
     2
  0
STYLE
  5
10
330
3
100
AcDbSymbolTableRecord
100
AcDbTextStyleTableRecord
  2
STANDARD
 70
     0
 40
0.0
 41
1.0
 50
0.0
 71
     0
 42
3.0
  3
romans.shx
  4
BIGFONT.SHX
  0
STYLE
  5
339
330
3
100
AcDbSymbolTableRecord
100
AcDbTextStyleTableRecord
  2
YOKO
 70
     0
 40
0.0
 41
1.0
 50
0.0
 71
     0
 42
3.0
  3
romans.shx
  4
extfont.shx
  0
ENDTAB
  0
TABLE
  2
VIEW
  5
6
330
0
100
AcDbSymbolTable
 70
     0
  0
ENDTAB
  0
TABLE
  2
UCS
  5
7
330
0
100
AcDbSymbolTable
 70
     0
  0
ENDTAB
  0
TABLE
  2
APPID
  5
9
330
0
100
AcDbSymbolTable
 70
     9
  0
APPID
  5
11
330
9
100
AcDbSymbolTableRecord
100
AcDbRegAppTableRecord
  2
ACAD
 70
     0
  0
APPID
  5
1B1
330
9
100
AcDbSymbolTableRecord
100
AcDbRegAppTableRecord
  2
GLOBAL
 70
     0
  0
APPID
  5
2A4
330
9
100
AcDbSymbolTableRecord
100
AcDbRegAppTableRecord
  2
DETAIL
 70
     0
  0
APPID
  5
5FD
330
9
100
AcDbSymbolTableRecord
100
AcDbRegAppTableRecord
  2
GRPNAME
 70
     0
  0
APPID
  5
5FE
330
9
100
AcDbSymbolTableRecord
100
AcDbRegAppTableRecord
  2
GPARA
 70
     0
  0
APPID
  5
9C4
330
9
100
AcDbSymbolTableRecord
100
AcDbRegAppTableRecord
  2
ITEMNAME
 70
     0
  0
APPID
  5
9C5
330
9
100
AcDbSymbolTableRecord
100
AcDbRegAppTableRecord
  2
HATCH_TYPE
 70
     0
  0
APPID
  5
9C6
330
9
100
AcDbSymbolTableRecord
100
AcDbRegAppTableRecord
  2
HATCH_DISPLAY
 70
     0
  0
APPID
  5
9C7
330
9
100
AcDbSymbolTableRecord
100
AcDbRegAppTableRecord
  2
HATCH_DISTANCE
 70
     0
  0
ENDTAB
  0
TABLE
  2
DIMSTYLE
  5
A
330
0
100
AcDbSymbolTable
 70
     2
  0
DIMSTYLE
105
48F
330
A
100
AcDbSymbolTableRecord
100
AcDbDimStyleTableRecord
  2
STANDARD
 70
     0
  3

  4

  5

  6

  7

 40
1.0
 41
2.0
 42
2.0
 43
3.75
 44
2.0
 45
0.0
 46
0.0
 47
0.0
 48
0.0
140
4.0
141
0.09
142
0.0
143
25.4
144
1.0
145
0.0
146
1.0
147
1.0
 71
     0
 72
     0
 73
     1
 74
     1
 75
     0
 76
     0
 77
     0
 78
     8
170
     0
171
     2
172
     0
173
     1
174
     0
175
     0
176
   256
177
   256
178
   256
270
     2
271
     3
272
     4
273
     2
274
     2
340
10
275
     0
280
     0
281
     0
282
     0
283
     1
284
     8
285
     0
286
     0
287
     3
288
     0
  0
DIMSTYLE
105
59A
102
{ACAD_REACTORS
330
140B
330
140C
330
140D
330
17B1
330
17C1
330
17CE
330
17DD
102
}
330
A
100
AcDbSymbolTableRecord
100
AcDbDimStyleTableRecord
  2
BIGT
 70
     0
  3

  4

  5
OPEN
  6

  7

 40
1.0
 41
2.229999999999999
 42
0.5
 43
2.5
 44
1.0
 45
0.0
 46
0.0
 47
0.0
 48
0.0
140
3.5
141
0.0
142
0.0
143
25.4
144
1.0
145
0.0
146
1.0
147
1.0
 71
     0
 72
     0
 73
     0
 74
     0
 75
     0
 76
     0
 77
     3
 78
     9
170
     0
171
     2
172
     1
173
     0
174
     0
175
     0
176
   256
177
   256
178
    40
270
     2
271
     3
272
     3
273
     2
274
     2
340
10
275
     0
280
     0
281
     0
282
     0
283
     1
284
     8
285
     0
286
     0
287
     2
288
     0
  0
ENDTAB
  0
TABLE
  2
BLOCK_RECORD
  5
1
330
0
100
AcDbSymbolTable
 70
     9
  0
BLOCK_RECORD
  5
1A
102
{ACAD_XDICTIONARY
360
1AE8
102
}
330
1
100
AcDbSymbolTableRecord
100
AcDbBlockTableRecord
  2
*MODEL_SPACE
  0
BLOCK_RECORD
  5
17
102
{ACAD_XDICTIONARY
360
1AE6
102
}
330
1
100
AcDbSymbolTableRecord
100
AcDbBlockTableRecord
  2
*PAPER_SPACE
  0
BLOCK_RECORD
  5
594
330
1
100
AcDbSymbolTableRecord
100
AcDbBlockTableRecord
  2
_OPEN
  0
BLOCK_RECORD
  5
1433
330
1
100
AcDbSymbolTableRecord
100
AcDbBlockTableRecord
  2
*D1
  0
BLOCK_RECORD
  5
143F
330
1
100
AcDbSymbolTableRecord
100
AcDbBlockTableRecord
  2
*D2
  0
BLOCK_RECORD
  5
144B
330
1
100
AcDbSymbolTableRecord
100
AcDbBlockTableRecord
  2
*D3
  0
BLOCK_RECORD
  5
17B2
330
1
100
AcDbSymbolTableRecord
100
AcDbBlockTableRecord
  2
*D4
  0
BLOCK_RECORD
  5
17C2
330
1
100
AcDbSymbolTableRecord
100
AcDbBlockTableRecord
  2
*D5
  0
BLOCK_RECORD
  5
17CF
330
1
100
AcDbSymbolTableRecord
100
AcDbBlockTableRecord
  2
*D6
  0
BLOCK_RECORD
  5
17DE
330
1
100
AcDbSymbolTableRecord
100
AcDbBlockTableRecord
  2
*D7
  0
BLOCK_RECORD
  5
19E8
330
1
100
AcDbSymbolTableRecord
100
AcDbBlockTableRecord
  2
A$C411526E8
  0
ENDTAB
  0
ENDSEC
  0
SECTION
  2
BLOCKS
  0
BLOCK
  5
1B
330
1A
100
AcDbEntity
  8
0
100
AcDbBlockBegin
  2
*MODEL_SPACE
 70
     0
 10
0.0
 20
0.0
 30
0.0
  3
*MODEL_SPACE
  1

  0
ENDBLK
  5
1C
330
1A
100
AcDbEntity
  8
0
100
AcDbBlockEnd
  0
BLOCK
  5
18
330
17
100
AcDbEntity
 67
     1
  8
0
100
AcDbBlockBegin
  2
*PAPER_SPACE
 70
     0
 10
0.0
 20
0.0
 30
0.0
  3
*PAPER_SPACE
  1

  0
ENDBLK
  5
19
330
17
100
AcDbEntity
 67
     1
  8
0
100
AcDbBlockEnd
  0
BLOCK
  5
598
330
594
100
AcDbEntity
  8
0
100
AcDbBlockBegin
  2
_OPEN
 70
     0
 10
0.0
 20
0.0
 30
0.0
  3
_OPEN
  1

  0
LINE
  5
595
330
594
100
AcDbEntity
  8
0
  6
BYBLOCK
 62
     0
100
AcDbLine
 10
-1.0
 20
0.1666666666666666
 30
0.0
 11
0.0
 21
0.0
 31
0.0
  0
LINE
  5
596
330
594
100
AcDbEntity
  8
0
  6
BYBLOCK
 62
     0
100
AcDbLine
 10
-1.0
 20
-0.1666666666666666
 30
0.0
 11
0.0
 21
0.0
 31
0.0
  0
LINE
  5
597
330
594
100
AcDbEntity
  8
0
  6
BYBLOCK
 62
     0
100
AcDbLine
 10
0.0
 20
0.0
 30
0.0
 11
-1.0
 21
0.0
 31
0.0
  0
ENDBLK
  5
599
330
594
100
AcDbEntity
  8
0
100
AcDbBlockEnd
  0
BLOCK
  5
143D
330
1433
100
AcDbEntity
  8
0
100
AcDbBlockBegin
  2
*D1
 70
     1
 10
0.0
 20
0.0
 30
0.0
  3
*D1
  1

  0
LINE
  5
1AEA
330
1433
100
AcDbEntity
  8
250
  6
CONTINUOUS
100
AcDbLine
 10
0.5
 20
-6.5
 30
0.0
 11
14.99999999999999
 21
-6.500000000000004
 31
0.0
  0
LINE
  5
1AEB
330
1433
100
AcDbEntity
  8
250
  6
CONTINUOUS
100
AcDbLine
 10
0.5
 20
6.5
 30
0.0
 11
15.0
 21
6.499999999999995
 31
0.0
  0
LINE
  5
1AEC
330
1433
100
AcDbEntity
  8
250
  6
CONTINUOUS
100
AcDbLine
 10
13.99999999999999
 20
-4.270000000000004
 30
0.0
 11
14.0
 21
4.269999999999996
 31
0.0
  0
MTEXT
  5
1AED
330
1433
100
AcDbEntity
  8
250
  6
CONTINUOUS
 62
    40
100
AcDbMText
 10
11.57383693310987
 20
3.092776409199757
 30
0.0
 40
3.0
 41
0.0
 71
     5
 72
     1
  1
\A1;MAX.%%C13
 11
0.0000000000000001
 21
1.0
 31
0.0
  0
INSERT
  5
1AEE
330
1433
100
AcDbEntity
  8
250
  6
CONTINUOUS
100
AcDbBlockReference
  2
_OPEN
 10
13.99999999999999
 20
-6.500000000000003
 30
0.0
 41
2.229999999999999
 42
2.229999999999999
 43
2.229999999999999
 50
270.0
  0
INSERT
  5
1AEF
330
1433
100
AcDbEntity
  8
250
  6
CONTINUOUS
100
AcDbBlockReference
  2
_OPEN
 10
14.0
 20
6.499999999999996
 30
0.0
 41
2.229999999999999
 42
2.229999999999999
 43
2.229999999999999
 50
90.0
  0
POINT
  5
1AF0
330
1433
100
AcDbEntity
  8
DEFPOINTS
  6
CONTINUOUS
 62
     0
100
AcDbPoint
 10
0.0
 20
-6.5
 30
0.0
  0
POINT
  5
1AF1
330
1433
100
AcDbEntity
  8
DEFPOINTS
  6
CONTINUOUS
 62
     0
100
AcDbPoint
 10
0.0
 20
6.5
 30
0.0
  0
POINT
  5
1AF2
330
1433
100
AcDbEntity
  8
DEFPOINTS
  6
CONTINUOUS
 62
     0
100
AcDbPoint
 10
14.0
 20
6.499999999999996
 30
0.0
  0
ENDBLK
  5
143E
330
1433
100
AcDbEntity
  8
0
100
AcDbBlockEnd
  0
BLOCK
  5
1449
330
143F
100
AcDbEntity
  8
0
100
AcDbBlockBegin
  2
*D2
 70
     1
 10
0.0
 20
0.0
 30
0.0
  3
*D2
  1

  0
LINE
  5
19B3
330
143F
100
AcDbEntity
  8
250
  6
CONTINUOUS
100
AcDbLine
 10
-1.08137099999999
 20
-17.5
 30
0.0
 11
21.99999999999998
 21
-17.5
 31
0.0
  0
LINE
  5
19B4
330
143F
100
AcDbEntity
  8
250
  6
CONTINUOUS
100
AcDbLine
 10
-1.08137099999999
 20
17.5
 30
0.0
 11
21.99999999999999
 21
17.49999999999999
 31
0.0
  0
LINE
  5
19B5
330
143F
100
AcDbEntity
  8
250
  6
CONTINUOUS
100
AcDbLine
 10
20.99999999999999
 20
-15.27
 30
0.0
 11
20.99999999999999
 21
15.26999999999999
 31
0.0
  0
INSERT
  5
19B6
330
143F
100
AcDbEntity
  8
250
  6
CONTINUOUS
100
AcDbBlockReference
  2
_OPEN
 10
20.99999999999999
 20
-17.5
 30
0.0
 41
2.229999999999999
 42
2.229999999999999
 43
2.229999999999999
 50
270.0
  0
INSERT
  5
19B7
330
143F
100
AcDbEntity
  8
250
  6
CONTINUOUS
100
AcDbBlockReference
  2
_OPEN
 10
20.99999999999999
 20
17.49999999999999
 30
0.0
 41
2.229999999999999
 42
2.229999999999999
 43
2.229999999999999
 50
90.0
  0
MTEXT
  5
19B8
330
143F
100
AcDbEntity
  8
250
  6
CONTINUOUS
 62
    40
100
AcDbMText
 10
18.49999999999999
 20
-0.000000000000001
 30
0.0
 40
3.0
 41
0.0
 71
     5
 72
     1
  1
\A1;{\H3;\U+2205}35
 11
0.0000000000000001
 21
1.0
 31
0.0
1001
ACAD
1000
MTEXTBEGIN
1070
    73
1070
     1
1070
    44
1040
1.0
1070
    74
1070
     0
1000
MTEXTEND
  0
POINT
  5
19B9
330
143F
100
AcDbEntity
  8
DEFPOINTS
  6
CONTINUOUS
 62
     0
100
AcDbPoint
 10
-1.58137099999999
 20
-17.5
 30
0.0
  0
POINT
  5
19BA
330
143F
100
AcDbEntity
  8
DEFPOINTS
  6
CONTINUOUS
 62
     0
100
AcDbPoint
 10
-1.58137099999999
 20
17.5
 30
0.0
  0
POINT
  5
19BB
330
143F
100
AcDbEntity
  8
DEFPOINTS
  6
CONTINUOUS
 62
     0
100
AcDbPoint
 10
20.99999999999999
 20
17.49999999999999
 30
0.0
  0
ENDBLK
  5
144A
330
143F
100
AcDbEntity
  8
0
100
AcDbBlockEnd
  0
BLOCK
  5
1455
330
144B
100
AcDbEntity
  8
0
100
AcDbBlockBegin
  2
*D3
 70
     1
 10
0.0
 20
0.0
 30
0.0
  3
*D3
  1

  0
LINE
  5
1490
330
144B
100
AcDbEntity
  8
250
  6
CONTINUOUS
100
AcDbLine
 10
-50.0
 20
-6.799999999999954
 30
0.0
 11
-50.0
 21
-36.0
 31
0.0
  0
LINE
  5
1491
330
144B
100
AcDbEntity
  8
250
  6
CONTINUOUS
100
AcDbLine
 10
0.0
 20
-16.46004999999996
 30
0.0
 11
-0.0000000000000012
 21
-36.0
 31
0.0
  0
LINE
  5
1492
330
144B
100
AcDbEntity
  8
250
  6
CONTINUOUS
100
AcDbLine
 10
-47.77
 20
-35.0
 30
0.0
 11
-2.230000000000001
 21
-35.0
 31
0.0
  0
INSERT
  5
1493
330
144B
100
AcDbEntity
  8
250
  6
CONTINUOUS
100
AcDbBlockReference
  2
_OPEN
 10
-50.0
 20
-35.0
 30
0.0
 41
2.229999999999999
 42
2.229999999999999
 43
2.229999999999999
 50
180.0
  0
INSERT
  5
1494
330
144B
100
AcDbEntity
  8
250
  6
CONTINUOUS
100
AcDbBlockReference
  2
_OPEN
 10
-0.0000000000000012
 20
-35.0
 30
0.0
 41
2.229999999999999
 42
2.229999999999999
 43
2.229999999999999
  0
MTEXT
  5
1495
330
144B
100
AcDbEntity
  8
250
  6
CONTINUOUS
 62
    40
100
AcDbMText
 10
-25.0
 20
-32.5
 30
0.0
 40
3.0
 41
0.0
 71
     5
 72
     1
  1
\A1;41～60
1001
ACAD
1000
MTEXTBEGIN
1070
    73
1070
     1
1070
    44
1040
1.0
1070
    74
1070
     0
1000
MTEXTEND
  0
POINT
  5
1496
330
144B
100
AcDbEntity
  8
DEFPOINTS
  6
CONTINUOUS
 62
     0
100
AcDbPoint
 10
-50.0
 20
-6.299999999999954
 30
0.0
  0
POINT
  5
1497
330
144B
100
AcDbEntity
  8
DEFPOINTS
  6
CONTINUOUS
 62
     0
100
AcDbPoint
 10
0.0
 20
-15.96004999999996
 30
0.0
  0
POINT
  5
1498
330
144B
100
AcDbEntity
  8
DEFPOINTS
  6
CONTINUOUS
 62
     0
100
AcDbPoint
 10
-0.0000000000000012
 20
-35.0
 30
0.0
  0
ENDBLK
  5
1456
330
144B
100
AcDbEntity
  8
0
100
AcDbBlockEnd
  0
BLOCK
  5
17BC
330
17B2
100
AcDbEntity
  8
0
100
AcDbBlockBegin
  2
*D4
 70
     1
 10
0.0
 20
0.0
 30
0.0
  3
*D4
  1

  0
LINE
  5
17B3
330
17B2
100
AcDbEntity
  8
250
  6
CONTINUOUS
100
AcDbLine
 10
-121.5
 20
13.5
 30
0.0
 11
-121.5
 21
43.0
 31
0.0
  0
LINE
  5
17B4
330
17B2
100
AcDbEntity
  8
250
  6
CONTINUOUS
100
AcDbLine
 10
0.0
 20
16.46005100000002
 30
0.0
 11
0.0000000000000017
 21
43.0
 31
0.0
  0
LINE
  5
17B5
330
17B2
100
AcDbEntity
  8
250
  6
CONTINUOUS
100
AcDbLine
 10
-119.27
 20
42.0
 30
0.0
 11
-2.229999999999998
 21
42.0
 31
0.0
  0
INSERT
  5
17B6
330
17B2
100
AcDbEntity
  8
250
  6
CONTINUOUS
100
AcDbBlockReference
  2
_OPEN
 10
-121.5
 20
42.0
 30
0.0
 41
2.229999999999999
 42
2.229999999999999
 43
2.229999999999999
 50
180.0
  0
INSERT
  5
17B7
330
17B2
100
AcDbEntity
  8
250
  6
CONTINUOUS
100
AcDbBlockReference
  2
_OPEN
 10
0.0000000000000016
 20
42.0
 30
0.0
 41
2.229999999999999
 42
2.229999999999999
 43
2.229999999999999
  0
MTEXT
  5
17B8
330
17B2
100
AcDbEntity
  8
250
  6
CONTINUOUS
 62
    40
100
AcDbMText
 10
-60.75
 20
44.5
 30
0.0
 40
3.0
 41
0.0
 71
     5
 72
     1
  1
\A1;121.5
1001
ACAD
1000
MTEXTBEGIN
1070
    73
1070
     1
1070
    44
1040
1.0
1070
    74
1070
     0
1000
MTEXTEND
  0
POINT
  5
17B9
330
17B2
100
AcDbEntity
  8
DEFPOINTS
  6
CONTINUOUS
 62
     0
100
AcDbPoint
 10
-121.5
 20
13.0
 30
0.0
  0
POINT
  5
17BA
330
17B2
100
AcDbEntity
  8
DEFPOINTS
  6
CONTINUOUS
 62
     0
100
AcDbPoint
 10
0.0
 20
15.96005100000002
 30
0.0
  0
POINT
  5
17BB
330
17B2
100
AcDbEntity
  8
DEFPOINTS
  6
CONTINUOUS
 62
     0
100
AcDbPoint
 10
0.0000000000000016
 20
42.0
 30
0.0
  0
ENDBLK
  5
17BD
330
17B2
100
AcDbEntity
  8
0
100
AcDbBlockEnd
  0
BLOCK
  5
17CC
330
17C2
100
AcDbEntity
  8
0
100
AcDbBlockBegin
  2
*D5
 70
     1
 10
0.0
 20
0.0
 30
0.0
  3
*D5
  1

  0
LINE
  5
17C3
330
17C2
100
AcDbEntity
  8
250
  6
CONTINUOUS
100
AcDbLine
 10
-20.5
 20
15.5
 30
0.0
 11
-20.5
 21
36.0
 31
0.0
  0
LINE
  5
17C4
330
17C2
100
AcDbEntity
  8
250
  6
CONTINUOUS
100
AcDbLine
 10
0.0
 20
16.46005100000002
 30
0.0
 11
0.0000000000000012
 21
36.0
 31
0.0
  0
LINE
  5
17C5
330
17C2
100
AcDbEntity
  8
250
  6
CONTINUOUS
100
AcDbLine
 10
-18.27
 20
35.0
 30
0.0
 11
-2.229999999999998
 21
35.0
 31
0.0
  0
INSERT
  5
17C6
330
17C2
100
AcDbEntity
  8
250
  6
CONTINUOUS
100
AcDbBlockReference
  2
_OPEN
 10
-20.5
 20
35.0
 30
0.0
 41
2.229999999999999
 42
2.229999999999999
 43
2.229999999999999
 50
180.0
  0
INSERT
  5
17C7
330
17C2
100
AcDbEntity
  8
250
  6
CONTINUOUS
100
AcDbBlockReference
  2
_OPEN
 10
0.0000000000000012
 20
35.0
 30
0.0
 41
2.229999999999999
 42
2.229999999999999
 43
2.229999999999999
  0
MTEXT
  5
17C8
330
17C2
100
AcDbEntity
  8
250
  6
CONTINUOUS
 62
    40
100
AcDbMText
 10
-10.25
 20
37.5
 30
0.0
 40
3.0
 41
0.0
 71
     5
 72
     1
  1
\A1;20.5
1001
ACAD
1000
MTEXTBEGIN
1070
    73
1070
     1
1070
    44
1040
1.0
1070
    74
1070
     0
1000
MTEXTEND
  0
POINT
  5
17C9
330
17C2
100
AcDbEntity
  8
DEFPOINTS
  6
CONTINUOUS
 62
     0
100
AcDbPoint
 10
-20.5
 20
15.0
 30
0.0
  0
POINT
  5
17CA
330
17C2
100
AcDbEntity
  8
DEFPOINTS
  6
CONTINUOUS
 62
     0
100
AcDbPoint
 10
0.0
 20
15.96005100000002
 30
0.0
  0
POINT
  5
17CB
330
17C2
100
AcDbEntity
  8
DEFPOINTS
  6
CONTINUOUS
 62
     0
100
AcDbPoint
 10
0.0000000000000012
 20
35.0
 30
0.0
  0
ENDBLK
  5
17CD
330
17C2
100
AcDbEntity
  8
0
100
AcDbBlockEnd
  0
BLOCK
  5
17D9
330
17CF
100
AcDbEntity
  8
0
100
AcDbBlockBegin
  2
*D6
 70
     1
 10
0.0
 20
0.0
 30
0.0
  3
*D6
  1

  0
LINE
  5
17D0
330
17CF
100
AcDbEntity
  8
250
  6
CONTINUOUS
100
AcDbLine
 10
-121.5
 20
13.5
 30
0.0
 11
-121.5
 21
36.0
 31
0.0
  0
LINE
  5
17D1
330
17CF
100
AcDbEntity
  8
250
  6
CONTINUOUS
100
AcDbLine
 10
-20.5
 20
15.5
 30
0.0
 11
-20.5
 21
36.0
 31
0.0
  0
LINE
  5
17D2
330
17CF
100
AcDbEntity
  8
250
  6
CONTINUOUS
100
AcDbLine
 10
-119.27
 20
35.0
 30
0.0
 11
-22.73
 21
35.0
 31
0.0
  0
INSERT
  5
17D3
330
17CF
100
AcDbEntity
  8
250
  6
CONTINUOUS
100
AcDbBlockReference
  2
_OPEN
 10
-121.5
 20
35.0
 30
0.0
 41
2.229999999999999
 42
2.229999999999999
 43
2.229999999999999
 50
180.0
  0
INSERT
  5
17D4
330
17CF
100
AcDbEntity
  8
250
  6
CONTINUOUS
100
AcDbBlockReference
  2
_OPEN
 10
-20.5
 20
35.0
 30
0.0
 41
2.229999999999999
 42
2.229999999999999
 43
2.229999999999999
  0
MTEXT
  5
17D5
330
17CF
100
AcDbEntity
  8
250
  6
CONTINUOUS
 62
    40
100
AcDbMText
 10
-71.0
 20
37.5
 30
0.0
 40
3.0
 41
0.0
 71
     5
 72
     1
  1
\A1;101
1001
ACAD
1000
MTEXTBEGIN
1070
    73
1070
     1
1070
    44
1040
1.0
1070
    74
1070
     0
1000
MTEXTEND
  0
POINT
  5
17D6
330
17CF
100
AcDbEntity
  8
DEFPOINTS
  6
CONTINUOUS
 62
     0
100
AcDbPoint
 10
-121.5
 20
13.0
 30
0.0
  0
POINT
  5
17D7
330
17CF
100
AcDbEntity
  8
DEFPOINTS
  6
CONTINUOUS
 62
     0
100
AcDbPoint
 10
-20.5
 20
15.0
 30
0.0
  0
POINT
  5
17D8
330
17CF
100
AcDbEntity
  8
DEFPOINTS
  6
CONTINUOUS
 62
     0
100
AcDbPoint
 10
-20.5
 20
35.0
 30
0.0
  0
ENDBLK
  5
17DA
330
17CF
100
AcDbEntity
  8
0
100
AcDbBlockEnd
  0
BLOCK
  5
17E8
330
17DE
100
AcDbEntity
  8
0
100
AcDbBlockBegin
  2
*D7
 70
     1
 10
0.0
 20
0.0
 30
0.0
  3
*D7
  1

  0
LINE
  5
17EA
330
17DE
100
AcDbEntity
  8
250
  6
CONTINUOUS
100
AcDbLine
 10
-107.5
 20
-16.0
 30
0.0
 11
-134.0
 21
-15.99999999999999
 31
0.0
  0
LINE
  5
17EB
330
17DE
100
AcDbEntity
  8
250
  6
CONTINUOUS
100
AcDbLine
 10
-107.5
 20
15.99999999999997
 30
0.0
 11
-134.0
 21
15.99999999999998
 31
0.0
  0
LINE
  5
17EC
330
17DE
100
AcDbEntity
  8
250
  6
CONTINUOUS
100
AcDbLine
 10
-133.0
 20
-13.76999999999999
 30
0.0
 11
-133.0
 21
13.76999999999998
 31
0.0
  0
INSERT
  5
17ED
330
17DE
100
AcDbEntity
  8
250
  6
CONTINUOUS
100
AcDbBlockReference
  2
_OPEN
 10
-133.0
 20
-15.99999999999999
 30
0.0
 41
2.229999999999999
 42
2.229999999999999
 43
2.229999999999999
 50
270.0
  0
INSERT
  5
17EE
330
17DE
100
AcDbEntity
  8
250
  6
CONTINUOUS
100
AcDbBlockReference
  2
_OPEN
 10
-133.0
 20
15.99999999999998
 30
0.0
 41
2.229999999999999
 42
2.229999999999999
 43
2.229999999999999
 50
90.0
  0
MTEXT
  5
17EF
330
17DE
100
AcDbEntity
  8
250
  6
CONTINUOUS
 62
    40
100
AcDbMText
 10
-135.4999999999999
 20
-0.0000000000000289
 30
0.0
 40
3.0
 41
0.0
 71
     5
 72
     1
  1
\A1;{\H3;\U+2205}32
 11
0.0000000000000001
 21
1.0
 31
0.0
1001
ACAD
1000
MTEXTBEGIN
1070
    73
1070
     1
1070
    44
1040
1.0
1070
    74
1070
     0
1000
MTEXTEND
  0
POINT
  5
17F0
330
17DE
100
AcDbEntity
  8
DEFPOINTS
  6
CONTINUOUS
 62
     0
100
AcDbPoint
 10
-107.0
 20
-16.0
 30
0.0
  0
POINT
  5
17F1
330
17DE
100
AcDbEntity
  8
DEFPOINTS
  6
CONTINUOUS
 62
     0
100
AcDbPoint
 10
-107.0
 20
15.99999999999997
 30
0.0
  0
POINT
  5
17F2
330
17DE
100
AcDbEntity
  8
DEFPOINTS
  6
CONTINUOUS
 62
     0
100
AcDbPoint
 10
-133.0
 20
15.99999999999998
 30
0.0
  0
ENDBLK
  5
17E9
330
17DE
100
AcDbEntity
  8
0
100
AcDbBlockEnd
  0
BLOCK
  5
1ABA
330
19E8
100
AcDbEntity
  8
0
100
AcDbBlockBegin
  2
A$C411526E8
 70
     0
 10
0.0
 20
0.0
 30
0.0
  3
A$C411526E8
  1

  0
LINE
  5
19E9
330
19E8
100
AcDbEntity
  8
245
100
AcDbLine
 10
-124.414566264811
 20
0.0
 30
0.0
 11
2.53244800652817
 21
0.0
 31
0.0
  0
LINE
  5
19EA
330
19E8
100
AcDbEntity
  8
242
100
AcDbLine
 10
-26.5
 20
8.587782018658865
 30
0.0
 11
-121.5
 21
-8.587782018658865
 31
0.0
  0
LINE
  5
19EB
330
19E8
100
AcDbEntity
  8
242
100
AcDbLine
 10
-121.5
 20
8.587782018658865
 30
0.0
 11
-26.50000263799197
 21
-8.587786165582881
 31
0.0
  0
LINE
  5
19EC
330
19E8
100
AcDbEntity
  8
241
100
AcDbLine
 10
-26.5
 20
8.587782018658865
 30
0.0
 11
-121.5
 21
8.587782018658865
 31
0.0
  0
LINE
  5
19ED
330
19E8
100
AcDbEntity
  8
241
100
AcDbLine
 10
-26.5
 20
-8.587782018658865
 30
0.0
 11
-121.5
 21
-8.587782018658865
 31
0.0
  0
LINE
  5
19EE
330
19E8
100
AcDbEntity
  8
240
100
AcDbLine
 10
-107.0
 20
-16.0
 30
0.0
 11
-109.5
 21
-13.5
 31
0.0
  0
LINE
  5
19EF
330
19E8
100
AcDbEntity
  8
240
100
AcDbLine
 10
-107.0
 20
15.99999999999997
 30
0.0
 11
-109.4999999999999
 21
13.5
 31
0.0
  0
LINE
  5
19F0
330
19E8
100
AcDbEntity
  8
240
100
AcDbLine
 10
-121.5
 20
-13.0
 30
0.0
 11
-121.5
 21
13.0
 31
0.0
  0
LINE
  5
19F1
330
19E8
100
AcDbEntity
  8
240
100
AcDbLine
 10
-121.0
 20
-13.5
 30
0.0
 11
-109.5
 21
-13.5
 31
0.0
  0
LINE
  5
19F2
330
19E8
100
AcDbEntity
  8
240
100
AcDbLine
 10
-121.5
 20
-13.0
 30
0.0
 11
-121.0
 21
-13.5
 31
0.0
  0
LINE
  5
19F3
330
19E8
100
AcDbEntity
  8
240
100
AcDbLine
 10
-121.0
 20
13.5
 30
0.0
 11
-109.4999999999999
 21
13.5
 31
0.0
  0
LINE
  5
19F4
330
19E8
100
AcDbEntity
  8
240
100
AcDbLine
 10
-121.0
 20
13.5
 30
0.0
 11
-121.5
 21
13.0
 31
0.0
  0
LINE
  5
19F5
330
19E8
100
AcDbEntity
  8
241
100
AcDbLine
 10
-1.58137099999999
 20
17.00094599999999
 30
0.0
 11
-1.58137099999999
 21
-17.15231799999997
 31
0.0
  0
LINE
  5
19F6
330
19E8
100
AcDbEntity
  8
240
100
AcDbLine
 10
0.0
 20
15.96005100000002
 30
0.0
 11
0.0
 21
-15.96004999999996
 31
0.0
  0
LINE
  5
19F7
330
19E8
100
AcDbEntity
  8
246
100
AcDbLine
 10
-5.600000000000022
 20
10.25
 30
0.0
 11
-31.0
 21
7.580353000000059
 31
0.0
  0
LINE
  5
19F8
330
19E8
100
AcDbEntity
  8
241
100
AcDbLine
 10
-16.0
 20
13.0
 30
0.0
 11
-16.0
 21
0.0
 31
0.0
  0
LINE
  5
19F9
330
19E8
100
AcDbEntity
  8
241
100
AcDbLine
 10
-15.5
 20
15.0
 30
0.0
 11
-15.5
 21
0.0
 31
0.0
  0
LINE
  5
19FA
330
19E8
100
AcDbEntity
  8
241
100
AcDbLine
 10
-20.5
 20
14.0
 30
0.0
 11
-20.5
 21
0.0
 31
0.0
  0
LINE
  5
19FB
330
19E8
100
AcDbEntity
  8
241
100
AcDbLine
 10
-18.5
 20
12.5
 30
0.0
 11
-18.5
 21
0.0
 31
0.0
  0
LINE
  5
19FC
330
19E8
100
AcDbEntity
  8
246
100
AcDbLine
 10
-5.600000000000022
 20
10.25
 30
0.0
 11
-5.600000000000022
 21
8.75
 31
0.0
  0
LINE
  5
19FD
330
19E8
100
AcDbEntity
  8
246
100
AcDbLine
 10
-3.0
 20
10.25
 30
0.0
 11
0.0
 21
8.517950000000041
 31
0.0
  0
LINE
  5
19FE
330
19E8
100
AcDbEntity
  8
246
100
AcDbLine
 10
-3.200000000000045
 20
8.75
 30
0.0
 11
-3.200000000000045
 21
10.25
 31
0.0
  0
LINE
  5
19FF
330
19E8
100
AcDbEntity
  8
240
100
AcDbLine
 10
-107.0
 20
-16.0
 30
0.0
 11
-21.5
 21
-16.0
 31
0.0
  0
TEXT
  5
1A00
330
19E8
100
AcDbEntity
  8
247
100
AcDbText
 10
-43.21188847815466
 20
-13.93734376632893
 30
0.0
 40
1.5
  1
SL32-NBS13-100
  7
YOKO
 11
-43.21188847815466
 21
-13.93734376632893
 31
0.0
100
AcDbText
 73
     1
  0
LINE
  5
1A01
330
19E8
100
AcDbEntity
  8
246
100
AcDbLine
 10
-31.0
 20
-6.5
 30
0.0
 11
0.0
 21
-6.5
 31
0.0
  0
LINE
  5
1A02
330
19E8
100
AcDbEntity
  8
246
100
AcDbLine
 10
-5.600000000000022
 20
-10.25
 30
0.0
 11
-31.0
 21
-7.580352000000004
 31
0.0
  0
LINE
  5
1A03
330
19E8
100
AcDbEntity
  8
246
100
AcDbLine
 10
-31.0
 20
6.5
 30
0.0
 11
0.0
 21
6.5
 31
0.0
  0
ARC
  5
1A04
330
19E8
100
AcDbEntity
  8
246
100
AcDbCircle
 10
-69.0
 20
-5.25
 30
0.0
 40
1.0
100
AcDbArc
 50
180.0
 51
270.0
  0
LINE
  5
1A05
330
19E8
100
AcDbEntity
  8
246
100
AcDbLine
 10
-58.0
 20
-3.0
 30
0.0
 11
-70.0
 21
-3.0
 31
0.0
  0
LINE
  5
1A06
330
19E8
100
AcDbEntity
  8
246
100
AcDbLine
 10
-58.0
 20
3.0
 30
0.0
 11
-70.0
 21
3.0
 31
0.0
  0
ARC
  5
1A07
330
19E8
100
AcDbEntity
  8
246
100
AcDbCircle
 10
-69.0
 20
5.25
 30
0.0
 40
1.0
100
AcDbArc
 50
90.0
 51
180.0
  0
LINE
  5
1A08
330
19E8
100
AcDbEntity
  8
246
100
AcDbLine
 10
-70.0
 20
-5.25
 30
0.0
 11
-70.0
 21
5.25
 31
0.0
  0
ARC
  5
1A09
102
{ACAD_REACTORS
330
1A0E
102
}
330
19E8
100
AcDbEntity
  8
247
100
AcDbCircle
 10
-45.55908408366422
 20
-13.1705309569403
 30
0.0
 40
0.5911056518554688
100
AcDbArc
 50
163.9997507017293
 51
304.9638732916318
  0
ARC
  5
1A0A
102
{ACAD_REACTORS
330
1A0B
102
}
330
19E8
100
AcDbEntity
  8
247
100
AcDbCircle
 10
-44.61997275553923
 20
-13.07959162588561
 30
0.0
 40
0.9548561096191406
100
AcDbArc
 50
270.0
 51
104.7707939660941
  0
HATCH
  5
1A0B
330
19E8
100
AcDbEntity
  8
247
100
AcDbHatch
 10
0.0
 20
0.0
 30
0.0
210
0.0
220
0.0
230
1.0
  2
ANSI31
 70
     0
 71
     1
 91
        1
 92
       33
 93
       10
 72
     1
 10
-47.93648429118373
 20
-12.12473551626647
 11
-47.9886350175021
 21
-12.30661417837584
 72
     1
 10
-48.31208625041226
 20
-12.12473551626647
 11
-47.93648429118373
 21
-12.12473551626647
 72
     1
 10
-48.31208625041226
 20
-12.30661417837584
 11
-47.9886350175021
 21
-12.30661417837584
 72
     2
 10
-48.31208625041227
 20
-13.07959162588561
 40
0.7729774475097657
 50
90.0
 51
270.0
 73
     1
 72
     2
 10
-48.31208625041227
 20
-13.07959162588561
 40
0.9548561096191406
 50
90.0
 51
270.0
 73
     1
 72
     1
 10
-48.31208625041226
 20
-14.03444794540062
 11
-44.6199727555392
 21
-14.03444794540062
 72
     1
 10
-48.31208625041226
 20
-13.85256928797209
 11
-44.6199727555392
 21
-13.85256928797209
 72
     2
 10
-44.61997275553923
 20
-13.07959162588561
 40
0.9548561096191406
 50
270.0
 51
464.7707939660941
 73
     1
 72
     2
 10
-44.61997275553923
 20
-13.07959162588561
 40
0.7729774475097657
 50
270.0
 51
464.1274364964119
 73
     1
 72
     1
 10
-44.80864234172084
 20
-12.32998759146178
 11
-44.86341605387905
 21
-12.15628687735045
 97
       10
330
1A32
330
1A44
330
1A45
330
1A52
330
1A0C
330
1A0D
330
1A10
330
1A0A
330
1A14
330
1A53
 75
     0
 76
     1
 52
360.0
 41
0.045
 77
     0
 78
     1
 53
44.99999999999996
 43
-103.1769363518832
 44
-21.12194344397029
 45
-0.101027881362028
 46
0.101027881362028
 79
     0
 98
        1
 10
-103.1769363518832
 20
-21.12194344397029
  0
ARC
  5
1A0C
102
{ACAD_REACTORS
330
1A0B
102
}
330
19E8
100
AcDbEntity
  8
247
100
AcDbCircle
 10
-48.31208625041227
 20
-13.07959162588561
 30
0.0
 40
0.9548561096191406
100
AcDbArc
 50
90.0
 51
270.0
  0
LINE
  5
1A0D
102
{ACAD_REACTORS
330
1A0B
102
}
330
19E8
100
AcDbEntity
  8
247
100
AcDbLine
 10
-48.31208625041226
 20
-14.03444794540062
 30
0.0
 11
-44.6199727555392
 21
-14.03444794540062
 31
0.0
  0
HATCH
  5
1A0E
330
19E8
100
AcDbEntity
  8
247
100
AcDbHatch
 10
0.0
 20
0.0
 30
0.0
210
0.0
220
0.0
230
1.0
  2
ANSI31
 70
     0
 71
     1
 91
        1
 92
       33
 93
       15
 72
     1
 10
-44.89537253581264
 20
-12.35733668203795
 11
-44.95014624797084
 21
-12.18363596792662
 72
     2
 10
-44.61997275553923
 20
-13.07959162588561
 40
0.7729795932769776
 50
110.8721834020772
 51
132.5419489373868
 73
     1
 72
     2
 10
-45.33349356852751
 20
-12.51577326651061
 40
0.1909725040197372
 50
1.710121382062756
 51
163.9983983544484
 73
     1
 72
     1
 10
-45.76218695842007
 20
-13.31795374746764
 11
-45.51706824504116
 21
-12.46312815542662
 72
     2
 10
-45.57861228190641
 20
-13.37059199209654
 40
0.1909723699092865
 50
164.0002730571838
 51
344.0002730571838
 73
     1
 72
     1
 10
-45.39503760539272
 20
-13.42323023672545
 11
-45.27824607096889
 21
-13.01593272085631
 72
     1
 10
-45.42961020671108
 20
-13.01593272085631
 11
-45.27824607096889
 21
-13.01593272085631
 72
     1
 10
-45.42961020671108
 20
-13.01593272085631
 11
-45.37745948039272
 21
-12.83405405874693
 72
     1
 10
-45.37745948039272
 20
-12.83405405874693
 11
-44.84767813883999
 21
-12.83405405874693
 72
     1
 10
-45.11365714274623
 20
-13.76162995691741
 11
-44.84767813883999
 21
-12.83405405874693
 72
     1
 10
-45.22034812175014
 20
-13.65494584436858
 11
-45.11365714274623
 21
-13.76162995691741
 72
     2
 10
-45.55908408366422
 20
-13.1705309569403
 40
0.5911056518554688
 50
163.9997507017293
 51
304.9638732916318
 73
     1
 72
     2
 10
-44.59265799723843
 20
-13.20160853262389
 40
1.546847534179687
 50
155.2051773698405
 51
172.7948259620522
 73
     1
 72
     2
 10
-45.42870383464079
 20
-12.71583430166686
 40
0.5910996437072754
 50
53.44401219705754
 51
164.0001843876852
 73
     1
 72
     2
 10
-44.61997275553923
 20
-13.07959162588561
 40
0.954856538772583
 50
110.22964506332
 51
118.5716889237176
 73
     1
 97
       15
330
1A6C
330
1A12
330
1A4B
330
1A50
330
1A4E
330
1A4C
330
1A4D
330
1A51
330
1A11
330
1A13
330
1A4F
330
1A09
330
1A43
330
1A0F
330
1A6D
 75
     0
 76
     1
 52
360.0
 41
0.045
 77
     0
 78
     1
 53
44.99999999999996
 43
-103.1769363518832
 44
-21.12194344397029
 45
-0.101027881362028
 46
0.101027881362028
 79
     0
 98
        1
 10
-103.1769363518832
 20
-21.12194344397029
  0
ARC
  5
1A0F
102
{ACAD_REACTORS
330
1A0E
102
}
330
19E8
100
AcDbEntity
  8
247
100
AcDbCircle
 10
-45.42870383464079
 20
-12.71583430166686
 30
0.0
 40
0.5910996437072754
100
AcDbArc
 50
53.44401219705754
 51
164.0001843876852
  0
LINE
  5
1A10
102
{ACAD_REACTORS
330
1A0B
102
}
330
19E8
100
AcDbEntity
  8
247
100
AcDbLine
 10
-48.31208625041226
 20
-13.85256928797209
 30
0.0
 11
-44.6199727555392
 21
-13.85256928797209
 31
0.0
  0
LINE
  5
1A11
102
{ACAD_REACTORS
330
1A0E
102
}
330
19E8
100
AcDbEntity
  8
247
100
AcDbLine
 10
-45.37745948039272
 20
-12.83405405874693
 30
0.0
 11
-44.84767813883999
 21
-12.83405405874693
 31
0.0
  0
ARC
  5
1A12
102
{ACAD_REACTORS
330
1A0E
102
}
330
19E8
100
AcDbEntity
  8
247
100
AcDbCircle
 10
-44.61997275553923
 20
-13.07959162588561
 30
0.0
 40
0.7729795932769776
100
AcDbArc
 50
110.8721834020772
 51
132.5419489373868
  0
LINE
  5
1A13
102
{ACAD_REACTORS
330
1A0E
102
}
330
19E8
100
AcDbEntity
  8
247
100
AcDbLine
 10
-45.11365714274623
 20
-13.76162995691741
 30
0.0
 11
-44.84767813883999
 21
-12.83405405874693
 31
0.0
  0
ARC
  5
1A14
102
{ACAD_REACTORS
330
1A0B
102
}
330
19E8
100
AcDbEntity
  8
247
100
AcDbCircle
 10
-44.61997275553923
 20
-13.07959162588561
 30
0.0
 40
0.7729774475097657
100
AcDbArc
 50
270.0
 51
104.1274364964119
  0
LINE
  5
1A15
330
19E8
100
AcDbEntity
  8
247
100
AcDbLine
 10
-46.50797324382045
 20
-12.12473551626647
 30
0.0
 11
-46.03495688639858
 21
-12.12473551626647
 31
0.0
  0
HATCH
  5
1A16
330
19E8
100
AcDbEntity
  8
247
100
AcDbHatch
 10
0.0
 20
0.0
 30
0.0
210
0.0
220
0.0
230
1.0
  2
ANSI31
 70
     0
 71
     0
 91
        1
 92
        7
 72
     0
 73
     1
 93
        6
 10
-46.03495688639858
 20
-12.12473551626646
 10
-46.50797324382045
 20
-12.12473551626646
 10
-46.56534247599818
 20
-12.32479655142271
 10
-46.49911551676967
 20
-12.32479655142271
 10
-46.91112342082241
 20
-13.76162995691741
 10
-46.50432715617397
 20
-13.76162995691741
 97
        0
 75
     0
 76
     1
 52
360.0
 41
0.045
 77
     0
 78
     1
 53
44.99999999999996
 43
-103.1769363518832
 44
-21.12194344397029
 45
-0.101027881362028
 46
0.101027881362028
 79
     0
 47
0.0134348504236232
 98
        1
 10
-46.46019890562104
 20
-12.90032149026572
  0
POLYLINE
  5
1A17
330
19E8
100
AcDbEntity
  8
247
100
AcDb2dPolyline
 66
     1
 10
0.0
 20
0.0
 30
0.0
 70
     1
  0
VERTEX
  5
1A18
330
1A17
100
AcDbEntity
  8
247
100
AcDbVertex
100
AcDb2dVertex
 10
-46.50797324382048
 20
-12.12473551626647
 30
0.0
  0
VERTEX
  5
1A19
330
1A17
100
AcDbEntity
  8
247
100
AcDbVertex
100
AcDb2dVertex
 10
-46.56534247599821
 20
-12.32479655142272
 30
0.0
  0
VERTEX
  5
1A1A
330
1A17
100
AcDbEntity
  8
247
100
AcDbVertex
100
AcDb2dVertex
 10
-46.4991155167697
 20
-12.32479655142272
 30
0.0
  0
VERTEX
  5
1A1B
330
1A17
100
AcDbEntity
  8
247
100
AcDbVertex
100
AcDb2dVertex
 10
-46.91112342082242
 20
-13.76162995691741
 30
0.0
  0
VERTEX
  5
1A1C
330
1A17
100
AcDbEntity
  8
247
100
AcDbVertex
100
AcDb2dVertex
 10
-46.50432715617399
 20
-13.76162995691741
 30
0.0
  0
VERTEX
  5
1A1D
330
1A17
100
AcDbEntity
  8
247
100
AcDbVertex
100
AcDb2dVertex
 10
-46.03495688639859
 20
-12.12473551626647
 30
0.0
  0
SEQEND
  5
1A1E
330
1A17
100
AcDbEntity
  8
247
  0
POLYLINE
  5
1A1F
330
19E8
100
AcDbEntity
  8
247
100
AcDb2dPolyline
 66
     1
 10
0.0
 20
0.0
 30
0.0
 70
     1
1001
HATCH_DISTANCE
1040
1.0
1001
HATCH_DISPLAY
1070
     0
1001
HATCH_TYPE
1070
     7
  0
VERTEX
  5
1A20
330
1A1F
100
AcDbEntity
  8
247
100
AcDbVertex
100
AcDb2dVertex
 10
-46.50797324382048
 20
-12.12473551626647
 30
0.0
  0
VERTEX
  5
1A21
330
1A1F
100
AcDbEntity
  8
247
100
AcDbVertex
100
AcDb2dVertex
 10
-46.56534247599821
 20
-12.32479655142272
 30
0.0
  0
VERTEX
  5
1A22
330
1A1F
100
AcDbEntity
  8
247
100
AcDbVertex
100
AcDb2dVertex
 10
-46.4991155167697
 20
-12.32479655142272
 30
0.0
  0
VERTEX
  5
1A23
330
1A1F
100
AcDbEntity
  8
247
100
AcDbVertex
100
AcDb2dVertex
 10
-46.91112342082242
 20
-13.76162995691741
 30
0.0
  0
VERTEX
  5
1A24
330
1A1F
100
AcDbEntity
  8
247
100
AcDbVertex
100
AcDb2dVertex
 10
-46.50432715617399
 20
-13.76162995691741
 30
0.0
  0
VERTEX
  5
1A25
330
1A1F
100
AcDbEntity
  8
247
100
AcDbVertex
100
AcDb2dVertex
 10
-46.03495688639859
 20
-12.12473551626647
 30
0.0
  0
SEQEND
  5
1A26
330
1A1F
100
AcDbEntity
  8
247
  0
LINE
  5
1A27
330
19E8
100
AcDbEntity
  8
247
100
AcDbLine
 10
-46.50432715617397
 20
-13.76162995691741
 30
0.0
 11
-46.03495688639858
 21
-12.12473551626647
 31
0.0
  0
LINE
  5
1A28
330
19E8
100
AcDbEntity
  8
247
100
AcDbLine
 10
-47.21251536194032
 20
-12.43857093145654
 30
0.0
 11
-46.9857261118145
 21
-12.21178168133073
 31
0.0
  0
LINE
  5
1A29
330
19E8
100
AcDbEntity
  8
247
100
AcDbLine
 10
-47.18920368135502
 20
-12.61731501359528
 30
0.0
 11
-46.88484729881542
 21
-12.31295863105569
 31
0.0
  0
LINE
  5
1A2A
330
19E8
100
AcDbEntity
  8
247
100
AcDbLine
 10
-46.56534247599818
 20
-12.32479655142272
 30
0.0
 11
-46.49911551676967
 21
-12.32479655142272
 31
0.0
  0
LINE
  5
1A2B
330
19E8
100
AcDbEntity
  8
247
100
AcDbLine
 10
-46.56534247599818
 20
-12.32479655142272
 30
0.0
 11
-46.50797324382045
 21
-12.12473551626647
 31
0.0
  0
LINE
  5
1A2C
330
19E8
100
AcDbEntity
  8
247
100
AcDbLine
 10
-47.34669961603821
 20
-12.31136802677093
 30
0.0
 11
-47.4957471349472
 21
-12.83117013318617
 31
0.0
  0
LINE
  5
1A2D
330
19E8
100
AcDbEntity
  8
247
100
AcDbLine
 10
-47.89403586589098
 20
-12.30661417837584
 30
0.0
 11
-47.79942984782456
 21
-12.30661417837639
 31
0.0
  0
LINE
  5
1A2E
330
19E8
100
AcDbEntity
  8
247
100
AcDbLine
 10
-47.8418851395723
 20
-12.12473551626647
 30
0.0
 11
-47.89403586589098
 21
-12.30661417837584
 31
0.0
  0
LINE
  5
1A2F
330
19E8
100
AcDbEntity
  8
247
100
AcDbLine
 10
-47.84473960065048
 20
-12.46462788199452
 30
0.0
 11
-47.50484723492245
 21
-12.12473551626654
 31
0.0
  0
LINE
  5
1A30
330
19E8
100
AcDbEntity
  8
247
100
AcDbLine
 10
-47.92597097365665
 20
-12.74791501772478
 30
0.0
 11
-47.3027914721984
 21
-12.12473551626654
 31
0.0
  0
LINE
  5
1A31
330
19E8
100
AcDbEntity
  8
247
100
AcDbLine
 10
-47.88878165975587
 20
-12.30661417837588
 30
0.0
 11
-47.7069029976465
 21
-12.1247355162665
 31
0.0
  0
LINE
  5
1A32
102
{ACAD_REACTORS
330
1A0B
102
}
330
19E8
100
AcDbEntity
  8
247
100
AcDbLine
 10
-47.93648429118373
 20
-12.12473551626647
 30
0.0
 11
-47.9886350175021
 21
-12.30661417837584
 31
0.0
  0
ARC
  5
1A33
330
19E8
100
AcDbEntity
  8
247
100
AcDbCircle
 10
-47.45618949137907
 20
-12.56124293203795
 30
0.0
 40
0.2728103756904602
100
AcDbArc
 50
261.6626016879294
 51
66.33815509518974
  0
LINE
  5
1A34
330
19E8
100
AcDbEntity
  8
247
100
AcDbLine
 10
-47.30811533362927
 20
-12.33211514042148
 30
0.0
 11
-47.12053884584866
 21
-12.14453865264088
 31
0.0
  0
LINE
  5
1A35
330
19E8
100
AcDbEntity
  8
247
100
AcDbLine
 10
-47.8418851395723
 20
-12.12473551626647
 30
0.0
 11
-47.25515301326157
 21
-12.12473551626654
 31
0.0
  0
LINE
  5
1A36
330
19E8
100
AcDbEntity
  8
247
100
AcDbLine
 10
-46.91112342082241
 20
-13.76162995691741
 30
0.0
 11
-46.50432715617397
 21
-13.76162995691741
 31
0.0
  0
ARC
  5
1A37
330
19E8
100
AcDbEntity
  8
247
100
AcDbCircle
 10
-47.66479926310759
 20
-13.28875071402037
 30
0.0
 40
0.2728181809186935
100
AcDbArc
 50
261.6628542111488
 51
66.33819215911003
  0
LINE
  5
1A38
330
19E8
100
AcDbEntity
  8
247
100
AcDbLine
 10
-47.55530721701161
 20
-13.0388682382813
 30
0.0
 11
-47.70435718794065
 21
-13.55868576254631
 31
0.0
  0
LINE
  5
1A39
330
19E8
100
AcDbEntity
  8
247
100
AcDbLine
 10
-47.92940709922905
 20
-13.76162995691741
 30
0.0
 11
-47.69547060540605
 21
-13.52769346309444
 31
0.0
  0
LINE
  5
1A3A
330
19E8
100
AcDbEntity
  8
247
100
AcDbLine
 10
-47.727351336505
 20
-13.76162995691741
 30
0.0
 11
-47.05999717259036
 21
-13.0942757930028
 31
0.0
  0
LINE
  5
1A3B
330
19E8
100
AcDbEntity
  8
247
100
AcDbLine
 10
-47.28914927654954
 20
-13.72753942241012
 30
0.0
 11
-47.04128918020614
 21
-13.4796793260667
 31
0.0
  0
ARC
  5
1A3C
330
19E8
100
AcDbEntity
  8
247
100
AcDbCircle
 10
-47.46188864909391
 20
-13.30693995352233
 30
0.0
 40
0.4546897888183594
100
AcDbArc
 50
270.0
 51
40.32984065416719
  0
LINE
  5
1A3D
330
19E8
100
AcDbEntity
  8
247
100
AcDbLine
 10
-47.52529557378092
 20
-13.76162995691744
 30
0.0
 11
-47.01110834336554
 21
-13.24744272650203
 31
0.0
  0
LINE
  5
1A3E
330
19E8
100
AcDbEntity
  8
247
100
AcDbLine
 10
-46.91112342082241
 20
-13.76162995691741
 30
0.0
 11
-46.49911551676967
 21
-12.32479655142272
 31
0.0
  0
LINE
  5
1A3F
330
19E8
100
AcDbEntity
  8
247
100
AcDbLine
 10
-47.39827318069496
 20
-13.23049603838336
 30
0.0
 11
-46.80188537513611
 21
-12.63410823282451
 31
0.0
  0
LINE
  5
1A40
330
19E8
100
AcDbEntity
  8
247
100
AcDbLine
 10
-47.46880489058605
 20
-13.09897198555041
 30
0.0
 11
-46.81795596602622
 21
-12.44812306099057
 31
0.0
  0
ARC
  5
1A41
330
19E8
100
AcDbEntity
  8
247
100
AcDbCircle
 10
-47.25327887736539
 20
-12.57942530508483
 30
0.0
 40
0.4546936511993409
100
AcDbArc
 50
287.6695775473979
 51
90.23615984267163
  0
LINE
  5
1A42
330
19E8
100
AcDbEntity
  8
247
100
AcDbLine
 10
-48.00720234666286
 20
-13.031202153455
 30
0.0
 11
-47.37055150533119
 21
-12.39455131212335
 31
0.0
  0
ARC
  5
1A43
102
{ACAD_REACTORS
330
1A0E
102
}
330
19E8
100
AcDbEntity
  8
247
100
AcDbCircle
 10
-44.59265799723843
 20
-13.20160853262389
 30
0.0
 40
1.546847534179687
100
AcDbArc
 50
155.2051773698405
 51
172.7948259620522
  0
LINE
  5
1A44
102
{ACAD_REACTORS
330
1A0B
102
}
330
19E8
100
AcDbEntity
  8
247
100
AcDbLine
 10
-48.31208625041226
 20
-12.12473551626647
 30
0.0
 11
-47.93648429118373
 21
-12.12473551626647
 31
0.0
  0
LINE
  5
1A45
102
{ACAD_REACTORS
330
1A0B
102
}
330
19E8
100
AcDbEntity
  8
247
100
AcDbLine
 10
-48.31208625041226
 20
-12.30661417837584
 30
0.0
 11
-47.9886350175021
 21
-12.30661417837584
 31
0.0
  0
LINE
  5
1A46
330
19E8
100
AcDbEntity
  8
247
100
AcDbLine
 10
-48.13146286195308
 20
-13.76162995691741
 30
0.0
 11
-47.61424341794292
 21
-13.24441051290723
 31
0.0
  0
LINE
  5
1A47
330
19E8
100
AcDbEntity
  8
247
100
AcDbLine
 10
-48.2166493912814
 20
-13.76162995691741
 30
0.0
 11
-47.4618886490939
 21
-13.76162995691741
 31
0.0
  0
LINE
  5
1A48
330
19E8
100
AcDbEntity
  8
247
100
AcDbLine
 10
-48.2166493912814
 20
-13.76162995691741
 30
0.0
 11
-47.79942984782456
 21
-12.30661417837639
 31
0.0
  0
LINE
  5
1A49
330
19E8
100
AcDbEntity
  8
247
100
AcDbLine
 10
-48.16966509267521
 20
-13.59777642491551
 30
0.0
 11
-47.40011740982175
 21
-12.82822874206203
 31
0.0
  0
LINE
  5
1A4A
330
19E8
100
AcDbEntity
  8
247
100
AcDbLine
 10
-48.08843371966903
 20
-13.31448928918526
 30
0.0
 11
-47.45178019711311
 21
-12.67783576662937
 31
0.0
  0
ARC
  5
1A4B
102
{ACAD_REACTORS
330
1A0E
102
}
330
19E8
100
AcDbEntity
  8
247
100
AcDbCircle
 10
-45.33349356852751
 20
-12.51577326651061
 30
0.0
 40
0.1909725040197372
100
AcDbArc
 50
1.710121382062756
 51
163.9983983544484
  0
LINE
  5
1A4C
102
{ACAD_REACTORS
330
1A0E
102
}
330
19E8
100
AcDbEntity
  8
247
100
AcDbLine
 10
-45.39503760539272
 20
-13.42323023672545
 30
0.0
 11
-45.27824607096889
 21
-13.01593272085631
 31
0.0
  0
LINE
  5
1A4D
102
{ACAD_REACTORS
330
1A0E
102
}
330
19E8
100
AcDbEntity
  8
247
100
AcDbLine
 10
-45.42961020671108
 20
-13.01593272085631
 30
0.0
 11
-45.27824607096889
 21
-13.01593272085631
 31
0.0
  0
ARC
  5
1A4E
102
{ACAD_REACTORS
330
1A0E
102
}
330
19E8
100
AcDbEntity
  8
247
100
AcDbCircle
 10
-45.57861228190641
 20
-13.37059199209654
 30
0.0
 40
0.1909723699092865
100
AcDbArc
 50
164.0002730571838
 51
344.0002730571838
  0
LINE
  5
1A4F
102
{ACAD_REACTORS
330
1A0E
102
}
330
19E8
100
AcDbEntity
  8
247
100
AcDbLine
 10
-45.22034812175014
 20
-13.65494584436858
 30
0.0
 11
-45.11365714274623
 21
-13.76162995691741
 31
0.0
  0
LINE
  5
1A50
102
{ACAD_REACTORS
330
1A0E
102
}
330
19E8
100
AcDbEntity
  8
247
100
AcDbLine
 10
-45.76218695842007
 20
-13.31795374746764
 30
0.0
 11
-45.51706824504116
 21
-12.46312815542662
 31
0.0
  0
LINE
  5
1A51
102
{ACAD_REACTORS
330
1A0E
102
}
330
19E8
100
AcDbEntity
  8
247
100
AcDbLine
 10
-45.42961020671108
 20
-13.01593272085631
 30
0.0
 11
-45.37745948039272
 21
-12.83405405874693
 31
0.0
  0
ARC
  5
1A52
102
{ACAD_REACTORS
330
1A0B
102
}
330
19E8
100
AcDbEntity
  8
247
100
AcDbCircle
 10
-48.31208625041227
 20
-13.07959162588561
 30
0.0
 40
0.7729774475097657
100
AcDbArc
 50
90.0
 51
270.0
  0
LINE
  5
1A53
102
{ACAD_REACTORS
330
1A0B
102
}
330
19E8
100
AcDbEntity
  8
247
100
AcDbLine
 10
-44.80864234172084
 20
-12.32998759146178
 30
0.0
 11
-44.86341605387905
 21
-12.15628687735045
 31
0.0
  0
POLYLINE
  5
1A54
330
19E8
100
AcDbEntity
  8
247
100
AcDb2dPolyline
 66
     1
 10
0.0
 20
0.0
 30
0.0
 70
     1
  0
VERTEX
  5
1A55
330
1A54
100
AcDbEntity
  8
247
100
AcDbVertex
100
AcDb2dVertex
 10
-44.80864234172086
 20
-12.32998759146178
 30
0.0
  0
VERTEX
  5
1A56
330
1A54
100
AcDbEntity
  8
247
100
AcDbVertex
100
AcDb2dVertex
 10
-44.86341605387907
 20
-12.15628687735045
 30
0.0
  0
VERTEX
  5
1A57
330
1A54
100
AcDbEntity
  8
247
100
AcDbVertex
100
AcDb2dVertex
 10
-44.86341605387907
 20
-12.15628687735045
 30
0.0
  0
VERTEX
  5
1A58
330
1A54
100
AcDbEntity
  8
247
100
AcDbVertex
100
AcDb2dVertex
 10
-44.80864234172086
 20
-12.32998759146178
 30
0.0
  0
SEQEND
  5
1A59
330
1A54
100
AcDbEntity
  8
247
  0
POLYLINE
  5
1A5A
330
19E8
100
AcDbEntity
  8
247
100
AcDb2dPolyline
 66
     1
 10
0.0
 20
0.0
 30
0.0
 70
     1
1001
HATCH_DISTANCE
1040
1.0
1001
HATCH_DISPLAY
1070
     0
1001
HATCH_TYPE
1070
     7
  0
VERTEX
  5
1A5B
330
1A5A
100
AcDbEntity
  8
247
100
AcDbVertex
100
AcDb2dVertex
 10
-44.80864234172086
 20
-12.32998759146178
 30
0.0
  0
VERTEX
  5
1A5C
330
1A5A
100
AcDbEntity
  8
247
100
AcDbVertex
100
AcDb2dVertex
 10
-44.86341605387907
 20
-12.15628687735045
 30
0.0
  0
VERTEX
  5
1A5D
330
1A5A
100
AcDbEntity
  8
247
100
AcDbVertex
100
AcDb2dVertex
 10
-44.86341605387907
 20
-12.15628687735045
 30
0.0
  0
VERTEX
  5
1A5E
330
1A5A
100
AcDbEntity
  8
247
100
AcDbVertex
100
AcDb2dVertex
 10
-44.80864234172086
 20
-12.32998759146178
 30
0.0
  0
SEQEND
  5
1A5F
330
1A5A
100
AcDbEntity
  8
247
  0
POLYLINE
  5
1A60
330
19E8
100
AcDbEntity
  8
247
100
AcDb2dPolyline
 66
     1
 10
0.0
 20
0.0
 30
0.0
 70
     1
  0
VERTEX
  5
1A61
330
1A60
100
AcDbEntity
  8
247
100
AcDbVertex
100
AcDb2dVertex
 10
-44.80864234172086
 20
-12.32998759146178
 30
0.0
  0
VERTEX
  5
1A62
330
1A60
100
AcDbEntity
  8
247
100
AcDbVertex
100
AcDb2dVertex
 10
-44.86341605387907
 20
-12.15628687735045
 30
0.0
  0
VERTEX
  5
1A63
330
1A60
100
AcDbEntity
  8
247
100
AcDbVertex
100
AcDb2dVertex
 10
-44.86341605387907
 20
-12.15628687735045
 30
0.0
  0
VERTEX
  5
1A64
330
1A60
100
AcDbEntity
  8
247
100
AcDbVertex
100
AcDb2dVertex
 10
-44.80864234172086
 20
-12.32998759146178
 30
0.0
  0
SEQEND
  5
1A65
330
1A60
100
AcDbEntity
  8
247
  0
POLYLINE
  5
1A66
330
19E8
100
AcDbEntity
  8
247
100
AcDb2dPolyline
 66
     1
 10
0.0
 20
0.0
 30
0.0
 70
     1
1001
HATCH_DISTANCE
1040
1.0
1001
HATCH_DISPLAY
1070
     0
1001
HATCH_TYPE
1070
     7
  0
VERTEX
  5
1A67
330
1A66
100
AcDbEntity
  8
247
100
AcDbVertex
100
AcDb2dVertex
 10
-44.80864234172086
 20
-12.32998759146178
 30
0.0
  0
VERTEX
  5
1A68
330
1A66
100
AcDbEntity
  8
247
100
AcDbVertex
100
AcDb2dVertex
 10
-44.86341605387907
 20
-12.15628687735045
 30
0.0
  0
VERTEX
  5
1A69
330
1A66
100
AcDbEntity
  8
247
100
AcDbVertex
100
AcDb2dVertex
 10
-44.86341605387907
 20
-12.15628687735045
 30
0.0
  0
VERTEX
  5
1A6A
330
1A66
100
AcDbEntity
  8
247
100
AcDbVertex
100
AcDb2dVertex
 10
-44.80864234172086
 20
-12.32998759146178
 30
0.0
  0
SEQEND
  5
1A6B
330
1A66
100
AcDbEntity
  8
247
  0
LINE
  5
1A6C
102
{ACAD_REACTORS
330
1A0E
102
}
330
19E8
100
AcDbEntity
  8
247
100
AcDbLine
 10
-44.89537253581264
 20
-12.35733668203795
 30
0.0
 11
-44.95014624797084
 21
-12.18363596792662
 31
0.0
  0
ARC
  5
1A6D
102
{ACAD_REACTORS
330
1A0E
102
}
330
19E8
100
AcDbEntity
  8
247
100
AcDbCircle
 10
-44.61997275553923
 20
-13.07959162588561
 30
0.0
 40
0.954856538772583
100
AcDbArc
 50
110.22964506332
 51
118.5716889237176
  0
LINE
  5
1A6E
330
19E8
100
AcDbEntity
  8
246
100
AcDbLine
 10
-50.0
 20
6.300000000000011
 30
0.0
 11
-50.0
 21
-6.299999999999954
 31
0.0
  0
LINE
  5
1A6F
330
19E8
100
AcDbEntity
  8
246
100
AcDbLine
 10
-57.60128199999996
 20
-2.309400999999979
 30
0.0
 11
-57.60128199999996
 21
2.309401000000036
 31
0.0
  0
LINE
  5
1A70
330
19E8
100
AcDbEntity
  8
246
100
AcDbLine
 10
-53.69059899999991
 20
-2.309400999999979
 30
0.0
 11
-53.69059899999991
 21
2.309401000000036
 31
0.0
  0
LINE
  5
1A71
330
19E8
100
AcDbEntity
  8
246
100
AcDbLine
 10
-64.25
 20
-7.0
 30
0.0
 11
-50.70000000000004
 21
-7.0
 31
0.0
  0
LINE
  5
1A72
330
19E8
100
AcDbEntity
  8
246
100
AcDbLine
 10
-64.60000000000002
 20
-6.649999999999977
 30
0.0
 11
-50.35000000000002
 21
-6.649999999999977
 31
0.0
  0
LINE
  5
1A73
330
19E8
100
AcDbEntity
  8
246
100
AcDbLine
 10
-65.0
 20
-6.25
 30
0.0
 11
-64.25
 21
-7.0
 31
0.0
  0
LINE
  5
1A74
330
19E8
100
AcDbEntity
  8
246
100
AcDbLine
 10
-69.0
 20
-6.25
 30
0.0
 11
-65.0
 21
-6.25
 31
0.0
  0
LINE
  5
1A75
330
19E8
100
AcDbEntity
  8
246
100
AcDbLine
 10
-50.0
 20
-6.0
 30
0.0
 11
-53.69059899999991
 21
-2.309400999999979
 31
0.0
  0
LINE
  5
1A76
330
19E8
100
AcDbEntity
  8
246
100
AcDbLine
 10
-50.70000000000004
 20
-7.0
 30
0.0
 11
-50.0
 21
-6.299999999999954
 31
0.0
  0
LINE
  5
1A77
330
19E8
100
AcDbEntity
  8
246
100
AcDbLine
 10
-57.60128199999996
 20
-2.309400999999979
 30
0.0
 11
-53.69059899999991
 21
-2.309400999999979
 31
0.0
  0
LINE
  5
1A78
330
19E8
100
AcDbEntity
  8
246
100
AcDbLine
 10
-57.60128199999996
 20
-1.154699999999991
 30
0.0
 11
-53.69059899999991
 21
-1.154699999999991
 31
0.0
  0
LINE
  5
1A79
330
19E8
100
AcDbEntity
  8
246
100
AcDbLine
 10
-58.0
 20
-3.0
 30
0.0
 11
-58.0
 21
-1.772514999999998
 31
0.0
  0
LINE
  5
1A7A
330
19E8
100
AcDbEntity
  8
246
100
AcDbLine
 10
-57.60128199999996
 20
-2.309400999999979
 30
0.0
 11
-58.0
 21
-3.0
 31
0.0
  0
LINE
  5
1A7B
330
19E8
100
AcDbEntity
  8
246
100
AcDbLine
 10
-64.25
 20
7.0
 30
0.0
 11
-50.70000000000004
 21
7.0
 31
0.0
  0
LINE
  5
1A7C
330
19E8
100
AcDbEntity
  8
246
100
AcDbLine
 10
-64.60000000000002
 20
6.650000000000034
 30
0.0
 11
-50.35000000000002
 21
6.650000000000034
 31
0.0
  0
LINE
  5
1A7D
330
19E8
100
AcDbEntity
  8
246
100
AcDbLine
 10
-65.0
 20
6.25
 30
0.0
 11
-64.25
 21
7.0
 31
0.0
  0
LINE
  5
1A7E
330
19E8
100
AcDbEntity
  8
246
100
AcDbLine
 10
-69.0
 20
6.25
 30
0.0
 11
-65.0
 21
6.25
 31
0.0
  0
LINE
  5
1A7F
330
19E8
100
AcDbEntity
  8
246
100
AcDbLine
 10
-50.0
 20
6.0
 30
0.0
 11
-53.69059899999991
 21
2.309401000000036
 31
0.0
  0
LINE
  5
1A80
330
19E8
100
AcDbEntity
  8
246
100
AcDbLine
 10
-57.60128199999996
 20
2.309401000000036
 30
0.0
 11
-53.69059899999991
 21
2.309401000000036
 31
0.0
  0
LINE
  5
1A81
330
19E8
100
AcDbEntity
  8
246
100
AcDbLine
 10
-57.60128199999996
 20
1.154701000000045
 30
0.0
 11
-53.69059899999991
 21
1.154701000000045
 31
0.0
  0
LINE
  5
1A82
330
19E8
100
AcDbEntity
  8
246
100
AcDbLine
 10
-57.60128199999996
 20
2.309401000000036
 30
0.0
 11
-58.0
 21
3.0
 31
0.0
  0
LINE
  5
1A83
330
19E8
100
AcDbEntity
  8
246
100
AcDbLine
 10
-58.0
 20
3.0
 30
0.0
 11
-58.0
 21
1.772514999999998
 31
0.0
  0
LINE
  5
1A84
330
19E8
100
AcDbEntity
  8
246
100
AcDbLine
 10
-50.0
 20
6.300000000000011
 30
0.0
 11
-50.70000000000004
 21
7.0
 31
0.0
  0
LINE
  5
1A85
330
19E8
100
AcDbEntity
  8
246
100
AcDbLine
 10
-31.00000000000011
 20
7.580353000000002
 30
0.0
 11
-31.00000000000011
 21
-7.580352000000004
 31
0.0
  0
LINE
  5
1A86
330
19E8
100
AcDbEntity
  8
241
100
AcDbLine
 10
-15.5
 20
-15.0
 30
0.0
 11
-15.5
 21
0.0
 31
0.0
  0
LINE
  5
1A87
330
19E8
100
AcDbEntity
  8
241
100
AcDbLine
 10
-16.0
 20
-13.0
 30
0.0
 11
-16.0
 21
0.0
 31
0.0
  0
LINE
  5
1A88
330
19E8
100
AcDbEntity
  8
241
100
AcDbLine
 10
-18.5
 20
-12.5
 30
0.0
 11
-18.5
 21
0.0
 31
0.0
  0
LINE
  5
1A89
330
19E8
100
AcDbEntity
  8
241
100
AcDbLine
 10
-20.5
 20
-14.0
 30
0.0
 11
-20.5
 21
0.0
 31
0.0
  0
LINE
  5
1A8A
330
19E8
100
AcDbEntity
  8
246
100
AcDbLine
 10
-5.600000000000022
 20
-10.25
 30
0.0
 11
-5.600000000000022
 21
-8.75
 31
0.0
  0
LINE
  5
1A8B
330
19E8
100
AcDbEntity
  8
246
100
AcDbLine
 10
-3.0
 20
-10.25
 30
0.0
 11
0.0
 21
-8.51794899999993
 31
0.0
  0
LINE
  5
1A8C
330
19E8
100
AcDbEntity
  8
246
100
AcDbLine
 10
-3.200000000000045
 20
-8.75
 30
0.0
 11
-3.200000000000045
 21
-10.25
 31
0.0
  0
LINE
  5
1A8D
330
19E8
100
AcDbEntity
  8
241
100
AcDbLine
 10
-6.5
 20
-14.05614500000001
 30
0.0
 11
-15.5
 21
-14.05614500000001
 31
0.0
  0
LINE
  5
1A8E
330
19E8
100
AcDbEntity
  8
241
100
AcDbLine
 10
-6.5
 20
-16.05614500000001
 30
0.0
 11
-15.5
 21
-16.05614500000001
 31
0.0
  0
LINE
  5
1A8F
330
19E8
100
AcDbEntity
  8
240
100
AcDbLine
 10
-14.70000000000004
 20
-17.5
 30
0.0
 11
-1.58137099999999
 21
-17.5
 31
0.0
  0
ARC
  5
1A90
330
19E8
100
AcDbEntity
  8
240
100
AcDbCircle
 10
-21.5
 20
-15.0
 30
0.0
 40
1.0
100
AcDbArc
 50
270.0
 51
0.0
  0
LINE
  5
1A91
330
19E8
100
AcDbEntity
  8
240
100
AcDbLine
 10
-16.0
 20
-14.5
 30
0.0
 11
-16.0
 21
-13.0
 31
0.0
  0
ARC
  5
1A92
330
19E8
100
AcDbEntity
  8
240
100
AcDbCircle
 10
-19.5
 20
-14.0
 30
0.0
 40
1.0
100
AcDbArc
 50
90.0
 51
180.0
  0
LINE
  5
1A93
330
19E8
100
AcDbEntity
  8
240
100
AcDbLine
 10
-16.0
 20
-14.5
 30
0.0
 11
-15.5
 21
-15.0
 31
0.0
  0
LINE
  5
1A94
330
19E8
100
AcDbEntity
  8
240
100
AcDbLine
 10
-20.5
 20
-15.0
 30
0.0
 11
-20.5
 21
-14.0
 31
0.0
  0
ARC
  5
1A95
330
19E8
100
AcDbEntity
  8
240
100
AcDbCircle
 10
-14.70000000000004
 20
-16.69999999999999
 30
0.0
 40
0.8
100
AcDbArc
 50
180.0
 51
270.0
  0
LINE
  5
1A96
330
19E8
100
AcDbEntity
  8
240
100
AcDbLine
 10
-15.5
 20
-16.69999999999999
 30
0.0
 11
-15.5
 21
-15.0
 31
0.0
  0
LINE
  5
1A97
330
19E8
100
AcDbEntity
  8
242
100
AcDbLine
 10
-16.0
 20
-12.5
 30
0.0
 11
-18.5
 21
-12.5
 31
0.0
  0
LINE
  5
1A98
330
19E8
100
AcDbEntity
  8
240
100
AcDbLine
 10
-19.5
 20
-13.0
 30
0.0
 11
-16.0
 21
-13.0
 31
0.0
  0
LINE
  5
1A99
330
19E8
100
AcDbEntity
  8
242
100
AcDbLine
 10
-18.5
 20
-12.5
 30
0.0
 11
-19.0
 21
-13.0
 31
0.0
  0
ARC
  5
1A9A
330
19E8
100
AcDbEntity
  8
240
100
AcDbCircle
 10
-1.58137099999999
 20
-16.69999999999999
 30
0.0
 40
0.8
100
AcDbArc
 50
270.0
 51
315.0
  0
LINE
  5
1A9B
330
19E8
100
AcDbEntity
  8
241
100
AcDbLine
 10
-6.5
 20
-16.05614500000001
 30
0.0
 11
-6.5
 21
-14.05614500000001
 31
0.0
  0
LINE
  5
1A9C
330
19E8
100
AcDbEntity
  8
246
100
AcDbLine
 10
-3.200000000000045
 20
-10.25
 30
0.0
 11
-3.0
 21
-10.25
 31
0.0
  0
LINE
  5
1A9D
330
19E8
100
AcDbEntity
  8
240
100
AcDbLine
 10
-1.015684999999962
 20
-17.26568500000001
 30
0.0
 11
-0.2050249999999778
 21
-16.45502499999997
 31
0.0
  0
ARC
  5
1A9E
330
19E8
100
AcDbEntity
  8
240
100
AcDbCircle
 10
-0.7000000000000455
 20
-15.96004999999996
 30
0.0
 40
0.7
100
AcDbArc
 50
315.0
 51
0.0
  0
LINE
  5
1A9F
330
19E8
100
AcDbEntity
  8
241
100
AcDbLine
 10
-6.5
 20
-2.0
 30
0.0
 11
-15.5
 21
-2.0
 31
0.0
  0
LINE
  5
1AA0
330
19E8
100
AcDbEntity
  8
241
100
AcDbLine
 10
-6.5
 20
2.0
 30
0.0
 11
-15.5
 21
2.0
 31
0.0
  0
LINE
  5
1AA1
330
19E8
100
AcDbEntity
  8
241
100
AcDbLine
 10
-26.5
 20
-8.587782018658865
 30
0.0
 11
-26.5
 21
8.587782018658865
 31
0.0
  0
ARC
  5
1AA2
330
19E8
100
AcDbEntity
  8
241
100
AcDbCircle
 10
-40.0000000000001
 20
-0.0000000000000018
 30
0.0
 40
16.0000000000001
100
AcDbArc
 50
327.5382374326639
 51
32.46174496724226
  0
LINE
  5
1AA3
330
19E8
100
AcDbEntity
  8
241
100
AcDbLine
 10
-6.5
 20
2.0
 30
0.0
 11
-6.5
 21
0.0
 31
0.0
  0
LINE
  5
1AA4
330
19E8
100
AcDbEntity
  8
246
100
AcDbLine
 10
-5.600000000000022
 20
-8.75
 30
0.0
 11
-3.200000000000045
 21
-8.75
 31
0.0
  0
LINE
  5
1AA5
330
19E8
100
AcDbEntity
  8
241
100
AcDbLine
 10
-6.5
 20
-2.0
 30
0.0
 11
-6.5
 21
0.0
 31
0.0
  0
LINE
  5
1AA6
330
19E8
100
AcDbEntity
  8
246
100
AcDbLine
 10
-5.600000000000022
 20
8.75
 30
0.0
 11
-3.200000000000045
 21
8.75
 31
0.0
  0
LINE
  5
1AA7
330
19E8
100
AcDbEntity
  8
240
100
AcDbLine
 10
-107.0
 20
15.99999999999997
 30
0.0
 11
-21.5
 21
16.0
 31
0.0
  0
LINE
  5
1AA8
330
19E8
100
AcDbEntity
  8
241
100
AcDbLine
 10
-6.5
 20
14.05614500000001
 30
0.0
 11
-15.5
 21
14.05614500000001
 31
0.0
  0
LINE
  5
1AA9
330
19E8
100
AcDbEntity
  8
241
100
AcDbLine
 10
-6.5
 20
16.05614500000001
 30
0.0
 11
-15.5
 21
16.05614500000001
 31
0.0
  0
LINE
  5
1AAA
330
19E8
100
AcDbEntity
  8
240
100
AcDbLine
 10
-14.70000000000004
 20
17.5
 30
0.0
 11
-1.58137099999999
 21
17.5
 31
0.0
  0
ARC
  5
1AAB
330
19E8
100
AcDbEntity
  8
240
100
AcDbCircle
 10
-21.5
 20
15.0
 30
0.0
 40
1.0
100
AcDbArc
 50
0.0
 51
90.0
  0
LINE
  5
1AAC
330
19E8
100
AcDbEntity
  8
240
100
AcDbLine
 10
-20.5
 20
14.0
 30
0.0
 11
-20.5
 21
15.0
 31
0.0
  0
LINE
  5
1AAD
330
19E8
100
AcDbEntity
  8
240
100
AcDbLine
 10
-16.0
 20
14.5
 30
0.0
 11
-15.5
 21
15.0
 31
0.0
  0
ARC
  5
1AAE
330
19E8
100
AcDbEntity
  8
240
100
AcDbCircle
 10
-19.5
 20
14.0
 30
0.0
 40
1.0
100
AcDbArc
 50
180.0
 51
270.0
  0
LINE
  5
1AAF
330
19E8
100
AcDbEntity
  8
242
100
AcDbLine
 10
-16.0
 20
12.5
 30
0.0
 11
-18.5
 21
12.5
 31
0.0
  0
LINE
  5
1AB0
330
19E8
100
AcDbEntity
  8
240
100
AcDbLine
 10
-19.5
 20
13.0
 30
0.0
 11
-16.0
 21
13.0
 31
0.0
  0
LINE
  5
1AB1
330
19E8
100
AcDbEntity
  8
242
100
AcDbLine
 10
-18.5
 20
12.5
 30
0.0
 11
-19.0
 21
13.0
 31
0.0
  0
LINE
  5
1AB2
330
19E8
100
AcDbEntity
  8
240
100
AcDbLine
 10
-16.0
 20
14.5
 30
0.0
 11
-16.0
 21
13.0
 31
0.0
  0
ARC
  5
1AB3
330
19E8
100
AcDbEntity
  8
240
100
AcDbCircle
 10
-14.70000000000004
 20
16.70000000000004
 30
0.0
 40
0.8
100
AcDbArc
 50
90.0
 51
180.0
  0
LINE
  5
1AB4
330
19E8
100
AcDbEntity
  8
240
100
AcDbLine
 10
-15.5
 20
16.70000000000004
 30
0.0
 11
-15.5
 21
15.0
 31
0.0
  0
ARC
  5
1AB5
330
19E8
100
AcDbEntity
  8
240
100
AcDbCircle
 10
-1.58137099999999
 20
16.70000000000004
 30
0.0
 40
0.8
100
AcDbArc
 50
44.99999999999992
 51
90.0
  0
LINE
  5
1AB6
330
19E8
100
AcDbEntity
  8
241
100
AcDbLine
 10
-6.5
 20
16.05614500000001
 30
0.0
 11
-6.5
 21
14.05614500000001
 31
0.0
  0
LINE
  5
1AB7
330
19E8
100
AcDbEntity
  8
246
100
AcDbLine
 10
-3.200000000000045
 20
10.25
 30
0.0
 11
-3.0
 21
10.25
 31
0.0
  0
LINE
  5
1AB8
330
19E8
100
AcDbEntity
  8
240
100
AcDbLine
 10
-0.2050249999999778
 20
16.45502600000003
 30
0.0
 11
-1.015684999999962
 21
17.26568600000001
 31
0.0
  0
ARC
  5
1AB9
330
19E8
100
AcDbEntity
  8
240
100
AcDbCircle
 10
-0.7000000000000455
 20
15.96005100000002
 30
0.0
 40
0.7
100
AcDbArc
 50
0.0
 51
44.99999999999992
  0
ENDBLK
  5
1ABB
330
19E8
100
AcDbEntity
  8
0
100
AcDbBlockEnd
  0
ENDSEC
  0
SECTION
  2
ENTITIES
  0
TEXT
  5
140A
330
1A
100
AcDbEntity
  8
241
100
AcDbText
 10
-118.5
 20
56.0
 30
0.0
 40
5.0
  1
SL32-NBS13-100
  7
YOKO
 11
-118.5
 21
56.0
 31
0.0
100
AcDbText
 73
     1
  0
DIMENSION
  5
140B
330
1A
100
AcDbEntity
  8
250
  6
CONTINUOUS
100
AcDbDimension
  2
*D1
 10
14.0
 20
6.499999999999996
 30
0.0
 11
11.57383693310987
 21
3.092776409199757
 31
0.0
 70
   160
  1
MAX.%%C<>
  3
BIGT
100
AcDbAlignedDimension
 13
0.0
 23
-6.5
 33
0.0
 14
0.0
 24
6.5
 34
0.0
 50
90.0
100
AcDbRotatedDimension
1001
ACAD
1000
DSTYLE
1002
{
1070
   287
1070
     5
1070
    78
1070
     8
1070
   140
1040
3.0
1070
   279
1070
     2
1002
}
  0
DIMENSION
  5
140C
330
1A
100
AcDbEntity
  8
250
  6
CONTINUOUS
100
AcDbDimension
  2
*D2
 10
20.99999999999999
 20
17.49999999999999
 30
0.0
 11
18.49999999999999
 21
-0.000000000000001
 31
0.0
 70
    32
  1
{\H3;\U+2205}<>
  3
BIGT
100
AcDbAlignedDimension
 13
-1.58137099999999
 23
-17.5
 33
0.0
 14
-1.58137099999999
 24
17.5
 34
0.0
 50
90.0
100
AcDbRotatedDimension
1001
ACAD
1000
DSTYLE
1002
{
1070
    78
1070
     8
1070
   140
1040
3.0
1002
}
  0
DIMENSION
  5
140D
330
1A
100
AcDbEntity
  8
250
  6
CONTINUOUS
100
AcDbDimension
  2
*D3
 10
-0.0000000000000012
 20
-35.0
 30
0.0
 11
-25.0
 21
-32.5
 31
0.0
 70
    32
  1
41～60
  3
BIGT
100
AcDbAlignedDimension
 13
-50.0
 23
-6.299999999999954
 33
0.0
 14
0.0
 24
-15.96004999999996
 34
0.0
100
AcDbRotatedDimension
1001
ACAD
1000
DSTYLE
1002
{
1070
    78
1070
     8
1070
   140
1040
3.0
1002
}
  0
DIMENSION
  5
17B1
330
1A
100
AcDbEntity
  8
250
  6
CONTINUOUS
100
AcDbDimension
  2
*D4
 10
0.0000000000000016
 20
42.0
 30
0.0
 11
-60.75
 21
44.5
 31
0.0
 70
    32
  3
BIGT
100
AcDbAlignedDimension
 13
-121.5
 23
13.0
 33
0.0
 14
0.0
 24
15.96005100000002
 34
0.0
100
AcDbRotatedDimension
1001
ACAD
1000
DSTYLE
1002
{
1070
    78
1070
     8
1070
   140
1040
3.0
1002
}
  0
DIMENSION
  5
17C1
330
1A
100
AcDbEntity
  8
250
  6
CONTINUOUS
100
AcDbDimension
  2
*D5
 10
0.0000000000000012
 20
35.0
 30
0.0
 11
-10.25
 21
37.5
 31
0.0
 70
    32
  3
BIGT
100
AcDbAlignedDimension
 13
-20.5
 23
15.0
 33
0.0
 14
0.0
 24
15.96005100000002
 34
0.0
100
AcDbRotatedDimension
1001
ACAD
1000
DSTYLE
1002
{
1070
    78
1070
     8
1070
   140
1040
3.0
1002
}
  0
DIMENSION
  5
17CE
330
1A
100
AcDbEntity
  8
250
  6
CONTINUOUS
100
AcDbDimension
  2
*D6
 10
-20.5
 20
35.0
 30
0.0
 11
-71.0
 21
37.5
 31
0.0
 70
    32
  3
BIGT
100
AcDbAlignedDimension
 13
-121.5
 23
13.0
 33
0.0
 14
-20.5
 24
15.0
 34
0.0
100
AcDbRotatedDimension
1001
ACAD
1000
DSTYLE
1002
{
1070
    78
1070
     8
1070
   140
1040
3.0
1002
}
  0
DIMENSION
  5
17DD
330
1A
100
AcDbEntity
  8
250
  6
CONTINUOUS
100
AcDbDimension
  2
*D7
 10
-133.0
 20
15.99999999999998
 30
0.0
 11
-135.4999999999999
 21
-0.0000000000000289
 31
0.0
 70
    32
  1
{\H3;\U+2205}<>
  3
BIGT
100
AcDbAlignedDimension
 13
-107.0
 23
-16.0
 33
0.0
 14
-107.0
 24
15.99999999999997
 34
0.0
 50
90.0
100
AcDbRotatedDimension
1001
ACAD
1000
DSTYLE
1002
{
1070
    78
1070
     8
1070
   140
1040
3.0
1002
}
  0
INSERT
  5
1ABC
330
1A
100
AcDbEntity
  8
240
100
AcDbBlockReference
  2
A$C411526E8
 10
0.0
 20
0.0
 30
0.0
  0
VIEWPORT
  5
22
330
17
100
AcDbEntity
 67
     1
  8
0
100
AcDbViewport
 10
261.5176991150442
 20
148.5
 30
0.0
 40
523.0353982300885
 41
297.0
 68
     1
 69
     1
1001
ACAD
1000
MVIEW
1002
{
1070
    16
1010
0.0
1020
0.0
1030
0.0
1010
0.0
1020
0.0
1030
1.0
1040
0.0
1040
297.0
1040
261.5176991150442
1040
148.5
1040
50.0
1040
0.0
1040
0.0
1070
     0
1070
   100
1070
     1
1070
     1
1070
     0
1070
     0
1070
     0
1070
     0
1040
0.0
1040
0.0
1040
0.0
1040
1.0
1040
1.0
1040
10.0
1040
10.0
1070
     0
1002
{
1002
}
1002
}
  0
ENDSEC
  0
SECTION
  2
OBJECTS
  0
DICTIONARY
  5
C
330
0
100
AcDbDictionary
  3
ACAD_GROUP
350
D
  3
ACAD_LAYOUT
350
565
  3
ACAD_MLINESTYLE
350
E
  3
ACAD_PLOTSETTINGS
350
566
  3
ACAD_PLOTSTYLENAME
350
563
  3
ACDBHEADERROUNDTRIPXREC
350
1AC5
  3
ACDBVARIABLEDICTIONARY
350
1395
  3
DWGPROPS
350
166B
  3
GRADE_DWG
350
540
  0
DICTIONARY
  5
1AE8
330
1A
100
AcDbDictionary
280
     1
  3
ACAD_LAYOUTSELFREF
360
1AE9
  0
DICTIONARY
  5
1AE6
330
17
100
AcDbDictionary
280
     1
  3
ACAD_LAYOUTSELFREF
360
1AE7
  0
DICTIONARY
  5
D
102
{ACAD_REACTORS
330
C
102
}
330
C
100
AcDbDictionary
  3
DREC-1
350
5FC
  3
DREC-2
350
654
  3
DREC-3
350
673
  0
DICTIONARY
  5
565
102
{ACAD_REACTORS
330
C
102
}
330
C
100
AcDbDictionary
  0
DICTIONARY
  5
E
102
{ACAD_REACTORS
330
C
102
}
330
C
100
AcDbDictionary
  3
STANDARD
350
13
  0
DICTIONARY
  5
566
102
{ACAD_REACTORS
330
C
102
}
330
C
100
AcDbDictionary
  0
ACDBDICTIONARYWDFLT
  5
563
102
{ACAD_REACTORS
330
C
102
}
330
C
100
AcDbDictionary
281
     1
  3
Normal
350
564
100
AcDbDictionaryWithDefault
340
564
  0
DICTIONARY
  5
1AC5
102
{ACAD_REACTORS
330
C
102
}
330
C
100
AcDbDictionary
  3
CEPSNTYPE
350
1ACF
  3
DIMSTYLEDATA
350
1AD3
  3
FINGERPRINTGUID
350
1AD0
  3
HYPERLINKBASE
350
1AC8
  3
INSUNITS
350
1ACE
  3
LAYOUTDICT
350
1ACA
  3
LWETCUNION
350
1ACD
  3
PLOTSETDICT
350
1ACB
  3
PLOTSTYLNAMDICT
350
1ACC
  3
PSVPSCALE
350
1AD2
  3
PUCSBASE
350
1AD6
  3
PUCSORGBACK
350
1ADC
  3
PUCSORGBOTTOM
350
1AD8
  3
PUCSORGFRONT
350
1ADB
  3
PUCSORGLEFT
350
1AD9
  3
PUCSORGRIGHT
350
1ADA
  3
PUCSORGTOP
350
1AD7
  3
PUCSORTHOREF
350
1AD4
  3
PUCSORTHOVIEW
350
1AD5
  3
STYLESHEET
350
1AC9
  3
TSTACKALIGN
350
1AC6
  3
TSTACKSIZE
350
1AC7
  3
UCSBASE
350
1ADF
  3
UCSORGBACK
350
1AE5
  3
UCSORGBOTTOM
350
1AE1
  3
UCSORGFRONT
350
1AE4
  3
UCSORGLEFT
350
1AE2
  3
UCSORGRIGHT
350
1AE3
  3
UCSORGTOP
350
1AE0
  3
UCSORTHOREF
350
1ADD
  3
UCSORTHOVIEW
350
1ADE
  3
VERSIONGUID
350
1AD1
  0
DICTIONARY
  5
1395
102
{ACAD_REACTORS
330
C
102
}
330
C
100
AcDbDictionary
  3
DIMASSOC
350
1396
  0
XRECORD
  5
166B
102
{ACAD_REACTORS
330
C
102
}
330
C
100
AcDbXrecord
  1
DWGPROPS COOKIE
  2

  3

  4

  6

  7

  8
ymat
  9

300
=
301
=
302
=
303
=
304
=
305
=
306
=
307
=
308
=
309
=
 40
0.0835116435185185
 41
2452181.551227928
 42
2452409.139733796
  1

 90
        0
  0
DICTIONARY
  5
540
102
{ACAD_REACTORS
330
C
102
}
330
C
100
AcDbDictionary
  3
VERSION
350
560
  0
XRECORD
  5
1AE9
102
{ACAD_REACTORS
330
1AE8
102
}
330
1AE8
100
AcDbXrecord
340
1A
  0
XRECORD
  5
1AE7
102
{ACAD_REACTORS
330
1AE6
102
}
330
1AE6
100
AcDbXrecord
340
17
  0
GROUP
  5
5FC
102
{ACAD_REACTORS
330
D
102
}
330
D
100
AcDbGroup
300

 70
     0
 71
     1
1001
GRPNAME
1000
DREC-
1001
GPARA
1000
xsiz
1000
44.182
1000
ysiz
1000
40.677
1000
angl
1000
0
1000
ctyp
1000
0
1000
csiz
1000
5
1000
lfnt
1000
cont
1000
hcnt
1000
hoff
1000
vcnt
1000
voff
1000
opnt
1000
4
1000
dxpt
1000
0
1000
dypt
1000
0
  0
GROUP
  5
654
102
{ACAD_REACTORS
330
D
102
}
330
D
100
AcDbGroup
300

 70
     0
 71
     1
1001
GRPNAME
1000
DREC-
1001
GPARA
1000
xsiz
1000
54.592
1000
ysiz
1000
53.036
1000
angl
1000
0
1000
ctyp
1000
0
1000
csiz
1000
5
1000
lfnt
1000
cont
1000
hcnt
1000
hoff
1000
vcnt
1000
voff
1000
opnt
1000
4
1000
dxpt
1000
0
1000
dypt
1000
0
  0
GROUP
  5
673
102
{ACAD_REACTORS
330
D
102
}
330
D
100
AcDbGroup
300

 70
     0
 71
     1
1001
GRPNAME
1000
DREC-
1001
GPARA
1000
xsiz
1000
30.363
1000
ysiz
1000
36.175
1000
angl
1000
0
1000
ctyp
1000
0
1000
csiz
1000
5
1000
lfnt
1000
cont
1000
hcnt
1000
hoff
1000
vcnt
1000
voff
1000
opnt
1000
4
1000
dxpt
1000
0
1000
dypt
1000
0
  0
MLINESTYLE
  5
13
102
{ACAD_REACTORS
330
E
102
}
330
E
100
AcDbMlineStyle
  2
STANDARD
 70
     0
  3

 62
     0
 51
90.0
 52
90.0
 71
     2
 49
0.5
 62
   256
  6
BYLAYER
 49
-0.5
 62
   256
  6
BYLAYER
  0
ACDBPLACEHOLDER
  5
564
102
{ACAD_REACTORS
330
563
102
}
330
563
100
AcDbPlaceHolder
280
     0
  0
XRECORD
  5
1ACF
102
{ACAD_REACTORS
330
1AC5
102
}
330
1AC5
100
AcDbXrecord
 90
        0
  0
XRECORD
  5
1AD3
102
{ACAD_REACTORS
330
1AC5
102
}
330
1AC5
100
AcDbXrecord
1000
DSTYLE
1002
{
1070
    79
 70
     2
1070
   179
 70
     3
1070
   289
 70
     2
1070
   341
340
594
1070
   342
340
594
1070
   371
 70
    -1
1070
   372
 70
    -1
1002
}
  0
XRECORD
  5
1AD0
102
{ACAD_REACTORS
330
1AC5
102
}
330
1AC5
100
AcDbXrecord
  1
{51294030-9CB4-11D3-8E18-00A0C925D94D}
  0
XRECORD
  5
1AC8
102
{ACAD_REACTORS
330
1AC5
102
}
330
1AC5
100
AcDbXrecord
  1

  0
XRECORD
  5
1ACE
102
{ACAD_REACTORS
330
1AC5
102
}
330
1AC5
100
AcDbXrecord
 90
        0
  0
XRECORD
  5
1ACA
102
{ACAD_REACTORS
330
1AC5
102
}
330
1AC5
100
AcDbXrecord
340
565
  0
XRECORD
  5
1ACD
102
{ACAD_REACTORS
330
1AC5
102
}
330
1AC5
100
AcDbXrecord
 90
    10781
  0
XRECORD
  5
1ACB
102
{ACAD_REACTORS
330
1AC5
102
}
330
1AC5
100
AcDbXrecord
340
566
  0
XRECORD
  5
1ACC
102
{ACAD_REACTORS
330
1AC5
102
}
330
1AC5
100
AcDbXrecord
340
563
  0
XRECORD
  5
1AD2
102
{ACAD_REACTORS
330
1AC5
102
}
330
1AC5
100
AcDbXrecord
 40
0.0
  0
XRECORD
  5
1AD6
102
{ACAD_REACTORS
330
1AC5
102
}
330
1AC5
100
AcDbXrecord
340
0
  0
XRECORD
  5
1ADC
102
{ACAD_REACTORS
330
1AC5
102
}
330
1AC5
100
AcDbXrecord
 10
0.0
 20
0.0
 30
0.0
  0
XRECORD
  5
1AD8
102
{ACAD_REACTORS
330
1AC5
102
}
330
1AC5
100
AcDbXrecord
 10
0.0
 20
0.0
 30
0.0
  0
XRECORD
  5
1ADB
102
{ACAD_REACTORS
330
1AC5
102
}
330
1AC5
100
AcDbXrecord
 10
0.0
 20
0.0
 30
0.0
  0
XRECORD
  5
1AD9
102
{ACAD_REACTORS
330
1AC5
102
}
330
1AC5
100
AcDbXrecord
 10
0.0
 20
0.0
 30
0.0
  0
XRECORD
  5
1ADA
102
{ACAD_REACTORS
330
1AC5
102
}
330
1AC5
100
AcDbXrecord
 10
0.0
 20
0.0
 30
0.0
  0
XRECORD
  5
1AD7
102
{ACAD_REACTORS
330
1AC5
102
}
330
1AC5
100
AcDbXrecord
 10
0.0
 20
0.0
 30
0.0
  0
XRECORD
  5
1AD4
102
{ACAD_REACTORS
330
1AC5
102
}
330
1AC5
100
AcDbXrecord
340
0
  0
XRECORD
  5
1AD5
102
{ACAD_REACTORS
330
1AC5
102
}
330
1AC5
100
AcDbXrecord
 70
     0
  0
XRECORD
  5
1AC9
102
{ACAD_REACTORS
330
1AC5
102
}
330
1AC5
100
AcDbXrecord
  1
big.ctb
  0
XRECORD
  5
1AC6
102
{ACAD_REACTORS
330
1AC5
102
}
330
1AC5
100
AcDbXrecord
 90
        1
  0
XRECORD
  5
1AC7
102
{ACAD_REACTORS
330
1AC5
102
}
330
1AC5
100
AcDbXrecord
 90
       70
  0
XRECORD
  5
1ADF
102
{ACAD_REACTORS
330
1AC5
102
}
330
1AC5
100
AcDbXrecord
340
0
  0
XRECORD
  5
1AE5
102
{ACAD_REACTORS
330
1AC5
102
}
330
1AC5
100
AcDbXrecord
 10
0.0
 20
0.0
 30
0.0
  0
XRECORD
  5
1AE1
102
{ACAD_REACTORS
330
1AC5
102
}
330
1AC5
100
AcDbXrecord
 10
0.0
 20
0.0
 30
0.0
  0
XRECORD
  5
1AE4
102
{ACAD_REACTORS
330
1AC5
102
}
330
1AC5
100
AcDbXrecord
 10
0.0
 20
0.0
 30
0.0
  0
XRECORD
  5
1AE2
102
{ACAD_REACTORS
330
1AC5
102
}
330
1AC5
100
AcDbXrecord
 10
0.0
 20
0.0
 30
0.0
  0
XRECORD
  5
1AE3
102
{ACAD_REACTORS
330
1AC5
102
}
330
1AC5
100
AcDbXrecord
 10
0.0
 20
0.0
 30
0.0
  0
XRECORD
  5
1AE0
102
{ACAD_REACTORS
330
1AC5
102
}
330
1AC5
100
AcDbXrecord
 10
0.0
 20
0.0
 30
0.0
  0
XRECORD
  5
1ADD
102
{ACAD_REACTORS
330
1AC5
102
}
330
1AC5
100
AcDbXrecord
340
0
  0
XRECORD
  5
1ADE
102
{ACAD_REACTORS
330
1AC5
102
}
330
1AC5
100
AcDbXrecord
 70
     0
  0
XRECORD
  5
1AD1
102
{ACAD_REACTORS
330
1AC5
102
}
330
1AC5
100
AcDbXrecord
  1
{EDD58F73-688C-11D7-AD80-0010B5C7BFCA}
  0
DICTIONARYVAR
  5
1396
102
{ACAD_REACTORS
330
1395
102
}
330
1395
100
DictionaryVariables
280
     0
  1
1
  0
XRECORD
  5
560
102
{ACAD_REACTORS
330
540
102
}
330
540
100
AcDbXrecord
  1
2.0.0
  0
ENDSEC
  0
EOF
