  0
SECTION
  2
HEADER
  9
$ACADVER
  1
AC1014
  9
$ACADMAINTVER
 70
     9
  9
$DWGCODEPAGE
  3
ANSI_932
  9
$INSBASE
 10
0.0
 20
0.0
 30
0.0
  9
$EXTMIN
 10
-109.0123891914407
 20
-29.0072931447151
 30
-0.0015258207003583
  9
$EXTMAX
 10
22.01330628922824
 20
54.01326026256811
 30
0.0000000349246037
  9
$LIMMIN
 10
0.0
 20
0.0
  9
$LIMMAX
 10
297.0
 20
210.0
  9
$ORTHOMODE
 70
     0
  9
$REGENMODE
 70
     1
  9
$FILLMODE
 70
     1
  9
$QTEXTMODE
 70
     0
  9
$MIRRTEXT
 70
     1
  9
$DRAGMODE
 70
     2
  9
$LTSCALE
 40
10.0
  9
$OSMODE
 70
   613
  9
$ATTMODE
 70
     1
  9
$TEXTSIZE
 40
3.0
  9
$TRACEWID
 40
1.0
  9
$TEXTSTYLE
  7
YOKO
  9
$CLAYER
  8
240
  9
$CELTYPE
  6
BYLAYER
  9
$CECOLOR
 62
   256
  9
$CELTSCALE
 40
1.0
  9
$DELOBJ
 70
     1
  9
$DISPSILH
 70
     0
  9
$DIMSCALE
 40
1.0
  9
$DIMASZ
 40
2.229999999999999
  9
$DIMEXO
 40
0.5
  9
$DIMDLI
 40
2.5
  9
$DIMRND
 40
0.0
  9
$DIMDLE
 40
0.0
  9
$DIMEXE
 40
1.0
  9
$DIMTP
 40
0.0
  9
$DIMTM
 40
0.0
  9
$DIMTXT
 40
3.0
  9
$DIMCEN
 40
0.0
  9
$DIMTSZ
 40
0.0
  9
$DIMTOL
 70
     0
  9
$DIMLIM
 70
     0
  9
$DIMTIH
 70
     0
  9
$DIMTOH
 70
     0
  9
$DIMSE1
 70
     0
  9
$DIMSE2
 70
     0
  9
$DIMTAD
 70
     3
  9
$DIMZIN
 70
     8
  9
$DIMBLK
  1
OPEN
  9
$DIMASO
 70
     1
  9
$DIMSHO
 70
     1
  9
$DIMPOST
  1

  9
$DIMAPOST
  1

  9
$DIMALT
 70
     0
  9
$DIMALTD
 70
     2
  9
$DIMALTF
 40
25.4
  9
$DIMLFAC
 40
1.0
  9
$DIMTOFL
 70
     1
  9
$DIMTVP
 40
0.0
  9
$DIMTIX
 70
     0
  9
$DIMSOXD
 70
     0
  9
$DIMSAH
 70
     0
  9
$DIMBLK1
  1

  9
$DIMBLK2
  1

  9
$DIMSTYLE
  2
BIGT
  9
$DIMCLRD
 70
   256
  9
$DIMCLRE
 70
   256
  9
$DIMCLRT
 70
    40
  9
$DIMTFAC
 40
1.0
  9
$DIMGAP
 40
1.0
  9
$DIMJUST
 70
     0
  9
$DIMSD1
 70
     0
  9
$DIMSD2
 70
     0
  9
$DIMTOLJ
 70
     1
  9
$DIMTZIN
 70
     8
  9
$DIMALTZ
 70
     0
  9
$DIMALTTZ
 70
     0
  9
$DIMFIT
 70
     2
  9
$DIMUPT
 70
     0
  9
$DIMUNIT
 70
     2
  9
$DIMDEC
 70
     3
  9
$DIMTDEC
 70
     3
  9
$DIMALTU
 70
     2
  9
$DIMALTTD
 70
     2
  9
$DIMTXSTY
  7
STANDARD
  9
$DIMAUNIT
 70
     0
  9
$LUNITS
 70
     2
  9
$LUPREC
 70
     3
  9
$SKETCHINC
 40
1.0
  9
$FILLETRAD
 40
1.0
  9
$AUNITS
 70
     0
  9
$AUPREC
 70
     3
  9
$MENU
  1
.
  9
$ELEVATION
 40
0.0
  9
$PELEVATION
 40
0.0
  9
$THICKNESS
 40
0.0
  9
$LIMCHECK
 70
     0
  9
$BLIPMODE
 70
     0
  9
$CHAMFERA
 40
0.5
  9
$CHAMFERB
 40
0.5
  9
$CHAMFERC
 40
0.0
  9
$CHAMFERD
 40
0.0
  9
$SKPOLY
 70
     0
  9
$TDCREATE
 40
2452180.656863055
  9
$TDUPDATE
 40
2452737.396795057
  9
$TDINDWG
 40
0.2031262384
  9
$TDUSRTIMER
 40
0.2031262384
  9
$USRTIMER
 70
     1
  9
$ANGBASE
 50
0.0
  9
$ANGDIR
 70
     0
  9
$PDMODE
 70
    35
  9
$PDSIZE
 40
2.0
  9
$PLINEWID
 40
0.0
  9
$COORDS
 70
     2
  9
$SPLFRAME
 70
     0
  9
$SPLINETYPE
 70
     6
  9
$SPLINESEGS
 70
     8
  9
$ATTDIA
 70
     0
  9
$ATTREQ
 70
     0
  9
$HANDLING
 70
-16383
  9
$HANDSEED
  5
263F
  9
$SURFTAB1
 70
     6
  9
$SURFTAB2
 70
     6
  9
$SURFTYPE
 70
     6
  9
$SURFU
 70
     6
  9
$SURFV
 70
     6
  9
$UCSNAME
  2

  9
$UCSORG
 10
0.0
 20
0.0
 30
0.0
  9
$UCSXDIR
 10
1.0
 20
0.0
 30
0.0
  9
$UCSYDIR
 10
0.0
 20
1.0
 30
0.0
  9
$PUCSNAME
  2

  9
$PUCSORG
 10
0.0
 20
0.0
 30
0.0
  9
$PUCSXDIR
 10
1.0
 20
0.0
 30
0.0
  9
$PUCSYDIR
 10
0.0
 20
1.0
 30
0.0
  9
$USERI1
 70
     1
  9
$USERI2
 70
     0
  9
$USERI3
 70
     0
  9
$USERI4
 70
     0
  9
$USERI5
 70
     0
  9
$USERR1
 40
0.0
  9
$USERR2
 40
0.0
  9
$USERR3
 40
0.0
  9
$USERR4
 40
0.0
  9
$USERR5
 40
0.0
  9
$WORLDVIEW
 70
     1
  9
$SHADEDGE
 70
     3
  9
$SHADEDIF
 70
    70
  9
$TILEMODE
 70
     1
  9
$MAXACTVP
 70
    16
  9
$PINSBASE
 10
0.0
 20
0.0
 30
0.0
  9
$PLIMCHECK
 70
     0
  9
$PEXTMIN
 10
1.000000000000000E+20
 20
1.000000000000000E+20
 30
1.000000000000000E+20
  9
$PEXTMAX
 10
-1.000000000000000E+20
 20
-1.000000000000000E+20
 30
-1.000000000000000E+20
  9
$PLIMMIN
 10
0.0
 20
0.0
  9
$PLIMMAX
 10
420.0
 20
297.0
  9
$UNITMODE
 70
     0
  9
$VISRETAIN
 70
     0
  9
$PLINEGEN
 70
     0
  9
$PSLTSCALE
 70
     1
  9
$TREEDEPTH
 70
  3020
  9
$PICKSTYLE
 70
     0
  9
$CMLSTYLE
  2
STANDARD
  9
$CMLJUST
 70
     0
  9
$CMLSCALE
 40
1.0
  9
$PROXYGRAPHICS
 70
     1
  9
$MEASUREMENT
 70
     1
  0
ENDSEC
  0
SECTION
  2
CLASSES
  0
CLASS
  1
XRECORD
  2
AcDbXrecord
  3
AutoCAD 2000
 90
        0
280
     0
281
     0
  0
CLASS
  1
ACDBDICTIONARYWDFLT
  2
AcDbDictionaryWithDefault
  3
AutoCAD 2000
 90
        0
280
     0
281
     0
  0
CLASS
  1
ACDBPLACEHOLDER
  2
AcDbPlaceHolder
  3
AutoCAD 2000
 90
        0
280
     0
281
     0
  0
CLASS
  1
LAYOUT
  2
AcDbLayout
  3
AutoCAD 2000
 90
        0
280
     0
281
     0
  0
CLASS
  1
DICTIONARYVAR
  2
AcDbDictionaryVar
  3
AutoCAD 2000
 90
        0
280
     0
281
     0
  0
CLASS
  1
LONG_TRANSACTION
  2
AcDbLongTransaction
  3
AutoCAD 2000
 90
        0
280
     0
281
     0
  0
CLASS
  1
LWPOLYLINE
  2
AcDbPolyline
  3
AutoCAD 2000
 90
        0
280
     0
281
     1
  0
CLASS
  1
HATCH
  2
AcDbHatch
  3
AutoCAD 2000
 90
        0
280
     0
281
     1
  0
CLASS
  1
XRECORD
  2
AcDbXrecord
  3
AutoCAD 2000
 90
        0
280
     0
281
     0
  0
ENDSEC
  0
SECTION
  2
TABLES
  0
TABLE
  2
VPORT
  5
8
330
0
100
AcDbSymbolTable
 70
     2
  0
VPORT
  5
2610
330
8
100
AcDbSymbolTableRecord
100
AcDbViewportTableRecord
  2
*ACTIVE
 70
     0
 10
0.0
 20
0.0
 11
1.0
 21
1.0
 12
-43.49954145110626
 22
12.5029835589265
 13
0.0
 23
0.0
 14
7.0
 24
7.0
 15
7.0
 25
7.0
 16
0.0
 26
0.0
 36
1.0
 17
0.0
 27
0.0
 37
0.0
 40
92.80198503570497
 41
1.419235511713933
 42
50.0
 43
0.0
 44
0.0
 50
0.0
 51
0.0
 71
     0
 72
  2000
 73
     1
 74
     0
 75
     0
 76
     1
 77
     0
 78
     0
  0
ENDTAB
  0
TABLE
  2
LTYPE
  5
5
330
0
100
AcDbSymbolTable
 70
     3
  0
LTYPE
  5
14
330
5
100
AcDbSymbolTableRecord
100
AcDbLinetypeTableRecord
  2
BYBLOCK
 70
     0
  3

 72
    65
 73
     0
 40
0.0
  0
LTYPE
  5
15
330
5
100
AcDbSymbolTableRecord
100
AcDbLinetypeTableRecord
  2
BYLAYER
 70
     0
  3

 72
    65
 73
     0
 40
0.0
  0
LTYPE
  5
16
330
5
100
AcDbSymbolTableRecord
100
AcDbLinetypeTableRecord
  2
CONTINUOUS
 70
     0
  3
Solid line
 72
    65
 73
     0
 40
0.0
  0
LTYPE
  5
258
330
5
100
AcDbSymbolTableRecord
100
AcDbLinetypeTableRecord
  2
CENTER2
 70
     0
  3
___ _ ___ _ ___ _ ___ _ ___ _ ___ _ ___ _ ___ _
 72
    65
 73
     4
 40
1.125
 49
0.75
 74
     0
 49
-0.125
 74
     0
 49
0.125
 74
     0
 49
-0.125
 74
     0
  0
LTYPE
  5
25D
330
5
100
AcDbSymbolTableRecord
100
AcDbLinetypeTableRecord
  2
PHANTOM2
 70
     0
  3
___ _ _ ___ _ _ ___ _ _ ___ _ _ ___ _ _ ___ _ _
 72
    65
 73
     6
 40
1.25
 49
0.625
 74
     0
 49
-0.125
 74
     0
 49
0.125
 74
     0
 49
-0.125
 74
     0
 49
0.125
 74
     0
 49
-0.125
 74
     0
  0
ENDTAB
  0
TABLE
  2
LAYER
  5
2
330
0
100
AcDbSymbolTable
 70
    12
  0
LAYER
  5
F
330
2
100
AcDbSymbolTableRecord
100
AcDbLayerTableRecord
  2
0
 70
     0
 62
     7
  6
CONTINUOUS
  0
LAYER
  5
1AA
330
2
100
AcDbSymbolTableRecord
100
AcDbLayerTableRecord
  2
240
 70
     0
 62
     4
  6
CONTINUOUS
  0
LAYER
  5
1AB
330
2
100
AcDbSymbolTableRecord
100
AcDbLayerTableRecord
  2
241
 70
     0
 62
   211
  6
CONTINUOUS
  0
LAYER
  5
1AC
330
2
100
AcDbSymbolTableRecord
100
AcDbLayerTableRecord
  2
242
 70
     0
 62
     3
  6
CONTINUOUS
  0
LAYER
  5
1AF
330
2
100
AcDbSymbolTableRecord
100
AcDbLayerTableRecord
  2
245
 70
     0
 62
     2
  6
CENTER2
  0
LAYER
  5
21A
330
2
100
AcDbSymbolTableRecord
100
AcDbLayerTableRecord
  2
246
 70
     0
 62
     3
  6
PHANTOM2
  0
LAYER
  5
21B
330
2
100
AcDbSymbolTableRecord
100
AcDbLayerTableRecord
  2
247
 70
     0
 62
    60
  6
CONTINUOUS
  0
LAYER
  5
21E
330
2
100
AcDbSymbolTableRecord
100
AcDbLayerTableRecord
  2
250
 70
     0
 62
     3
  6
CONTINUOUS
  0
LAYER
  5
5C4
330
2
100
AcDbSymbolTableRecord
100
AcDbLayerTableRecord
  2
DEFPOINTS
 70
     0
 62
     7
  6
CONTINUOUS
  0
ENDTAB
  0
TABLE
  2
STYLE
  5
3
330
0
100
AcDbSymbolTable
 70
     2
  0
STYLE
  5
10
330
3
100
AcDbSymbolTableRecord
100
AcDbTextStyleTableRecord
  2
STANDARD
 70
     0
 40
0.0
 41
1.0
 50
0.0
 71
     0
 42
3.0
  3
romans.shx
  4
BIGFONT.SHX
  0
STYLE
  5
339
330
3
100
AcDbSymbolTableRecord
100
AcDbTextStyleTableRecord
  2
YOKO
 70
     0
 40
0.0
 41
1.0
 50
0.0
 71
     0
 42
3.0
  3
romans.shx
  4
extfont.shx
  0
ENDTAB
  0
TABLE
  2
VIEW
  5
6
330
0
100
AcDbSymbolTable
 70
     0
  0
ENDTAB
  0
TABLE
  2
UCS
  5
7
330
0
100
AcDbSymbolTable
 70
     0
  0
ENDTAB
  0
TABLE
  2
APPID
  5
9
330
0
100
AcDbSymbolTable
 70
     9
  0
APPID
  5
11
330
9
100
AcDbSymbolTableRecord
100
AcDbRegAppTableRecord
  2
ACAD
 70
     0
  0
APPID
  5
1B1
330
9
100
AcDbSymbolTableRecord
100
AcDbRegAppTableRecord
  2
GLOBAL
 70
     0
  0
APPID
  5
2A4
330
9
100
AcDbSymbolTableRecord
100
AcDbRegAppTableRecord
  2
DETAIL
 70
     0
  0
APPID
  5
5FD
330
9
100
AcDbSymbolTableRecord
100
AcDbRegAppTableRecord
  2
GRPNAME
 70
     0
  0
APPID
  5
5FE
330
9
100
AcDbSymbolTableRecord
100
AcDbRegAppTableRecord
  2
GPARA
 70
     0
  0
APPID
  5
7C3
330
9
100
AcDbSymbolTableRecord
100
AcDbRegAppTableRecord
  2
ITEMNAME
 70
     0
  0
APPID
  5
7C4
330
9
100
AcDbSymbolTableRecord
100
AcDbRegAppTableRecord
  2
HATCH_TYPE
 70
     0
  0
APPID
  5
7C5
330
9
100
AcDbSymbolTableRecord
100
AcDbRegAppTableRecord
  2
HATCH_DISPLAY
 70
     0
  0
APPID
  5
7C6
330
9
100
AcDbSymbolTableRecord
100
AcDbRegAppTableRecord
  2
HATCH_DISTANCE
 70
     0
  0
ENDTAB
  0
TABLE
  2
DIMSTYLE
  5
A
330
0
100
AcDbSymbolTable
 70
     2
  0
DIMSTYLE
105
48F
330
A
100
AcDbSymbolTableRecord
100
AcDbDimStyleTableRecord
  2
STANDARD
 70
     0
  3

  4

  5

  6

  7

 40
1.0
 41
2.0
 42
2.0
 43
3.75
 44
2.0
 45
0.0
 46
0.0
 47
0.0
 48
0.0
140
4.0
141
0.09
142
0.0
143
25.4
144
1.0
145
0.0
146
1.0
147
1.0
 71
     0
 72
     0
 73
     1
 74
     1
 75
     0
 76
     0
 77
     0
 78
     8
170
     0
171
     2
172
     0
173
     1
174
     0
175
     0
176
   256
177
   256
178
   256
270
     2
271
     3
272
     4
273
     2
274
     2
340
10
275
     0
280
     0
281
     0
282
     0
283
     1
284
     8
285
     0
286
     0
287
     3
288
     0
  0
DIMSTYLE
105
59A
102
{ACAD_REACTORS
330
15CD
330
15CE
330
15CF
330
1CDC
330
20EE
330
20FD
330
2510
102
}
330
A
100
AcDbSymbolTableRecord
100
AcDbDimStyleTableRecord
  2
BIGT
 70
     0
  3

  4

  5
OPEN
  6

  7

 40
1.0
 41
2.229999999999999
 42
0.5
 43
2.5
 44
1.0
 45
0.0
 46
0.0
 47
0.0
 48
0.0
140
3.5
141
0.0
142
0.0
143
25.4
144
1.0
145
0.0
146
1.0
147
1.0
 71
     0
 72
     0
 73
     0
 74
     0
 75
     0
 76
     0
 77
     3
 78
     9
170
     0
171
     2
172
     1
173
     0
174
     0
175
     0
176
   256
177
   256
178
    40
270
     2
271
     3
272
     3
273
     2
274
     2
340
10
275
     0
280
     0
281
     0
282
     0
283
     1
284
     8
285
     0
286
     0
287
     2
288
     0
  0
ENDTAB
  0
TABLE
  2
BLOCK_RECORD
  5
1
330
0
100
AcDbSymbolTable
 70
    11
  0
BLOCK_RECORD
  5
1A
102
{ACAD_XDICTIONARY
360
2634
102
}
330
1
100
AcDbSymbolTableRecord
100
AcDbBlockTableRecord
  2
*MODEL_SPACE
  0
BLOCK_RECORD
  5
17
102
{ACAD_XDICTIONARY
360
2632
102
}
330
1
100
AcDbSymbolTableRecord
100
AcDbBlockTableRecord
  2
*PAPER_SPACE
  0
BLOCK_RECORD
  5
594
330
1
100
AcDbSymbolTableRecord
100
AcDbBlockTableRecord
  2
_OPEN
  0
BLOCK_RECORD
  5
15F5
330
1
100
AcDbSymbolTableRecord
100
AcDbBlockTableRecord
  2
*D1
  0
BLOCK_RECORD
  5
1601
330
1
100
AcDbSymbolTableRecord
100
AcDbBlockTableRecord
  2
*D2
  0
BLOCK_RECORD
  5
160D
330
1
100
AcDbSymbolTableRecord
100
AcDbBlockTableRecord
  2
*D3
  0
BLOCK_RECORD
  5
1CDD
330
1
100
AcDbSymbolTableRecord
100
AcDbBlockTableRecord
  2
*D4
  0
BLOCK_RECORD
  5
20EF
330
1
100
AcDbSymbolTableRecord
100
AcDbBlockTableRecord
  2
*D5
  0
BLOCK_RECORD
  5
20FE
330
1
100
AcDbSymbolTableRecord
100
AcDbBlockTableRecord
  2
*D6
  0
BLOCK_RECORD
  5
2511
330
1
100
AcDbSymbolTableRecord
100
AcDbBlockTableRecord
  2
*D9
  0
BLOCK_RECORD
  5
2534
330
1
100
AcDbSymbolTableRecord
100
AcDbBlockTableRecord
  2
A$C38806458
  0
ENDTAB
  0
ENDSEC
  0
SECTION
  2
BLOCKS
  0
BLOCK
  5
1B
330
1A
100
AcDbEntity
  8
0
100
AcDbBlockBegin
  2
*MODEL_SPACE
 70
     0
 10
0.0
 20
0.0
 30
0.0
  3
*MODEL_SPACE
  1

  0
ENDBLK
  5
1C
330
1A
100
AcDbEntity
  8
0
100
AcDbBlockEnd
  0
BLOCK
  5
18
330
17
100
AcDbEntity
 67
     1
  8
0
100
AcDbBlockBegin
  2
*PAPER_SPACE
 70
     0
 10
0.0
 20
0.0
 30
0.0
  3
*PAPER_SPACE
  1

  0
ENDBLK
  5
19
330
17
100
AcDbEntity
 67
     1
  8
0
100
AcDbBlockEnd
  0
BLOCK
  5
598
330
594
100
AcDbEntity
  8
0
100
AcDbBlockBegin
  2
_OPEN
 70
     0
 10
0.0
 20
0.0
 30
0.0
  3
_OPEN
  1

  0
LINE
  5
595
330
594
100
AcDbEntity
  8
0
  6
BYBLOCK
 62
     0
100
AcDbLine
 10
-1.0
 20
0.1666666666666666
 30
0.0
 11
0.0
 21
0.0
 31
0.0
  0
LINE
  5
596
330
594
100
AcDbEntity
  8
0
  6
BYBLOCK
 62
     0
100
AcDbLine
 10
-1.0
 20
-0.1666666666666666
 30
0.0
 11
0.0
 21
0.0
 31
0.0
  0
LINE
  5
597
330
594
100
AcDbEntity
  8
0
  6
BYBLOCK
 62
     0
100
AcDbLine
 10
0.0
 20
0.0
 30
0.0
 11
-1.0
 21
0.0
 31
0.0
  0
ENDBLK
  5
599
330
594
100
AcDbEntity
  8
0
100
AcDbBlockEnd
  0
BLOCK
  5
15FF
330
15F5
100
AcDbEntity
  8
0
100
AcDbBlockBegin
  2
*D1
 70
     1
 10
0.0
 20
0.0
 30
0.0
  3
*D1
  1

  0
LINE
  5
2636
330
15F5
100
AcDbEntity
  8
250
  6
CONTINUOUS
100
AcDbLine
 10
0.5
 20
-4.0
 30
0.0
 11
14.99999999999997
 21
-4.000000000000004
 31
0.0
  0
LINE
  5
2637
330
15F5
100
AcDbEntity
  8
250
  6
CONTINUOUS
100
AcDbLine
 10
0.5
 20
4.0
 30
0.0
 11
14.99999999999997
 21
3.999999999999996
 31
0.0
  0
LINE
  5
2638
330
15F5
100
AcDbEntity
  8
250
  6
CONTINUOUS
100
AcDbLine
 10
13.99999999999997
 20
-1.770000000000004
 30
0.0
 11
13.99999999999997
 21
1.769999999999996
 31
0.0
  0
MTEXT
  5
2639
330
15F5
100
AcDbEntity
  8
250
  6
CONTINUOUS
 62
    40
100
AcDbMText
 10
11.70134870559908
 20
3.831170461371073
 30
0.0
 40
3.0
 41
0.0
 71
     5
 72
     1
  1
\A1;MAX.%%c8
 11
0.0000000000000001
 21
1.0
 31
0.0
  0
INSERT
  5
263A
330
15F5
100
AcDbEntity
  8
250
  6
CONTINUOUS
100
AcDbBlockReference
  2
_OPEN
 10
13.99999999999997
 20
-4.000000000000003
 30
0.0
 41
2.229999999999999
 42
2.229999999999999
 43
2.229999999999999
 50
270.0
  0
INSERT
  5
263B
330
15F5
100
AcDbEntity
  8
250
  6
CONTINUOUS
100
AcDbBlockReference
  2
_OPEN
 10
13.99999999999997
 20
3.999999999999996
 30
0.0
 41
2.229999999999999
 42
2.229999999999999
 43
2.229999999999999
 50
90.0
  0
POINT
  5
263C
330
15F5
100
AcDbEntity
  8
DEFPOINTS
  6
CONTINUOUS
 62
     0
100
AcDbPoint
 10
0.0
 20
-4.0
 30
0.0
  0
POINT
  5
263D
330
15F5
100
AcDbEntity
  8
DEFPOINTS
  6
CONTINUOUS
 62
     0
100
AcDbPoint
 10
0.0
 20
4.0
 30
0.0
  0
POINT
  5
263E
330
15F5
100
AcDbEntity
  8
DEFPOINTS
  6
CONTINUOUS
 62
     0
100
AcDbPoint
 10
13.99999999999997
 20
3.999999999999996
 30
0.0
  0
ENDBLK
  5
1600
330
15F5
100
AcDbEntity
  8
0
100
AcDbBlockEnd
  0
BLOCK
  5
160B
330
1601
100
AcDbEntity
  8
0
100
AcDbBlockBegin
  2
*D2
 70
     1
 10
0.0
 20
0.0
 30
0.0
  3
*D2
  1

  0
LINE
  5
1649
330
1601
100
AcDbEntity
  8
250
  6
CONTINUOUS
100
AcDbLine
 10
-0.4485280000000671
 20
-12.50000000000002
 30
0.0
 11
21.99999999999996
 21
-12.50000000000003
 31
0.0
  0
LINE
  5
164A
330
1601
100
AcDbEntity
  8
250
  6
CONTINUOUS
100
AcDbLine
 10
-0.4485280000000671
 20
12.50000000000005
 30
0.0
 11
21.99999999999997
 21
12.50000000000005
 31
0.0
  0
LINE
  5
164B
330
1601
100
AcDbEntity
  8
250
  6
CONTINUOUS
100
AcDbLine
 10
20.99999999999996
 20
-10.27000000000003
 30
0.0
 11
20.99999999999997
 21
10.27000000000005
 31
0.0
  0
INSERT
  5
164C
330
1601
100
AcDbEntity
  8
250
  6
CONTINUOUS
100
AcDbBlockReference
  2
_OPEN
 10
20.99999999999996
 20
-12.50000000000003
 30
0.0
 41
2.229999999999999
 42
2.229999999999999
 43
2.229999999999999
 50
270.0
  0
INSERT
  5
164D
330
1601
100
AcDbEntity
  8
250
  6
CONTINUOUS
100
AcDbBlockReference
  2
_OPEN
 10
20.99999999999997
 20
12.50000000000005
 30
0.0
 41
2.229999999999999
 42
2.229999999999999
 43
2.229999999999999
 50
90.0
  0
MTEXT
  5
164E
330
1601
100
AcDbEntity
  8
250
  6
CONTINUOUS
 62
    40
100
AcDbMText
 10
18.49999999999996
 20
0.0000000000000115
 30
0.0
 40
3.0
 41
0.0
 71
     5
 72
     1
  1
\A1;{\H3;\U+2205}25
 11
0.0000000000000001
 21
1.0
 31
0.0
1001
ACAD
1000
MTEXTBEGIN
1070
    73
1070
     1
1070
    44
1040
1.0
1070
    74
1070
     0
1000
MTEXTEND
  0
POINT
  5
164F
330
1601
100
AcDbEntity
  8
DEFPOINTS
  6
CONTINUOUS
 62
     0
100
AcDbPoint
 10
-0.948528000000067
 20
-12.50000000000002
 30
0.0
  0
POINT
  5
1650
330
1601
100
AcDbEntity
  8
DEFPOINTS
  6
CONTINUOUS
 62
     0
100
AcDbPoint
 10
-0.948528000000067
 20
12.50000000000005
 30
0.0
  0
POINT
  5
1651
330
1601
100
AcDbEntity
  8
DEFPOINTS
  6
CONTINUOUS
 62
     0
100
AcDbPoint
 10
20.99999999999997
 20
12.50000000000005
 30
0.0
  0
ENDBLK
  5
160C
330
1601
100
AcDbEntity
  8
0
100
AcDbBlockEnd
  0
BLOCK
  5
1617
330
160D
100
AcDbEntity
  8
0
100
AcDbBlockBegin
  2
*D3
 70
     1
 10
0.0
 20
0.0
 30
0.0
  3
*D3
  1

  0
LINE
  5
1652
330
160D
100
AcDbEntity
  8
250
  6
CONTINUOUS
100
AcDbLine
 10
-35.0
 20
-4.5
 30
0.0
 11
-35.0
 21
-29.0
 31
0.0
  0
LINE
  5
1653
330
160D
100
AcDbEntity
  8
250
  6
CONTINUOUS
100
AcDbLine
 10
0.0
 20
-12.09289300000006
 30
0.0
 11
-0.0000000000000011
 21
-29.0
 31
0.0
  0
LINE
  5
1654
330
160D
100
AcDbEntity
  8
250
  6
CONTINUOUS
100
AcDbLine
 10
-32.77
 20
-28.0
 30
0.0
 11
-2.23
 21
-28.0
 31
0.0
  0
INSERT
  5
1655
330
160D
100
AcDbEntity
  8
250
  6
CONTINUOUS
100
AcDbBlockReference
  2
_OPEN
 10
-35.0
 20
-28.0
 30
0.0
 41
2.229999999999999
 42
2.229999999999999
 43
2.229999999999999
 50
180.0
  0
INSERT
  5
1656
330
160D
100
AcDbEntity
  8
250
  6
CONTINUOUS
100
AcDbBlockReference
  2
_OPEN
 10
-0.000000000000001
 20
-28.0
 30
0.0
 41
2.229999999999999
 42
2.229999999999999
 43
2.229999999999999
  0
MTEXT
  5
1657
330
160D
100
AcDbEntity
  8
250
  6
CONTINUOUS
 62
    40
100
AcDbMText
 10
-17.5
 20
-25.5
 30
0.0
 40
3.0
 41
0.0
 71
     5
 72
     1
  1
\A1;26～42
1001
ACAD
1000
MTEXTBEGIN
1070
    73
1070
     1
1070
    44
1040
1.0
1070
    74
1070
     0
1000
MTEXTEND
  0
POINT
  5
1658
330
160D
100
AcDbEntity
  8
DEFPOINTS
  6
CONTINUOUS
 62
     0
100
AcDbPoint
 10
-35.0
 20
-4.0
 30
0.0
  0
POINT
  5
1659
330
160D
100
AcDbEntity
  8
DEFPOINTS
  6
CONTINUOUS
 62
     0
100
AcDbPoint
 10
0.0
 20
-11.59289300000006
 30
0.0
  0
POINT
  5
165A
330
160D
100
AcDbEntity
  8
DEFPOINTS
  6
CONTINUOUS
 62
     0
100
AcDbPoint
 10
-0.000000000000001
 20
-28.0
 30
0.0
  0
ENDBLK
  5
1618
330
160D
100
AcDbEntity
  8
0
100
AcDbBlockEnd
  0
BLOCK
  5
1CE7
330
1CDD
100
AcDbEntity
  8
0
100
AcDbBlockBegin
  2
*D4
 70
     1
 10
0.0
 20
0.0
 30
0.0
  3
*D4
  1

  0
LINE
  5
1CDE
330
1CDD
100
AcDbEntity
  8
250
  6
CONTINUOUS
100
AcDbLine
 10
-15.5
 20
9.5
 30
0.0
 11
-15.49999999999999
 21
29.0
 31
0.0
  0
LINE
  5
1CDF
330
1CDD
100
AcDbEntity
  8
250
  6
CONTINUOUS
100
AcDbLine
 10
0.0
 20
12.092893
 30
0.0
 11
0.0000000000000011
 21
29.0
 31
0.0
  0
LINE
  5
1CE0
330
1CDD
100
AcDbEntity
  8
250
  6
CONTINUOUS
100
AcDbLine
 10
-13.26999999999999
 20
28.0
 30
0.0
 11
-2.229999999999999
 21
28.0
 31
0.0
  0
INSERT
  5
1CE1
330
1CDD
100
AcDbEntity
  8
250
  6
CONTINUOUS
100
AcDbBlockReference
  2
_OPEN
 10
-15.49999999999999
 20
28.0
 30
0.0
 41
2.229999999999999
 42
2.229999999999999
 43
2.229999999999999
 50
180.0
  0
INSERT
  5
1CE2
330
1CDD
100
AcDbEntity
  8
250
  6
CONTINUOUS
100
AcDbBlockReference
  2
_OPEN
 10
0.000000000000001
 20
28.0
 30
0.0
 41
2.229999999999999
 42
2.229999999999999
 43
2.229999999999999
  0
MTEXT
  5
1CE3
330
1CDD
100
AcDbEntity
  8
250
  6
CONTINUOUS
 62
    40
100
AcDbMText
 10
-7.749999999999998
 20
30.5
 30
0.0
 40
3.0
 41
0.0
 71
     5
 72
     1
  1
\A1;15.5
1001
ACAD
1000
MTEXTBEGIN
1070
    73
1070
     1
1070
    44
1040
1.0
1070
    74
1070
     0
1000
MTEXTEND
  0
POINT
  5
1CE4
330
1CDD
100
AcDbEntity
  8
DEFPOINTS
  6
CONTINUOUS
 62
     0
100
AcDbPoint
 10
-15.5
 20
9.0
 30
0.0
  0
POINT
  5
1CE5
330
1CDD
100
AcDbEntity
  8
DEFPOINTS
  6
CONTINUOUS
 62
     0
100
AcDbPoint
 10
0.0
 20
11.592893
 30
0.0
  0
POINT
  5
1CE6
330
1CDD
100
AcDbEntity
  8
DEFPOINTS
  6
CONTINUOUS
 62
     0
100
AcDbPoint
 10
0.000000000000001
 20
28.0
 30
0.0
  0
ENDBLK
  5
1CE8
330
1CDD
100
AcDbEntity
  8
0
100
AcDbBlockEnd
  0
BLOCK
  5
20F9
330
20EF
100
AcDbEntity
  8
0
100
AcDbBlockBegin
  2
*D5
 70
     1
 10
0.0
 20
0.0
 30
0.0
  3
*D5
  1

  0
LINE
  5
22F8
330
20EF
100
AcDbEntity
  8
250
  6
CONTINUOUS
100
AcDbLine
 10
-96.5
 20
9.699999999999999
 30
0.0
 11
-96.5
 21
36.0
 31
0.0
  0
LINE
  5
22F9
330
20EF
100
AcDbEntity
  8
250
  6
CONTINUOUS
100
AcDbLine
 10
0.0
 20
12.092893
 30
0.0
 11
0.0000000000000015
 21
36.0
 31
0.0
  0
LINE
  5
22FA
330
20EF
100
AcDbEntity
  8
250
  6
CONTINUOUS
100
AcDbLine
 10
-94.26999999999999
 20
35.0
 30
0.0
 11
-2.229999999999998
 21
35.0
 31
0.0
  0
INSERT
  5
22FB
330
20EF
100
AcDbEntity
  8
250
  6
CONTINUOUS
100
AcDbBlockReference
  2
_OPEN
 10
-96.5
 20
35.0
 30
0.0
 41
2.229999999999999
 42
2.229999999999999
 43
2.229999999999999
 50
180.0
  0
INSERT
  5
22FC
330
20EF
100
AcDbEntity
  8
250
  6
CONTINUOUS
100
AcDbBlockReference
  2
_OPEN
 10
0.0000000000000014
 20
35.0
 30
0.0
 41
2.229999999999999
 42
2.229999999999999
 43
2.229999999999999
  0
MTEXT
  5
22FD
330
20EF
100
AcDbEntity
  8
250
  6
CONTINUOUS
 62
    40
100
AcDbMText
 10
-48.25
 20
37.5
 30
0.0
 40
3.0
 41
0.0
 71
     5
 72
     1
  1
\A1;96.5
1001
ACAD
1000
MTEXTBEGIN
1070
    73
1070
     1
1070
    44
1040
1.0
1070
    74
1070
     0
1000
MTEXTEND
  0
POINT
  5
22FE
330
20EF
100
AcDbEntity
  8
DEFPOINTS
  6
CONTINUOUS
 62
     0
100
AcDbPoint
 10
-96.5
 20
9.199999999999999
 30
0.0
  0
POINT
  5
22FF
330
20EF
100
AcDbEntity
  8
DEFPOINTS
  6
CONTINUOUS
 62
     0
100
AcDbPoint
 10
0.0
 20
11.592893
 30
0.0
  0
POINT
  5
2300
330
20EF
100
AcDbEntity
  8
DEFPOINTS
  6
CONTINUOUS
 62
     0
100
AcDbPoint
 10
0.0000000000000014
 20
35.0
 30
0.0
  0
ENDBLK
  5
20FA
330
20EF
100
AcDbEntity
  8
0
100
AcDbBlockEnd
  0
BLOCK
  5
2108
330
20FE
100
AcDbEntity
  8
0
100
AcDbBlockBegin
  2
*D6
 70
     1
 10
0.0
 20
0.0
 30
0.0
  3
*D6
  1

  0
LINE
  5
24D3
330
20FE
100
AcDbEntity
  8
250
  6
CONTINUOUS
100
AcDbLine
 10
-96.5
 20
9.699999999999999
 30
0.0
 11
-96.5
 21
29.0
 31
0.0
  0
LINE
  5
24D4
330
20FE
100
AcDbEntity
  8
250
  6
CONTINUOUS
100
AcDbLine
 10
-15.49999999999999
 20
12.0
 30
0.0
 11
-15.49999999999999
 21
29.0
 31
0.0
  0
LINE
  5
24D5
330
20FE
100
AcDbEntity
  8
250
  6
CONTINUOUS
100
AcDbLine
 10
-94.26999999999999
 20
28.0
 30
0.0
 11
-17.72999999999999
 21
28.0
 31
0.0
  0
INSERT
  5
24D6
330
20FE
100
AcDbEntity
  8
250
  6
CONTINUOUS
100
AcDbBlockReference
  2
_OPEN
 10
-96.5
 20
28.0
 30
0.0
 41
2.229999999999999
 42
2.229999999999999
 43
2.229999999999999
 50
180.0
  0
INSERT
  5
24D7
330
20FE
100
AcDbEntity
  8
250
  6
CONTINUOUS
100
AcDbBlockReference
  2
_OPEN
 10
-15.49999999999999
 20
28.0
 30
0.0
 41
2.229999999999999
 42
2.229999999999999
 43
2.229999999999999
  0
MTEXT
  5
24D8
330
20FE
100
AcDbEntity
  8
250
  6
CONTINUOUS
 62
    40
100
AcDbMText
 10
-55.99999999999999
 20
30.5
 30
0.0
 40
3.0
 41
0.0
 71
     5
 72
     1
  1
\A1;81
1001
ACAD
1000
MTEXTBEGIN
1070
    73
1070
     1
1070
    44
1040
1.0
1070
    74
1070
     0
1000
MTEXTEND
  0
POINT
  5
24D9
330
20FE
100
AcDbEntity
  8
DEFPOINTS
  6
CONTINUOUS
 62
     0
100
AcDbPoint
 10
-96.5
 20
9.199999999999999
 30
0.0
  0
POINT
  5
24DA
330
20FE
100
AcDbEntity
  8
DEFPOINTS
  6
CONTINUOUS
 62
     0
100
AcDbPoint
 10
-15.49999999999999
 20
11.5
 30
0.0
  0
POINT
  5
24DB
330
20FE
100
AcDbEntity
  8
DEFPOINTS
  6
CONTINUOUS
 62
     0
100
AcDbPoint
 10
-15.49999999999999
 20
28.0
 30
0.0
  0
ENDBLK
  5
2109
330
20FE
100
AcDbEntity
  8
0
100
AcDbBlockEnd
  0
BLOCK
  5
251B
330
2511
100
AcDbEntity
  8
0
100
AcDbBlockBegin
  2
*D9
 70
     1
 10
0.0
 20
0.0
 30
0.0
  3
*D9
  1

  0
LINE
  5
2527
330
2511
100
AcDbEntity
  8
250
  6
CONTINUOUS
100
AcDbLine
 10
-85.50000000000002
 20
-12.5
 30
0.0
 11
-106.0
 21
-12.49999999999999
 31
0.0
  0
LINE
  5
2528
330
2511
100
AcDbEntity
  8
250
  6
CONTINUOUS
100
AcDbLine
 10
-85.5
 20
12.5
 30
0.0
 11
-106.0
 21
12.5
 31
0.0
  0
LINE
  5
2529
330
2511
100
AcDbEntity
  8
250
  6
CONTINUOUS
100
AcDbLine
 10
-105.0
 20
-10.26999999999999
 30
0.0
 11
-105.0
 21
10.27
 31
0.0
  0
INSERT
  5
252A
330
2511
100
AcDbEntity
  8
250
  6
CONTINUOUS
100
AcDbBlockReference
  2
_OPEN
 10
-105.0
 20
-12.49999999999999
 30
0.0
 41
2.229999999999999
 42
2.229999999999999
 43
2.229999999999999
 50
270.0
  0
INSERT
  5
252B
330
2511
100
AcDbEntity
  8
250
  6
CONTINUOUS
100
AcDbBlockReference
  2
_OPEN
 10
-105.0
 20
12.5
 30
0.0
 41
2.229999999999999
 42
2.229999999999999
 43
2.229999999999999
 50
90.0
  0
MTEXT
  5
252C
330
2511
100
AcDbEntity
  8
250
  6
CONTINUOUS
 62
    40
100
AcDbMText
 10
-107.4999999999999
 20
-0.0000000000000119
 30
0.0
 40
3.0
 41
0.0
 71
     5
 72
     1
  1
\A1;{\H3;\U+2205}25
 11
0.0000000000000001
 21
1.0
 31
0.0
1001
ACAD
1000
MTEXTBEGIN
1070
    73
1070
     1
1070
    44
1040
1.0
1070
    74
1070
     0
1000
MTEXTEND
  0
POINT
  5
252D
330
2511
100
AcDbEntity
  8
DEFPOINTS
  6
CONTINUOUS
 62
     0
100
AcDbPoint
 10
-85.00000000000001
 20
-12.5
 30
0.0
  0
POINT
  5
252E
330
2511
100
AcDbEntity
  8
DEFPOINTS
  6
CONTINUOUS
 62
     0
100
AcDbPoint
 10
-85.0
 20
12.5
 30
0.0
  0
POINT
  5
252F
330
2511
100
AcDbEntity
  8
DEFPOINTS
  6
CONTINUOUS
 62
     0
100
AcDbPoint
 10
-105.0
 20
12.5
 30
0.0
  0
ENDBLK
  5
251C
330
2511
100
AcDbEntity
  8
0
100
AcDbBlockEnd
  0
BLOCK
  5
2606
330
2534
100
AcDbEntity
  8
0
100
AcDbBlockBegin
  2
A$C38806458
 70
     0
 10
0.0
 20
0.0
 30
0.0
  3
A$C38806458
  1

  0
TEXT
  5
2535
330
2534
100
AcDbEntity
  8
247
100
AcDbText
 10
-35.24195854163717
 20
-10.93421023440312
 30
0.0
 40
1.5
  1
SL25-NBS8-80
  7
YOKO
 11
-35.24195854163717
 21
-10.93421023440312
 31
0.0
100
AcDbText
 73
     1
  0
LINE
  5
2536
330
2534
100
AcDbEntity
  8
242
100
AcDbLine
 10
-21.49999999999999
 20
5.127377497317707
 30
0.0
 11
-96.5
 21
-5.127377497317707
 31
0.0
  0
LINE
  5
2537
330
2534
100
AcDbEntity
  8
242
100
AcDbLine
 10
-96.5
 20
5.127377497317707
 30
0.0
 11
-21.50000157502624
 21
-5.127380999164756
 31
0.0
  0
LINE
  5
2538
330
2534
100
AcDbEntity
  8
241
100
AcDbLine
 10
-21.5
 20
-5.127377497317706
 30
0.0
 11
-96.5
 21
-5.127377497317707
 31
0.0
  0
LINE
  5
2539
330
2534
100
AcDbEntity
  8
241
100
AcDbLine
 10
-21.49999999999999
 20
5.127377497317706
 30
0.0
 11
-96.5
 21
5.127377497317707
 31
0.0
  0
LINE
  5
253A
330
2534
100
AcDbEntity
  8
240
100
AcDbLine
 10
-85.00000000000001
 20
-12.5
 30
0.0
 11
-16.5
 21
-12.5
 31
0.0
  0
LINE
  5
253B
330
2534
100
AcDbEntity
  8
240
100
AcDbLine
 10
-85.0
 20
12.5
 30
0.0
 11
-16.49999999999999
 21
12.5
 31
0.0
  0
LINE
  5
253C
330
2534
100
AcDbEntity
  8
245
100
AcDbLine
 10
-98.30625762368867
 20
0.0
 30
0.0
 11
1.762483772419045
 21
0.0
 31
0.0
  0
LINE
  5
253D
330
2534
100
AcDbEntity
  8
240
100
AcDbLine
 10
-96.5
 20
-10.5
 30
0.0
 11
-96.0
 21
-11.0
 31
0.0
  0
LINE
  5
253E
330
2534
100
AcDbEntity
  8
240
100
AcDbLine
 10
-96.0
 20
11.0
 30
0.0
 11
-96.5
 21
10.5
 31
0.0
  0
LINE
  5
253F
330
2534
100
AcDbEntity
  8
240
100
AcDbLine
 10
-96.5
 20
-10.5
 30
0.0
 11
-96.5
 21
10.5
 31
0.0
  0
LINE
  5
2540
330
2534
100
AcDbEntity
  8
240
100
AcDbLine
 10
-85.00000000000001
 20
-12.5
 30
0.0
 11
-86.50000000000002
 21
-11.0
 31
0.0
  0
LINE
  5
2541
330
2534
100
AcDbEntity
  8
240
100
AcDbLine
 10
-96.0
 20
-11.0
 30
0.0
 11
-86.50000000000002
 21
-11.0
 31
0.0
  0
LINE
  5
2542
330
2534
100
AcDbEntity
  8
240
100
AcDbLine
 10
-96.0
 20
11.0
 30
0.0
 11
-86.49999999999998
 21
11.0
 31
0.0
  0
LINE
  5
2543
330
2534
100
AcDbEntity
  8
240
100
AcDbLine
 10
-85.0
 20
12.5
 30
0.0
 11
-86.49999999999998
 21
11.0
 31
0.0
  0
LINE
  5
2544
330
2534
100
AcDbEntity
  8
246
100
AcDbLine
 10
-37.30662400000005
 20
-1.443376
 30
0.0
 11
-35.0
 21
-3.75
 31
0.0
  0
LINE
  5
2545
330
2534
100
AcDbEntity
  8
246
100
AcDbLine
 10
-48.0
 20
-2.900000000000034
 30
0.0
 11
-48.0
 21
2.899999999999977
 31
0.0
  0
LINE
  5
2546
330
2534
100
AcDbEntity
  8
246
100
AcDbLine
 10
-35.0
 20
4.0
 30
0.0
 11
-35.0
 21
-4.0
 31
0.0
  0
HATCH
  5
2547
330
2534
100
AcDbEntity
  8
247
100
AcDbHatch
 10
0.0
 20
0.0
 30
0.0
210
0.0
220
0.0
230
1.0
  2
ANSI31
 70
     0
 71
     1
 91
        1
 92
       33
 93
       10
 72
     1
 10
-40.18607400991372
 20
-9.29528562559734
 11
-40.23822473623208
 21
-9.477164287706717
 72
     1
 10
-40.56167596914224
 20
-9.29528562559734
 11
-40.18607400991372
 21
-9.29528562559734
 72
     1
 10
-40.56167596914224
 20
-9.477164287706717
 11
-40.23822473623208
 21
-9.477164287706717
 72
     2
 10
-40.56167596914225
 20
-10.25014173521648
 40
0.7729774475097657
 50
90.0
 51
270.0
 73
     1
 72
     2
 10
-40.56167596914225
 20
-10.25014173521648
 40
0.9548561096191406
 50
90.0
 51
270.0
 73
     1
 72
     1
 10
-40.56167596914224
 20
-11.20499805473149
 11
-36.86956247426918
 21
-11.20499805473149
 72
     1
 10
-40.56167596914224
 20
-11.02311939730296
 11
-36.86956247426918
 21
-11.02311939730296
 72
     2
 10
-36.86956247426921
 20
-10.25014173521648
 40
0.9548561096191406
 50
270.0
 51
464.7707939660941
 73
     1
 72
     2
 10
-36.86956247426921
 20
-10.25014173521648
 40
0.7729774475097657
 50
270.0
 51
464.1274364964119
 73
     1
 72
     1
 10
-37.05823206045083
 20
-9.500537700792653
 11
-37.11300577260904
 21
-9.326836986681325
 97
       10
330
25A4
330
25A8
330
25A7
330
2549
330
2548
330
256B
330
256C
330
254F
330
2550
330
256A
 75
     0
 76
     1
 52
360.0
 41
0.045
 77
     0
 78
     1
 53
44.99999999999996
 43
-95.4265260706132
 44
-18.29249355330115
 45
-0.101027881362028
 46
0.101027881362028
 79
     0
 98
        1
 10
-95.4265260706132
 20
-18.29249355330115
  0
ARC
  5
2548
102
{ACAD_REACTORS
330
2547
102
}
330
2534
100
AcDbEntity
  8
247
100
AcDbCircle
 10
-40.56167596914225
 20
-10.25014173521648
 30
0.0
 40
0.9548561096191406
100
AcDbArc
 50
90.0
 51
270.0
  0
ARC
  5
2549
102
{ACAD_REACTORS
330
2547
102
}
330
2534
100
AcDbEntity
  8
247
100
AcDbCircle
 10
-40.56167596914225
 20
-10.25014173521648
 30
0.0
 40
0.7729774475097657
100
AcDbArc
 50
90.0
 51
270.0
  0
LINE
  5
254A
330
2534
100
AcDbEntity
  8
246
100
AcDbLine
 10
-44.70000000000005
 20
-4.200000000000045
 30
0.0
 11
-35.20000000000004
 21
-4.200000000000045
 31
0.0
  0
LINE
  5
254B
330
2534
100
AcDbEntity
  8
246
100
AcDbLine
 10
-44.40000000000003
 20
-4.5
 30
0.0
 11
-35.5
 21
-4.5
 31
0.0
  0
LINE
  5
254C
330
2534
100
AcDbEntity
  8
246
100
AcDbLine
 10
-44.40000000000003
 20
-4.5
 30
0.0
 11
-45.0
 21
-3.900000000000034
 31
0.0
  0
LINE
  5
254D
330
2534
100
AcDbEntity
  8
246
100
AcDbLine
 10
-47.0
 20
-3.900000000000034
 30
0.0
 11
-45.0
 21
-3.900000000000034
 31
0.0
  0
ARC
  5
254E
330
2534
100
AcDbEntity
  8
246
100
AcDbCircle
 10
-47.0
 20
-2.900000000000034
 30
0.0
 40
1.0
100
AcDbArc
 50
180.0
 51
270.0
  0
ARC
  5
254F
102
{ACAD_REACTORS
330
2547
102
}
330
2534
100
AcDbEntity
  8
247
100
AcDbCircle
 10
-36.86956247426921
 20
-10.25014173521648
 30
0.0
 40
0.9548561096191406
100
AcDbArc
 50
270.0
 51
104.7707939660941
  0
ARC
  5
2550
102
{ACAD_REACTORS
330
2547
102
}
330
2534
100
AcDbEntity
  8
247
100
AcDbCircle
 10
-36.86956247426921
 20
-10.25014173521648
 30
0.0
 40
0.7729774475097657
100
AcDbArc
 50
270.0
 51
104.1274364964119
  0
HATCH
  5
2551
330
2534
100
AcDbEntity
  8
247
100
AcDbHatch
 10
0.0
 20
0.0
 30
0.0
210
0.0
220
0.0
230
1.0
  2
ANSI31
 70
     0
 71
     1
 91
        1
 92
       33
 93
       15
 72
     1
 10
-37.14496225454263
 20
-9.527886791368825
 11
-37.19973596670083
 21
-9.354186077257498
 72
     2
 10
-36.86956247426921
 20
-10.25014173521648
 40
0.7729795932769776
 50
110.8721834020771
 51
132.5419489373867
 73
     1
 72
     2
 10
-37.58308328725749
 20
-9.686323375841482
 40
0.1909725040197372
 50
1.710121382062763
 51
163.9983983544485
 73
     1
 72
     1
 10
-38.01177667715005
 20
-10.48850385679851
 11
-37.76665796377115
 21
-9.633678264757497
 72
     2
 10
-37.82820200063639
 20
-10.54114210142742
 40
0.1909723699092865
 50
164.0002730571839
 51
344.0002730571839
 73
     1
 72
     1
 10
-37.64462732412271
 20
-10.59378034605632
 11
-37.52783578969888
 21
-10.18648283018718
 72
     1
 10
-37.67919992544106
 20
-10.18648283018718
 11
-37.52783578969888
 21
-10.18648283018718
 72
     1
 10
-37.67919992544106
 20
-10.18648283018718
 11
-37.62704919912271
 21
-10.00460416807781
 72
     1
 10
-37.62704919912271
 20
-10.00460416807781
 11
-37.09726785756997
 21
-10.00460416807781
 72
     1
 10
-37.36324686147622
 20
-10.93218006624828
 11
-37.09726785756997
 21
-10.00460416807781
 72
     1
 10
-37.46993784048012
 20
-10.82549595369945
 11
-37.36324686147622
 21
-10.93218006624828
 72
     2
 10
-37.80867380239421
 20
-10.34108106627116
 40
0.5911056518554688
 50
163.9997507017293
 51
304.9638732916317
 73
     1
 72
     2
 10
-36.84224771596842
 20
-10.37215864195476
 40
1.546847534179687
 50
155.2051773698404
 51
172.7948259620522
 73
     1
 72
     2
 10
-37.67829355337077
 20
-9.886384410997731
 40
0.5910996437072754
 50
53.44401219705756
 51
164.0001843876852
 73
     1
 72
     2
 10
-36.86956247426921
 20
-10.25014173521648
 40
0.954856538772583
 50
110.22964506332
 51
118.5716889237176
 73
     1
 97
       15
330
25AE
330
25AC
330
25AF
330
258B
330
258C
330
259A
330
2598
330
256D
330
25B0
330
256E
330
2599
330
258D
330
2585
330
259B
330
25AD
 75
     0
 76
     1
 52
360.0
 41
0.045
 77
     0
 78
     1
 53
44.99999999999996
 43
-95.4265260706132
 44
-18.29249355330115
 45
-0.101027881362028
 46
0.101027881362028
 79
     0
 98
        1
 10
-95.4265260706132
 20
-18.29249355330115
  0
POLYLINE
  5
2552
330
2534
100
AcDbEntity
  8
247
100
AcDb2dPolyline
 66
     1
 10
0.0
 20
0.0
 30
0.0
 70
     1
1001
HATCH_DISTANCE
1040
1.0
1001
HATCH_DISPLAY
1070
     0
1001
HATCH_TYPE
1070
     7
  0
VERTEX
  5
2553
330
2552
100
AcDbEntity
  8
247
100
AcDbVertex
100
AcDb2dVertex
 10
-37.05823206045085
 20
-9.500537700792653
 30
0.0
  0
VERTEX
  5
2554
330
2552
100
AcDbEntity
  8
247
100
AcDbVertex
100
AcDb2dVertex
 10
-37.11300577260905
 20
-9.326836986681325
 30
0.0
  0
VERTEX
  5
2555
330
2552
100
AcDbEntity
  8
247
100
AcDbVertex
100
AcDb2dVertex
 10
-37.11300577260905
 20
-9.326836986681325
 30
0.0
  0
VERTEX
  5
2556
330
2552
100
AcDbEntity
  8
247
100
AcDbVertex
100
AcDb2dVertex
 10
-37.05823206045085
 20
-9.500537700792653
 30
0.0
  0
SEQEND
  5
2557
330
2552
100
AcDbEntity
  8
247
  0
POLYLINE
  5
2558
330
2534
100
AcDbEntity
  8
247
100
AcDb2dPolyline
 66
     1
 10
0.0
 20
0.0
 30
0.0
 70
     1
  0
VERTEX
  5
2559
330
2558
100
AcDbEntity
  8
247
100
AcDbVertex
100
AcDb2dVertex
 10
-37.05823206045085
 20
-9.500537700792653
 30
0.0
  0
VERTEX
  5
255A
330
2558
100
AcDbEntity
  8
247
100
AcDbVertex
100
AcDb2dVertex
 10
-37.11300577260905
 20
-9.326836986681325
 30
0.0
  0
VERTEX
  5
255B
330
2558
100
AcDbEntity
  8
247
100
AcDbVertex
100
AcDb2dVertex
 10
-37.11300577260905
 20
-9.326836986681325
 30
0.0
  0
VERTEX
  5
255C
330
2558
100
AcDbEntity
  8
247
100
AcDbVertex
100
AcDb2dVertex
 10
-37.05823206045085
 20
-9.500537700792653
 30
0.0
  0
SEQEND
  5
255D
330
2558
100
AcDbEntity
  8
247
  0
POLYLINE
  5
255E
330
2534
100
AcDbEntity
  8
247
100
AcDb2dPolyline
 66
     1
 10
0.0
 20
0.0
 30
0.0
 70
     1
1001
HATCH_DISTANCE
1040
1.0
1001
HATCH_DISPLAY
1070
     0
1001
HATCH_TYPE
1070
     7
  0
VERTEX
  5
255F
330
255E
100
AcDbEntity
  8
247
100
AcDbVertex
100
AcDb2dVertex
 10
-37.05823206045085
 20
-9.500537700792653
 30
0.0
  0
VERTEX
  5
2560
330
255E
100
AcDbEntity
  8
247
100
AcDbVertex
100
AcDb2dVertex
 10
-37.11300577260905
 20
-9.326836986681325
 30
0.0
  0
VERTEX
  5
2561
330
255E
100
AcDbEntity
  8
247
100
AcDbVertex
100
AcDb2dVertex
 10
-37.11300577260905
 20
-9.326836986681325
 30
0.0
  0
VERTEX
  5
2562
330
255E
100
AcDbEntity
  8
247
100
AcDbVertex
100
AcDb2dVertex
 10
-37.05823206045085
 20
-9.500537700792653
 30
0.0
  0
SEQEND
  5
2563
330
255E
100
AcDbEntity
  8
247
  0
POLYLINE
  5
2564
330
2534
100
AcDbEntity
  8
247
100
AcDb2dPolyline
 66
     1
 10
0.0
 20
0.0
 30
0.0
 70
     1
  0
VERTEX
  5
2565
330
2564
100
AcDbEntity
  8
247
100
AcDbVertex
100
AcDb2dVertex
 10
-37.05823206045085
 20
-9.500537700792653
 30
0.0
  0
VERTEX
  5
2566
330
2564
100
AcDbEntity
  8
247
100
AcDbVertex
100
AcDb2dVertex
 10
-37.11300577260905
 20
-9.326836986681325
 30
0.0
  0
VERTEX
  5
2567
330
2564
100
AcDbEntity
  8
247
100
AcDbVertex
100
AcDb2dVertex
 10
-37.11300577260905
 20
-9.326836986681325
 30
0.0
  0
VERTEX
  5
2568
330
2564
100
AcDbEntity
  8
247
100
AcDbVertex
100
AcDb2dVertex
 10
-37.05823206045085
 20
-9.500537700792653
 30
0.0
  0
SEQEND
  5
2569
330
2564
100
AcDbEntity
  8
247
  0
LINE
  5
256A
102
{ACAD_REACTORS
330
2547
102
}
330
2534
100
AcDbEntity
  8
247
100
AcDbLine
 10
-37.05823206045083
 20
-9.500537700792653
 30
0.0
 11
-37.11300577260904
 21
-9.326836986681325
 31
0.0
  0
LINE
  5
256B
102
{ACAD_REACTORS
330
2547
102
}
330
2534
100
AcDbEntity
  8
247
100
AcDbLine
 10
-40.56167596914224
 20
-11.20499805473149
 30
0.0
 11
-36.86956247426918
 21
-11.20499805473149
 31
0.0
  0
LINE
  5
256C
102
{ACAD_REACTORS
330
2547
102
}
330
2534
100
AcDbEntity
  8
247
100
AcDbLine
 10
-40.56167596914224
 20
-11.02311939730296
 30
0.0
 11
-36.86956247426918
 21
-11.02311939730296
 31
0.0
  0
LINE
  5
256D
102
{ACAD_REACTORS
330
2551
102
}
330
2534
100
AcDbEntity
  8
247
100
AcDbLine
 10
-37.67919992544106
 20
-10.18648283018718
 30
0.0
 11
-37.62704919912271
 21
-10.00460416807781
 31
0.0
  0
LINE
  5
256E
102
{ACAD_REACTORS
330
2551
102
}
330
2534
100
AcDbEntity
  8
247
100
AcDbLine
 10
-37.36324686147622
 20
-10.93218006624828
 30
0.0
 11
-37.09726785756997
 21
-10.00460416807781
 31
0.0
  0
LINE
  5
256F
330
2534
100
AcDbEntity
  8
247
100
AcDbLine
 10
-39.1607131395524
 20
-10.93218006624828
 30
0.0
 11
-38.74870523549965
 21
-9.49534666075359
 31
0.0
  0
POLYLINE
  5
2570
330
2534
100
AcDbEntity
  8
247
100
AcDb2dPolyline
 66
     1
 10
0.0
 20
0.0
 30
0.0
 70
     1
1001
HATCH_DISTANCE
1040
1.0
1001
HATCH_DISPLAY
1070
     0
1001
HATCH_TYPE
1070
     7
  0
VERTEX
  5
2571
330
2570
100
AcDbEntity
  8
247
100
AcDbVertex
100
AcDb2dVertex
 10
-38.75756296255046
 20
-9.29528562559734
 30
0.0
  0
VERTEX
  5
2572
330
2570
100
AcDbEntity
  8
247
100
AcDbVertex
100
AcDb2dVertex
 10
-38.8149321947282
 20
-9.49534666075359
 30
0.0
  0
VERTEX
  5
2573
330
2570
100
AcDbEntity
  8
247
100
AcDbVertex
100
AcDb2dVertex
 10
-38.74870523549968
 20
-9.49534666075359
 30
0.0
  0
VERTEX
  5
2574
330
2570
100
AcDbEntity
  8
247
100
AcDbVertex
100
AcDb2dVertex
 10
-39.16071313955241
 20
-10.93218006624828
 30
0.0
  0
VERTEX
  5
2575
330
2570
100
AcDbEntity
  8
247
100
AcDbVertex
100
AcDb2dVertex
 10
-38.75391687490397
 20
-10.93218006624828
 30
0.0
  0
VERTEX
  5
2576
330
2570
100
AcDbEntity
  8
247
100
AcDbVertex
100
AcDb2dVertex
 10
-38.28454660512858
 20
-9.29528562559734
 30
0.0
  0
SEQEND
  5
2577
330
2570
100
AcDbEntity
  8
247
  0
POLYLINE
  5
2578
330
2534
100
AcDbEntity
  8
247
100
AcDb2dPolyline
 66
     1
 10
0.0
 20
0.0
 30
0.0
 70
     1
  0
VERTEX
  5
2579
330
2578
100
AcDbEntity
  8
247
100
AcDbVertex
100
AcDb2dVertex
 10
-38.75756296255046
 20
-9.29528562559734
 30
0.0
  0
VERTEX
  5
257A
330
2578
100
AcDbEntity
  8
247
100
AcDbVertex
100
AcDb2dVertex
 10
-38.8149321947282
 20
-9.49534666075359
 30
0.0
  0
VERTEX
  5
257B
330
2578
100
AcDbEntity
  8
247
100
AcDbVertex
100
AcDb2dVertex
 10
-38.74870523549968
 20
-9.49534666075359
 30
0.0
  0
VERTEX
  5
257C
330
2578
100
AcDbEntity
  8
247
100
AcDbVertex
100
AcDb2dVertex
 10
-39.16071313955241
 20
-10.93218006624828
 30
0.0
  0
VERTEX
  5
257D
330
2578
100
AcDbEntity
  8
247
100
AcDbVertex
100
AcDb2dVertex
 10
-38.75391687490397
 20
-10.93218006624828
 30
0.0
  0
VERTEX
  5
257E
330
2578
100
AcDbEntity
  8
247
100
AcDbVertex
100
AcDb2dVertex
 10
-38.28454660512858
 20
-9.29528562559734
 30
0.0
  0
SEQEND
  5
257F
330
2578
100
AcDbEntity
  8
247
  0
HATCH
  5
2580
330
2534
100
AcDbEntity
  8
247
100
AcDbHatch
 10
0.0
 20
0.0
 30
0.0
210
0.0
220
0.0
230
1.0
  2
ANSI31
 70
     0
 71
     0
 91
        1
 92
        7
 72
     0
 73
     1
 93
        6
 10
-38.28454660512857
 20
-9.295285625597339
 10
-38.75756296255044
 20
-9.295285625597339
 10
-38.81493219472817
 20
-9.49534666075359
 10
-38.74870523549965
 20
-9.49534666075359
 10
-39.1607131395524
 20
-10.93218006624827
 10
-38.75391687490396
 20
-10.93218006624827
 97
        0
 75
     0
 76
     1
 52
360.0
 41
0.045
 77
     0
 78
     1
 53
44.99999999999996
 43
-95.4265260706132
 44
-18.29249355330115
 45
-0.101027881362028
 46
0.101027881362028
 79
     0
 47
0.0134348504236232
 98
        1
 10
-38.70978862435103
 20
-10.07087159959658
  0
ARC
  5
2581
330
2534
100
AcDbEntity
  8
247
100
AcDbCircle
 10
-39.50286859609538
 20
-9.7499754144157
 30
0.0
 40
0.4546936511993409
100
AcDbArc
 50
287.6695775473979
 51
90.23615984267157
  0
ARC
  5
2582
330
2534
100
AcDbEntity
  8
247
100
AcDbCircle
 10
-39.70577921010905
 20
-9.731793041368824
 30
0.0
 40
0.2728103756904602
100
AcDbArc
 50
261.6626016879294
 51
66.33815509518976
  0
LINE
  5
2583
330
2534
100
AcDbEntity
  8
247
100
AcDbLine
 10
-39.71839460931603
 20
-10.26952209488127
 30
0.0
 11
-39.06754568475621
 21
-9.618673170321448
 31
0.0
  0
LINE
  5
2584
330
2534
100
AcDbEntity
  8
247
100
AcDbLine
 10
-39.64786289942495
 20
-10.40104614771423
 30
0.0
 11
-39.0514750938661
 21
-9.804658342155381
 31
0.0
  0
ARC
  5
2585
102
{ACAD_REACTORS
330
2551
102
}
330
2534
100
AcDbEntity
  8
247
100
AcDbCircle
 10
-36.84224771596842
 20
-10.37215864195476
 30
0.0
 40
1.546847534179687
100
AcDbArc
 50
155.2051773698404
 51
172.7948259620522
  0
LINE
  5
2586
330
2534
100
AcDbEntity
  8
247
100
AcDbLine
 10
-38.75391687490396
 20
-10.93218006624828
 30
0.0
 11
-38.28454660512857
 21
-9.29528562559734
 31
0.0
  0
LINE
  5
2587
330
2534
100
AcDbEntity
  8
247
100
AcDbLine
 10
-40.46623911001138
 20
-10.93218006624828
 30
0.0
 11
-40.04901956655454
 21
-9.47716428770726
 31
0.0
  0
LINE
  5
2588
330
2534
100
AcDbEntity
  8
247
100
AcDbLine
 10
-40.41925481140519
 20
-10.76832653424638
 30
0.0
 11
-39.64970712855174
 21
-9.998778851392899
 31
0.0
  0
LINE
  5
2589
330
2534
100
AcDbEntity
  8
247
100
AcDbLine
 10
-40.25679206539284
 20
-10.20175226278587
 30
0.0
 11
-39.62014122406118
 21
-9.565101421454221
 31
0.0
  0
LINE
  5
258A
330
2534
100
AcDbEntity
  8
247
100
AcDbLine
 10
-40.33802343839901
 20
-10.48503939851613
 30
0.0
 11
-39.7013699158431
 21
-9.848385875960239
 31
0.0
  0
LINE
  5
258B
102
{ACAD_REACTORS
330
2551
102
}
330
2534
100
AcDbEntity
  8
247
100
AcDbLine
 10
-38.01177667715005
 20
-10.48850385679851
 30
0.0
 11
-37.76665796377115
 21
-9.633678264757497
 31
0.0
  0
ARC
  5
258C
102
{ACAD_REACTORS
330
2551
102
}
330
2534
100
AcDbEntity
  8
247
100
AcDbCircle
 10
-37.82820200063639
 20
-10.54114210142742
 30
0.0
 40
0.1909723699092865
100
AcDbArc
 50
164.0002730571839
 51
344.0002730571839
  0
ARC
  5
258D
102
{ACAD_REACTORS
330
2551
102
}
330
2534
100
AcDbEntity
  8
247
100
AcDbCircle
 10
-37.80867380239421
 20
-10.34108106627116
 30
0.0
 40
0.5911056518554688
100
AcDbArc
 50
163.9997507017293
 51
304.9638732916317
  0
LINE
  5
258E
330
2534
100
AcDbEntity
  8
247
100
AcDbLine
 10
-39.1607131395524
 20
-10.93218006624828
 30
0.0
 11
-38.75391687490396
 21
-10.93218006624828
 31
0.0
  0
LINE
  5
258F
330
2534
100
AcDbEntity
  8
247
100
AcDbLine
 10
-39.53873899527953
 20
-10.89808953174099
 30
0.0
 11
-39.29087889893613
 21
-10.65022943539758
 31
0.0
  0
LINE
  5
2590
330
2534
100
AcDbEntity
  8
247
100
AcDbLine
 10
-39.7748852925109
 20
-10.93218006624831
 30
0.0
 11
-39.26069806209552
 21
-10.4179928358329
 31
0.0
  0
ARC
  5
2591
330
2534
100
AcDbEntity
  8
247
100
AcDbCircle
 10
-39.7114783678239
 20
-10.4774900628532
 30
0.0
 40
0.4546897888183594
100
AcDbArc
 50
270.0
 51
40.32984065416724
  0
LINE
  5
2592
330
2534
100
AcDbEntity
  8
247
100
AcDbLine
 10
-40.17899681795903
 20
-10.93218006624828
 30
0.0
 11
-39.94506032413603
 21
-10.69824357242531
 31
0.0
  0
LINE
  5
2593
330
2534
100
AcDbEntity
  8
247
100
AcDbLine
 10
-40.38105258068307
 20
-10.93218006624828
 30
0.0
 11
-39.86383313667291
 21
-10.4149606222381
 31
0.0
  0
LINE
  5
2594
330
2534
100
AcDbEntity
  8
247
100
AcDbLine
 10
-39.80489693574159
 20
-10.20941834761217
 30
0.0
 11
-39.95394690667064
 21
-10.72923587187718
 31
0.0
  0
LINE
  5
2595
330
2534
100
AcDbEntity
  8
247
100
AcDbLine
 10
-39.97694105523498
 20
-10.93218006624828
 30
0.0
 11
-39.30958689132035
 21
-10.26482590233367
 31
0.0
  0
LINE
  5
2596
330
2534
100
AcDbEntity
  8
247
100
AcDbLine
 10
-40.46623911001138
 20
-10.93218006624828
 30
0.0
 11
-39.71147836782389
 21
-10.93218006624828
 31
0.0
  0
ARC
  5
2597
330
2534
100
AcDbEntity
  8
247
100
AcDbCircle
 10
-39.91438898183757
 20
-10.45930082335124
 30
0.0
 40
0.2728181809186935
100
AcDbArc
 50
261.6628542111488
 51
66.33819215911005
  0
LINE
  5
2598
102
{ACAD_REACTORS
330
2551
102
}
330
2534
100
AcDbEntity
  8
247
100
AcDbLine
 10
-37.67919992544106
 20
-10.18648283018718
 30
0.0
 11
-37.52783578969888
 21
-10.18648283018718
 31
0.0
  0
LINE
  5
2599
102
{ACAD_REACTORS
330
2551
102
}
330
2534
100
AcDbEntity
  8
247
100
AcDbLine
 10
-37.46993784048012
 20
-10.82549595369945
 30
0.0
 11
-37.36324686147622
 21
-10.93218006624828
 31
0.0
  0
LINE
  5
259A
102
{ACAD_REACTORS
330
2551
102
}
330
2534
100
AcDbEntity
  8
247
100
AcDbLine
 10
-37.64462732412271
 20
-10.59378034605632
 30
0.0
 11
-37.52783578969888
 21
-10.18648283018718
 31
0.0
  0
ARC
  5
259B
102
{ACAD_REACTORS
330
2551
102
}
330
2534
100
AcDbEntity
  8
247
100
AcDbCircle
 10
-37.67829355337077
 20
-9.886384410997731
 30
0.0
 40
0.5910996437072754
100
AcDbArc
 50
53.44401219705756
 51
164.0001843876852
  0
LINE
  5
259C
330
2534
100
AcDbEntity
  8
247
100
AcDbLine
 10
-38.81493219472817
 20
-9.49534666075359
 30
0.0
 11
-38.75756296255044
 21
-9.29528562559734
 31
0.0
  0
LINE
  5
259D
330
2534
100
AcDbEntity
  8
247
100
AcDbLine
 10
-38.81493219472817
 20
-9.49534666075359
 30
0.0
 11
-38.74870523549965
 21
-9.49534666075359
 31
0.0
  0
LINE
  5
259E
330
2534
100
AcDbEntity
  8
247
100
AcDbLine
 10
-39.438793400085
 20
-9.787865122926154
 30
0.0
 11
-39.13443701754541
 21
-9.483508740386559
 31
0.0
  0
LINE
  5
259F
330
2534
100
AcDbEntity
  8
247
100
AcDbLine
 10
-39.46210508067031
 20
-9.609121040787419
 30
0.0
 11
-39.23531583054449
 21
-9.3823317906616
 31
0.0
  0
LINE
  5
25A0
330
2534
100
AcDbEntity
  8
247
100
AcDbLine
 10
-39.55770505235925
 20
-9.50266524975235
 30
0.0
 11
-39.37012856457865
 21
-9.315088761971754
 31
0.0
  0
LINE
  5
25A1
330
2534
100
AcDbEntity
  8
247
100
AcDbLine
 10
-39.5962893347682
 20
-9.481918136101807
 30
0.0
 11
-39.74533685367719
 21
-10.00172024251704
 31
0.0
  0
LINE
  5
25A2
330
2534
100
AcDbEntity
  8
247
100
AcDbLine
 10
-38.75756296255044
 20
-9.29528562559734
 30
0.0
 11
-38.28454660512857
 21
-9.29528562559734
 31
0.0
  0
LINE
  5
25A3
330
2534
100
AcDbEntity
  8
247
100
AcDbLine
 10
-40.13837137848585
 20
-9.477164287706749
 30
0.0
 11
-39.95649271637649
 21
-9.295285625597376
 31
0.0
  0
LINE
  5
25A4
102
{ACAD_REACTORS
330
2547
102
}
330
2534
100
AcDbEntity
  8
247
100
AcDbLine
 10
-40.18607400991372
 20
-9.29528562559734
 30
0.0
 11
-40.23822473623208
 21
-9.477164287706717
 31
0.0
  0
LINE
  5
25A5
330
2534
100
AcDbEntity
  8
247
100
AcDbLine
 10
-40.09147485830228
 20
-9.29528562559734
 30
0.0
 11
-40.14362558462096
 21
-9.477164287706717
 31
0.0
  0
LINE
  5
25A6
330
2534
100
AcDbEntity
  8
247
100
AcDbLine
 10
-40.14362558462096
 20
-9.477164287706717
 30
0.0
 11
-40.04901956655454
 21
-9.47716428770726
 31
0.0
  0
LINE
  5
25A7
102
{ACAD_REACTORS
330
2547
102
}
330
2534
100
AcDbEntity
  8
247
100
AcDbLine
 10
-40.56167596914224
 20
-9.477164287706717
 30
0.0
 11
-40.23822473623208
 21
-9.477164287706717
 31
0.0
  0
LINE
  5
25A8
102
{ACAD_REACTORS
330
2547
102
}
330
2534
100
AcDbEntity
  8
247
100
AcDbLine
 10
-40.56167596914224
 20
-9.29528562559734
 30
0.0
 11
-40.18607400991372
 21
-9.29528562559734
 31
0.0
  0
LINE
  5
25A9
330
2534
100
AcDbEntity
  8
247
100
AcDbLine
 10
-40.17556069238664
 20
-9.91846512705565
 30
0.0
 11
-39.55238119092838
 21
-9.295285625597408
 31
0.0
  0
LINE
  5
25AA
330
2534
100
AcDbEntity
  8
247
100
AcDbLine
 10
-40.09432931938046
 20
-9.635177991325395
 30
0.0
 11
-39.75443695365244
 21
-9.295285625597408
 31
0.0
  0
LINE
  5
25AB
330
2534
100
AcDbEntity
  8
247
100
AcDbLine
 10
-40.09147485830228
 20
-9.29528562559734
 30
0.0
 11
-39.50474273199155
 21
-9.295285625597408
 31
0.0
  0
ARC
  5
25AC
102
{ACAD_REACTORS
330
2551
102
}
330
2534
100
AcDbEntity
  8
247
100
AcDbCircle
 10
-36.86956247426921
 20
-10.25014173521648
 30
0.0
 40
0.7729795932769776
100
AcDbArc
 50
110.8721834020771
 51
132.5419489373867
  0
ARC
  5
25AD
102
{ACAD_REACTORS
330
2551
102
}
330
2534
100
AcDbEntity
  8
247
100
AcDbCircle
 10
-36.86956247426921
 20
-10.25014173521648
 30
0.0
 40
0.954856538772583
100
AcDbArc
 50
110.22964506332
 51
118.5716889237176
  0
LINE
  5
25AE
102
{ACAD_REACTORS
330
2551
102
}
330
2534
100
AcDbEntity
  8
247
100
AcDbLine
 10
-37.14496225454263
 20
-9.527886791368825
 30
0.0
 11
-37.19973596670083
 21
-9.354186077257498
 31
0.0
  0
ARC
  5
25AF
102
{ACAD_REACTORS
330
2551
102
}
330
2534
100
AcDbEntity
  8
247
100
AcDbCircle
 10
-37.58308328725749
 20
-9.686323375841482
 30
0.0
 40
0.1909725040197372
100
AcDbArc
 50
1.710121382062763
 51
163.9983983544485
  0
LINE
  5
25B0
102
{ACAD_REACTORS
330
2551
102
}
330
2534
100
AcDbEntity
  8
247
100
AcDbLine
 10
-37.62704919912271
 20
-10.00460416807781
 30
0.0
 11
-37.09726785756997
 21
-10.00460416807781
 31
0.0
  0
LINE
  5
25B1
330
2534
100
AcDbEntity
  8
246
100
AcDbLine
 10
-35.5
 20
-4.5
 30
0.0
 11
-35.0
 21
-4.0
 31
0.0
  0
LINE
  5
25B2
330
2534
100
AcDbEntity
  8
246
100
AcDbLine
 10
-44.40000000000003
 20
4.5
 30
0.0
 11
-35.5
 21
4.5
 31
0.0
  0
LINE
  5
25B3
330
2534
100
AcDbEntity
  8
246
100
AcDbLine
 10
-44.70000000000005
 20
4.199999999999988
 30
0.0
 11
-35.20000000000004
 21
4.199999999999988
 31
0.0
  0
LINE
  5
25B4
330
2534
100
AcDbEntity
  8
246
100
AcDbLine
 10
-48.0
 20
2.0
 30
0.0
 11
-39.5
 21
2.0
 31
0.0
  0
LINE
  5
25B5
330
2534
100
AcDbEntity
  8
246
100
AcDbLine
 10
-48.0
 20
-2.0
 30
0.0
 11
-39.5
 21
-2.0
 31
0.0
  0
LINE
  5
25B6
330
2534
100
AcDbEntity
  8
246
100
AcDbLine
 10
-44.40000000000003
 20
4.5
 30
0.0
 11
-45.0
 21
3.899999999999977
 31
0.0
  0
LINE
  5
25B7
330
2534
100
AcDbEntity
  8
246
100
AcDbLine
 10
-47.0
 20
3.899999999999977
 30
0.0
 11
-45.0
 21
3.899999999999977
 31
0.0
  0
ARC
  5
25B8
330
2534
100
AcDbEntity
  8
246
100
AcDbCircle
 10
-47.0
 20
2.899999999999977
 30
0.0
 40
1.0
100
AcDbArc
 50
90.0
 51
180.0
  0
LINE
  5
25B9
330
2534
100
AcDbEntity
  8
246
100
AcDbLine
 10
-37.30662400000005
 20
1.443375999999943
 30
0.0
 11
-35.0
 21
3.75
 31
0.0
  0
LINE
  5
25BA
330
2534
100
AcDbEntity
  8
246
100
AcDbLine
 10
-39.5
 20
2.0
 30
0.0
 11
-39.5
 21
1.029999999999972
 31
0.0
  0
LINE
  5
25BB
330
2534
100
AcDbEntity
  8
246
100
AcDbLine
 10
-39.5
 20
2.0
 30
0.0
 11
-39.17863200000005
 21
1.443375999999943
 31
0.0
  0
LINE
  5
25BC
330
2534
100
AcDbEntity
  8
246
100
AcDbLine
 10
-37.30662400000005
 20
-1.443376
 30
0.0
 11
-39.17863200000005
 21
-1.443376
 31
0.0
  0
LINE
  5
25BD
330
2534
100
AcDbEntity
  8
246
100
AcDbLine
 10
-37.30662400000005
 20
-0.7216880000000288
 30
0.0
 11
-39.17863200000005
 21
-0.7216880000000288
 31
0.0
  0
LINE
  5
25BE
330
2534
100
AcDbEntity
  8
246
100
AcDbLine
 10
-37.30662400000005
 20
1.443375999999943
 30
0.0
 11
-39.17863200000005
 21
1.443375999999943
 31
0.0
  0
LINE
  5
25BF
330
2534
100
AcDbEntity
  8
246
100
AcDbLine
 10
-37.30662400000005
 20
0.7216879999999719
 30
0.0
 11
-39.17863200000005
 21
0.7216879999999719
 31
0.0
  0
LINE
  5
25C0
330
2534
100
AcDbEntity
  8
246
100
AcDbLine
 10
-39.17863200000005
 20
1.443375999999943
 30
0.0
 11
-39.17863200000005
 21
-1.443376
 31
0.0
  0
LINE
  5
25C1
330
2534
100
AcDbEntity
  8
246
100
AcDbLine
 10
-39.5
 20
-2.0
 30
0.0
 11
-39.5
 21
-1.030000000000029
 31
0.0
  0
LINE
  5
25C2
330
2534
100
AcDbEntity
  8
246
100
AcDbLine
 10
-39.5
 20
-2.0
 30
0.0
 11
-39.17863200000005
 21
-1.443376
 31
0.0
  0
LINE
  5
25C3
330
2534
100
AcDbEntity
  8
246
100
AcDbLine
 10
-37.30662400000005
 20
1.443375999999943
 30
0.0
 11
-37.30662400000005
 21
-1.443376
 31
0.0
  0
LINE
  5
25C4
330
2534
100
AcDbEntity
  8
246
100
AcDbLine
 10
-35.0
 20
4.0
 30
0.0
 11
-35.5
 21
4.5
 31
0.0
  0
LINE
  5
25C5
330
2534
100
AcDbEntity
  8
246
100
AcDbLine
 10
0.0
 20
5.326238999999986
 30
0.0
 11
-1.600000000000022
 21
6.25
 31
0.0
  0
LINE
  5
25C6
330
2534
100
AcDbEntity
  8
246
100
AcDbLine
 10
0.0
 20
-5.326239999999984
 30
0.0
 11
-1.600000000000022
 21
-6.25
 31
0.0
  0
LINE
  5
25C7
330
2534
100
AcDbEntity
  8
246
100
AcDbLine
 10
0.0
 20
-4.0
 30
0.0
 11
-18.0
 21
-4.0
 31
0.0
  0
LINE
  5
25C8
330
2534
100
AcDbEntity
  8
240
100
AcDbLine
 10
-10.10000000000002
 20
-12.5
 30
0.0
 11
-0.948528000000067
 21
-12.5
 31
0.0
  0
LINE
  5
25C9
330
2534
100
AcDbEntity
  8
246
100
AcDbLine
 10
0.0
 20
4.0
 30
0.0
 11
-18.0
 21
4.0
 31
0.0
  0
LINE
  5
25CA
330
2534
100
AcDbEntity
  8
240
100
AcDbLine
 10
-10.10000000000002
 20
12.5
 30
0.0
 11
-0.948528000000067
 21
12.5
 31
0.0
  0
LINE
  5
25CB
330
2534
100
AcDbEntity
  8
241
100
AcDbLine
 10
-21.5
 20
-5.127377497317706
 30
0.0
 11
-21.49999999999999
 21
5.127377497317706
 31
0.0
  0
ARC
  5
25CC
330
2534
100
AcDbEntity
  8
241
100
AcDbCircle
 10
-32.90000000000006
 20
0.0
 30
0.0
 40
12.50000000000005
100
AcDbArc
 50
335.7831989866137
 51
24.21678341329236
  0
LINE
  5
25CD
330
2534
100
AcDbEntity
  8
241
100
AcDbLine
 10
-15.5
 20
9.0
 30
0.0
 11
-15.5
 21
-9.0
 31
0.0
  0
LINE
  5
25CE
330
2534
100
AcDbEntity
  8
246
100
AcDbLine
 10
-18.00000000000002
 20
-4.736499000000037
 30
0.0
 11
-18.0
 21
4.736498999999923
 31
0.0
  0
LINE
  5
25CF
330
2534
100
AcDbEntity
  8
241
100
AcDbLine
 10
-13.5
 20
-7.5
 30
0.0
 11
-13.5
 21
0.0
 31
0.0
  0
LINE
  5
25D0
330
2534
100
AcDbEntity
  8
241
100
AcDbLine
 10
-11.0
 20
-8.0
 30
0.0
 11
-11.0
 21
0.0
 31
0.0
  0
LINE
  5
25D1
330
2534
100
AcDbEntity
  8
241
100
AcDbLine
 10
-10.70000000000004
 20
-9.800000000000011
 30
0.0
 11
-10.70000000000004
 21
0.0
 31
0.0
  0
LINE
  5
25D2
330
2534
100
AcDbEntity
  8
246
100
AcDbLine
 10
-3.600000000000022
 20
-6.25
 30
0.0
 11
-18.0
 21
-4.736499000000037
 31
0.0
  0
ARC
  5
25D3
330
2534
100
AcDbEntity
  8
240
100
AcDbCircle
 10
-18.73685628672745
 20
-10.15525748530902
 30
0.0
 40
3.240577650307343
100
AcDbArc
 50
313.6510640381581
 51
2.746116989138319
  0
ARC
  5
25D4
330
2534
100
AcDbEntity
  8
240
100
AcDbCircle
 10
-10.10000000000002
 20
-11.90000000000003
 30
0.0
 40
0.6
100
AcDbArc
 50
180.0
 51
270.0
  0
LINE
  5
25D5
330
2534
100
AcDbEntity
  8
241
100
AcDbLine
 10
-4.0
 20
-9.997093000000006
 30
0.0
 11
-10.70000000000004
 21
-9.997093000000006
 31
0.0
  0
LINE
  5
25D6
330
2534
100
AcDbEntity
  8
241
100
AcDbLine
 10
-4.0
 20
-11.497093
 30
0.0
 11
-10.70000000000004
 21
-11.497093
 31
0.0
  0
LINE
  5
25D7
330
2534
100
AcDbEntity
  8
242
100
AcDbLine
 10
-13.5
 20
-7.5
 30
0.0
 11
-14.0
 21
-8.0
 31
0.0
  0
LINE
  5
25D8
330
2534
100
AcDbEntity
  8
240
100
AcDbLine
 10
-11.0
 20
-8.0
 30
0.0
 11
-14.5
 21
-8.0
 31
0.0
  0
LINE
  5
25D9
330
2534
100
AcDbEntity
  8
240
100
AcDbLine
 10
-15.5
 20
-9.0
 30
0.0
 11
-15.5
 21
-10.0
 31
0.0
  0
ARC
  5
25DA
330
2534
100
AcDbEntity
  8
240
100
AcDbCircle
 10
-14.5
 20
-9.0
 30
0.0
 40
1.0
100
AcDbArc
 50
89.99999999999998
 51
180.0
  0
LINE
  5
25DB
330
2534
100
AcDbEntity
  8
240
100
AcDbLine
 10
-10.70000000000004
 20
-11.90000000000003
 30
0.0
 11
-10.70000000000004
 21
-9.800000000000011
 31
0.0
  0
LINE
  5
25DC
330
2534
100
AcDbEntity
  8
240
100
AcDbLine
 10
-11.0
 20
-9.5
 30
0.0
 11
-10.70000000000004
 21
-9.800000000000011
 31
0.0
  0
LINE
  5
25DD
330
2534
100
AcDbEntity
  8
240
100
AcDbLine
 10
-11.0
 20
-9.5
 30
0.0
 11
-11.0
 21
-8.0
 31
0.0
  0
LINE
  5
25DE
330
2534
100
AcDbEntity
  8
242
100
AcDbLine
 10
-11.0
 20
-7.5
 30
0.0
 11
-13.5
 21
-7.5
 31
0.0
  0
LINE
  5
25DF
330
2534
100
AcDbEntity
  8
241
100
AcDbLine
 10
-4.0
 20
-11.497093
 30
0.0
 11
-4.0
 21
-9.997093000000006
 31
0.0
  0
LINE
  5
25E0
330
2534
100
AcDbEntity
  8
246
100
AcDbLine
 10
-3.600000000000022
 20
-5.25
 30
0.0
 11
-1.700000000000045
 21
-5.25
 31
0.0
  0
LINE
  5
25E1
330
2534
100
AcDbEntity
  8
246
100
AcDbLine
 10
-3.600000000000022
 20
-5.25
 30
0.0
 11
-3.600000000000022
 21
-6.25
 31
0.0
  0
LINE
  5
25E2
330
2534
100
AcDbEntity
  8
246
100
AcDbLine
 10
-1.700000000000045
 20
-5.25
 30
0.0
 11
-1.700000000000045
 21
-6.25
 31
0.0
  0
LINE
  5
25E3
330
2534
100
AcDbEntity
  8
246
100
AcDbLine
 10
-1.700000000000045
 20
-6.25
 30
0.0
 11
-1.600000000000022
 21
-6.25
 31
0.0
  0
LINE
  5
25E4
330
2534
100
AcDbEntity
  8
246
100
AcDbLine
 10
-3.600000000000022
 20
6.25
 30
0.0
 11
-18.0
 21
4.73649899999998
 31
0.0
  0
LINE
  5
25E5
330
2534
100
AcDbEntity
  8
241
100
AcDbLine
 10
-13.5
 20
7.5
 30
0.0
 11
-13.5
 21
0.0
 31
0.0
  0
LINE
  5
25E6
330
2534
100
AcDbEntity
  8
241
100
AcDbLine
 10
-10.70000000000004
 20
9.799999999999954
 30
0.0
 11
-10.70000000000004
 21
0.0
 31
0.0
  0
LINE
  5
25E7
330
2534
100
AcDbEntity
  8
241
100
AcDbLine
 10
-11.0
 20
8.0
 30
0.0
 11
-11.0
 21
0.0
 31
0.0
  0
LINE
  5
25E8
330
2534
100
AcDbEntity
  8
241
100
AcDbLine
 10
-4.0
 20
1.5
 30
0.0
 11
-10.70000000000004
 21
1.5
 31
0.0
  0
LINE
  5
25E9
330
2534
100
AcDbEntity
  8
241
100
AcDbLine
 10
-4.0
 20
-1.5
 30
0.0
 11
-10.70000000000004
 21
-1.5
 31
0.0
  0
LINE
  5
25EA
330
2534
100
AcDbEntity
  8
241
100
AcDbLine
 10
-4.0
 20
1.5
 30
0.0
 11
-4.0
 21
0.0
 31
0.0
  0
LINE
  5
25EB
330
2534
100
AcDbEntity
  8
241
100
AcDbLine
 10
-4.0
 20
-1.5
 30
0.0
 11
-4.0
 21
0.0
 31
0.0
  0
LINE
  5
25EC
330
2534
100
AcDbEntity
  8
246
100
AcDbLine
 10
-3.600000000000022
 20
5.25
 30
0.0
 11
-1.700000000000045
 21
5.25
 31
0.0
  0
LINE
  5
25ED
330
2534
100
AcDbEntity
  8
246
100
AcDbLine
 10
-3.600000000000022
 20
5.25
 30
0.0
 11
-3.600000000000022
 21
6.25
 31
0.0
  0
LINE
  5
25EE
330
2534
100
AcDbEntity
  8
246
100
AcDbLine
 10
-1.700000000000045
 20
6.25
 30
0.0
 11
-1.600000000000022
 21
6.25
 31
0.0
  0
LINE
  5
25EF
330
2534
100
AcDbEntity
  8
246
100
AcDbLine
 10
-1.700000000000045
 20
5.25
 30
0.0
 11
-1.700000000000045
 21
6.25
 31
0.0
  0
LINE
  5
25F0
330
2534
100
AcDbEntity
  8
241
100
AcDbLine
 10
-4.0
 20
11.497093
 30
0.0
 11
-10.70000000000004
 21
11.497093
 31
0.0
  0
LINE
  5
25F1
330
2534
100
AcDbEntity
  8
241
100
AcDbLine
 10
-4.0
 20
9.997093000000006
 30
0.0
 11
-10.70000000000004
 21
9.997093000000006
 31
0.0
  0
LINE
  5
25F2
330
2534
100
AcDbEntity
  8
240
100
AcDbLine
 10
-15.5
 20
9.0
 30
0.0
 11
-15.5
 21
11.5
 31
0.0
  0
LINE
  5
25F3
330
2534
100
AcDbEntity
  8
240
100
AcDbLine
 10
-10.70000000000004
 20
9.799999999999954
 30
0.0
 11
-10.70000000000004
 21
11.89999999999997
 31
0.0
  0
LINE
  5
25F4
330
2534
100
AcDbEntity
  8
240
100
AcDbLine
 10
-11.0
 20
8.000000000000003
 30
0.0
 11
-14.5
 21
8.0
 31
0.0
  0
LINE
  5
25F5
330
2534
100
AcDbEntity
  8
242
100
AcDbLine
 10
-11.0
 20
7.5
 30
0.0
 11
-13.5
 21
7.5
 31
0.0
  0
LINE
  5
25F6
330
2534
100
AcDbEntity
  8
242
100
AcDbLine
 10
-13.5
 20
7.5
 30
0.0
 11
-14.0
 21
8.0
 31
0.0
  0
ARC
  5
25F7
330
2534
100
AcDbEntity
  8
240
100
AcDbCircle
 10
-14.5
 20
9.0
 30
0.0
 40
1.0
100
AcDbArc
 50
180.0
 51
270.0
  0
LINE
  5
25F8
330
2534
100
AcDbEntity
  8
240
100
AcDbLine
 10
-11.0
 20
9.5
 30
0.0
 11
-11.0
 21
8.0
 31
0.0
  0
LINE
  5
25F9
330
2534
100
AcDbEntity
  8
240
100
AcDbLine
 10
-11.0
 20
9.5
 30
0.0
 11
-10.70000000000004
 21
9.799999999999954
 31
0.0
  0
ARC
  5
25FA
330
2534
100
AcDbEntity
  8
240
100
AcDbCircle
 10
-16.49999999999999
 20
11.5
 30
0.0
 40
1.0
100
AcDbArc
 50
0.0
 51
90.0
  0
ARC
  5
25FB
330
2534
100
AcDbEntity
  8
240
100
AcDbCircle
 10
-10.10000000000002
 20
11.89999999999997
 30
0.0
 40
0.6
100
AcDbArc
 50
90.0
 51
180.0
  0
LINE
  5
25FC
330
2534
100
AcDbEntity
  8
241
100
AcDbLine
 10
-4.0
 20
11.497093
 30
0.0
 11
-4.0
 21
9.997093000000006
 31
0.0
  0
LINE
  5
25FD
330
2534
100
AcDbEntity
  8
240
100
AcDbLine
 10
0.0
 20
0.0
 30
0.0
 11
0.0
 21
-11.59289300000006
 31
0.0
  0
LINE
  5
25FE
330
2534
100
AcDbEntity
  8
241
100
AcDbLine
 10
-0.948528000000067
 20
12.13812699999999
 30
0.0
 11
-0.948528000000067
 21
-12.18543100000005
 31
0.0
  0
LINE
  5
25FF
330
2534
100
AcDbEntity
  8
240
100
AcDbLine
 10
-0.5242640000000165
 20
-12.32426400000002
 30
0.0
 11
-0.1464460000000258
 21
-11.94644700000003
 31
0.0
  0
ARC
  5
2600
330
2534
100
AcDbEntity
  8
240
100
AcDbCircle
 10
-0.948528000000067
 20
-11.90000000000003
 30
0.0
 40
0.6
100
AcDbArc
 50
270.0
 51
315.0000000000002
  0
ARC
  5
2601
330
2534
100
AcDbEntity
  8
240
100
AcDbCircle
 10
-0.5
 20
-11.59289300000006
 30
0.0
 40
0.5
100
AcDbArc
 50
315.0000000000002
 51
0.0
  0
LINE
  5
2602
330
2534
100
AcDbEntity
  8
240
100
AcDbLine
 10
0.0
 20
0.0
 30
0.0
 11
0.0
 21
11.592893
 31
0.0
  0
LINE
  5
2603
330
2534
100
AcDbEntity
  8
240
100
AcDbLine
 10
-0.1464460000000258
 20
11.94644699999997
 30
0.0
 11
-0.5242640000000165
 21
12.32426399999997
 31
0.0
  0
ARC
  5
2604
330
2534
100
AcDbEntity
  8
240
100
AcDbCircle
 10
-0.5
 20
11.592893
 30
0.0
 40
0.5
100
AcDbArc
 50
0.0
 51
44.99999999999976
  0
ARC
  5
2605
330
2534
100
AcDbEntity
  8
240
100
AcDbCircle
 10
-0.948528000000067
 20
11.89999999999997
 30
0.0
 40
0.6
100
AcDbArc
 50
44.99999999999976
 51
90.0
  0
ENDBLK
  5
2607
330
2534
100
AcDbEntity
  8
0
100
AcDbBlockEnd
  0
ENDSEC
  0
SECTION
  2
ENTITIES
  0
TEXT
  5
15CC
330
1A
100
AcDbEntity
  8
241
100
AcDbText
 10
-93.49999999999999
 20
49.00000000000002
 30
0.0
 40
5.0
  1
SL25-NBS8-80
  7
YOKO
 11
-93.49999999999999
 21
49.00000000000002
 31
0.0
100
AcDbText
 73
     1
  0
DIMENSION
  5
15CD
330
1A
100
AcDbEntity
  8
250
  6
CONTINUOUS
100
AcDbDimension
  2
*D1
 10
13.99999999999997
 20
3.999999999999996
 30
0.0
 11
11.70134870559908
 21
3.831170461371073
 31
0.0
 70
   160
  1
MAX.%%c<>
  3
BIGT
100
AcDbAlignedDimension
 13
0.0
 23
-4.0
 33
0.0
 14
0.0
 24
4.0
 34
0.0
 50
90.0
100
AcDbRotatedDimension
1001
ACAD
1000
DSTYLE
1002
{
1070
   287
1070
     5
1070
    78
1070
     8
1070
   140
1040
3.0
1070
   279
1070
     2
1002
}
  0
DIMENSION
  5
15CE
330
1A
100
AcDbEntity
  8
250
  6
CONTINUOUS
100
AcDbDimension
  2
*D2
 10
20.99999999999997
 20
12.50000000000005
 30
0.0
 11
18.49999999999996
 21
0.0000000000000115
 31
0.0
 70
    32
  1
{\H3;\U+2205}<>
  3
BIGT
100
AcDbAlignedDimension
 13
-0.948528000000067
 23
-12.50000000000002
 33
0.0
 14
-0.948528000000067
 24
12.50000000000005
 34
0.0
 50
90.0
100
AcDbRotatedDimension
1001
ACAD
1000
DSTYLE
1002
{
1070
    78
1070
     8
1070
   140
1040
3.0
1002
}
  0
DIMENSION
  5
15CF
330
1A
100
AcDbEntity
  8
250
  6
CONTINUOUS
100
AcDbDimension
  2
*D3
 10
-0.000000000000001
 20
-28.0
 30
0.0
 11
-17.5
 21
-25.5
 31
0.0
 70
    32
  1
26～42
  3
BIGT
100
AcDbAlignedDimension
 13
-35.0
 23
-4.0
 33
0.0
 14
0.0
 24
-11.59289300000006
 34
0.0
100
AcDbRotatedDimension
1001
ACAD
1000
DSTYLE
1002
{
1070
    78
1070
     8
1070
   140
1040
3.0
1002
}
  0
DIMENSION
  5
1CDC
330
1A
100
AcDbEntity
  8
250
  6
CONTINUOUS
100
AcDbDimension
  2
*D4
 10
0.000000000000001
 20
28.0
 30
0.0
 11
-7.749999999999998
 21
30.5
 31
0.0
 70
    32
  3
BIGT
100
AcDbAlignedDimension
 13
-15.5
 23
9.0
 33
0.0
 14
0.0
 24
11.592893
 34
0.0
100
AcDbRotatedDimension
1001
ACAD
1000
DSTYLE
1002
{
1070
    78
1070
     8
1070
   140
1040
3.0
1002
}
  0
DIMENSION
  5
20EE
330
1A
100
AcDbEntity
  8
250
  6
CONTINUOUS
100
AcDbDimension
  2
*D5
 10
0.0000000000000014
 20
35.0
 30
0.0
 11
-48.25
 21
37.5
 31
0.0
 70
    32
  3
BIGT
100
AcDbAlignedDimension
 13
-96.5
 23
9.199999999999999
 33
0.0
 14
0.0
 24
11.592893
 34
0.0
100
AcDbRotatedDimension
1001
ACAD
1000
DSTYLE
1002
{
1070
    78
1070
     8
1070
   140
1040
3.0
1002
}
  0
DIMENSION
  5
20FD
330
1A
100
AcDbEntity
  8
250
  6
CONTINUOUS
100
AcDbDimension
  2
*D6
 10
-15.49999999999999
 20
28.0
 30
0.0
 11
-55.99999999999999
 21
30.5
 31
0.0
 70
    32
  3
BIGT
100
AcDbAlignedDimension
 13
-96.5
 23
9.199999999999999
 33
0.0
 14
-15.49999999999999
 24
11.5
 34
0.0
100
AcDbRotatedDimension
1001
ACAD
1000
DSTYLE
1002
{
1070
    78
1070
     8
1070
   140
1040
3.0
1002
}
  0
DIMENSION
  5
2510
330
1A
100
AcDbEntity
  8
250
  6
CONTINUOUS
100
AcDbDimension
  2
*D9
 10
-105.0
 20
12.5
 30
0.0
 11
-107.4999999999999
 21
-0.0000000000000119
 31
0.0
 70
    32
  1
{\H3;\U+2205}<>
  3
BIGT
100
AcDbAlignedDimension
 13
-85.00000000000001
 23
-12.5
 33
0.0
 14
-85.0
 24
12.5
 34
0.0
 50
90.0
100
AcDbRotatedDimension
1001
ACAD
1000
DSTYLE
1002
{
1070
    78
1070
     8
1070
   140
1040
3.0
1002
}
  0
INSERT
  5
2608
330
1A
100
AcDbEntity
  8
240
100
AcDbBlockReference
  2
A$C38806458
 10
0.0
 20
0.0
 30
0.0
  0
VIEWPORT
  5
22
330
17
100
AcDbEntity
 67
     1
  8
0
100
AcDbViewport
 10
261.5176991150442
 20
148.5
 30
0.0
 40
523.0353982300885
 41
297.0
 68
     1
 69
     1
1001
ACAD
1000
MVIEW
1002
{
1070
    16
1010
0.0
1020
0.0
1030
0.0
1010
0.0
1020
0.0
1030
1.0
1040
0.0
1040
297.0
1040
261.5176991150442
1040
148.5
1040
50.0
1040
0.0
1040
0.0
1070
     0
1070
   100
1070
     1
1070
     1
1070
     0
1070
     0
1070
     0
1070
     0
1040
0.0
1040
0.0
1040
0.0
1040
1.0
1040
1.0
1040
10.0
1040
10.0
1070
     0
1002
{
1002
}
1002
}
  0
ENDSEC
  0
SECTION
  2
OBJECTS
  0
DICTIONARY
  5
C
330
0
100
AcDbDictionary
  3
ACAD_GROUP
350
D
  3
ACAD_LAYOUT
350
565
  3
ACAD_MLINESTYLE
350
E
  3
ACAD_PLOTSETTINGS
350
566
  3
ACAD_PLOTSTYLENAME
350
563
  3
ACDBHEADERROUNDTRIPXREC
350
2611
  3
ACDBVARIABLEDICTIONARY
350
1666
  3
DWGPROPS
350
182D
  3
GRADE_DWG
350
540
  0
DICTIONARY
  5
2634
330
1A
100
AcDbDictionary
280
     1
  3
ACAD_LAYOUTSELFREF
360
2635
  0
DICTIONARY
  5
2632
330
17
100
AcDbDictionary
280
     1
  3
ACAD_LAYOUTSELFREF
360
2633
  0
DICTIONARY
  5
D
102
{ACAD_REACTORS
330
C
102
}
330
C
100
AcDbDictionary
  3
DREC-1
350
5FC
  3
DREC-2
350
654
  3
DREC-3
350
673
  0
DICTIONARY
  5
565
102
{ACAD_REACTORS
330
C
102
}
330
C
100
AcDbDictionary
  0
DICTIONARY
  5
E
102
{ACAD_REACTORS
330
C
102
}
330
C
100
AcDbDictionary
  3
STANDARD
350
13
  0
DICTIONARY
  5
566
102
{ACAD_REACTORS
330
C
102
}
330
C
100
AcDbDictionary
  0
ACDBDICTIONARYWDFLT
  5
563
102
{ACAD_REACTORS
330
C
102
}
330
C
100
AcDbDictionary
281
     1
  3
Normal
350
564
100
AcDbDictionaryWithDefault
340
564
  0
DICTIONARY
  5
2611
102
{ACAD_REACTORS
330
C
102
}
330
C
100
AcDbDictionary
  3
CEPSNTYPE
350
261B
  3
DIMSTYLEDATA
350
261F
  3
FINGERPRINTGUID
350
261C
  3
HYPERLINKBASE
350
2614
  3
INSUNITS
350
261A
  3
LAYOUTDICT
350
2616
  3
LWETCUNION
350
2619
  3
PLOTSETDICT
350
2617
  3
PLOTSTYLNAMDICT
350
2618
  3
PSVPSCALE
350
261E
  3
PUCSBASE
350
2622
  3
PUCSORGBACK
350
2628
  3
PUCSORGBOTTOM
350
2624
  3
PUCSORGFRONT
350
2627
  3
PUCSORGLEFT
350
2625
  3
PUCSORGRIGHT
350
2626
  3
PUCSORGTOP
350
2623
  3
PUCSORTHOREF
350
2620
  3
PUCSORTHOVIEW
350
2621
  3
STYLESHEET
350
2615
  3
TSTACKALIGN
350
2612
  3
TSTACKSIZE
350
2613
  3
UCSBASE
350
262B
  3
UCSORGBACK
350
2631
  3
UCSORGBOTTOM
350
262D
  3
UCSORGFRONT
350
2630
  3
UCSORGLEFT
350
262E
  3
UCSORGRIGHT
350
262F
  3
UCSORGTOP
350
262C
  3
UCSORTHOREF
350
2629
  3
UCSORTHOVIEW
350
262A
  3
VERSIONGUID
350
261D
  0
DICTIONARY
  5
1666
102
{ACAD_REACTORS
330
C
102
}
330
C
100
AcDbDictionary
  3
DIMASSOC
350
1667
  0
XRECORD
  5
182D
102
{ACAD_REACTORS
330
C
102
}
330
C
100
AcDbXrecord
  1
DWGPROPS COOKIE
  2

  3

  4

  6

  7

  8
ymat
  9

300
=
301
=
302
=
303
=
304
=
305
=
306
=
307
=
308
=
309
=
 40
0.1018207291666667
 41
2452180.656863055
 42
2452409.084412789
  1

 90
        0
  0
DICTIONARY
  5
540
102
{ACAD_REACTORS
330
C
102
}
330
C
100
AcDbDictionary
  3
VERSION
350
560
  0
XRECORD
  5
2635
102
{ACAD_REACTORS
330
2634
102
}
330
2634
100
AcDbXrecord
340
1A
  0
XRECORD
  5
2633
102
{ACAD_REACTORS
330
2632
102
}
330
2632
100
AcDbXrecord
340
17
  0
GROUP
  5
5FC
102
{ACAD_REACTORS
330
D
102
}
330
D
100
AcDbGroup
300

 70
     0
 71
     1
1001
GRPNAME
1000
DREC-
1001
GPARA
1000
xsiz
1000
44.182
1000
ysiz
1000
40.677
1000
angl
1000
0
1000
ctyp
1000
0
1000
csiz
1000
5
1000
lfnt
1000
cont
1000
hcnt
1000
hoff
1000
vcnt
1000
voff
1000
opnt
1000
4
1000
dxpt
1000
0
1000
dypt
1000
0
  0
GROUP
  5
654
102
{ACAD_REACTORS
330
D
102
}
330
D
100
AcDbGroup
300

 70
     0
 71
     1
1001
GRPNAME
1000
DREC-
1001
GPARA
1000
xsiz
1000
54.592
1000
ysiz
1000
53.036
1000
angl
1000
0
1000
ctyp
1000
0
1000
csiz
1000
5
1000
lfnt
1000
cont
1000
hcnt
1000
hoff
1000
vcnt
1000
voff
1000
opnt
1000
4
1000
dxpt
1000
0
1000
dypt
1000
0
  0
GROUP
  5
673
102
{ACAD_REACTORS
330
D
102
}
330
D
100
AcDbGroup
300

 70
     0
 71
     1
1001
GRPNAME
1000
DREC-
1001
GPARA
1000
xsiz
1000
30.363
1000
ysiz
1000
36.175
1000
angl
1000
0
1000
ctyp
1000
0
1000
csiz
1000
5
1000
lfnt
1000
cont
1000
hcnt
1000
hoff
1000
vcnt
1000
voff
1000
opnt
1000
4
1000
dxpt
1000
0
1000
dypt
1000
0
  0
MLINESTYLE
  5
13
102
{ACAD_REACTORS
330
E
102
}
330
E
100
AcDbMlineStyle
  2
STANDARD
 70
     0
  3

 62
     0
 51
90.0
 52
90.0
 71
     2
 49
0.5
 62
   256
  6
BYLAYER
 49
-0.5
 62
   256
  6
BYLAYER
  0
ACDBPLACEHOLDER
  5
564
102
{ACAD_REACTORS
330
563
102
}
330
563
100
AcDbPlaceHolder
280
     0
  0
XRECORD
  5
261B
102
{ACAD_REACTORS
330
2611
102
}
330
2611
100
AcDbXrecord
 90
        0
  0
XRECORD
  5
261F
102
{ACAD_REACTORS
330
2611
102
}
330
2611
100
AcDbXrecord
1000
DSTYLE
1002
{
1070
    79
 70
     2
1070
   179
 70
     3
1070
   289
 70
     2
1070
   341
340
594
1070
   342
340
594
1070
   371
 70
    -1
1070
   372
 70
    -1
1002
}
  0
XRECORD
  5
261C
102
{ACAD_REACTORS
330
2611
102
}
330
2611
100
AcDbXrecord
  1
{51294030-9CB4-11D3-8E18-00A0C925D94D}
  0
XRECORD
  5
2614
102
{ACAD_REACTORS
330
2611
102
}
330
2611
100
AcDbXrecord
  1

  0
XRECORD
  5
261A
102
{ACAD_REACTORS
330
2611
102
}
330
2611
100
AcDbXrecord
 90
        0
  0
XRECORD
  5
2616
102
{ACAD_REACTORS
330
2611
102
}
330
2611
100
AcDbXrecord
340
565
  0
XRECORD
  5
2619
102
{ACAD_REACTORS
330
2611
102
}
330
2611
100
AcDbXrecord
 90
    10781
  0
XRECORD
  5
2617
102
{ACAD_REACTORS
330
2611
102
}
330
2611
100
AcDbXrecord
340
566
  0
XRECORD
  5
2618
102
{ACAD_REACTORS
330
2611
102
}
330
2611
100
AcDbXrecord
340
563
  0
XRECORD
  5
261E
102
{ACAD_REACTORS
330
2611
102
}
330
2611
100
AcDbXrecord
 40
0.0
  0
XRECORD
  5
2622
102
{ACAD_REACTORS
330
2611
102
}
330
2611
100
AcDbXrecord
340
0
  0
XRECORD
  5
2628
102
{ACAD_REACTORS
330
2611
102
}
330
2611
100
AcDbXrecord
 10
0.0
 20
0.0
 30
0.0
  0
XRECORD
  5
2624
102
{ACAD_REACTORS
330
2611
102
}
330
2611
100
AcDbXrecord
 10
0.0
 20
0.0
 30
0.0
  0
XRECORD
  5
2627
102
{ACAD_REACTORS
330
2611
102
}
330
2611
100
AcDbXrecord
 10
0.0
 20
0.0
 30
0.0
  0
XRECORD
  5
2625
102
{ACAD_REACTORS
330
2611
102
}
330
2611
100
AcDbXrecord
 10
0.0
 20
0.0
 30
0.0
  0
XRECORD
  5
2626
102
{ACAD_REACTORS
330
2611
102
}
330
2611
100
AcDbXrecord
 10
0.0
 20
0.0
 30
0.0
  0
XRECORD
  5
2623
102
{ACAD_REACTORS
330
2611
102
}
330
2611
100
AcDbXrecord
 10
0.0
 20
0.0
 30
0.0
  0
XRECORD
  5
2620
102
{ACAD_REACTORS
330
2611
102
}
330
2611
100
AcDbXrecord
340
0
  0
XRECORD
  5
2621
102
{ACAD_REACTORS
330
2611
102
}
330
2611
100
AcDbXrecord
 70
     0
  0
XRECORD
  5
2615
102
{ACAD_REACTORS
330
2611
102
}
330
2611
100
AcDbXrecord
  1
big.ctb
  0
XRECORD
  5
2612
102
{ACAD_REACTORS
330
2611
102
}
330
2611
100
AcDbXrecord
 90
        1
  0
XRECORD
  5
2613
102
{ACAD_REACTORS
330
2611
102
}
330
2611
100
AcDbXrecord
 90
       70
  0
XRECORD
  5
262B
102
{ACAD_REACTORS
330
2611
102
}
330
2611
100
AcDbXrecord
340
0
  0
XRECORD
  5
2631
102
{ACAD_REACTORS
330
2611
102
}
330
2611
100
AcDbXrecord
 10
0.0
 20
0.0
 30
0.0
  0
XRECORD
  5
262D
102
{ACAD_REACTORS
330
2611
102
}
330
2611
100
AcDbXrecord
 10
0.0
 20
0.0
 30
0.0
  0
XRECORD
  5
2630
102
{ACAD_REACTORS
330
2611
102
}
330
2611
100
AcDbXrecord
 10
0.0
 20
0.0
 30
0.0
  0
XRECORD
  5
262E
102
{ACAD_REACTORS
330
2611
102
}
330
2611
100
AcDbXrecord
 10
0.0
 20
0.0
 30
0.0
  0
XRECORD
  5
262F
102
{ACAD_REACTORS
330
2611
102
}
330
2611
100
AcDbXrecord
 10
0.0
 20
0.0
 30
0.0
  0
XRECORD
  5
262C
102
{ACAD_REACTORS
330
2611
102
}
330
2611
100
AcDbXrecord
 10
0.0
 20
0.0
 30
0.0
  0
XRECORD
  5
2629
102
{ACAD_REACTORS
330
2611
102
}
330
2611
100
AcDbXrecord
340
0
  0
XRECORD
  5
262A
102
{ACAD_REACTORS
330
2611
102
}
330
2611
100
AcDbXrecord
 70
     0
  0
XRECORD
  5
261D
102
{ACAD_REACTORS
330
2611
102
}
330
2611
100
AcDbXrecord
  1
{EDD58F31-688C-11D7-AD80-0010B5C7BFCA}
  0
DICTIONARYVAR
  5
1667
102
{ACAD_REACTORS
330
1666
102
}
330
1666
100
DictionaryVariables
280
     0
  1
1
  0
XRECORD
  5
560
102
{ACAD_REACTORS
330
540
102
}
330
540
100
AcDbXrecord
  1
2.0.0
  0
ENDSEC
  0
EOF
