  0
SECTION
  2
HEADER
  9
$ACADVER
  1
AC1014
  9
$ACADMAINTVER
 70
     9
  9
$DWGCODEPAGE
  3
ANSI_932
  9
$INSBASE
 10
0.0
 20
0.0
 30
0.0
  9
$EXTMIN
 10
-144.0134572251856
 20
-43.00772035821307
 30
-0.0015258207003583
  9
$EXTMAX
 10
22.02772592639985
 20
61.01274150448478
 30
0.0000000349246037
  9
$LIMMIN
 10
0.0
 20
0.0
  9
$LIMMAX
 10
297.0
 20
210.0
  9
$ORTHOMODE
 70
     1
  9
$REGENMODE
 70
     1
  9
$FILLMODE
 70
     1
  9
$QTEXTMODE
 70
     0
  9
$MIRRTEXT
 70
     1
  9
$DRAGMODE
 70
     2
  9
$LTSCALE
 40
10.0
  9
$OSMODE
 70
   613
  9
$ATTMODE
 70
     1
  9
$TEXTSIZE
 40
3.0
  9
$TRACEWID
 40
1.0
  9
$TEXTSTYLE
  7
YOKO
  9
$CLAYER
  8
240
  9
$CELTYPE
  6
BYLAYER
  9
$CECOLOR
 62
   256
  9
$CELTSCALE
 40
1.0
  9
$DELOBJ
 70
     1
  9
$DISPSILH
 70
     0
  9
$DIMSCALE
 40
1.0
  9
$DIMASZ
 40
2.229999999999999
  9
$DIMEXO
 40
0.5
  9
$DIMDLI
 40
2.5
  9
$DIMRND
 40
0.0
  9
$DIMDLE
 40
0.0
  9
$DIMEXE
 40
1.0
  9
$DIMTP
 40
0.0
  9
$DIMTM
 40
0.0
  9
$DIMTXT
 40
3.0
  9
$DIMCEN
 40
0.0
  9
$DIMTSZ
 40
0.0
  9
$DIMTOL
 70
     0
  9
$DIMLIM
 70
     0
  9
$DIMTIH
 70
     0
  9
$DIMTOH
 70
     0
  9
$DIMSE1
 70
     0
  9
$DIMSE2
 70
     0
  9
$DIMTAD
 70
     3
  9
$DIMZIN
 70
     8
  9
$DIMBLK
  1
OPEN
  9
$DIMASO
 70
     1
  9
$DIMSHO
 70
     1
  9
$DIMPOST
  1

  9
$DIMAPOST
  1

  9
$DIMALT
 70
     0
  9
$DIMALTD
 70
     2
  9
$DIMALTF
 40
25.4
  9
$DIMLFAC
 40
1.0
  9
$DIMTOFL
 70
     1
  9
$DIMTVP
 40
0.0
  9
$DIMTIX
 70
     0
  9
$DIMSOXD
 70
     0
  9
$DIMSAH
 70
     0
  9
$DIMBLK1
  1

  9
$DIMBLK2
  1

  9
$DIMSTYLE
  2
BIGT
  9
$DIMCLRD
 70
   256
  9
$DIMCLRE
 70
   256
  9
$DIMCLRT
 70
    40
  9
$DIMTFAC
 40
1.0
  9
$DIMGAP
 40
1.0
  9
$DIMJUST
 70
     0
  9
$DIMSD1
 70
     0
  9
$DIMSD2
 70
     0
  9
$DIMTOLJ
 70
     1
  9
$DIMTZIN
 70
     8
  9
$DIMALTZ
 70
     0
  9
$DIMALTTZ
 70
     0
  9
$DIMFIT
 70
     2
  9
$DIMUPT
 70
     0
  9
$DIMUNIT
 70
     2
  9
$DIMDEC
 70
     3
  9
$DIMTDEC
 70
     3
  9
$DIMALTU
 70
     2
  9
$DIMALTTD
 70
     2
  9
$DIMTXSTY
  7
STANDARD
  9
$DIMAUNIT
 70
     0
  9
$LUNITS
 70
     2
  9
$LUPREC
 70
     3
  9
$SKETCHINC
 40
1.0
  9
$FILLETRAD
 40
1.0
  9
$AUNITS
 70
     0
  9
$AUPREC
 70
     3
  9
$MENU
  1
.
  9
$ELEVATION
 40
0.0
  9
$PELEVATION
 40
0.0
  9
$THICKNESS
 40
0.0
  9
$LIMCHECK
 70
     0
  9
$BLIPMODE
 70
     0
  9
$CHAMFERA
 40
0.5
  9
$CHAMFERB
 40
0.5
  9
$CHAMFERC
 40
0.0
  9
$CHAMFERD
 40
0.0
  9
$SKPOLY
 70
     0
  9
$TDCREATE
 40
2452181.575331666
  9
$TDUPDATE
 40
2452737.397805081
  9
$TDINDWG
 40
0.0760004398
  9
$TDUSRTIMER
 40
0.0760004398
  9
$USRTIMER
 70
     1
  9
$ANGBASE
 50
0.0
  9
$ANGDIR
 70
     0
  9
$PDMODE
 70
    35
  9
$PDSIZE
 40
2.0
  9
$PLINEWID
 40
0.0
  9
$COORDS
 70
     2
  9
$SPLFRAME
 70
     0
  9
$SPLINETYPE
 70
     6
  9
$SPLINESEGS
 70
     8
  9
$ATTDIA
 70
     0
  9
$ATTREQ
 70
     0
  9
$HANDLING
 70
-16383
  9
$HANDSEED
  5
1ACD
  9
$SURFTAB1
 70
     6
  9
$SURFTAB2
 70
     6
  9
$SURFTYPE
 70
     6
  9
$SURFU
 70
     6
  9
$SURFV
 70
     6
  9
$UCSNAME
  2

  9
$UCSORG
 10
0.0
 20
0.0
 30
0.0
  9
$UCSXDIR
 10
1.0
 20
0.0
 30
0.0
  9
$UCSYDIR
 10
0.0
 20
1.0
 30
0.0
  9
$PUCSNAME
  2

  9
$PUCSORG
 10
0.0
 20
0.0
 30
0.0
  9
$PUCSXDIR
 10
1.0
 20
0.0
 30
0.0
  9
$PUCSYDIR
 10
0.0
 20
1.0
 30
0.0
  9
$USERI1
 70
     1
  9
$USERI2
 70
     0
  9
$USERI3
 70
     0
  9
$USERI4
 70
     0
  9
$USERI5
 70
     0
  9
$USERR1
 40
0.0
  9
$USERR2
 40
0.0
  9
$USERR3
 40
0.0
  9
$USERR4
 40
0.0
  9
$USERR5
 40
0.0
  9
$WORLDVIEW
 70
     1
  9
$SHADEDGE
 70
     3
  9
$SHADEDIF
 70
    70
  9
$TILEMODE
 70
     1
  9
$MAXACTVP
 70
    16
  9
$PINSBASE
 10
0.0
 20
0.0
 30
0.0
  9
$PLIMCHECK
 70
     0
  9
$PEXTMIN
 10
1.000000000000000E+20
 20
1.000000000000000E+20
 30
1.000000000000000E+20
  9
$PEXTMAX
 10
-1.000000000000000E+20
 20
-1.000000000000000E+20
 30
-1.000000000000000E+20
  9
$PLIMMIN
 10
0.0
 20
0.0
  9
$PLIMMAX
 10
420.0
 20
297.0
  9
$UNITMODE
 70
     0
  9
$VISRETAIN
 70
     0
  9
$PLINEGEN
 70
     0
  9
$PSLTSCALE
 70
     1
  9
$TREEDEPTH
 70
  3020
  9
$PICKSTYLE
 70
     0
  9
$CMLSTYLE
  2
STANDARD
  9
$CMLJUST
 70
     0
  9
$CMLSCALE
 40
1.0
  9
$PROXYGRAPHICS
 70
     1
  9
$MEASUREMENT
 70
     1
  0
ENDSEC
  0
SECTION
  2
CLASSES
  0
CLASS
  1
XRECORD
  2
AcDbXrecord
  3
AutoCAD 2000
 90
        0
280
     0
281
     0
  0
CLASS
  1
ACDBDICTIONARYWDFLT
  2
AcDbDictionaryWithDefault
  3
AutoCAD 2000
 90
        0
280
     0
281
     0
  0
CLASS
  1
ACDBPLACEHOLDER
  2
AcDbPlaceHolder
  3
AutoCAD 2000
 90
        0
280
     0
281
     0
  0
CLASS
  1
LAYOUT
  2
AcDbLayout
  3
AutoCAD 2000
 90
        0
280
     0
281
     0
  0
CLASS
  1
DICTIONARYVAR
  2
AcDbDictionaryVar
  3
AutoCAD 2000
 90
        0
280
     0
281
     0
  0
CLASS
  1
LONG_TRANSACTION
  2
AcDbLongTransaction
  3
AutoCAD 2000
 90
        0
280
     0
281
     0
  0
CLASS
  1
LWPOLYLINE
  2
AcDbPolyline
  3
AutoCAD 2000
 90
        0
280
     0
281
     1
  0
CLASS
  1
HATCH
  2
AcDbHatch
  3
AutoCAD 2000
 90
        0
280
     0
281
     1
  0
CLASS
  1
XRECORD
  2
AcDbXrecord
  3
AutoCAD 2000
 90
        0
280
     0
281
     0
  0
ENDSEC
  0
SECTION
  2
TABLES
  0
TABLE
  2
VPORT
  5
8
330
0
100
AcDbSymbolTable
 70
     2
  0
VPORT
  5
1A9E
330
8
100
AcDbSymbolTableRecord
100
AcDbViewportTableRecord
  2
*ACTIVE
 70
     0
 10
0.0
 20
0.0
 11
1.0
 21
1.0
 12
-60.99286564939291
 22
9.00251057313585
 13
0.0
 23
0.0
 14
7.0
 24
7.0
 15
7.0
 25
7.0
 16
0.0
 26
0.0
 36
1.0
 17
0.0
 27
0.0
 37
0.0
 40
117.6025155799883
 41
1.419235511713933
 42
50.0
 43
0.0
 44
0.0
 50
0.0
 51
0.0
 71
     0
 72
  2000
 73
     1
 74
     0
 75
     0
 76
     1
 77
     0
 78
     0
  0
ENDTAB
  0
TABLE
  2
LTYPE
  5
5
330
0
100
AcDbSymbolTable
 70
     3
  0
LTYPE
  5
14
330
5
100
AcDbSymbolTableRecord
100
AcDbLinetypeTableRecord
  2
BYBLOCK
 70
     0
  3

 72
    65
 73
     0
 40
0.0
  0
LTYPE
  5
15
330
5
100
AcDbSymbolTableRecord
100
AcDbLinetypeTableRecord
  2
BYLAYER
 70
     0
  3

 72
    65
 73
     0
 40
0.0
  0
LTYPE
  5
16
330
5
100
AcDbSymbolTableRecord
100
AcDbLinetypeTableRecord
  2
CONTINUOUS
 70
     0
  3
Solid line
 72
    65
 73
     0
 40
0.0
  0
LTYPE
  5
258
330
5
100
AcDbSymbolTableRecord
100
AcDbLinetypeTableRecord
  2
CENTER2
 70
     0
  3
___ _ ___ _ ___ _ ___ _ ___ _ ___ _ ___ _ ___ _
 72
    65
 73
     4
 40
1.125
 49
0.75
 74
     0
 49
-0.125
 74
     0
 49
0.125
 74
     0
 49
-0.125
 74
     0
  0
LTYPE
  5
25D
330
5
100
AcDbSymbolTableRecord
100
AcDbLinetypeTableRecord
  2
PHANTOM2
 70
     0
  3
___ _ _ ___ _ _ ___ _ _ ___ _ _ ___ _ _ ___ _ _
 72
    65
 73
     6
 40
1.25
 49
0.625
 74
     0
 49
-0.125
 74
     0
 49
0.125
 74
     0
 49
-0.125
 74
     0
 49
0.125
 74
     0
 49
-0.125
 74
     0
  0
ENDTAB
  0
TABLE
  2
LAYER
  5
2
330
0
100
AcDbSymbolTable
 70
    10
  0
LAYER
  5
F
330
2
100
AcDbSymbolTableRecord
100
AcDbLayerTableRecord
  2
0
 70
     0
 62
     7
  6
CONTINUOUS
  0
LAYER
  5
1AA
330
2
100
AcDbSymbolTableRecord
100
AcDbLayerTableRecord
  2
240
 70
     0
 62
     4
  6
CONTINUOUS
  0
LAYER
  5
1AB
330
2
100
AcDbSymbolTableRecord
100
AcDbLayerTableRecord
  2
241
 70
     0
 62
   211
  6
CONTINUOUS
  0
LAYER
  5
1AC
330
2
100
AcDbSymbolTableRecord
100
AcDbLayerTableRecord
  2
242
 70
     0
 62
     3
  6
CONTINUOUS
  0
LAYER
  5
1AF
330
2
100
AcDbSymbolTableRecord
100
AcDbLayerTableRecord
  2
245
 70
     0
 62
     2
  6
CENTER2
  0
LAYER
  5
21A
330
2
100
AcDbSymbolTableRecord
100
AcDbLayerTableRecord
  2
246
 70
     0
 62
     3
  6
PHANTOM2
  0
LAYER
  5
21B
330
2
100
AcDbSymbolTableRecord
100
AcDbLayerTableRecord
  2
247
 70
     0
 62
    60
  6
CONTINUOUS
  0
LAYER
  5
21E
330
2
100
AcDbSymbolTableRecord
100
AcDbLayerTableRecord
  2
250
 70
     0
 62
     3
  6
CONTINUOUS
  0
LAYER
  5
5C4
330
2
100
AcDbSymbolTableRecord
100
AcDbLayerTableRecord
  2
DEFPOINTS
 70
     0
 62
     7
  6
CONTINUOUS
  0
ENDTAB
  0
TABLE
  2
STYLE
  5
3
330
0
100
AcDbSymbolTable
 70
     2
  0
STYLE
  5
10
330
3
100
AcDbSymbolTableRecord
100
AcDbTextStyleTableRecord
  2
STANDARD
 70
     0
 40
0.0
 41
1.0
 50
0.0
 71
     0
 42
3.0
  3
romans.shx
  4
BIGFONT.SHX
  0
STYLE
  5
339
330
3
100
AcDbSymbolTableRecord
100
AcDbTextStyleTableRecord
  2
YOKO
 70
     0
 40
0.0
 41
1.0
 50
0.0
 71
     0
 42
3.0
  3
romans.shx
  4
extfont.shx
  0
ENDTAB
  0
TABLE
  2
VIEW
  5
6
330
0
100
AcDbSymbolTable
 70
     0
  0
ENDTAB
  0
TABLE
  2
UCS
  5
7
330
0
100
AcDbSymbolTable
 70
     0
  0
ENDTAB
  0
TABLE
  2
APPID
  5
9
330
0
100
AcDbSymbolTable
 70
     9
  0
APPID
  5
11
330
9
100
AcDbSymbolTableRecord
100
AcDbRegAppTableRecord
  2
ACAD
 70
     0
  0
APPID
  5
1B1
330
9
100
AcDbSymbolTableRecord
100
AcDbRegAppTableRecord
  2
GLOBAL
 70
     0
  0
APPID
  5
2A4
330
9
100
AcDbSymbolTableRecord
100
AcDbRegAppTableRecord
  2
DETAIL
 70
     0
  0
APPID
  5
5FD
330
9
100
AcDbSymbolTableRecord
100
AcDbRegAppTableRecord
  2
GRPNAME
 70
     0
  0
APPID
  5
5FE
330
9
100
AcDbSymbolTableRecord
100
AcDbRegAppTableRecord
  2
GPARA
 70
     0
  0
APPID
  5
9D4
330
9
100
AcDbSymbolTableRecord
100
AcDbRegAppTableRecord
  2
ITEMNAME
 70
     0
  0
APPID
  5
9D5
330
9
100
AcDbSymbolTableRecord
100
AcDbRegAppTableRecord
  2
HATCH_TYPE
 70
     0
  0
APPID
  5
9D6
330
9
100
AcDbSymbolTableRecord
100
AcDbRegAppTableRecord
  2
HATCH_DISPLAY
 70
     0
  0
APPID
  5
9D7
330
9
100
AcDbSymbolTableRecord
100
AcDbRegAppTableRecord
  2
HATCH_DISTANCE
 70
     0
  0
ENDTAB
  0
TABLE
  2
DIMSTYLE
  5
A
330
0
100
AcDbSymbolTable
 70
     2
  0
DIMSTYLE
105
48F
330
A
100
AcDbSymbolTableRecord
100
AcDbDimStyleTableRecord
  2
STANDARD
 70
     0
  3

  4

  5

  6

  7

 40
1.0
 41
2.0
 42
2.0
 43
3.75
 44
2.0
 45
0.0
 46
0.0
 47
0.0
 48
0.0
140
4.0
141
0.09
142
0.0
143
25.4
144
1.0
145
0.0
146
1.0
147
1.0
 71
     0
 72
     0
 73
     1
 74
     1
 75
     0
 76
     0
 77
     0
 78
     8
170
     0
171
     2
172
     0
173
     1
174
     0
175
     0
176
   256
177
   256
178
   256
270
     2
271
     3
272
     4
273
     2
274
     2
340
10
275
     0
280
     0
281
     0
282
     0
283
     1
284
     8
285
     0
286
     0
287
     3
288
     0
  0
DIMSTYLE
105
59A
102
{ACAD_REACTORS
330
13C9
330
13CA
330
13CB
330
17BD
330
17CD
330
17DA
330
1807
102
}
330
A
100
AcDbSymbolTableRecord
100
AcDbDimStyleTableRecord
  2
BIGT
 70
     0
  3

  4

  5
OPEN
  6

  7

 40
1.0
 41
2.229999999999999
 42
0.5
 43
2.5
 44
1.0
 45
0.0
 46
0.0
 47
0.0
 48
0.0
140
3.5
141
0.0
142
0.0
143
25.4
144
1.0
145
0.0
146
1.0
147
1.0
 71
     0
 72
     0
 73
     0
 74
     0
 75
     0
 76
     0
 77
     3
 78
     9
170
     0
171
     2
172
     1
173
     0
174
     0
175
     0
176
   256
177
   256
178
    40
270
     2
271
     3
272
     3
273
     2
274
     2
340
10
275
     0
280
     0
281
     0
282
     0
283
     1
284
     8
285
     0
286
     0
287
     2
288
     0
  0
ENDTAB
  0
TABLE
  2
BLOCK_RECORD
  5
1
330
0
100
AcDbSymbolTable
 70
     9
  0
BLOCK_RECORD
  5
1A
102
{ACAD_XDICTIONARY
360
1AC2
102
}
330
1
100
AcDbSymbolTableRecord
100
AcDbBlockTableRecord
  2
*MODEL_SPACE
  0
BLOCK_RECORD
  5
17
102
{ACAD_XDICTIONARY
360
1AC0
102
}
330
1
100
AcDbSymbolTableRecord
100
AcDbBlockTableRecord
  2
*PAPER_SPACE
  0
BLOCK_RECORD
  5
594
330
1
100
AcDbSymbolTableRecord
100
AcDbBlockTableRecord
  2
_OPEN
  0
BLOCK_RECORD
  5
13F1
330
1
100
AcDbSymbolTableRecord
100
AcDbBlockTableRecord
  2
*D1
  0
BLOCK_RECORD
  5
13FD
330
1
100
AcDbSymbolTableRecord
100
AcDbBlockTableRecord
  2
*D2
  0
BLOCK_RECORD
  5
1409
330
1
100
AcDbSymbolTableRecord
100
AcDbBlockTableRecord
  2
*D3
  0
BLOCK_RECORD
  5
17BE
330
1
100
AcDbSymbolTableRecord
100
AcDbBlockTableRecord
  2
*D4
  0
BLOCK_RECORD
  5
17CE
330
1
100
AcDbSymbolTableRecord
100
AcDbBlockTableRecord
  2
*D5
  0
BLOCK_RECORD
  5
17DB
330
1
100
AcDbSymbolTableRecord
100
AcDbBlockTableRecord
  2
*D6
  0
BLOCK_RECORD
  5
1808
330
1
100
AcDbSymbolTableRecord
100
AcDbBlockTableRecord
  2
*D7
  0
BLOCK_RECORD
  5
19C1
330
1
100
AcDbSymbolTableRecord
100
AcDbBlockTableRecord
  2
A$C5A3E52A4
  0
ENDTAB
  0
ENDSEC
  0
SECTION
  2
BLOCKS
  0
BLOCK
  5
1B
330
1A
100
AcDbEntity
  8
0
100
AcDbBlockBegin
  2
*MODEL_SPACE
 70
     0
 10
0.0
 20
0.0
 30
0.0
  3
*MODEL_SPACE
  1

  0
ENDBLK
  5
1C
330
1A
100
AcDbEntity
  8
0
100
AcDbBlockEnd
  0
BLOCK
  5
18
330
17
100
AcDbEntity
 67
     1
  8
0
100
AcDbBlockBegin
  2
*PAPER_SPACE
 70
     0
 10
0.0
 20
0.0
 30
0.0
  3
*PAPER_SPACE
  1

  0
ENDBLK
  5
19
330
17
100
AcDbEntity
 67
     1
  8
0
100
AcDbBlockEnd
  0
BLOCK
  5
598
330
594
100
AcDbEntity
  8
0
100
AcDbBlockBegin
  2
_OPEN
 70
     0
 10
0.0
 20
0.0
 30
0.0
  3
_OPEN
  1

  0
LINE
  5
595
330
594
100
AcDbEntity
  8
0
  6
BYBLOCK
 62
     0
100
AcDbLine
 10
-1.0
 20
0.1666666666666666
 30
0.0
 11
0.0
 21
0.0
 31
0.0
  0
LINE
  5
596
330
594
100
AcDbEntity
  8
0
  6
BYBLOCK
 62
     0
100
AcDbLine
 10
-1.0
 20
-0.1666666666666666
 30
0.0
 11
0.0
 21
0.0
 31
0.0
  0
LINE
  5
597
330
594
100
AcDbEntity
  8
0
  6
BYBLOCK
 62
     0
100
AcDbLine
 10
0.0
 20
0.0
 30
0.0
 11
-1.0
 21
0.0
 31
0.0
  0
ENDBLK
  5
599
330
594
100
AcDbEntity
  8
0
100
AcDbBlockEnd
  0
BLOCK
  5
13FB
330
13F1
100
AcDbEntity
  8
0
100
AcDbBlockBegin
  2
*D1
 70
     1
 10
0.0
 20
0.0
 30
0.0
  3
*D1
  1

  0
LINE
  5
17A6
330
13F1
100
AcDbEntity
  8
250
  6
CONTINUOUS
100
AcDbLine
 10
-1.372792000000004
 20
-21.0
 30
0.0
 11
21.99999999999998
 21
-21.0
 31
0.0
  0
LINE
  5
17A7
330
13F1
100
AcDbEntity
  8
250
  6
CONTINUOUS
100
AcDbLine
 10
-1.372792000000004
 20
21.0
 30
0.0
 11
21.99999999999999
 21
20.99999999999999
 31
0.0
  0
LINE
  5
17A8
330
13F1
100
AcDbEntity
  8
250
  6
CONTINUOUS
100
AcDbLine
 10
20.99999999999999
 20
-18.77
 30
0.0
 11
20.99999999999999
 21
18.76999999999999
 31
0.0
  0
INSERT
  5
17A9
330
13F1
100
AcDbEntity
  8
250
  6
CONTINUOUS
100
AcDbBlockReference
  2
_OPEN
 10
20.99999999999999
 20
-21.0
 30
0.0
 41
2.229999999999999
 42
2.229999999999999
 43
2.229999999999999
 50
270.0
  0
INSERT
  5
17AA
330
13F1
100
AcDbEntity
  8
250
  6
CONTINUOUS
100
AcDbBlockReference
  2
_OPEN
 10
20.99999999999999
 20
20.99999999999999
 30
0.0
 41
2.229999999999999
 42
2.229999999999999
 43
2.229999999999999
 50
90.0
  0
MTEXT
  5
17AB
330
13F1
100
AcDbEntity
  8
250
  6
CONTINUOUS
 62
    40
100
AcDbMText
 10
18.49999999999999
 20
-0.000000000000001
 30
0.0
 40
3.0
 41
0.0
 71
     5
 72
     1
  1
\A1;{\H3;\U+2205}42
 11
0.0000000000000001
 21
1.0
 31
0.0
1001
ACAD
1000
MTEXTBEGIN
1070
    73
1070
     1
1070
    44
1040
1.0
1070
    74
1070
     0
1000
MTEXTEND
  0
POINT
  5
17AC
330
13F1
100
AcDbEntity
  8
DEFPOINTS
  6
CONTINUOUS
 62
     0
100
AcDbPoint
 10
-1.872792000000004
 20
-21.0
 30
0.0
  0
POINT
  5
17AD
330
13F1
100
AcDbEntity
  8
DEFPOINTS
  6
CONTINUOUS
 62
     0
100
AcDbPoint
 10
-1.872792000000004
 20
21.0
 30
0.0
  0
POINT
  5
17AE
330
13F1
100
AcDbEntity
  8
DEFPOINTS
  6
CONTINUOUS
 62
     0
100
AcDbPoint
 10
20.99999999999999
 20
20.99999999999999
 30
0.0
  0
ENDBLK
  5
13FC
330
13F1
100
AcDbEntity
  8
0
100
AcDbBlockEnd
  0
BLOCK
  5
1407
330
13FD
100
AcDbEntity
  8
0
100
AcDbBlockBegin
  2
*D2
 70
     1
 10
0.0
 20
0.0
 30
0.0
  3
*D2
  1

  0
LINE
  5
1AC4
330
13FD
100
AcDbEntity
  8
250
  6
CONTINUOUS
100
AcDbLine
 10
0.5
 20
-8.0
 30
0.0
 11
14.99999999999999
 21
-8.000000000000005
 31
0.0
  0
LINE
  5
1AC5
330
13FD
100
AcDbEntity
  8
250
  6
CONTINUOUS
100
AcDbLine
 10
0.5
 20
8.0
 30
0.0
 11
15.0
 21
7.999999999999995
 31
0.0
  0
LINE
  5
1AC6
330
13FD
100
AcDbEntity
  8
250
  6
CONTINUOUS
100
AcDbLine
 10
13.99999999999999
 20
-5.770000000000002
 30
0.0
 11
14.0
 21
5.769999999999996
 31
0.0
  0
MTEXT
  5
1AC7
330
13FD
100
AcDbEntity
  8
250
  6
CONTINUOUS
 62
    40
100
AcDbMText
 10
11.46737205581052
 20
3.746398860227145
 30
0.0
 40
3.0
 41
0.0
 71
     5
 72
     1
  1
\A1;MAX.%%C16
 11
0.0000000000000001
 21
1.0
 31
0.0
  0
INSERT
  5
1AC8
330
13FD
100
AcDbEntity
  8
250
  6
CONTINUOUS
100
AcDbBlockReference
  2
_OPEN
 10
13.99999999999999
 20
-8.000000000000003
 30
0.0
 41
2.229999999999999
 42
2.229999999999999
 43
2.229999999999999
 50
270.0
  0
INSERT
  5
1AC9
330
13FD
100
AcDbEntity
  8
250
  6
CONTINUOUS
100
AcDbBlockReference
  2
_OPEN
 10
14.0
 20
7.999999999999996
 30
0.0
 41
2.229999999999999
 42
2.229999999999999
 43
2.229999999999999
 50
90.0
  0
POINT
  5
1ACA
330
13FD
100
AcDbEntity
  8
DEFPOINTS
  6
CONTINUOUS
 62
     0
100
AcDbPoint
 10
0.0
 20
-8.0
 30
0.0
  0
POINT
  5
1ACB
330
13FD
100
AcDbEntity
  8
DEFPOINTS
  6
CONTINUOUS
 62
     0
100
AcDbPoint
 10
0.0
 20
8.0
 30
0.0
  0
POINT
  5
1ACC
330
13FD
100
AcDbEntity
  8
DEFPOINTS
  6
CONTINUOUS
 62
     0
100
AcDbPoint
 10
14.0
 20
7.999999999999996
 30
0.0
  0
ENDBLK
  5
1408
330
13FD
100
AcDbEntity
  8
0
100
AcDbBlockEnd
  0
BLOCK
  5
1413
330
1409
100
AcDbEntity
  8
0
100
AcDbBlockBegin
  2
*D3
 70
     1
 10
0.0
 20
0.0
 30
0.0
  3
*D3
  1

  0
LINE
  5
144E
330
1409
100
AcDbEntity
  8
250
  6
CONTINUOUS
100
AcDbLine
 10
-58.0
 20
-8.5
 30
0.0
 11
-58.0
 21
-43.0
 31
0.0
  0
LINE
  5
144F
330
1409
100
AcDbEntity
  8
250
  6
CONTINUOUS
100
AcDbLine
 10
0.0
 20
-19.668629
 30
0.0
 11
-0.0000000000000015
 21
-43.0
 31
0.0
  0
LINE
  5
1450
330
1409
100
AcDbEntity
  8
250
  6
CONTINUOUS
100
AcDbLine
 10
-55.77
 20
-42.0
 30
0.0
 11
-2.230000000000001
 21
-42.0
 31
0.0
  0
INSERT
  5
1451
330
1409
100
AcDbEntity
  8
250
  6
CONTINUOUS
100
AcDbBlockReference
  2
_OPEN
 10
-58.0
 20
-42.0
 30
0.0
 41
2.229999999999999
 42
2.229999999999999
 43
2.229999999999999
 50
180.0
  0
INSERT
  5
1452
330
1409
100
AcDbEntity
  8
250
  6
CONTINUOUS
100
AcDbBlockReference
  2
_OPEN
 10
-0.0000000000000014
 20
-42.0
 30
0.0
 41
2.229999999999999
 42
2.229999999999999
 43
2.229999999999999
  0
MTEXT
  5
1453
330
1409
100
AcDbEntity
  8
250
  6
CONTINUOUS
 62
    40
100
AcDbMText
 10
-29.0
 20
-39.5
 30
0.0
 40
3.0
 41
0.0
 71
     5
 72
     1
  1
\A1;45～65
1001
ACAD
1000
MTEXTBEGIN
1070
    73
1070
     1
1070
    44
1040
1.0
1070
    74
1070
     0
1000
MTEXTEND
  0
POINT
  5
1454
330
1409
100
AcDbEntity
  8
DEFPOINTS
  6
CONTINUOUS
 62
     0
100
AcDbPoint
 10
-58.0
 20
-8.0
 30
0.0
  0
POINT
  5
1455
330
1409
100
AcDbEntity
  8
DEFPOINTS
  6
CONTINUOUS
 62
     0
100
AcDbPoint
 10
0.0
 20
-19.168629
 30
0.0
  0
POINT
  5
1456
330
1409
100
AcDbEntity
  8
DEFPOINTS
  6
CONTINUOUS
 62
     0
100
AcDbPoint
 10
-0.0000000000000014
 20
-42.0
 30
0.0
  0
ENDBLK
  5
1414
330
1409
100
AcDbEntity
  8
0
100
AcDbBlockEnd
  0
BLOCK
  5
17C8
330
17BE
100
AcDbEntity
  8
0
100
AcDbBlockBegin
  2
*D4
 70
     1
 10
0.0
 20
0.0
 30
0.0
  3
*D4
  1

  0
LINE
  5
17BF
330
17BE
100
AcDbEntity
  8
250
  6
CONTINUOUS
100
AcDbLine
 10
-128.0
 20
11.0
 30
0.0
 11
-128.0
 21
43.0
 31
0.0
  0
LINE
  5
17C0
330
17BE
100
AcDbEntity
  8
250
  6
CONTINUOUS
100
AcDbLine
 10
0.0
 20
19.668629
 30
0.0
 11
0.0000000000000015
 21
43.0
 31
0.0
  0
LINE
  5
17C1
330
17BE
100
AcDbEntity
  8
250
  6
CONTINUOUS
100
AcDbLine
 10
-125.77
 20
42.0
 30
0.0
 11
-2.229999999999998
 21
42.0
 31
0.0
  0
INSERT
  5
17C2
330
17BE
100
AcDbEntity
  8
250
  6
CONTINUOUS
100
AcDbBlockReference
  2
_OPEN
 10
-128.0
 20
42.0
 30
0.0
 41
2.229999999999999
 42
2.229999999999999
 43
2.229999999999999
 50
180.0
  0
INSERT
  5
17C3
330
17BE
100
AcDbEntity
  8
250
  6
CONTINUOUS
100
AcDbBlockReference
  2
_OPEN
 10
0.0000000000000014
 20
42.0
 30
0.0
 41
2.229999999999999
 42
2.229999999999999
 43
2.229999999999999
  0
MTEXT
  5
17C4
330
17BE
100
AcDbEntity
  8
250
  6
CONTINUOUS
 62
    40
100
AcDbMText
 10
-64.0
 20
44.5
 30
0.0
 40
3.0
 41
0.0
 71
     5
 72
     1
  1
\A1;128
1001
ACAD
1000
MTEXTBEGIN
1070
    73
1070
     1
1070
    44
1040
1.0
1070
    74
1070
     0
1000
MTEXTEND
  0
POINT
  5
17C5
330
17BE
100
AcDbEntity
  8
DEFPOINTS
  6
CONTINUOUS
 62
     0
100
AcDbPoint
 10
-128.0
 20
10.5
 30
0.0
  0
POINT
  5
17C6
330
17BE
100
AcDbEntity
  8
DEFPOINTS
  6
CONTINUOUS
 62
     0
100
AcDbPoint
 10
0.0
 20
19.168629
 30
0.0
  0
POINT
  5
17C7
330
17BE
100
AcDbEntity
  8
DEFPOINTS
  6
CONTINUOUS
 62
     0
100
AcDbPoint
 10
0.0000000000000014
 20
42.0
 30
0.0
  0
ENDBLK
  5
17C9
330
17BE
100
AcDbEntity
  8
0
100
AcDbBlockEnd
  0
BLOCK
  5
17D8
330
17CE
100
AcDbEntity
  8
0
100
AcDbBlockBegin
  2
*D5
 70
     1
 10
0.0
 20
0.0
 30
0.0
  3
*D5
  1

  0
LINE
  5
17F9
330
17CE
100
AcDbEntity
  8
250
  6
CONTINUOUS
100
AcDbLine
 10
-48.0
 20
15.5
 30
0.0
 11
-48.0
 21
36.0
 31
0.0
  0
LINE
  5
17FA
330
17CE
100
AcDbEntity
  8
250
  6
CONTINUOUS
100
AcDbLine
 10
-0.0000000000000681
 20
19.668629
 30
0.0
 11
-0.0000000000000671
 21
36.0
 31
0.0
  0
LINE
  5
17FB
330
17CE
100
AcDbEntity
  8
250
  6
CONTINUOUS
100
AcDbLine
 10
-45.77
 20
35.0
 30
0.0
 11
-2.230000000000067
 21
35.0
 31
0.0
  0
INSERT
  5
17FC
330
17CE
100
AcDbEntity
  8
250
  6
CONTINUOUS
100
AcDbBlockReference
  2
_OPEN
 10
-48.0
 20
35.0
 30
0.0
 41
2.229999999999999
 42
2.229999999999999
 43
2.229999999999999
 50
180.0
  0
INSERT
  5
17FD
330
17CE
100
AcDbEntity
  8
250
  6
CONTINUOUS
100
AcDbBlockReference
  2
_OPEN
 10
-0.0000000000000672
 20
35.0
 30
0.0
 41
2.229999999999999
 42
2.229999999999999
 43
2.229999999999999
  0
MTEXT
  5
17FE
330
17CE
100
AcDbEntity
  8
250
  6
CONTINUOUS
 62
    40
100
AcDbMText
 10
-24.00000000000003
 20
37.5
 30
0.0
 40
3.0
 41
0.0
 71
     5
 72
     1
  1
\A1;48
1001
ACAD
1000
MTEXTBEGIN
1070
    73
1070
     1
1070
    44
1040
1.0
1070
    74
1070
     0
1000
MTEXTEND
  0
POINT
  5
17FF
330
17CE
100
AcDbEntity
  8
DEFPOINTS
  6
CONTINUOUS
 62
     0
100
AcDbPoint
 10
-48.0
 20
15.0
 30
0.0
  0
POINT
  5
1800
330
17CE
100
AcDbEntity
  8
DEFPOINTS
  6
CONTINUOUS
 62
     0
100
AcDbPoint
 10
-0.0000000000000682
 20
19.168629
 30
0.0
  0
POINT
  5
1801
330
17CE
100
AcDbEntity
  8
DEFPOINTS
  6
CONTINUOUS
 62
     0
100
AcDbPoint
 10
-0.0000000000000672
 20
35.0
 30
0.0
  0
ENDBLK
  5
17D9
330
17CE
100
AcDbEntity
  8
0
100
AcDbBlockEnd
  0
BLOCK
  5
17E5
330
17DB
100
AcDbEntity
  8
0
100
AcDbBlockBegin
  2
*D6
 70
     1
 10
0.0
 20
0.0
 30
0.0
  3
*D6
  1

  0
LINE
  5
17F0
330
17DB
100
AcDbEntity
  8
250
  6
CONTINUOUS
100
AcDbLine
 10
-128.0
 20
11.0
 30
0.0
 11
-128.0
 21
36.0
 31
0.0
  0
LINE
  5
17F1
330
17DB
100
AcDbEntity
  8
250
  6
CONTINUOUS
100
AcDbLine
 10
-48.0
 20
15.5
 30
0.0
 11
-48.0
 21
36.0
 31
0.0
  0
LINE
  5
17F2
330
17DB
100
AcDbEntity
  8
250
  6
CONTINUOUS
100
AcDbLine
 10
-125.77
 20
35.0
 30
0.0
 11
-50.22999999999999
 21
35.0
 31
0.0
  0
INSERT
  5
17F3
330
17DB
100
AcDbEntity
  8
250
  6
CONTINUOUS
100
AcDbBlockReference
  2
_OPEN
 10
-128.0
 20
35.0
 30
0.0
 41
2.229999999999999
 42
2.229999999999999
 43
2.229999999999999
 50
180.0
  0
INSERT
  5
17F4
330
17DB
100
AcDbEntity
  8
250
  6
CONTINUOUS
100
AcDbBlockReference
  2
_OPEN
 10
-48.0
 20
35.0
 30
0.0
 41
2.229999999999999
 42
2.229999999999999
 43
2.229999999999999
  0
MTEXT
  5
17F5
330
17DB
100
AcDbEntity
  8
250
  6
CONTINUOUS
 62
    40
100
AcDbMText
 10
-88.0
 20
37.5
 30
0.0
 40
3.0
 41
0.0
 71
     5
 72
     1
  1
\A1;80
1001
ACAD
1000
MTEXTBEGIN
1070
    73
1070
     1
1070
    44
1040
1.0
1070
    74
1070
     0
1000
MTEXTEND
  0
POINT
  5
17F6
330
17DB
100
AcDbEntity
  8
DEFPOINTS
  6
CONTINUOUS
 62
     0
100
AcDbPoint
 10
-128.0
 20
10.5
 30
0.0
  0
POINT
  5
17F7
330
17DB
100
AcDbEntity
  8
DEFPOINTS
  6
CONTINUOUS
 62
     0
100
AcDbPoint
 10
-48.0
 20
15.0
 30
0.0
  0
POINT
  5
17F8
330
17DB
100
AcDbEntity
  8
DEFPOINTS
  6
CONTINUOUS
 62
     0
100
AcDbPoint
 10
-48.0
 20
35.0
 30
0.0
  0
ENDBLK
  5
17E6
330
17DB
100
AcDbEntity
  8
0
100
AcDbBlockEnd
  0
BLOCK
  5
1812
330
1808
100
AcDbEntity
  8
0
100
AcDbBlockBegin
  2
*D7
 70
     1
 10
0.0
 20
0.0
 30
0.0
  3
*D7
  1

  0
LINE
  5
1814
330
1808
100
AcDbEntity
  8
250
  6
CONTINUOUS
100
AcDbLine
 10
-117.0
 20
-12.5
 30
0.0
 11
-141.0
 21
-12.49999999999999
 31
0.0
  0
LINE
  5
1815
330
1808
100
AcDbEntity
  8
250
  6
CONTINUOUS
100
AcDbLine
 10
-116.9999999999999
 20
12.5
 30
0.0
 11
-141.0
 21
12.5
 31
0.0
  0
LINE
  5
1816
330
1808
100
AcDbEntity
  8
250
  6
CONTINUOUS
100
AcDbLine
 10
-140.0
 20
-10.26999999999999
 30
0.0
 11
-140.0
 21
10.27
 31
0.0
  0
INSERT
  5
1817
330
1808
100
AcDbEntity
  8
250
  6
CONTINUOUS
100
AcDbBlockReference
  2
_OPEN
 10
-140.0
 20
-12.49999999999999
 30
0.0
 41
2.229999999999999
 42
2.229999999999999
 43
2.229999999999999
 50
270.0
  0
INSERT
  5
1818
330
1808
100
AcDbEntity
  8
250
  6
CONTINUOUS
100
AcDbBlockReference
  2
_OPEN
 10
-140.0
 20
12.5
 30
0.0
 41
2.229999999999999
 42
2.229999999999999
 43
2.229999999999999
 50
90.0
  0
MTEXT
  5
1819
330
1808
100
AcDbEntity
  8
250
  6
CONTINUOUS
 62
    40
100
AcDbMText
 10
-142.5
 20
-0.0000000000000187
 30
0.0
 40
3.0
 41
0.0
 71
     5
 72
     1
  1
\A1;{\H3;\U+2205}25
 11
0.0000000000000001
 21
1.0
 31
0.0
1001
ACAD
1000
MTEXTBEGIN
1070
    73
1070
     1
1070
    44
1040
1.0
1070
    74
1070
     0
1000
MTEXTEND
  0
POINT
  5
181A
330
1808
100
AcDbEntity
  8
DEFPOINTS
  6
CONTINUOUS
 62
     0
100
AcDbPoint
 10
-116.5
 20
-12.5
 30
0.0
  0
POINT
  5
181B
330
1808
100
AcDbEntity
  8
DEFPOINTS
  6
CONTINUOUS
 62
     0
100
AcDbPoint
 10
-116.4999999999999
 20
12.5
 30
0.0
  0
POINT
  5
181C
330
1808
100
AcDbEntity
  8
DEFPOINTS
  6
CONTINUOUS
 62
     0
100
AcDbPoint
 10
-140.0
 20
12.5
 30
0.0
  0
ENDBLK
  5
1813
330
1808
100
AcDbEntity
  8
0
100
AcDbBlockEnd
  0
BLOCK
  5
1A94
330
19C1
100
AcDbEntity
  8
0
100
AcDbBlockBegin
  2
A$C5A3E52A4
 70
     0
 10
0.0
 20
0.0
 30
0.0
  3
A$C5A3E52A4
  1

  0
LINE
  5
19C2
330
19C1
100
AcDbEntity
  8
240
100
AcDbLine
 10
-116.4999999999999
 20
12.5
 30
0.0
 11
-49.50000000000004
 21
12.5
 31
0.0
  0
LINE
  5
19C3
330
19C1
100
AcDbEntity
  8
240
100
AcDbLine
 10
-116.5
 20
-12.5
 30
0.0
 11
-49.50000000000004
 21
-12.5
 31
0.0
  0
LINE
  5
19C4
330
19C1
100
AcDbEntity
  8
241
100
AcDbLine
 10
-53.0
 20
5.127377497317676
 30
0.0
 11
-128.0
 21
5.127377497317676
 31
0.0
  0
LINE
  5
19C5
330
19C1
100
AcDbEntity
  8
241
100
AcDbLine
 10
-53.0
 20
-5.127377497317676
 30
0.0
 11
-128.0
 21
-5.127377497317676
 31
0.0
  0
LINE
  5
19C6
330
19C1
100
AcDbEntity
  8
245
100
AcDbLine
 10
3.18173200000001
 20
0.0
 30
0.0
 11
-129.300681656294
 21
0.0
 31
0.0
  0
LINE
  5
19C7
330
19C1
100
AcDbEntity
  8
242
100
AcDbLine
 10
-53.0
 20
5.127377497317676
 30
0.0
 11
-128.0
 21
-5.127377497317676
 31
0.0
  0
LINE
  5
19C8
330
19C1
100
AcDbEntity
  8
242
100
AcDbLine
 10
-128.0
 20
5.127377497317676
 30
0.0
 11
-53.00000157502623
 21
-5.127380999164727
 31
0.0
  0
LINE
  5
19C9
330
19C1
100
AcDbEntity
  8
240
100
AcDbLine
 10
-128.0
 20
-10.5
 30
0.0
 11
-128.0
 21
10.5
 31
0.0
  0
LINE
  5
19CA
330
19C1
100
AcDbEntity
  8
240
100
AcDbLine
 10
-118.0
 20
-11.0
 30
0.0
 11
-127.5
 21
-11.0
 31
0.0
  0
LINE
  5
19CB
330
19C1
100
AcDbEntity
  8
240
100
AcDbLine
 10
-128.0
 20
-10.5
 30
0.0
 11
-127.5
 21
-11.0
 31
0.0
  0
LINE
  5
19CC
330
19C1
100
AcDbEntity
  8
240
100
AcDbLine
 10
-116.5
 20
-12.5
 30
0.0
 11
-118.0
 21
-11.0
 31
0.0
  0
LINE
  5
19CD
330
19C1
100
AcDbEntity
  8
240
100
AcDbLine
 10
-117.9999999999999
 20
11.0
 30
0.0
 11
-127.5
 21
11.0
 31
0.0
  0
LINE
  5
19CE
330
19C1
100
AcDbEntity
  8
240
100
AcDbLine
 10
-127.5
 20
11.0
 30
0.0
 11
-128.0
 21
10.5
 31
0.0
  0
LINE
  5
19CF
330
19C1
100
AcDbEntity
  8
240
100
AcDbLine
 10
-116.4999999999999
 20
12.5
 30
0.0
 11
-117.9999999999999
 21
11.0
 31
0.0
  0
LINE
  5
19D0
330
19C1
100
AcDbEntity
  8
246
100
AcDbLine
 10
-35.0
 20
9.659935000000075
 30
0.0
 11
-34.99999999999997
 21
-9.659935999999959
 31
0.0
  0
LINE
  5
19D1
330
19C1
100
AcDbEntity
  8
246
100
AcDbLine
 10
-58.0
 20
8.0
 30
0.0
 11
-63.69059900000014
 21
2.309400999999979
 31
0.0
  0
LINE
  5
19D2
330
19C1
100
AcDbEntity
  8
246
100
AcDbLine
 10
-78.0
 20
7.25
 30
0.0
 11
-78.0
 21
-7.25
 31
0.0
  0
LINE
  5
19D3
330
19C1
100
AcDbEntity
  8
246
100
AcDbLine
 10
-58.0
 20
-8.300000000000068
 30
0.0
 11
-58.0
 21
8.299999999999954
 31
0.0
  0
LINE
  5
19D4
330
19C1
100
AcDbEntity
  8
241
100
AcDbLine
 10
-48.0
 20
-12.30000000000006
 30
0.0
 11
-48.0
 21
12.29999999999995
 31
0.0
  0
LINE
  5
19D5
330
19C1
100
AcDbEntity
  8
241
100
AcDbLine
 10
-49.29999999999999
 20
-12.30000000000006
 30
0.0
 11
-49.29999999999999
 21
12.29999999999995
 31
0.0
  0
LINE
  5
19D6
330
19C1
100
AcDbEntity
  8
241
100
AcDbLine
 10
-53.0
 20
-5.127377497317676
 30
0.0
 11
-53.0
 21
5.127377497317676
 31
0.0
  0
ARC
  5
19D7
330
19C1
100
AcDbEntity
  8
241
100
AcDbCircle
 10
-64.39999999999975
 20
-0.0000000000000009
 30
0.0
 40
12.49999999999976
100
AcDbArc
 50
335.7831989866133
 51
24.21678341329282
  0
LINE
  5
19D8
330
19C1
100
AcDbEntity
  8
241
100
AcDbLine
 10
-16.0
 20
16.0
 30
0.0
 11
-16.0
 21
-16.0
 31
0.0
  0
LINE
  5
19D9
330
19C1
100
AcDbEntity
  8
241
100
AcDbLine
 10
-1.872792000000004
 20
20.18921399999987
 30
0.0
 11
-1.872792000000004
 21
-20.46357599999998
 31
0.0
  0
LINE
  5
19DA
330
19C1
100
AcDbEntity
  8
240
100
AcDbLine
 10
0.0
 20
19.168629
 30
0.0
 11
0.0
 21
-19.168629
 31
0.0
  0
LINE
  5
19DB
330
19C1
100
AcDbEntity
  8
241
100
AcDbLine
 10
-15.5
 20
0.0
 30
0.0
 11
-15.5
 21
18.5
 31
0.0
  0
LINE
  5
19DC
330
19C1
100
AcDbEntity
  8
241
100
AcDbLine
 10
-18.5
 20
15.5
 30
0.0
 11
-18.5
 21
0.0
 31
0.0
  0
LINE
  5
19DD
330
19C1
100
AcDbEntity
  8
246
100
AcDbLine
 10
-5.600000000000022
 20
-12.75
 30
0.0
 11
-35.0
 21
-9.659936000000129
 31
0.0
  0
LINE
  5
19DE
330
19C1
100
AcDbEntity
  8
246
100
AcDbLine
 10
-35.0
 20
-8.0
 30
0.0
 11
0.0
 21
-8.0
 31
0.0
  0
LINE
  5
19DF
330
19C1
100
AcDbEntity
  8
240
100
AcDbLine
 10
-47.0
 20
-16.0
 30
0.0
 11
-16.0
 21
-16.0
 31
0.0
  0
LINE
  5
19E0
330
19C1
100
AcDbEntity
  8
242
100
AcDbLine
 10
-16.0
 20
-15.5
 30
0.0
 11
-18.5
 21
-15.5
 31
0.0
  0
LINE
  5
19E1
330
19C1
100
AcDbEntity
  8
246
100
AcDbLine
 10
-77.0
 20
-8.25
 30
0.0
 11
-73.0
 21
-8.25
 31
0.0
  0
LINE
  5
19E2
330
19C1
100
AcDbEntity
  8
246
100
AcDbLine
 10
-68.0
 20
-3.0
 30
0.0
 11
-78.0
 21
-3.0
 31
0.0
  0
LINE
  5
19E3
330
19C1
100
AcDbEntity
  8
246
100
AcDbLine
 10
-68.0
 20
3.0
 30
0.0
 11
-78.0
 21
3.0
 31
0.0
  0
ARC
  5
19E4
330
19C1
100
AcDbEntity
  8
246
100
AcDbCircle
 10
-77.0
 20
-7.25
 30
0.0
 40
1.0
100
AcDbArc
 50
180.0
 51
270.0
  0
LINE
  5
19E5
330
19C1
100
AcDbEntity
  8
246
100
AcDbLine
 10
-58.0
 20
-8.0
 30
0.0
 11
-63.69059900000014
 21
-2.309400999999979
 31
0.0
  0
LINE
  5
19E6
330
19C1
100
AcDbEntity
  8
246
100
AcDbLine
 10
-72.25
 20
-9.0
 30
0.0
 11
-58.70000000000004
 21
-9.0
 31
0.0
  0
LINE
  5
19E7
330
19C1
100
AcDbEntity
  8
246
100
AcDbLine
 10
-72.60000000000002
 20
-8.65000000000009
 30
0.0
 11
-58.35000000000002
 21
-8.65000000000009
 31
0.0
  0
LINE
  5
19E8
330
19C1
100
AcDbEntity
  8
246
100
AcDbLine
 10
-73.0
 20
-8.25
 30
0.0
 11
-72.25
 21
-9.0
 31
0.0
  0
LINE
  5
19E9
330
19C1
100
AcDbEntity
  8
246
100
AcDbLine
 10
-58.70000000000004
 20
-9.0
 30
0.0
 11
-58.0
 21
-8.300000000000068
 31
0.0
  0
LINE
  5
19EA
330
19C1
100
AcDbEntity
  8
246
100
AcDbLine
 10
-67.60128300000008
 20
2.309400999999979
 30
0.0
 11
-63.69059900000014
 21
2.309400999999979
 31
0.0
  0
LINE
  5
19EB
330
19C1
100
AcDbEntity
  8
246
100
AcDbLine
 10
-67.60128300000008
 20
1.154699999999934
 30
0.0
 11
-63.69059900000014
 21
1.154699999999934
 31
0.0
  0
LINE
  5
19EC
330
19C1
100
AcDbEntity
  8
246
100
AcDbLine
 10
-67.60128300000008
 20
-1.154701000000045
 30
0.0
 11
-63.69059900000014
 21
-1.154701000000045
 31
0.0
  0
LINE
  5
19ED
330
19C1
100
AcDbEntity
  8
246
100
AcDbLine
 10
-67.60128300000008
 20
-2.309400999999979
 30
0.0
 11
-63.69059900000014
 21
-2.309400999999979
 31
0.0
  0
LINE
  5
19EE
330
19C1
100
AcDbEntity
  8
246
100
AcDbLine
 10
-67.60128300000008
 20
-2.309400999999979
 30
0.0
 11
-67.60128300000008
 21
2.309400999999979
 31
0.0
  0
LINE
  5
19EF
330
19C1
100
AcDbEntity
  8
246
100
AcDbLine
 10
-68.0
 20
-3.0
 30
0.0
 11
-68.0
 21
-1.893369000000006
 31
0.0
  0
LINE
  5
19F0
330
19C1
100
AcDbEntity
  8
246
100
AcDbLine
 10
-67.60128300000008
 20
-2.309400999999979
 30
0.0
 11
-68.0
 21
-3.0
 31
0.0
  0
LINE
  5
19F1
330
19C1
100
AcDbEntity
  8
246
100
AcDbLine
 10
-68.0
 20
3.0
 30
0.0
 11
-68.0
 21
1.893367999999895
 31
0.0
  0
LINE
  5
19F2
330
19C1
100
AcDbEntity
  8
246
100
AcDbLine
 10
-67.60128300000008
 20
2.309400999999979
 30
0.0
 11
-68.0
 21
3.0
 31
0.0
  0
LINE
  5
19F3
330
19C1
100
AcDbEntity
  8
246
100
AcDbLine
 10
-63.69059900000014
 20
-2.309400999999979
 30
0.0
 11
-63.69059900000014
 21
2.309400999999979
 31
0.0
  0
ARC
  5
19F4
330
19C1
100
AcDbEntity
  8
240
100
AcDbCircle
 10
-47.0
 20
-15.0
 30
0.0
 40
1.0
100
AcDbArc
 50
180.0
 51
270.0
  0
LINE
  5
19F5
330
19C1
100
AcDbEntity
  8
241
100
AcDbLine
 10
-18.5
 20
-15.5
 30
0.0
 11
-18.5
 21
0.0
 31
0.0
  0
LINE
  5
19F6
330
19C1
100
AcDbEntity
  8
242
100
AcDbLine
 10
-18.5
 20
-15.5
 30
0.0
 11
-19.0
 21
-16.0
 31
0.0
  0
TEXT
  5
19F7
330
19C1
100
AcDbEntity
  8
247
100
AcDbText
 10
-38.9715032435425
 20
-14.14600234270345
 30
0.0
 40
1.5
  1
SL25-NBS16-80
  7
YOKO
 11
-38.9715032435425
 21
-14.14600234270345
 31
0.0
100
AcDbText
 73
     1
  0
LINE
  5
19F8
330
19C1
100
AcDbEntity
  8
240
100
AcDbLine
 10
-49.50000000000004
 20
-12.5
 30
0.0
 11
-49.29999999999999
 21
-12.30000000000006
 31
0.0
  0
LINE
  5
19F9
330
19C1
100
AcDbEntity
  8
240
100
AcDbLine
 10
-48.0
 20
-15.0
 30
0.0
 11
-48.0
 21
-12.30000000000006
 31
0.0
  0
LINE
  5
19FA
330
19C1
100
AcDbEntity
  8
240
100
AcDbLine
 10
-49.29999999999999
 20
-12.30000000000006
 30
0.0
 11
-48.0
 21
-12.30000000000006
 31
0.0
  0
ARC
  5
19FB
102
{ACAD_REACTORS
330
19FC
102
}
330
19C1
100
AcDbEntity
  8
247
100
AcDbCircle
 10
-41.31869884905206
 20
-13.37918953331481
 30
0.0
 40
0.5911056518554688
100
AcDbArc
 50
163.9997507017293
 51
304.9638732916318
  0
HATCH
  5
19FC
330
19C1
100
AcDbEntity
  8
247
100
AcDbHatch
 10
0.0
 20
0.0
 30
0.0
210
0.0
220
0.0
230
1.0
  2
ANSI31
 70
     0
 71
     1
 91
        1
 92
       33
 93
       15
 72
     1
 10
-40.65498730120048
 20
-12.56599525841247
 11
-40.70976101335868
 21
-12.39229454430114
 72
     2
 10
-40.37958752092706
 20
-13.28825020226013
 40
0.7729795932769776
 50
110.8721834020772
 51
132.5419489373868
 73
     1
 72
     2
 10
-41.09310833391535
 20
-12.72443184288513
 40
0.1909725040197372
 50
1.710121382062756
 51
163.9983983544484
 73
     1
 72
     1
 10
-41.5218017238079
 20
-13.52661232384216
 11
-41.276683010429
 21
-12.67178673180114
 72
     2
 10
-41.33822704729424
 20
-13.57925056847106
 40
0.1909723699092865
 50
164.0002730571838
 51
344.0002730571838
 73
     1
 72
     1
 10
-41.15465237078056
 20
-13.63188881309997
 11
-41.03786083635673
 21
-13.22459129723083
 72
     1
 10
-41.18922497209892
 20
-13.22459129723083
 11
-41.03786083635673
 21
-13.22459129723083
 72
     1
 10
-41.18922497209892
 20
-13.22459129723083
 11
-41.13707424578056
 21
-13.04271263512145
 72
     1
 10
-41.13707424578056
 20
-13.04271263512145
 11
-40.60729290422782
 21
-13.04271263512145
 72
     1
 10
-40.87327190813407
 20
-13.97028853329192
 11
-40.60729290422782
 21
-13.04271263512145
 72
     1
 10
-40.97996288713797
 20
-13.8636044207431
 11
-40.87327190813407
 21
-13.97028853329192
 72
     2
 10
-41.31869884905206
 20
-13.37918953331481
 40
0.5911056518554688
 50
163.9997507017293
 51
304.9638732916318
 73
     1
 72
     2
 10
-40.35227276262627
 20
-13.41026710899841
 40
1.546847534179687
 50
155.2051773698405
 51
172.7948259620522
 73
     1
 72
     2
 10
-41.18831860002862
 20
-12.92449287804138
 40
0.5910996437072754
 50
53.44401219705754
 51
164.0001843876852
 73
     1
 72
     2
 10
-40.37958752092706
 20
-13.28825020226013
 40
0.954856538772583
 50
110.22964506332
 51
118.5716889237176
 73
     1
 97
       15
330
1A54
330
1A56
330
1A3A
330
1A5C
330
1A59
330
1A57
330
1A58
330
1A5D
330
1A39
330
1A5B
330
1A5A
330
19FB
330
1A2F
330
19FD
330
1A55
 75
     0
 76
     1
 52
360.0
 41
0.045
 77
     0
 78
     1
 53
44.99999999999996
 43
-98.93655111727108
 44
-21.33060202034481
 45
-0.101027881362028
 46
0.101027881362028
 79
     0
 98
        1
 10
-98.93655111727108
 20
-21.33060202034481
  0
ARC
  5
19FD
102
{ACAD_REACTORS
330
19FC
102
}
330
19C1
100
AcDbEntity
  8
247
100
AcDbCircle
 10
-41.18831860002862
 20
-12.92449287804138
 30
0.0
 40
0.5910996437072754
100
AcDbArc
 50
53.44401219705754
 51
164.0001843876852
  0
LINE
  5
19FE
102
{ACAD_REACTORS
330
1A00
102
}
330
19C1
100
AcDbEntity
  8
247
100
AcDbLine
 10
-44.07170101580009
 20
-14.24310652177513
 30
0.0
 11
-40.37958752092704
 21
-14.24310652177513
 31
0.0
  0
LINE
  5
19FF
102
{ACAD_REACTORS
330
1A00
102
}
330
19C1
100
AcDbEntity
  8
247
100
AcDbLine
 10
-44.07170101580009
 20
-14.06122786434661
 30
0.0
 11
-40.37958752092704
 21
-14.06122786434661
 31
0.0
  0
HATCH
  5
1A00
330
19C1
100
AcDbEntity
  8
247
100
AcDbHatch
 10
0.0
 20
0.0
 30
0.0
210
0.0
220
0.0
230
1.0
  2
ANSI31
 70
     0
 71
     1
 91
        1
 92
       33
 93
       10
 72
     1
 10
-43.69609905657157
 20
-12.33339409264099
 11
-43.74824978288994
 21
-12.51527275475036
 72
     1
 10
-44.07170101580009
 20
-12.33339409264099
 11
-43.69609905657157
 21
-12.33339409264099
 72
     1
 10
-44.07170101580009
 20
-12.51527275475036
 11
-43.74824978288994
 21
-12.51527275475036
 72
     2
 10
-44.0717010158001
 20
-13.28825020226013
 40
0.7729774475097657
 50
90.0
 51
270.0
 73
     1
 72
     2
 10
-44.0717010158001
 20
-13.28825020226013
 40
0.9548561096191406
 50
90.0
 51
270.0
 73
     1
 72
     1
 10
-44.07170101580009
 20
-14.24310652177513
 11
-40.37958752092704
 21
-14.24310652177513
 72
     1
 10
-44.07170101580009
 20
-14.06122786434661
 11
-40.37958752092704
 21
-14.06122786434661
 72
     2
 10
-40.37958752092706
 20
-13.28825020226013
 40
0.9548561096191406
 50
270.0
 51
464.7707939660941
 73
     1
 72
     2
 10
-40.37958752092706
 20
-13.28825020226013
 40
0.7729774475097657
 50
270.0
 51
464.1274364964119
 73
     1
 72
     1
 10
-40.56825710710868
 20
-12.5386461678363
 11
-40.62303081926689
 21
-12.36494545372497
 97
       10
330
1A1E
330
1A32
330
1A33
330
1A31
330
1A30
330
19FE
330
19FF
330
1A5E
330
1A5F
330
1A3B
 75
     0
 76
     1
 52
360.0
 41
0.045
 77
     0
 78
     1
 53
44.99999999999996
 43
-98.93655111727108
 44
-21.33060202034481
 45
-0.101027881362028
 46
0.101027881362028
 79
     0
 98
        1
 10
-98.93655111727108
 20
-21.33060202034481
  0
LINE
  5
1A01
330
19C1
100
AcDbEntity
  8
247
100
AcDbLine
 10
-42.26758800920829
 20
-12.33339409264099
 30
0.0
 11
-41.79457165178642
 21
-12.33339409264099
 31
0.0
  0
HATCH
  5
1A02
330
19C1
100
AcDbEntity
  8
247
100
AcDbHatch
 10
0.0
 20
0.0
 30
0.0
210
0.0
220
0.0
230
1.0
  2
ANSI31
 70
     0
 71
     0
 91
        1
 92
        7
 72
     0
 73
     1
 93
        6
 10
-41.79457165178642
 20
-12.33339409264098
 10
-42.26758800920829
 20
-12.33339409264098
 10
-42.32495724138602
 20
-12.53345512779723
 10
-42.2587302821575
 20
-12.53345512779723
 10
-42.67073818621025
 20
-13.97028853329192
 10
-42.26394192156181
 20
-13.97028853329192
 97
        0
 75
     0
 76
     1
 52
360.0
 41
0.045
 77
     0
 78
     1
 53
44.99999999999996
 43
-98.93655111727108
 44
-21.33060202034481
 45
-0.101027881362028
 46
0.101027881362028
 79
     0
 47
0.0134348504236232
 98
        1
 10
-42.21981367100888
 20
-13.10898006664023
  0
POLYLINE
  5
1A03
330
19C1
100
AcDbEntity
  8
247
100
AcDb2dPolyline
 66
     1
 10
0.0
 20
0.0
 30
0.0
 70
     1
  0
VERTEX
  5
1A04
330
1A03
100
AcDbEntity
  8
247
100
AcDbVertex
100
AcDb2dVertex
 10
-42.26758800920832
 20
-12.33339409264099
 30
0.0
  0
VERTEX
  5
1A05
330
1A03
100
AcDbEntity
  8
247
100
AcDbVertex
100
AcDb2dVertex
 10
-42.32495724138605
 20
-12.53345512779723
 30
0.0
  0
VERTEX
  5
1A06
330
1A03
100
AcDbEntity
  8
247
100
AcDbVertex
100
AcDb2dVertex
 10
-42.25873028215754
 20
-12.53345512779723
 30
0.0
  0
VERTEX
  5
1A07
330
1A03
100
AcDbEntity
  8
247
100
AcDbVertex
100
AcDb2dVertex
 10
-42.67073818621026
 20
-13.97028853329192
 30
0.0
  0
VERTEX
  5
1A08
330
1A03
100
AcDbEntity
  8
247
100
AcDbVertex
100
AcDb2dVertex
 10
-42.26394192156183
 20
-13.97028853329192
 30
0.0
  0
VERTEX
  5
1A09
330
1A03
100
AcDbEntity
  8
247
100
AcDbVertex
100
AcDb2dVertex
 10
-41.79457165178643
 20
-12.33339409264099
 30
0.0
  0
SEQEND
  5
1A0A
330
1A03
100
AcDbEntity
  8
247
  0
POLYLINE
  5
1A0B
330
19C1
100
AcDbEntity
  8
247
100
AcDb2dPolyline
 66
     1
 10
0.0
 20
0.0
 30
0.0
 70
     1
1001
HATCH_DISTANCE
1040
1.0
1001
HATCH_DISPLAY
1070
     0
1001
HATCH_TYPE
1070
     7
  0
VERTEX
  5
1A0C
330
1A0B
100
AcDbEntity
  8
247
100
AcDbVertex
100
AcDb2dVertex
 10
-42.26758800920832
 20
-12.33339409264099
 30
0.0
  0
VERTEX
  5
1A0D
330
1A0B
100
AcDbEntity
  8
247
100
AcDbVertex
100
AcDb2dVertex
 10
-42.32495724138605
 20
-12.53345512779723
 30
0.0
  0
VERTEX
  5
1A0E
330
1A0B
100
AcDbEntity
  8
247
100
AcDbVertex
100
AcDb2dVertex
 10
-42.25873028215754
 20
-12.53345512779723
 30
0.0
  0
VERTEX
  5
1A0F
330
1A0B
100
AcDbEntity
  8
247
100
AcDbVertex
100
AcDb2dVertex
 10
-42.67073818621026
 20
-13.97028853329192
 30
0.0
  0
VERTEX
  5
1A10
330
1A0B
100
AcDbEntity
  8
247
100
AcDbVertex
100
AcDb2dVertex
 10
-42.26394192156183
 20
-13.97028853329192
 30
0.0
  0
VERTEX
  5
1A11
330
1A0B
100
AcDbEntity
  8
247
100
AcDbVertex
100
AcDb2dVertex
 10
-41.79457165178643
 20
-12.33339409264099
 30
0.0
  0
SEQEND
  5
1A12
330
1A0B
100
AcDbEntity
  8
247
  0
LINE
  5
1A13
330
19C1
100
AcDbEntity
  8
247
100
AcDbLine
 10
-42.26394192156181
 20
-13.97028853329192
 30
0.0
 11
-41.79457165178642
 21
-12.33339409264099
 31
0.0
  0
LINE
  5
1A14
330
19C1
100
AcDbEntity
  8
247
100
AcDbLine
 10
-42.97213012732816
 20
-12.64722950783106
 30
0.0
 11
-42.74534087720234
 21
-12.42044025770524
 31
0.0
  0
LINE
  5
1A15
330
19C1
100
AcDbEntity
  8
247
100
AcDbLine
 10
-42.94881844674285
 20
-12.8259735899698
 30
0.0
 11
-42.64446206420326
 21
-12.5216172074302
 31
0.0
  0
LINE
  5
1A16
330
19C1
100
AcDbEntity
  8
247
100
AcDbLine
 10
-42.32495724138602
 20
-12.53345512779723
 30
0.0
 11
-42.2587302821575
 21
-12.53345512779723
 31
0.0
  0
LINE
  5
1A17
330
19C1
100
AcDbEntity
  8
247
100
AcDbLine
 10
-42.32495724138602
 20
-12.53345512779723
 30
0.0
 11
-42.26758800920829
 21
-12.33339409264099
 31
0.0
  0
LINE
  5
1A18
330
19C1
100
AcDbEntity
  8
247
100
AcDbLine
 10
-43.10631438142605
 20
-12.52002660314545
 30
0.0
 11
-43.25536190033504
 21
-13.03982870956069
 31
0.0
  0
LINE
  5
1A19
330
19C1
100
AcDbEntity
  8
247
100
AcDbLine
 10
-43.65365063127881
 20
-12.51527275475036
 30
0.0
 11
-43.5590446132124
 21
-12.51527275475091
 31
0.0
  0
LINE
  5
1A1A
330
19C1
100
AcDbEntity
  8
247
100
AcDbLine
 10
-43.60149990496014
 20
-12.33339409264099
 30
0.0
 11
-43.65365063127881
 21
-12.51527275475036
 31
0.0
  0
LINE
  5
1A1B
330
19C1
100
AcDbEntity
  8
247
100
AcDbLine
 10
-43.60435436603832
 20
-12.67328645836904
 30
0.0
 11
-43.26446200031029
 21
-12.33339409264105
 31
0.0
  0
LINE
  5
1A1C
330
19C1
100
AcDbEntity
  8
247
100
AcDbLine
 10
-43.68558573904449
 20
-12.9565735940993
 30
0.0
 11
-43.06240623758624
 21
-12.33339409264105
 31
0.0
  0
LINE
  5
1A1D
330
19C1
100
AcDbEntity
  8
247
100
AcDbLine
 10
-43.64839642514371
 20
-12.51527275475039
 30
0.0
 11
-43.46651776303434
 21
-12.33339409264102
 31
0.0
  0
LINE
  5
1A1E
102
{ACAD_REACTORS
330
1A00
102
}
330
19C1
100
AcDbEntity
  8
247
100
AcDbLine
 10
-43.69609905657157
 20
-12.33339409264099
 30
0.0
 11
-43.74824978288994
 21
-12.51527275475036
 31
0.0
  0
ARC
  5
1A1F
330
19C1
100
AcDbEntity
  8
247
100
AcDbCircle
 10
-43.21580425676691
 20
-12.76990150841247
 30
0.0
 40
0.2728103756904602
100
AcDbArc
 50
261.6626016879294
 51
66.33815509518974
  0
LINE
  5
1A20
330
19C1
100
AcDbEntity
  8
247
100
AcDbLine
 10
-43.0677300990171
 20
-12.54077371679599
 30
0.0
 11
-42.8801536112365
 21
-12.3531972290154
 31
0.0
  0
LINE
  5
1A21
330
19C1
100
AcDbEntity
  8
247
100
AcDbLine
 10
-43.60149990496014
 20
-12.33339409264099
 30
0.0
 11
-43.0147677786494
 21
-12.33339409264105
 31
0.0
  0
LINE
  5
1A22
330
19C1
100
AcDbEntity
  8
247
100
AcDbLine
 10
-42.67073818621025
 20
-13.97028853329192
 30
0.0
 11
-42.26394192156181
 21
-13.97028853329192
 31
0.0
  0
ARC
  5
1A23
330
19C1
100
AcDbEntity
  8
247
100
AcDbCircle
 10
-43.42441402849543
 20
-13.49740929039489
 30
0.0
 40
0.2728181809186935
100
AcDbArc
 50
261.6628542111488
 51
66.33819215911003
  0
LINE
  5
1A24
330
19C1
100
AcDbEntity
  8
247
100
AcDbLine
 10
-43.31492198239945
 20
-13.24752681465582
 30
0.0
 11
-43.46397195332849
 21
-13.76734433892083
 31
0.0
  0
LINE
  5
1A25
330
19C1
100
AcDbEntity
  8
247
100
AcDbLine
 10
-43.68902186461688
 20
-13.97028853329192
 30
0.0
 11
-43.45508537079388
 21
-13.73635203946896
 31
0.0
  0
LINE
  5
1A26
330
19C1
100
AcDbEntity
  8
247
100
AcDbLine
 10
-43.48696610189284
 20
-13.97028853329192
 30
0.0
 11
-42.8196119379782
 21
-13.30293436937732
 31
0.0
  0
LINE
  5
1A27
330
19C1
100
AcDbEntity
  8
247
100
AcDbLine
 10
-43.04876404193738
 20
-13.93619799878464
 30
0.0
 11
-42.80090394559397
 21
-13.68833790244122
 31
0.0
  0
ARC
  5
1A28
330
19C1
100
AcDbEntity
  8
247
100
AcDbCircle
 10
-43.22150341448175
 20
-13.51559852989685
 30
0.0
 40
0.4546897888183594
100
AcDbArc
 50
270.0
 51
40.32984065416719
  0
LINE
  5
1A29
330
19C1
100
AcDbEntity
  8
247
100
AcDbLine
 10
-43.28491033916875
 20
-13.97028853329196
 30
0.0
 11
-42.77072310875338
 21
-13.45610130287654
 31
0.0
  0
LINE
  5
1A2A
330
19C1
100
AcDbEntity
  8
247
100
AcDbLine
 10
-42.67073818621025
 20
-13.97028853329192
 30
0.0
 11
-42.2587302821575
 21
-12.53345512779723
 31
0.0
  0
LINE
  5
1A2B
330
19C1
100
AcDbEntity
  8
247
100
AcDbLine
 10
-43.1578879460828
 20
-13.43915461475788
 30
0.0
 11
-42.56150014052395
 21
-12.84276680919902
 31
0.0
  0
LINE
  5
1A2C
330
19C1
100
AcDbEntity
  8
247
100
AcDbLine
 10
-43.22841965597389
 20
-13.30763056192492
 30
0.0
 11
-42.57757073141406
 21
-12.65678163736509
 31
0.0
  0
ARC
  5
1A2D
330
19C1
100
AcDbEntity
  8
247
100
AcDbCircle
 10
-43.01289364275323
 20
-12.78808388145935
 30
0.0
 40
0.4546936511993409
100
AcDbArc
 50
287.6695775473979
 51
90.23615984267163
  0
LINE
  5
1A2E
330
19C1
100
AcDbEntity
  8
247
100
AcDbLine
 10
-43.76681711205069
 20
-13.23986072982952
 30
0.0
 11
-43.13016627071903
 21
-12.60320988849787
 31
0.0
  0
ARC
  5
1A2F
102
{ACAD_REACTORS
330
19FC
102
}
330
19C1
100
AcDbEntity
  8
247
100
AcDbCircle
 10
-40.35227276262627
 20
-13.41026710899841
 30
0.0
 40
1.546847534179687
100
AcDbArc
 50
155.2051773698405
 51
172.7948259620522
  0
ARC
  5
1A30
102
{ACAD_REACTORS
330
1A00
102
}
330
19C1
100
AcDbEntity
  8
247
100
AcDbCircle
 10
-44.0717010158001
 20
-13.28825020226013
 30
0.0
 40
0.9548561096191406
100
AcDbArc
 50
90.0
 51
270.0
  0
ARC
  5
1A31
102
{ACAD_REACTORS
330
1A00
102
}
330
19C1
100
AcDbEntity
  8
247
100
AcDbCircle
 10
-44.0717010158001
 20
-13.28825020226013
 30
0.0
 40
0.7729774475097657
100
AcDbArc
 50
90.0
 51
270.0
  0
LINE
  5
1A32
102
{ACAD_REACTORS
330
1A00
102
}
330
19C1
100
AcDbEntity
  8
247
100
AcDbLine
 10
-44.07170101580009
 20
-12.33339409264099
 30
0.0
 11
-43.69609905657157
 21
-12.33339409264099
 31
0.0
  0
LINE
  5
1A33
102
{ACAD_REACTORS
330
1A00
102
}
330
19C1
100
AcDbEntity
  8
247
100
AcDbLine
 10
-44.07170101580009
 20
-12.51527275475036
 30
0.0
 11
-43.74824978288994
 21
-12.51527275475036
 31
0.0
  0
LINE
  5
1A34
330
19C1
100
AcDbEntity
  8
247
100
AcDbLine
 10
-43.89107762734092
 20
-13.97028853329192
 30
0.0
 11
-43.37385818333076
 21
-13.45306908928175
 31
0.0
  0
LINE
  5
1A35
330
19C1
100
AcDbEntity
  8
247
100
AcDbLine
 10
-43.97626415666923
 20
-13.97028853329192
 30
0.0
 11
-43.22150341448174
 21
-13.97028853329192
 31
0.0
  0
LINE
  5
1A36
330
19C1
100
AcDbEntity
  8
247
100
AcDbLine
 10
-43.97626415666923
 20
-13.97028853329192
 30
0.0
 11
-43.5590446132124
 21
-12.51527275475091
 31
0.0
  0
LINE
  5
1A37
330
19C1
100
AcDbEntity
  8
247
100
AcDbLine
 10
-43.92927985806305
 20
-13.80643500129003
 30
0.0
 11
-43.15973217520959
 21
-13.03688731843654
 31
0.0
  0
LINE
  5
1A38
330
19C1
100
AcDbEntity
  8
247
100
AcDbLine
 10
-43.84804848505686
 20
-13.52314786555977
 30
0.0
 11
-43.21139496250095
 21
-12.88649434300388
 31
0.0
  0
LINE
  5
1A39
102
{ACAD_REACTORS
330
19FC
102
}
330
19C1
100
AcDbEntity
  8
247
100
AcDbLine
 10
-41.13707424578056
 20
-13.04271263512145
 30
0.0
 11
-40.60729290422782
 21
-13.04271263512145
 31
0.0
  0
ARC
  5
1A3A
102
{ACAD_REACTORS
330
19FC
102
}
330
19C1
100
AcDbEntity
  8
247
100
AcDbCircle
 10
-41.09310833391535
 20
-12.72443184288513
 30
0.0
 40
0.1909725040197372
100
AcDbArc
 50
1.710121382062756
 51
163.9983983544484
  0
LINE
  5
1A3B
102
{ACAD_REACTORS
330
1A00
102
}
330
19C1
100
AcDbEntity
  8
247
100
AcDbLine
 10
-40.56825710710868
 20
-12.5386461678363
 30
0.0
 11
-40.62303081926689
 21
-12.36494545372497
 31
0.0
  0
POLYLINE
  5
1A3C
330
19C1
100
AcDbEntity
  8
247
100
AcDb2dPolyline
 66
     1
 10
0.0
 20
0.0
 30
0.0
 70
     1
  0
VERTEX
  5
1A3D
330
1A3C
100
AcDbEntity
  8
247
100
AcDbVertex
100
AcDb2dVertex
 10
-40.5682571071087
 20
-12.5386461678363
 30
0.0
  0
VERTEX
  5
1A3E
330
1A3C
100
AcDbEntity
  8
247
100
AcDbVertex
100
AcDb2dVertex
 10
-40.62303081926691
 20
-12.36494545372497
 30
0.0
  0
VERTEX
  5
1A3F
330
1A3C
100
AcDbEntity
  8
247
100
AcDbVertex
100
AcDb2dVertex
 10
-40.62303081926691
 20
-12.36494545372497
 30
0.0
  0
VERTEX
  5
1A40
330
1A3C
100
AcDbEntity
  8
247
100
AcDbVertex
100
AcDb2dVertex
 10
-40.5682571071087
 20
-12.5386461678363
 30
0.0
  0
SEQEND
  5
1A41
330
1A3C
100
AcDbEntity
  8
247
  0
POLYLINE
  5
1A42
330
19C1
100
AcDbEntity
  8
247
100
AcDb2dPolyline
 66
     1
 10
0.0
 20
0.0
 30
0.0
 70
     1
1001
HATCH_DISTANCE
1040
1.0
1001
HATCH_DISPLAY
1070
     0
1001
HATCH_TYPE
1070
     7
  0
VERTEX
  5
1A43
330
1A42
100
AcDbEntity
  8
247
100
AcDbVertex
100
AcDb2dVertex
 10
-40.5682571071087
 20
-12.5386461678363
 30
0.0
  0
VERTEX
  5
1A44
330
1A42
100
AcDbEntity
  8
247
100
AcDbVertex
100
AcDb2dVertex
 10
-40.62303081926691
 20
-12.36494545372497
 30
0.0
  0
VERTEX
  5
1A45
330
1A42
100
AcDbEntity
  8
247
100
AcDbVertex
100
AcDb2dVertex
 10
-40.62303081926691
 20
-12.36494545372497
 30
0.0
  0
VERTEX
  5
1A46
330
1A42
100
AcDbEntity
  8
247
100
AcDbVertex
100
AcDb2dVertex
 10
-40.5682571071087
 20
-12.5386461678363
 30
0.0
  0
SEQEND
  5
1A47
330
1A42
100
AcDbEntity
  8
247
  0
POLYLINE
  5
1A48
330
19C1
100
AcDbEntity
  8
247
100
AcDb2dPolyline
 66
     1
 10
0.0
 20
0.0
 30
0.0
 70
     1
  0
VERTEX
  5
1A49
330
1A48
100
AcDbEntity
  8
247
100
AcDbVertex
100
AcDb2dVertex
 10
-40.5682571071087
 20
-12.5386461678363
 30
0.0
  0
VERTEX
  5
1A4A
330
1A48
100
AcDbEntity
  8
247
100
AcDbVertex
100
AcDb2dVertex
 10
-40.62303081926691
 20
-12.36494545372497
 30
0.0
  0
VERTEX
  5
1A4B
330
1A48
100
AcDbEntity
  8
247
100
AcDbVertex
100
AcDb2dVertex
 10
-40.62303081926691
 20
-12.36494545372497
 30
0.0
  0
VERTEX
  5
1A4C
330
1A48
100
AcDbEntity
  8
247
100
AcDbVertex
100
AcDb2dVertex
 10
-40.5682571071087
 20
-12.5386461678363
 30
0.0
  0
SEQEND
  5
1A4D
330
1A48
100
AcDbEntity
  8
247
  0
POLYLINE
  5
1A4E
330
19C1
100
AcDbEntity
  8
247
100
AcDb2dPolyline
 66
     1
 10
0.0
 20
0.0
 30
0.0
 70
     1
1001
HATCH_DISTANCE
1040
1.0
1001
HATCH_DISPLAY
1070
     0
1001
HATCH_TYPE
1070
     7
  0
VERTEX
  5
1A4F
330
1A4E
100
AcDbEntity
  8
247
100
AcDbVertex
100
AcDb2dVertex
 10
-40.5682571071087
 20
-12.5386461678363
 30
0.0
  0
VERTEX
  5
1A50
330
1A4E
100
AcDbEntity
  8
247
100
AcDbVertex
100
AcDb2dVertex
 10
-40.62303081926691
 20
-12.36494545372497
 30
0.0
  0
VERTEX
  5
1A51
330
1A4E
100
AcDbEntity
  8
247
100
AcDbVertex
100
AcDb2dVertex
 10
-40.62303081926691
 20
-12.36494545372497
 30
0.0
  0
VERTEX
  5
1A52
330
1A4E
100
AcDbEntity
  8
247
100
AcDbVertex
100
AcDb2dVertex
 10
-40.5682571071087
 20
-12.5386461678363
 30
0.0
  0
SEQEND
  5
1A53
330
1A4E
100
AcDbEntity
  8
247
  0
LINE
  5
1A54
102
{ACAD_REACTORS
330
19FC
102
}
330
19C1
100
AcDbEntity
  8
247
100
AcDbLine
 10
-40.65498730120048
 20
-12.56599525841247
 30
0.0
 11
-40.70976101335868
 21
-12.39229454430114
 31
0.0
  0
ARC
  5
1A55
102
{ACAD_REACTORS
330
19FC
102
}
330
19C1
100
AcDbEntity
  8
247
100
AcDbCircle
 10
-40.37958752092706
 20
-13.28825020226013
 30
0.0
 40
0.954856538772583
100
AcDbArc
 50
110.22964506332
 51
118.5716889237176
  0
ARC
  5
1A56
102
{ACAD_REACTORS
330
19FC
102
}
330
19C1
100
AcDbEntity
  8
247
100
AcDbCircle
 10
-40.37958752092706
 20
-13.28825020226013
 30
0.0
 40
0.7729795932769776
100
AcDbArc
 50
110.8721834020772
 51
132.5419489373868
  0
LINE
  5
1A57
102
{ACAD_REACTORS
330
19FC
102
}
330
19C1
100
AcDbEntity
  8
247
100
AcDbLine
 10
-41.15465237078056
 20
-13.63188881309997
 30
0.0
 11
-41.03786083635673
 21
-13.22459129723083
 31
0.0
  0
LINE
  5
1A58
102
{ACAD_REACTORS
330
19FC
102
}
330
19C1
100
AcDbEntity
  8
247
100
AcDbLine
 10
-41.18922497209892
 20
-13.22459129723083
 30
0.0
 11
-41.03786083635673
 21
-13.22459129723083
 31
0.0
  0
ARC
  5
1A59
102
{ACAD_REACTORS
330
19FC
102
}
330
19C1
100
AcDbEntity
  8
247
100
AcDbCircle
 10
-41.33822704729424
 20
-13.57925056847106
 30
0.0
 40
0.1909723699092865
100
AcDbArc
 50
164.0002730571838
 51
344.0002730571838
  0
LINE
  5
1A5A
102
{ACAD_REACTORS
330
19FC
102
}
330
19C1
100
AcDbEntity
  8
247
100
AcDbLine
 10
-40.97996288713797
 20
-13.8636044207431
 30
0.0
 11
-40.87327190813407
 21
-13.97028853329192
 31
0.0
  0
LINE
  5
1A5B
102
{ACAD_REACTORS
330
19FC
102
}
330
19C1
100
AcDbEntity
  8
247
100
AcDbLine
 10
-40.87327190813407
 20
-13.97028853329192
 30
0.0
 11
-40.60729290422782
 21
-13.04271263512145
 31
0.0
  0
LINE
  5
1A5C
102
{ACAD_REACTORS
330
19FC
102
}
330
19C1
100
AcDbEntity
  8
247
100
AcDbLine
 10
-41.5218017238079
 20
-13.52661232384216
 30
0.0
 11
-41.276683010429
 21
-12.67178673180114
 31
0.0
  0
LINE
  5
1A5D
102
{ACAD_REACTORS
330
19FC
102
}
330
19C1
100
AcDbEntity
  8
247
100
AcDbLine
 10
-41.18922497209892
 20
-13.22459129723083
 30
0.0
 11
-41.13707424578056
 21
-13.04271263512145
 31
0.0
  0
ARC
  5
1A5E
102
{ACAD_REACTORS
330
1A00
102
}
330
19C1
100
AcDbEntity
  8
247
100
AcDbCircle
 10
-40.37958752092706
 20
-13.28825020226013
 30
0.0
 40
0.9548561096191406
100
AcDbArc
 50
270.0
 51
104.7707939660941
  0
ARC
  5
1A5F
102
{ACAD_REACTORS
330
1A00
102
}
330
19C1
100
AcDbEntity
  8
247
100
AcDbCircle
 10
-40.37958752092706
 20
-13.28825020226013
 30
0.0
 40
0.7729774475097657
100
AcDbArc
 50
270.0
 51
104.1274364964119
  0
LINE
  5
1A60
330
19C1
100
AcDbEntity
  8
241
100
AcDbLine
 10
-15.5
 20
0.0
 30
0.0
 11
-15.5
 21
-18.5
 31
0.0
  0
LINE
  5
1A61
330
19C1
100
AcDbEntity
  8
241
100
AcDbLine
 10
-6.5
 20
-17.10386700000003
 30
0.0
 11
-15.5
 21
-17.10386700000003
 31
0.0
  0
LINE
  5
1A62
330
19C1
100
AcDbEntity
  8
241
100
AcDbLine
 10
-6.5
 20
-19.10386700000003
 30
0.0
 11
-15.5
 21
-19.10386700000003
 31
0.0
  0
LINE
  5
1A63
330
19C1
100
AcDbEntity
  8
240
100
AcDbLine
 10
-14.60000000000002
 20
-21.0
 30
0.0
 11
-1.872792000000004
 21
-21.0
 31
0.0
  0
ARC
  5
1A64
330
19C1
100
AcDbEntity
  8
240
100
AcDbCircle
 10
-14.60000000000002
 20
-20.10000000000002
 30
0.0
 40
0.9
100
AcDbArc
 50
180.0
 51
270.0
  0
LINE
  5
1A65
330
19C1
100
AcDbEntity
  8
240
100
AcDbLine
 10
-15.5
 20
-20.10000000000002
 30
0.0
 11
-15.5
 21
-18.5
 31
0.0
  0
LINE
  5
1A66
330
19C1
100
AcDbEntity
  8
240
100
AcDbLine
 10
-16.0
 20
-16.0
 30
0.0
 11
-16.0
 21
-18.0
 31
0.0
  0
LINE
  5
1A67
330
19C1
100
AcDbEntity
  8
240
100
AcDbLine
 10
-16.0
 20
-18.0
 30
0.0
 11
-15.5
 21
-18.5
 31
0.0
  0
LINE
  5
1A68
330
19C1
100
AcDbEntity
  8
240
100
AcDbLine
 10
-1.236396000000013
 20
-20.73639600000001
 30
0.0
 11
-0.2343150000000378
 21
-19.73431500000003
 31
0.0
  0
ARC
  5
1A69
330
19C1
100
AcDbEntity
  8
240
100
AcDbCircle
 10
-1.872792000000004
 20
-20.10000000000002
 30
0.0
 40
0.9
100
AcDbArc
 50
270.0
 51
315.0
  0
LINE
  5
1A6A
330
19C1
100
AcDbEntity
  8
241
100
AcDbLine
 10
-6.5
 20
-19.10386700000003
 30
0.0
 11
-6.5
 21
-17.10386700000003
 31
0.0
  0
ARC
  5
1A6B
330
19C1
100
AcDbEntity
  8
240
100
AcDbCircle
 10
-0.8000000000000682
 20
-19.168629
 30
0.0
 40
0.8
100
AcDbArc
 50
315.0
 51
0.0
  0
LINE
  5
1A6C
330
19C1
100
AcDbEntity
  8
246
100
AcDbLine
 10
-5.600000000000022
 20
-11.0
 30
0.0
 11
-3.200000000000045
 21
-11.0
 31
0.0
  0
LINE
  5
1A6D
330
19C1
100
AcDbEntity
  8
246
100
AcDbLine
 10
-5.600000000000022
 20
-11.0
 30
0.0
 11
-5.600000000000022
 21
-12.75
 31
0.0
  0
LINE
  5
1A6E
330
19C1
100
AcDbEntity
  8
246
100
AcDbLine
 10
-3.200000000000045
 20
-12.75
 30
0.0
 11
-3.200000000000045
 21
-11.0
 31
0.0
  0
LINE
  5
1A6F
330
19C1
100
AcDbEntity
  8
246
100
AcDbLine
 10
-3.200000000000045
 20
-12.75
 30
0.0
 11
-3.0
 21
-12.75
 31
0.0
  0
LINE
  5
1A70
330
19C1
100
AcDbEntity
  8
246
100
AcDbLine
 10
-3.0
 20
-12.75
 30
0.0
 11
0.0
 21
-11.01794900000004
 31
0.0
  0
LINE
  5
1A71
330
19C1
100
AcDbEntity
  8
241
100
AcDbLine
 10
-6.5
 20
2.0
 30
0.0
 11
-15.5
 21
2.0
 31
0.0
  0
LINE
  5
1A72
330
19C1
100
AcDbEntity
  8
241
100
AcDbLine
 10
-6.5
 20
-2.0
 30
0.0
 11
-15.5
 21
-2.0
 31
0.0
  0
LINE
  5
1A73
330
19C1
100
AcDbEntity
  8
241
100
AcDbLine
 10
-6.5
 20
-2.0
 30
0.0
 11
-6.5
 21
0.0
 31
0.0
  0
LINE
  5
1A74
330
19C1
100
AcDbEntity
  8
241
100
AcDbLine
 10
-6.5
 20
2.0
 30
0.0
 11
-6.5
 21
0.0
 31
0.0
  0
LINE
  5
1A75
330
19C1
100
AcDbEntity
  8
246
100
AcDbLine
 10
-35.0
 20
8.0
 30
0.0
 11
0.0
 21
8.0
 31
0.0
  0
LINE
  5
1A76
330
19C1
100
AcDbEntity
  8
246
100
AcDbLine
 10
-5.600000000000022
 20
12.75
 30
0.0
 11
-35.0
 21
9.659935000000018
 31
0.0
  0
LINE
  5
1A77
330
19C1
100
AcDbEntity
  8
240
100
AcDbLine
 10
-47.0
 20
16.0
 30
0.0
 11
-16.0
 21
16.0
 31
0.0
  0
LINE
  5
1A78
330
19C1
100
AcDbEntity
  8
242
100
AcDbLine
 10
-16.0
 20
15.5
 30
0.0
 11
-18.5
 21
15.5
 31
0.0
  0
LINE
  5
1A79
330
19C1
100
AcDbEntity
  8
246
100
AcDbLine
 10
-77.0
 20
8.25
 30
0.0
 11
-73.0
 21
8.25
 31
0.0
  0
ARC
  5
1A7A
330
19C1
100
AcDbEntity
  8
246
100
AcDbCircle
 10
-77.0
 20
7.25
 30
0.0
 40
1.0
100
AcDbArc
 50
90.0
 51
180.0
  0
LINE
  5
1A7B
330
19C1
100
AcDbEntity
  8
246
100
AcDbLine
 10
-72.25
 20
9.0
 30
0.0
 11
-58.70000000000004
 21
9.0
 31
0.0
  0
LINE
  5
1A7C
330
19C1
100
AcDbEntity
  8
246
100
AcDbLine
 10
-72.60000000000002
 20
8.649999999999977
 30
0.0
 11
-58.35000000000002
 21
8.649999999999977
 31
0.0
  0
LINE
  5
1A7D
330
19C1
100
AcDbEntity
  8
246
100
AcDbLine
 10
-73.0
 20
8.25
 30
0.0
 11
-72.25
 21
9.0
 31
0.0
  0
LINE
  5
1A7E
330
19C1
100
AcDbEntity
  8
246
100
AcDbLine
 10
-58.0
 20
8.299999999999954
 30
0.0
 11
-58.70000000000004
 21
9.0
 31
0.0
  0
LINE
  5
1A7F
330
19C1
100
AcDbEntity
  8
240
100
AcDbLine
 10
-48.0
 20
12.29999999999995
 30
0.0
 11
-48.0
 21
15.0
 31
0.0
  0
LINE
  5
1A80
330
19C1
100
AcDbEntity
  8
240
100
AcDbLine
 10
-49.50000000000004
 20
12.5
 30
0.0
 11
-49.29999999999999
 21
12.29999999999995
 31
0.0
  0
LINE
  5
1A81
330
19C1
100
AcDbEntity
  8
240
100
AcDbLine
 10
-49.29999999999999
 20
12.29999999999995
 30
0.0
 11
-48.0
 21
12.29999999999995
 31
0.0
  0
ARC
  5
1A82
330
19C1
100
AcDbEntity
  8
240
100
AcDbCircle
 10
-47.0
 20
15.0
 30
0.0
 40
1.0
100
AcDbArc
 50
90.0
 51
180.0
  0
LINE
  5
1A83
330
19C1
100
AcDbEntity
  8
242
100
AcDbLine
 10
-18.5
 20
15.5
 30
0.0
 11
-19.0
 21
16.0
 31
0.0
  0
LINE
  5
1A84
330
19C1
100
AcDbEntity
  8
246
100
AcDbLine
 10
-5.600000000000022
 20
11.0
 30
0.0
 11
-3.200000000000045
 21
11.0
 31
0.0
  0
LINE
  5
1A85
330
19C1
100
AcDbEntity
  8
246
100
AcDbLine
 10
-5.600000000000022
 20
11.0
 30
0.0
 11
-5.600000000000022
 21
12.75
 31
0.0
  0
LINE
  5
1A86
330
19C1
100
AcDbEntity
  8
246
100
AcDbLine
 10
-3.200000000000045
 20
12.75
 30
0.0
 11
-3.0
 21
12.75
 31
0.0
  0
LINE
  5
1A87
330
19C1
100
AcDbEntity
  8
246
100
AcDbLine
 10
-3.200000000000045
 20
12.75
 30
0.0
 11
-3.200000000000045
 21
11.0
 31
0.0
  0
LINE
  5
1A88
330
19C1
100
AcDbEntity
  8
246
100
AcDbLine
 10
-3.0
 20
12.75
 30
0.0
 11
0.0
 21
11.01794899999993
 31
0.0
  0
LINE
  5
1A89
330
19C1
100
AcDbEntity
  8
241
100
AcDbLine
 10
-6.5
 20
19.10386699999992
 30
0.0
 11
-15.5
 21
19.10386699999992
 31
0.0
  0
LINE
  5
1A8A
330
19C1
100
AcDbEntity
  8
241
100
AcDbLine
 10
-6.5
 20
17.10386699999992
 30
0.0
 11
-15.5
 21
17.10386699999992
 31
0.0
  0
LINE
  5
1A8B
330
19C1
100
AcDbEntity
  8
240
100
AcDbLine
 10
-14.60000000000002
 20
21.0
 30
0.0
 11
-1.872792000000004
 21
21.0
 31
0.0
  0
LINE
  5
1A8C
330
19C1
100
AcDbEntity
  8
240
100
AcDbLine
 10
-15.5
 20
20.0999999999999
 30
0.0
 11
-15.5
 21
18.5
 31
0.0
  0
LINE
  5
1A8D
330
19C1
100
AcDbEntity
  8
240
100
AcDbLine
 10
-16.0
 20
18.0
 30
0.0
 11
-16.0
 21
16.0
 31
0.0
  0
LINE
  5
1A8E
330
19C1
100
AcDbEntity
  8
240
100
AcDbLine
 10
-16.0
 20
18.0
 30
0.0
 11
-15.5
 21
18.5
 31
0.0
  0
ARC
  5
1A8F
330
19C1
100
AcDbEntity
  8
240
100
AcDbCircle
 10
-14.60000000000002
 20
20.0999999999999
 30
0.0
 40
0.9
100
AcDbArc
 50
90.0
 51
180.0
  0
ARC
  5
1A90
330
19C1
100
AcDbEntity
  8
240
100
AcDbCircle
 10
-0.8000000000000682
 20
19.168629
 30
0.0
 40
0.8
100
AcDbArc
 50
0.0
 51
44.99999999999992
  0
LINE
  5
1A91
330
19C1
100
AcDbEntity
  8
241
100
AcDbLine
 10
-6.5
 20
19.10386699999992
 30
0.0
 11
-6.5
 21
17.10386699999992
 31
0.0
  0
LINE
  5
1A92
330
19C1
100
AcDbEntity
  8
240
100
AcDbLine
 10
-0.2343150000000378
 20
19.73431399999992
 30
0.0
 11
-1.236396000000013
 21
20.7363959999999
 31
0.0
  0
ARC
  5
1A93
330
19C1
100
AcDbEntity
  8
240
100
AcDbCircle
 10
-1.872792000000004
 20
20.0999999999999
 30
0.0
 40
0.9
100
AcDbArc
 50
44.99999999999992
 51
90.0
  0
ENDBLK
  5
1A95
330
19C1
100
AcDbEntity
  8
0
100
AcDbBlockEnd
  0
ENDSEC
  0
SECTION
  2
ENTITIES
  0
TEXT
  5
13C8
330
1A
100
AcDbEntity
  8
241
100
AcDbText
 10
-125.0
 20
56.0
 30
0.0
 40
5.0
  1
SL25-NBS16-80
  7
YOKO
 11
-125.0
 21
56.0
 31
0.0
100
AcDbText
 73
     1
  0
DIMENSION
  5
13C9
330
1A
100
AcDbEntity
  8
250
  6
CONTINUOUS
100
AcDbDimension
  2
*D1
 10
20.99999999999999
 20
20.99999999999999
 30
0.0
 11
18.49999999999999
 21
-0.000000000000001
 31
0.0
 70
    32
  1
{\H3;\U+2205}<>
  3
BIGT
100
AcDbAlignedDimension
 13
-1.872792000000004
 23
-21.0
 33
0.0
 14
-1.872792000000004
 24
21.0
 34
0.0
 50
90.0
100
AcDbRotatedDimension
1001
ACAD
1000
DSTYLE
1002
{
1070
    78
1070
     8
1070
   140
1040
3.0
1002
}
  0
DIMENSION
  5
13CA
330
1A
100
AcDbEntity
  8
250
  6
CONTINUOUS
100
AcDbDimension
  2
*D2
 10
14.0
 20
7.999999999999996
 30
0.0
 11
11.46737205581052
 21
3.746398860227145
 31
0.0
 70
   160
  1
MAX.%%C<>
  3
BIGT
100
AcDbAlignedDimension
 13
0.0
 23
-8.0
 33
0.0
 14
0.0
 24
8.0
 34
0.0
 50
90.0
100
AcDbRotatedDimension
1001
ACAD
1000
DSTYLE
1002
{
1070
   287
1070
     5
1070
    78
1070
     8
1070
   140
1040
3.0
1070
   279
1070
     2
1002
}
  0
DIMENSION
  5
13CB
330
1A
100
AcDbEntity
  8
250
  6
CONTINUOUS
100
AcDbDimension
  2
*D3
 10
-0.0000000000000014
 20
-42.0
 30
0.0
 11
-29.0
 21
-39.5
 31
0.0
 70
    32
  1
45～65
  3
BIGT
100
AcDbAlignedDimension
 13
-58.0
 23
-8.0
 33
0.0
 14
0.0
 24
-19.168629
 34
0.0
100
AcDbRotatedDimension
1001
ACAD
1000
DSTYLE
1002
{
1070
    78
1070
     8
1070
   140
1040
3.0
1002
}
  0
DIMENSION
  5
17BD
330
1A
100
AcDbEntity
  8
250
  6
CONTINUOUS
100
AcDbDimension
  2
*D4
 10
0.0000000000000014
 20
42.0
 30
0.0
 11
-64.0
 21
44.5
 31
0.0
 70
    32
  3
BIGT
100
AcDbAlignedDimension
 13
-128.0
 23
10.5
 33
0.0
 14
0.0
 24
19.168629
 34
0.0
100
AcDbRotatedDimension
1001
ACAD
1000
DSTYLE
1002
{
1070
    78
1070
     8
1070
   140
1040
3.0
1002
}
  0
DIMENSION
  5
17CD
330
1A
100
AcDbEntity
  8
250
  6
CONTINUOUS
100
AcDbDimension
  2
*D5
 10
-0.0000000000000672
 20
35.0
 30
0.0
 11
-24.00000000000003
 21
37.5
 31
0.0
 70
    32
  3
BIGT
100
AcDbAlignedDimension
 13
-48.0
 23
15.0
 33
0.0
 14
-0.0000000000000682
 24
19.168629
 34
0.0
100
AcDbRotatedDimension
1001
ACAD
1000
DSTYLE
1002
{
1070
    78
1070
     8
1070
   140
1040
3.0
1002
}
  0
DIMENSION
  5
17DA
330
1A
100
AcDbEntity
  8
250
  6
CONTINUOUS
100
AcDbDimension
  2
*D6
 10
-48.0
 20
35.0
 30
0.0
 11
-88.0
 21
37.5
 31
0.0
 70
    32
  3
BIGT
100
AcDbAlignedDimension
 13
-128.0
 23
10.5
 33
0.0
 14
-48.0
 24
15.0
 34
0.0
100
AcDbRotatedDimension
1001
ACAD
1000
DSTYLE
1002
{
1070
    78
1070
     8
1070
   140
1040
3.0
1002
}
  0
DIMENSION
  5
1807
330
1A
100
AcDbEntity
  8
250
  6
CONTINUOUS
100
AcDbDimension
  2
*D7
 10
-140.0
 20
12.5
 30
0.0
 11
-142.5
 21
-0.0000000000000187
 31
0.0
 70
    32
  1
{\H3;\U+2205}<>
  3
BIGT
100
AcDbAlignedDimension
 13
-116.5
 23
-12.5
 33
0.0
 14
-116.4999999999999
 24
12.5
 34
0.0
 50
90.0
100
AcDbRotatedDimension
1001
ACAD
1000
DSTYLE
1002
{
1070
    78
1070
     8
1070
   140
1040
3.0
1002
}
  0
INSERT
  5
1A96
330
1A
100
AcDbEntity
  8
240
100
AcDbBlockReference
  2
A$C5A3E52A4
 10
0.0
 20
0.0
 30
0.0
  0
VIEWPORT
  5
22
330
17
100
AcDbEntity
 67
     1
  8
0
100
AcDbViewport
 10
261.5176991150442
 20
148.5
 30
0.0
 40
523.0353982300885
 41
297.0
 68
     1
 69
     1
1001
ACAD
1000
MVIEW
1002
{
1070
    16
1010
0.0
1020
0.0
1030
0.0
1010
0.0
1020
0.0
1030
1.0
1040
0.0
1040
297.0
1040
261.5176991150442
1040
148.5
1040
50.0
1040
0.0
1040
0.0
1070
     0
1070
   100
1070
     1
1070
     1
1070
     0
1070
     0
1070
     0
1070
     0
1040
0.0
1040
0.0
1040
0.0
1040
1.0
1040
1.0
1040
10.0
1040
10.0
1070
     0
1002
{
1002
}
1002
}
  0
ENDSEC
  0
SECTION
  2
OBJECTS
  0
DICTIONARY
  5
C
330
0
100
AcDbDictionary
  3
ACAD_GROUP
350
D
  3
ACAD_LAYOUT
350
565
  3
ACAD_MLINESTYLE
350
E
  3
ACAD_PLOTSETTINGS
350
566
  3
ACAD_PLOTSTYLENAME
350
563
  3
ACDBHEADERROUNDTRIPXREC
350
1A9F
  3
ACDBVARIABLEDICTIONARY
350
161F
  3
DWGPROPS
350
161D
  3
GRADE_DWG
350
540
  0
DICTIONARY
  5
1AC2
330
1A
100
AcDbDictionary
280
     1
  3
ACAD_LAYOUTSELFREF
360
1AC3
  0
DICTIONARY
  5
1AC0
330
17
100
AcDbDictionary
280
     1
  3
ACAD_LAYOUTSELFREF
360
1AC1
  0
DICTIONARY
  5
D
102
{ACAD_REACTORS
330
C
102
}
330
C
100
AcDbDictionary
  3
DREC-1
350
5FC
  3
DREC-2
350
654
  3
DREC-3
350
673
  0
DICTIONARY
  5
565
102
{ACAD_REACTORS
330
C
102
}
330
C
100
AcDbDictionary
  0
DICTIONARY
  5
E
102
{ACAD_REACTORS
330
C
102
}
330
C
100
AcDbDictionary
  3
STANDARD
350
13
  0
DICTIONARY
  5
566
102
{ACAD_REACTORS
330
C
102
}
330
C
100
AcDbDictionary
  0
ACDBDICTIONARYWDFLT
  5
563
102
{ACAD_REACTORS
330
C
102
}
330
C
100
AcDbDictionary
281
     1
  3
Normal
350
564
100
AcDbDictionaryWithDefault
340
564
  0
DICTIONARY
  5
1A9F
102
{ACAD_REACTORS
330
C
102
}
330
C
100
AcDbDictionary
  3
CEPSNTYPE
350
1AA9
  3
DIMSTYLEDATA
350
1AAD
  3
FINGERPRINTGUID
350
1AAA
  3
HYPERLINKBASE
350
1AA2
  3
INSUNITS
350
1AA8
  3
LAYOUTDICT
350
1AA4
  3
LWETCUNION
350
1AA7
  3
PLOTSETDICT
350
1AA5
  3
PLOTSTYLNAMDICT
350
1AA6
  3
PSVPSCALE
350
1AAC
  3
PUCSBASE
350
1AB0
  3
PUCSORGBACK
350
1AB6
  3
PUCSORGBOTTOM
350
1AB2
  3
PUCSORGFRONT
350
1AB5
  3
PUCSORGLEFT
350
1AB3
  3
PUCSORGRIGHT
350
1AB4
  3
PUCSORGTOP
350
1AB1
  3
PUCSORTHOREF
350
1AAE
  3
PUCSORTHOVIEW
350
1AAF
  3
STYLESHEET
350
1AA3
  3
TSTACKALIGN
350
1AA0
  3
TSTACKSIZE
350
1AA1
  3
UCSBASE
350
1AB9
  3
UCSORGBACK
350
1ABF
  3
UCSORGBOTTOM
350
1ABB
  3
UCSORGFRONT
350
1ABE
  3
UCSORGLEFT
350
1ABC
  3
UCSORGRIGHT
350
1ABD
  3
UCSORGTOP
350
1ABA
  3
UCSORTHOREF
350
1AB7
  3
UCSORTHOVIEW
350
1AB8
  3
VERSIONGUID
350
1AAB
  0
DICTIONARY
  5
161F
102
{ACAD_REACTORS
330
C
102
}
330
C
100
AcDbDictionary
  3
DIMASSOC
350
1620
  0
XRECORD
  5
161D
102
{ACAD_REACTORS
330
C
102
}
330
C
100
AcDbXrecord
  1
DWGPROPS COOKIE
  2

  3

  4

  6

  7

  8
ymat
  9

300
=
301
=
302
=
303
=
304
=
305
=
306
=
307
=
308
=
309
=
 40
0.0654472337962963
 41
2452181.575331666
 42
2452409.151096273
  1

 90
        0
  0
DICTIONARY
  5
540
102
{ACAD_REACTORS
330
C
102
}
330
C
100
AcDbDictionary
  3
VERSION
350
560
  0
XRECORD
  5
1AC3
102
{ACAD_REACTORS
330
1AC2
102
}
330
1AC2
100
AcDbXrecord
340
1A
  0
XRECORD
  5
1AC1
102
{ACAD_REACTORS
330
1AC0
102
}
330
1AC0
100
AcDbXrecord
340
17
  0
GROUP
  5
5FC
102
{ACAD_REACTORS
330
D
102
}
330
D
100
AcDbGroup
300

 70
     0
 71
     1
1001
GRPNAME
1000
DREC-
1001
GPARA
1000
xsiz
1000
44.182
1000
ysiz
1000
40.677
1000
angl
1000
0
1000
ctyp
1000
0
1000
csiz
1000
5
1000
lfnt
1000
cont
1000
hcnt
1000
hoff
1000
vcnt
1000
voff
1000
opnt
1000
4
1000
dxpt
1000
0
1000
dypt
1000
0
  0
GROUP
  5
654
102
{ACAD_REACTORS
330
D
102
}
330
D
100
AcDbGroup
300

 70
     0
 71
     1
1001
GRPNAME
1000
DREC-
1001
GPARA
1000
xsiz
1000
54.592
1000
ysiz
1000
53.036
1000
angl
1000
0
1000
ctyp
1000
0
1000
csiz
1000
5
1000
lfnt
1000
cont
1000
hcnt
1000
hoff
1000
vcnt
1000
voff
1000
opnt
1000
4
1000
dxpt
1000
0
1000
dypt
1000
0
  0
GROUP
  5
673
102
{ACAD_REACTORS
330
D
102
}
330
D
100
AcDbGroup
300

 70
     0
 71
     1
1001
GRPNAME
1000
DREC-
1001
GPARA
1000
xsiz
1000
30.363
1000
ysiz
1000
36.175
1000
angl
1000
0
1000
ctyp
1000
0
1000
csiz
1000
5
1000
lfnt
1000
cont
1000
hcnt
1000
hoff
1000
vcnt
1000
voff
1000
opnt
1000
4
1000
dxpt
1000
0
1000
dypt
1000
0
  0
MLINESTYLE
  5
13
102
{ACAD_REACTORS
330
E
102
}
330
E
100
AcDbMlineStyle
  2
STANDARD
 70
     0
  3

 62
     0
 51
90.0
 52
90.0
 71
     2
 49
0.5
 62
   256
  6
BYLAYER
 49
-0.5
 62
   256
  6
BYLAYER
  0
ACDBPLACEHOLDER
  5
564
102
{ACAD_REACTORS
330
563
102
}
330
563
100
AcDbPlaceHolder
280
     0
  0
XRECORD
  5
1AA9
102
{ACAD_REACTORS
330
1A9F
102
}
330
1A9F
100
AcDbXrecord
 90
        0
  0
XRECORD
  5
1AAD
102
{ACAD_REACTORS
330
1A9F
102
}
330
1A9F
100
AcDbXrecord
1000
DSTYLE
1002
{
1070
    79
 70
     2
1070
   179
 70
     3
1070
   289
 70
     2
1070
   341
340
594
1070
   342
340
594
1070
   371
 70
    -1
1070
   372
 70
    -1
1002
}
  0
XRECORD
  5
1AAA
102
{ACAD_REACTORS
330
1A9F
102
}
330
1A9F
100
AcDbXrecord
  1
{51294030-9CB4-11D3-8E18-00A0C925D94D}
  0
XRECORD
  5
1AA2
102
{ACAD_REACTORS
330
1A9F
102
}
330
1A9F
100
AcDbXrecord
  1

  0
XRECORD
  5
1AA8
102
{ACAD_REACTORS
330
1A9F
102
}
330
1A9F
100
AcDbXrecord
 90
        0
  0
XRECORD
  5
1AA4
102
{ACAD_REACTORS
330
1A9F
102
}
330
1A9F
100
AcDbXrecord
340
565
  0
XRECORD
  5
1AA7
102
{ACAD_REACTORS
330
1A9F
102
}
330
1A9F
100
AcDbXrecord
 90
    10781
  0
XRECORD
  5
1AA5
102
{ACAD_REACTORS
330
1A9F
102
}
330
1A9F
100
AcDbXrecord
340
566
  0
XRECORD
  5
1AA6
102
{ACAD_REACTORS
330
1A9F
102
}
330
1A9F
100
AcDbXrecord
340
563
  0
XRECORD
  5
1AAC
102
{ACAD_REACTORS
330
1A9F
102
}
330
1A9F
100
AcDbXrecord
 40
0.0
  0
XRECORD
  5
1AB0
102
{ACAD_REACTORS
330
1A9F
102
}
330
1A9F
100
AcDbXrecord
340
0
  0
XRECORD
  5
1AB6
102
{ACAD_REACTORS
330
1A9F
102
}
330
1A9F
100
AcDbXrecord
 10
0.0
 20
0.0
 30
0.0
  0
XRECORD
  5
1AB2
102
{ACAD_REACTORS
330
1A9F
102
}
330
1A9F
100
AcDbXrecord
 10
0.0
 20
0.0
 30
0.0
  0
XRECORD
  5
1AB5
102
{ACAD_REACTORS
330
1A9F
102
}
330
1A9F
100
AcDbXrecord
 10
0.0
 20
0.0
 30
0.0
  0
XRECORD
  5
1AB3
102
{ACAD_REACTORS
330
1A9F
102
}
330
1A9F
100
AcDbXrecord
 10
0.0
 20
0.0
 30
0.0
  0
XRECORD
  5
1AB4
102
{ACAD_REACTORS
330
1A9F
102
}
330
1A9F
100
AcDbXrecord
 10
0.0
 20
0.0
 30
0.0
  0
XRECORD
  5
1AB1
102
{ACAD_REACTORS
330
1A9F
102
}
330
1A9F
100
AcDbXrecord
 10
0.0
 20
0.0
 30
0.0
  0
XRECORD
  5
1AAE
102
{ACAD_REACTORS
330
1A9F
102
}
330
1A9F
100
AcDbXrecord
340
0
  0
XRECORD
  5
1AAF
102
{ACAD_REACTORS
330
1A9F
102
}
330
1A9F
100
AcDbXrecord
 70
     0
  0
XRECORD
  5
1AA3
102
{ACAD_REACTORS
330
1A9F
102
}
330
1A9F
100
AcDbXrecord
  1
big.ctb
  0
XRECORD
  5
1AA0
102
{ACAD_REACTORS
330
1A9F
102
}
330
1A9F
100
AcDbXrecord
 90
        1
  0
XRECORD
  5
1AA1
102
{ACAD_REACTORS
330
1A9F
102
}
330
1A9F
100
AcDbXrecord
 90
       70
  0
XRECORD
  5
1AB9
102
{ACAD_REACTORS
330
1A9F
102
}
330
1A9F
100
AcDbXrecord
340
0
  0
XRECORD
  5
1ABF
102
{ACAD_REACTORS
330
1A9F
102
}
330
1A9F
100
AcDbXrecord
 10
0.0
 20
0.0
 30
0.0
  0
XRECORD
  5
1ABB
102
{ACAD_REACTORS
330
1A9F
102
}
330
1A9F
100
AcDbXrecord
 10
0.0
 20
0.0
 30
0.0
  0
XRECORD
  5
1ABE
102
{ACAD_REACTORS
330
1A9F
102
}
330
1A9F
100
AcDbXrecord
 10
0.0
 20
0.0
 30
0.0
  0
XRECORD
  5
1ABC
102
{ACAD_REACTORS
330
1A9F
102
}
330
1A9F
100
AcDbXrecord
 10
0.0
 20
0.0
 30
0.0
  0
XRECORD
  5
1ABD
102
{ACAD_REACTORS
330
1A9F
102
}
330
1A9F
100
AcDbXrecord
 10
0.0
 20
0.0
 30
0.0
  0
XRECORD
  5
1ABA
102
{ACAD_REACTORS
330
1A9F
102
}
330
1A9F
100
AcDbXrecord
 10
0.0
 20
0.0
 30
0.0
  0
XRECORD
  5
1AB7
102
{ACAD_REACTORS
330
1A9F
102
}
330
1A9F
100
AcDbXrecord
340
0
  0
XRECORD
  5
1AB8
102
{ACAD_REACTORS
330
1A9F
102
}
330
1A9F
100
AcDbXrecord
 70
     0
  0
XRECORD
  5
1AAB
102
{ACAD_REACTORS
330
1A9F
102
}
330
1A9F
100
AcDbXrecord
  1
{EDD58F34-688C-11D7-AD80-0010B5C7BFCA}
  0
DICTIONARYVAR
  5
1620
102
{ACAD_REACTORS
330
161F
102
}
330
161F
100
DictionaryVariables
280
     0
  1
1
  0
XRECORD
  5
560
102
{ACAD_REACTORS
330
540
102
}
330
540
100
AcDbXrecord
  1
2.0.0
  0
ENDSEC
  0
EOF
