  0
SECTION
  2
HEADER
  9
$ACADVER
  1
AC1014
  9
$ACADMAINTVER
 70
     9
  9
$DWGCODEPAGE
  3
ANSI_932
  9
$INSBASE
 10
0.0
 20
0.0
 30
0.0
  9
$EXTMIN
 10
-67.01110755094692
 20
-29.0072931447151
 30
-0.0015258207003583
  9
$EXTMAX
 10
22.02270560551278
 20
54.01326026256811
 30
0.0000000349246037
  9
$LIMMIN
 10
0.0
 20
0.0
  9
$LIMMAX
 10
297.0
 20
210.0
  9
$ORTHOMODE
 70
     0
  9
$REGENMODE
 70
     1
  9
$FILLMODE
 70
     1
  9
$QTEXTMODE
 70
     0
  9
$MIRRTEXT
 70
     1
  9
$DRAGMODE
 70
     2
  9
$LTSCALE
 40
10.0
  9
$OSMODE
 70
   613
  9
$ATTMODE
 70
     1
  9
$TEXTSIZE
 40
3.0
  9
$TRACEWID
 40
1.0
  9
$TEXTSTYLE
  7
YOKO
  9
$CLAYER
  8
240
  9
$CELTYPE
  6
BYLAYER
  9
$CECOLOR
 62
   256
  9
$CELTSCALE
 40
1.0
  9
$DELOBJ
 70
     1
  9
$DISPSILH
 70
     0
  9
$DIMSCALE
 40
1.0
  9
$DIMASZ
 40
2.229999999999999
  9
$DIMEXO
 40
0.5
  9
$DIMDLI
 40
2.5
  9
$DIMRND
 40
0.0
  9
$DIMDLE
 40
0.0
  9
$DIMEXE
 40
1.0
  9
$DIMTP
 40
0.0
  9
$DIMTM
 40
0.0
  9
$DIMTXT
 40
3.0
  9
$DIMCEN
 40
0.0
  9
$DIMTSZ
 40
0.0
  9
$DIMTOL
 70
     0
  9
$DIMLIM
 70
     0
  9
$DIMTIH
 70
     0
  9
$DIMTOH
 70
     0
  9
$DIMSE1
 70
     0
  9
$DIMSE2
 70
     0
  9
$DIMTAD
 70
     3
  9
$DIMZIN
 70
     8
  9
$DIMBLK
  1
OPEN
  9
$DIMASO
 70
     1
  9
$DIMSHO
 70
     1
  9
$DIMPOST
  1

  9
$DIMAPOST
  1

  9
$DIMALT
 70
     0
  9
$DIMALTD
 70
     2
  9
$DIMALTF
 40
25.4
  9
$DIMLFAC
 40
1.0
  9
$DIMTOFL
 70
     1
  9
$DIMTVP
 40
0.0
  9
$DIMTIX
 70
     0
  9
$DIMSOXD
 70
     0
  9
$DIMSAH
 70
     0
  9
$DIMBLK1
  1

  9
$DIMBLK2
  1

  9
$DIMSTYLE
  2
BIGT
  9
$DIMCLRD
 70
   256
  9
$DIMCLRE
 70
   256
  9
$DIMCLRT
 70
    40
  9
$DIMTFAC
 40
1.0
  9
$DIMGAP
 40
1.0
  9
$DIMJUST
 70
     0
  9
$DIMSD1
 70
     0
  9
$DIMSD2
 70
     0
  9
$DIMTOLJ
 70
     1
  9
$DIMTZIN
 70
     8
  9
$DIMALTZ
 70
     0
  9
$DIMALTTZ
 70
     0
  9
$DIMFIT
 70
     2
  9
$DIMUPT
 70
     0
  9
$DIMUNIT
 70
     2
  9
$DIMDEC
 70
     3
  9
$DIMTDEC
 70
     3
  9
$DIMALTU
 70
     2
  9
$DIMALTTD
 70
     2
  9
$DIMTXSTY
  7
STANDARD
  9
$DIMAUNIT
 70
     0
  9
$LUNITS
 70
     2
  9
$LUPREC
 70
     3
  9
$SKETCHINC
 40
1.0
  9
$FILLETRAD
 40
1.0
  9
$AUNITS
 70
     0
  9
$AUPREC
 70
     3
  9
$MENU
  1
.
  9
$ELEVATION
 40
0.0
  9
$PELEVATION
 40
0.0
  9
$THICKNESS
 40
0.0
  9
$LIMCHECK
 70
     0
  9
$BLIPMODE
 70
     0
  9
$CHAMFERA
 40
0.5
  9
$CHAMFERB
 40
0.5
  9
$CHAMFERC
 40
0.0
  9
$CHAMFERD
 40
0.0
  9
$SKPOLY
 70
     0
  9
$TDCREATE
 40
2452180.619342083
  9
$TDUPDATE
 40
2452737.391364109
  9
$TDINDWG
 40
0.2298972569
  9
$TDUSRTIMER
 40
0.2298972569
  9
$USRTIMER
 70
     1
  9
$ANGBASE
 50
0.0
  9
$ANGDIR
 70
     0
  9
$PDMODE
 70
    35
  9
$PDSIZE
 40
2.0
  9
$PLINEWID
 40
0.0
  9
$COORDS
 70
     2
  9
$SPLFRAME
 70
     0
  9
$SPLINETYPE
 70
     6
  9
$SPLINESEGS
 70
     8
  9
$ATTDIA
 70
     0
  9
$ATTREQ
 70
     0
  9
$HANDLING
 70
-16383
  9
$HANDSEED
  5
259B
  9
$SURFTAB1
 70
     6
  9
$SURFTAB2
 70
     6
  9
$SURFTYPE
 70
     6
  9
$SURFU
 70
     6
  9
$SURFV
 70
     6
  9
$UCSNAME
  2

  9
$UCSORG
 10
0.0
 20
0.0
 30
0.0
  9
$UCSXDIR
 10
1.0
 20
0.0
 30
0.0
  9
$UCSYDIR
 10
0.0
 20
1.0
 30
0.0
  9
$PUCSNAME
  2

  9
$PUCSORG
 10
0.0
 20
0.0
 30
0.0
  9
$PUCSXDIR
 10
1.0
 20
0.0
 30
0.0
  9
$PUCSYDIR
 10
0.0
 20
1.0
 30
0.0
  9
$USERI1
 70
     1
  9
$USERI2
 70
     0
  9
$USERI3
 70
     0
  9
$USERI4
 70
     0
  9
$USERI5
 70
     0
  9
$USERR1
 40
0.0
  9
$USERR2
 40
0.0
  9
$USERR3
 40
0.0
  9
$USERR4
 40
0.0
  9
$USERR5
 40
0.0
  9
$WORLDVIEW
 70
     1
  9
$SHADEDGE
 70
     3
  9
$SHADEDIF
 70
    70
  9
$TILEMODE
 70
     1
  9
$MAXACTVP
 70
    16
  9
$PINSBASE
 10
0.0
 20
0.0
 30
0.0
  9
$PLIMCHECK
 70
     0
  9
$PEXTMIN
 10
1.000000000000000E+20
 20
1.000000000000000E+20
 30
1.000000000000000E+20
  9
$PEXTMAX
 10
-1.000000000000000E+20
 20
-1.000000000000000E+20
 30
-1.000000000000000E+20
  9
$PLIMMIN
 10
0.0
 20
0.0
  9
$PLIMMAX
 10
420.0
 20
297.0
  9
$UNITMODE
 70
     0
  9
$VISRETAIN
 70
     0
  9
$PLINEGEN
 70
     0
  9
$PSLTSCALE
 70
     1
  9
$TREEDEPTH
 70
  3020
  9
$PICKSTYLE
 70
     0
  9
$CMLSTYLE
  2
STANDARD
  9
$CMLJUST
 70
     0
  9
$CMLSCALE
 40
1.0
  9
$PROXYGRAPHICS
 70
     1
  9
$MEASUREMENT
 70
     1
  0
ENDSEC
  0
SECTION
  2
CLASSES
  0
CLASS
  1
XRECORD
  2
AcDbXrecord
  3
AutoCAD 2000
 90
        0
280
     0
281
     0
  0
CLASS
  1
ACDBDICTIONARYWDFLT
  2
AcDbDictionaryWithDefault
  3
AutoCAD 2000
 90
        0
280
     0
281
     0
  0
CLASS
  1
ACDBPLACEHOLDER
  2
AcDbPlaceHolder
  3
AutoCAD 2000
 90
        0
280
     0
281
     0
  0
CLASS
  1
LAYOUT
  2
AcDbLayout
  3
AutoCAD 2000
 90
        0
280
     0
281
     0
  0
CLASS
  1
DICTIONARYVAR
  2
AcDbDictionaryVar
  3
AutoCAD 2000
 90
        0
280
     0
281
     0
  0
CLASS
  1
LONG_TRANSACTION
  2
AcDbLongTransaction
  3
AutoCAD 2000
 90
        0
280
     0
281
     0
  0
CLASS
  1
LWPOLYLINE
  2
AcDbPolyline
  3
AutoCAD 2000
 90
        0
280
     0
281
     1
  0
CLASS
  1
HATCH
  2
AcDbHatch
  3
AutoCAD 2000
 90
        0
280
     0
281
     1
  0
CLASS
  1
XRECORD
  2
AcDbXrecord
  3
AutoCAD 2000
 90
        0
280
     0
281
     0
  0
ENDSEC
  0
SECTION
  2
TABLES
  0
TABLE
  2
VPORT
  5
8
330
0
100
AcDbSymbolTable
 70
     2
  0
VPORT
  5
256A
330
8
100
AcDbSymbolTableRecord
100
AcDbViewportTableRecord
  2
*ACTIVE
 70
     0
 10
0.0
 20
0.0
 11
1.0
 21
1.0
 12
-22.49420097271706
 22
12.5029835589265
 13
0.0
 23
0.0
 14
7.0
 24
7.0
 15
7.0
 25
7.0
 16
0.0
 26
0.0
 36
1.0
 17
0.0
 27
0.0
 37
0.0
 40
83.63400577236166
 41
1.419235511713933
 42
50.0
 43
0.0
 44
0.0
 50
0.0
 51
0.0
 71
     0
 72
  2000
 73
     1
 74
     0
 75
     0
 76
     1
 77
     0
 78
     0
  0
ENDTAB
  0
TABLE
  2
LTYPE
  5
5
330
0
100
AcDbSymbolTable
 70
     3
  0
LTYPE
  5
14
330
5
100
AcDbSymbolTableRecord
100
AcDbLinetypeTableRecord
  2
BYBLOCK
 70
     0
  3

 72
    65
 73
     0
 40
0.0
  0
LTYPE
  5
15
330
5
100
AcDbSymbolTableRecord
100
AcDbLinetypeTableRecord
  2
BYLAYER
 70
     0
  3

 72
    65
 73
     0
 40
0.0
  0
LTYPE
  5
16
330
5
100
AcDbSymbolTableRecord
100
AcDbLinetypeTableRecord
  2
CONTINUOUS
 70
     0
  3
Solid line
 72
    65
 73
     0
 40
0.0
  0
LTYPE
  5
258
330
5
100
AcDbSymbolTableRecord
100
AcDbLinetypeTableRecord
  2
CENTER2
 70
     0
  3
___ _ ___ _ ___ _ ___ _ ___ _ ___ _ ___ _ ___ _
 72
    65
 73
     4
 40
1.125
 49
0.75
 74
     0
 49
-0.125
 74
     0
 49
0.125
 74
     0
 49
-0.125
 74
     0
  0
LTYPE
  5
25D
330
5
100
AcDbSymbolTableRecord
100
AcDbLinetypeTableRecord
  2
PHANTOM2
 70
     0
  3
___ _ _ ___ _ _ ___ _ _ ___ _ _ ___ _ _ ___ _ _
 72
    65
 73
     6
 40
1.25
 49
0.625
 74
     0
 49
-0.125
 74
     0
 49
0.125
 74
     0
 49
-0.125
 74
     0
 49
0.125
 74
     0
 49
-0.125
 74
     0
  0
ENDTAB
  0
TABLE
  2
LAYER
  5
2
330
0
100
AcDbSymbolTable
 70
    10
  0
LAYER
  5
F
330
2
100
AcDbSymbolTableRecord
100
AcDbLayerTableRecord
  2
0
 70
     0
 62
     7
  6
CONTINUOUS
  0
LAYER
  5
1AA
330
2
100
AcDbSymbolTableRecord
100
AcDbLayerTableRecord
  2
240
 70
     0
 62
     4
  6
CONTINUOUS
  0
LAYER
  5
1AB
330
2
100
AcDbSymbolTableRecord
100
AcDbLayerTableRecord
  2
241
 70
     0
 62
   211
  6
CONTINUOUS
  0
LAYER
  5
1AC
330
2
100
AcDbSymbolTableRecord
100
AcDbLayerTableRecord
  2
242
 70
     0
 62
     3
  6
CONTINUOUS
  0
LAYER
  5
1AF
330
2
100
AcDbSymbolTableRecord
100
AcDbLayerTableRecord
  2
245
 70
     0
 62
     2
  6
CENTER2
  0
LAYER
  5
21A
330
2
100
AcDbSymbolTableRecord
100
AcDbLayerTableRecord
  2
246
 70
     0
 62
     3
  6
PHANTOM2
  0
LAYER
  5
21B
330
2
100
AcDbSymbolTableRecord
100
AcDbLayerTableRecord
  2
247
 70
     0
 62
    60
  6
CONTINUOUS
  0
LAYER
  5
21E
330
2
100
AcDbSymbolTableRecord
100
AcDbLayerTableRecord
  2
250
 70
     0
 62
     3
  6
CONTINUOUS
  0
LAYER
  5
5C4
330
2
100
AcDbSymbolTableRecord
100
AcDbLayerTableRecord
  2
DEFPOINTS
 70
     0
 62
     7
  6
CONTINUOUS
  0
ENDTAB
  0
TABLE
  2
STYLE
  5
3
330
0
100
AcDbSymbolTable
 70
     2
  0
STYLE
  5
10
330
3
100
AcDbSymbolTableRecord
100
AcDbTextStyleTableRecord
  2
STANDARD
 70
     0
 40
0.0
 41
1.0
 50
0.0
 71
     0
 42
3.0
  3
romans.shx
  4
BIGFONT.SHX
  0
STYLE
  5
339
330
3
100
AcDbSymbolTableRecord
100
AcDbTextStyleTableRecord
  2
YOKO
 70
     0
 40
0.0
 41
1.0
 50
0.0
 71
     0
 42
3.0
  3
romans.shx
  4
extfont.shx
  0
ENDTAB
  0
TABLE
  2
VIEW
  5
6
330
0
100
AcDbSymbolTable
 70
     0
  0
ENDTAB
  0
TABLE
  2
UCS
  5
7
330
0
100
AcDbSymbolTable
 70
     0
  0
ENDTAB
  0
TABLE
  2
APPID
  5
9
330
0
100
AcDbSymbolTable
 70
     9
  0
APPID
  5
11
330
9
100
AcDbSymbolTableRecord
100
AcDbRegAppTableRecord
  2
ACAD
 70
     0
  0
APPID
  5
1B1
330
9
100
AcDbSymbolTableRecord
100
AcDbRegAppTableRecord
  2
GLOBAL
 70
     0
  0
APPID
  5
2A4
330
9
100
AcDbSymbolTableRecord
100
AcDbRegAppTableRecord
  2
DETAIL
 70
     0
  0
APPID
  5
5FD
330
9
100
AcDbSymbolTableRecord
100
AcDbRegAppTableRecord
  2
GRPNAME
 70
     0
  0
APPID
  5
5FE
330
9
100
AcDbSymbolTableRecord
100
AcDbRegAppTableRecord
  2
GPARA
 70
     0
  0
APPID
  5
9F6
330
9
100
AcDbSymbolTableRecord
100
AcDbRegAppTableRecord
  2
ITEMNAME
 70
     0
  0
APPID
  5
9F7
330
9
100
AcDbSymbolTableRecord
100
AcDbRegAppTableRecord
  2
HATCH_TYPE
 70
     0
  0
APPID
  5
9F8
330
9
100
AcDbSymbolTableRecord
100
AcDbRegAppTableRecord
  2
HATCH_DISPLAY
 70
     0
  0
APPID
  5
9F9
330
9
100
AcDbSymbolTableRecord
100
AcDbRegAppTableRecord
  2
HATCH_DISTANCE
 70
     0
  0
ENDTAB
  0
TABLE
  2
DIMSTYLE
  5
A
330
0
100
AcDbSymbolTable
 70
     2
  0
DIMSTYLE
105
48F
330
A
100
AcDbSymbolTableRecord
100
AcDbDimStyleTableRecord
  2
STANDARD
 70
     0
  3

  4

  5

  6

  7

 40
1.0
 41
2.0
 42
2.0
 43
3.75
 44
2.0
 45
0.0
 46
0.0
 47
0.0
 48
0.0
140
4.0
141
0.09
142
0.0
143
25.4
144
1.0
145
0.0
146
1.0
147
1.0
 71
     0
 72
     0
 73
     1
 74
     1
 75
     0
 76
     0
 77
     0
 78
     8
170
     0
171
     2
172
     0
173
     1
174
     0
175
     0
176
   256
177
   256
178
   256
270
     2
271
     3
272
     4
273
     2
274
     2
340
10
275
     0
280
     0
281
     0
282
     0
283
     1
284
     8
285
     0
286
     0
287
     3
288
     0
  0
DIMSTYLE
105
59A
102
{ACAD_REACTORS
330
184F
330
1850
330
1851
330
2039
330
2456
330
2465
330
2474
102
}
330
A
100
AcDbSymbolTableRecord
100
AcDbDimStyleTableRecord
  2
BIGT
 70
     0
  3

  4

  5
OPEN
  6

  7

 40
1.0
 41
2.229999999999999
 42
0.5
 43
2.5
 44
1.0
 45
0.0
 46
0.0
 47
0.0
 48
0.0
140
3.5
141
0.0
142
0.0
143
25.4
144
1.0
145
0.0
146
1.0
147
1.0
 71
     0
 72
     0
 73
     0
 74
     0
 75
     0
 76
     0
 77
     3
 78
     9
170
     0
171
     2
172
     1
173
     0
174
     0
175
     0
176
   256
177
   256
178
    40
270
     2
271
     3
272
     3
273
     2
274
     2
340
10
275
     0
280
     0
281
     0
282
     0
283
     1
284
     8
285
     0
286
     0
287
     2
288
     0
  0
ENDTAB
  0
TABLE
  2
BLOCK_RECORD
  5
1
330
0
100
AcDbSymbolTable
 70
     9
  0
BLOCK_RECORD
  5
1A
102
{ACAD_XDICTIONARY
360
258E
102
}
330
1
100
AcDbSymbolTableRecord
100
AcDbBlockTableRecord
  2
*MODEL_SPACE
  0
BLOCK_RECORD
  5
17
102
{ACAD_XDICTIONARY
360
258C
102
}
330
1
100
AcDbSymbolTableRecord
100
AcDbBlockTableRecord
  2
*PAPER_SPACE
  0
BLOCK_RECORD
  5
594
330
1
100
AcDbSymbolTableRecord
100
AcDbBlockTableRecord
  2
_OPEN
  0
BLOCK_RECORD
  5
1877
330
1
100
AcDbSymbolTableRecord
100
AcDbBlockTableRecord
  2
*D1
  0
BLOCK_RECORD
  5
1883
330
1
100
AcDbSymbolTableRecord
100
AcDbBlockTableRecord
  2
*D2
  0
BLOCK_RECORD
  5
1891
330
1
100
AcDbSymbolTableRecord
100
AcDbBlockTableRecord
  2
*D3
  0
BLOCK_RECORD
  5
203A
330
1
100
AcDbSymbolTableRecord
100
AcDbBlockTableRecord
  2
*D4
  0
BLOCK_RECORD
  5
2457
330
1
100
AcDbSymbolTableRecord
100
AcDbBlockTableRecord
  2
*D5
  0
BLOCK_RECORD
  5
2466
330
1
100
AcDbSymbolTableRecord
100
AcDbBlockTableRecord
  2
*D6
  0
BLOCK_RECORD
  5
2475
330
1
100
AcDbSymbolTableRecord
100
AcDbBlockTableRecord
  2
*D7
  0
BLOCK_RECORD
  5
248C
330
1
100
AcDbSymbolTableRecord
100
AcDbBlockTableRecord
  2
A$C51C66184
  0
ENDTAB
  0
ENDSEC
  0
SECTION
  2
BLOCKS
  0
BLOCK
  5
1B
330
1A
100
AcDbEntity
  8
0
100
AcDbBlockBegin
  2
*MODEL_SPACE
 70
     0
 10
0.0
 20
0.0
 30
0.0
  3
*MODEL_SPACE
  1

  0
ENDBLK
  5
1C
330
1A
100
AcDbEntity
  8
0
100
AcDbBlockEnd
  0
BLOCK
  5
18
330
17
100
AcDbEntity
 67
     1
  8
0
100
AcDbBlockBegin
  2
*PAPER_SPACE
 70
     0
 10
0.0
 20
0.0
 30
0.0
  3
*PAPER_SPACE
  1

  0
ENDBLK
  5
19
330
17
100
AcDbEntity
 67
     1
  8
0
100
AcDbBlockEnd
  0
BLOCK
  5
598
330
594
100
AcDbEntity
  8
0
100
AcDbBlockBegin
  2
_OPEN
 70
     0
 10
0.0
 20
0.0
 30
0.0
  3
_OPEN
  1

  0
LINE
  5
595
330
594
100
AcDbEntity
  8
0
  6
BYBLOCK
 62
     0
100
AcDbLine
 10
-1.0
 20
0.1666666666666666
 30
0.0
 11
0.0
 21
0.0
 31
0.0
  0
LINE
  5
596
330
594
100
AcDbEntity
  8
0
  6
BYBLOCK
 62
     0
100
AcDbLine
 10
-1.0
 20
-0.1666666666666666
 30
0.0
 11
0.0
 21
0.0
 31
0.0
  0
LINE
  5
597
330
594
100
AcDbEntity
  8
0
  6
BYBLOCK
 62
     0
100
AcDbLine
 10
0.0
 20
0.0
 30
0.0
 11
-1.0
 21
0.0
 31
0.0
  0
ENDBLK
  5
599
330
594
100
AcDbEntity
  8
0
100
AcDbBlockEnd
  0
BLOCK
  5
1881
330
1877
100
AcDbEntity
  8
0
100
AcDbBlockBegin
  2
*D1
 70
     1
 10
0.0
 20
0.0
 30
0.0
  3
*D1
  1

  0
LINE
  5
1C22
330
1877
100
AcDbEntity
  8
250
  6
CONTINUOUS
100
AcDbLine
 10
-0.4485280000000671
 20
-10.0
 30
0.0
 11
21.99999999999999
 21
-10.0
 31
0.0
  0
LINE
  5
1C23
330
1877
100
AcDbEntity
  8
250
  6
CONTINUOUS
100
AcDbLine
 10
-0.4485280000000671
 20
10.0
 30
0.0
 11
22.0
 21
9.999999999999992
 31
0.0
  0
LINE
  5
1C24
330
1877
100
AcDbEntity
  8
250
  6
CONTINUOUS
100
AcDbLine
 10
21.0
 20
-7.770000000000005
 30
0.0
 11
21.0
 21
7.769999999999993
 31
0.0
  0
INSERT
  5
1C25
330
1877
100
AcDbEntity
  8
250
  6
CONTINUOUS
100
AcDbBlockReference
  2
_OPEN
 10
20.99999999999999
 20
-10.0
 30
0.0
 41
2.229999999999999
 42
2.229999999999999
 43
2.229999999999999
 50
270.0
  0
INSERT
  5
1C26
330
1877
100
AcDbEntity
  8
250
  6
CONTINUOUS
100
AcDbBlockReference
  2
_OPEN
 10
21.0
 20
9.999999999999992
 30
0.0
 41
2.229999999999999
 42
2.229999999999999
 43
2.229999999999999
 50
90.0
  0
MTEXT
  5
1C27
330
1877
100
AcDbEntity
  8
250
  6
CONTINUOUS
 62
    40
100
AcDbMText
 10
18.5
 20
-0.0000000000000028
 30
0.0
 40
3.0
 41
0.0
 71
     5
 72
     1
  1
\A1;{\H3;\U+2205}20
 11
0.0000000000000001
 21
1.0
 31
0.0
1001
ACAD
1000
MTEXTBEGIN
1070
    73
1070
     1
1070
    44
1040
1.0
1070
    74
1070
     0
1000
MTEXTEND
  0
POINT
  5
1C28
330
1877
100
AcDbEntity
  8
DEFPOINTS
  6
CONTINUOUS
 62
     0
100
AcDbPoint
 10
-0.948528000000067
 20
-10.0
 30
0.0
  0
POINT
  5
1C29
330
1877
100
AcDbEntity
  8
DEFPOINTS
  6
CONTINUOUS
 62
     0
100
AcDbPoint
 10
-0.948528000000067
 20
10.0
 30
0.0
  0
POINT
  5
1C2A
330
1877
100
AcDbEntity
  8
DEFPOINTS
  6
CONTINUOUS
 62
     0
100
AcDbPoint
 10
21.0
 20
9.999999999999992
 30
0.0
  0
ENDBLK
  5
1882
330
1877
100
AcDbEntity
  8
0
100
AcDbBlockEnd
  0
BLOCK
  5
188F
330
1883
100
AcDbEntity
  8
0
100
AcDbBlockBegin
  2
*D2
 70
     1
 10
0.0
 20
0.0
 30
0.0
  3
*D2
  1

  0
LINE
  5
2590
330
1883
100
AcDbEntity
  8
250
100
AcDbLine
 10
0.5
 20
-3.0
 30
0.0
 11
15.0
 21
-3.000000000000004
 31
0.0
  0
LINE
  5
2591
330
1883
100
AcDbEntity
  8
250
100
AcDbLine
 10
0.5
 20
3.0
 30
0.0
 11
15.0
 21
2.999999999999995
 31
0.0
  0
LINE
  5
2592
330
1883
100
AcDbEntity
  8
250
100
AcDbLine
 10
13.99999999999999
 20
-5.230000000000003
 30
0.0
 11
13.99999999999999
 21
-7.460000000000004
 31
0.0
  0
LINE
  5
2593
330
1883
100
AcDbEntity
  8
250
100
AcDbLine
 10
14.0
 20
5.229999999999995
 30
0.0
 11
14.0
 21
7.459999999999995
 31
0.0
  0
MTEXT
  5
2594
330
1883
100
AcDbEntity
  8
250
 62
    40
100
AcDbMText
 10
11.57333346468186
 20
-1.574769610928058
 30
0.0
 40
3.0
 41
0.0
 71
     5
 72
     1
  1
\A1;MAX.%%c6
 11
0.0000000000000001
 21
1.0
 31
0.0
  0
LINE
  5
2595
330
1883
100
AcDbEntity
  8
250
100
AcDbLine
 10
14.0
 20
-3.000000000000003
 30
0.0
 11
14.0
 21
2.999999999999996
 31
0.0
  0
INSERT
  5
2596
330
1883
100
AcDbEntity
  8
250
100
AcDbBlockReference
  2
_OPEN
 10
14.0
 20
-3.000000000000003
 30
0.0
 41
2.229999999999999
 42
2.229999999999999
 43
2.229999999999999
 50
90.0
  0
INSERT
  5
2597
330
1883
100
AcDbEntity
  8
250
100
AcDbBlockReference
  2
_OPEN
 10
14.0
 20
2.999999999999996
 30
0.0
 41
2.229999999999999
 42
2.229999999999999
 43
2.229999999999999
 50
270.0
  0
POINT
  5
2598
330
1883
100
AcDbEntity
  8
DEFPOINTS
 62
     0
100
AcDbPoint
 10
0.0
 20
-3.0
 30
0.0
  0
POINT
  5
2599
330
1883
100
AcDbEntity
  8
DEFPOINTS
 62
     0
100
AcDbPoint
 10
0.0
 20
3.0
 30
0.0
  0
POINT
  5
259A
330
1883
100
AcDbEntity
  8
DEFPOINTS
 62
     0
100
AcDbPoint
 10
14.0
 20
2.999999999999996
 30
0.0
  0
ENDBLK
  5
1890
330
1883
100
AcDbEntity
  8
0
100
AcDbBlockEnd
  0
BLOCK
  5
189B
330
1891
100
AcDbEntity
  8
0
100
AcDbBlockBegin
  2
*D3
 70
     1
 10
0.0
 20
0.0
 30
0.0
  3
*D3
  1

  0
LINE
  5
18D8
330
1891
100
AcDbEntity
  8
250
100
AcDbLine
 10
-30.0
 20
-3.5
 30
0.0
 11
-30.0
 21
-29.0
 31
0.0
  0
LINE
  5
18D9
330
1891
100
AcDbEntity
  8
250
100
AcDbLine
 10
0.0
 20
-9.592893218813458
 30
0.0
 11
-0.0000000000000012
 21
-29.0
 31
0.0
  0
LINE
  5
18DA
330
1891
100
AcDbEntity
  8
250
100
AcDbLine
 10
-27.77
 20
-28.0
 30
0.0
 11
-2.230000000000001
 21
-28.0
 31
0.0
  0
INSERT
  5
18DB
330
1891
100
AcDbEntity
  8
250
100
AcDbBlockReference
  2
_OPEN
 10
-30.0
 20
-28.0
 30
0.0
 41
2.229999999999999
 42
2.229999999999999
 43
2.229999999999999
 50
180.0
  0
INSERT
  5
18DC
330
1891
100
AcDbEntity
  8
250
100
AcDbBlockReference
  2
_OPEN
 10
-0.0000000000000012
 20
-28.0
 30
0.0
 41
2.229999999999999
 42
2.229999999999999
 43
2.229999999999999
  0
MTEXT
  5
18DD
330
1891
100
AcDbEntity
  8
250
 62
    40
100
AcDbMText
 10
-15.0
 20
-25.5
 30
0.0
 40
3.0
 41
0.0
 71
     5
 72
     1
  1
\A1;21～40
1001
ACAD
1000
MTEXTBEGIN
1070
    73
1070
     1
1070
    44
1040
1.0
1070
    74
1070
     0
1000
MTEXTEND
  0
POINT
  5
18DE
330
1891
100
AcDbEntity
  8
DEFPOINTS
 62
     0
100
AcDbPoint
 10
-30.0
 20
-3.0
 30
0.0
  0
POINT
  5
18DF
330
1891
100
AcDbEntity
  8
DEFPOINTS
 62
     0
100
AcDbPoint
 10
0.0
 20
-9.092893218813458
 30
0.0
  0
POINT
  5
18E0
330
1891
100
AcDbEntity
  8
DEFPOINTS
 62
     0
100
AcDbPoint
 10
-0.0000000000000012
 20
-28.0
 30
0.0
  0
ENDBLK
  5
189C
330
1891
100
AcDbEntity
  8
0
100
AcDbBlockEnd
  0
BLOCK
  5
2044
330
203A
100
AcDbEntity
  8
0
100
AcDbBlockBegin
  2
*D4
 70
     1
 10
0.0
 20
0.0
 30
0.0
  3
*D4
  1

  0
LINE
  5
2413
330
203A
100
AcDbEntity
  8
250
  6
CONTINUOUS
100
AcDbLine
 10
-14.0
 20
10.5
 30
0.0
 11
-14.0
 21
29.0
 31
0.0
  0
LINE
  5
2414
330
203A
100
AcDbEntity
  8
250
  6
CONTINUOUS
100
AcDbLine
 10
0.0
 20
9.592893000000003
 30
0.0
 11
0.0000000000000012
 21
29.0
 31
0.0
  0
LINE
  5
2415
330
203A
100
AcDbEntity
  8
250
  6
CONTINUOUS
100
AcDbLine
 10
-11.77
 20
28.0
 30
0.0
 11
-2.229999999999998
 21
28.0
 31
0.0
  0
INSERT
  5
2416
330
203A
100
AcDbEntity
  8
250
  6
CONTINUOUS
100
AcDbBlockReference
  2
_OPEN
 10
-14.0
 20
28.0
 30
0.0
 41
2.229999999999999
 42
2.229999999999999
 43
2.229999999999999
 50
180.0
  0
INSERT
  5
2417
330
203A
100
AcDbEntity
  8
250
  6
CONTINUOUS
100
AcDbBlockReference
  2
_OPEN
 10
0.0000000000000012
 20
28.0
 30
0.0
 41
2.229999999999999
 42
2.229999999999999
 43
2.229999999999999
  0
MTEXT
  5
2418
330
203A
100
AcDbEntity
  8
250
  6
CONTINUOUS
 62
    40
100
AcDbMText
 10
-6.999999999999999
 20
30.5
 30
0.0
 40
3.0
 41
0.0
 71
     5
 72
     1
  1
\A1;14
1001
ACAD
1000
MTEXTBEGIN
1070
    73
1070
     1
1070
    44
1040
1.0
1070
    74
1070
     0
1000
MTEXTEND
  0
POINT
  5
2419
330
203A
100
AcDbEntity
  8
DEFPOINTS
  6
CONTINUOUS
 62
     0
100
AcDbPoint
 10
-14.0
 20
10.0
 30
0.0
  0
POINT
  5
241A
330
203A
100
AcDbEntity
  8
DEFPOINTS
  6
CONTINUOUS
 62
     0
100
AcDbPoint
 10
0.0
 20
9.092893000000003
 30
0.0
  0
POINT
  5
241B
330
203A
100
AcDbEntity
  8
DEFPOINTS
  6
CONTINUOUS
 62
     0
100
AcDbPoint
 10
0.0000000000000012
 20
28.0
 30
0.0
  0
ENDBLK
  5
2045
330
203A
100
AcDbEntity
  8
0
100
AcDbBlockEnd
  0
BLOCK
  5
2461
330
2457
100
AcDbEntity
  8
0
100
AcDbBlockBegin
  2
*D5
 70
     1
 10
0.0
 20
0.0
 30
0.0
  3
*D5
  1

  0
LINE
  5
2458
330
2457
100
AcDbEntity
  8
250
  6
CONTINUOUS
100
AcDbLine
 10
-55.0
 20
9.5
 30
0.0
 11
-55.0
 21
36.0
 31
0.0
  0
LINE
  5
2459
330
2457
100
AcDbEntity
  8
250
  6
CONTINUOUS
100
AcDbLine
 10
0.0
 20
9.592893000000003
 30
0.0
 11
0.0000000000000016
 21
36.0
 31
0.0
  0
LINE
  5
245A
330
2457
100
AcDbEntity
  8
250
  6
CONTINUOUS
100
AcDbLine
 10
-52.77000000000001
 20
35.0
 30
0.0
 11
-2.229999999999998
 21
35.0
 31
0.0
  0
INSERT
  5
245B
330
2457
100
AcDbEntity
  8
250
  6
CONTINUOUS
100
AcDbBlockReference
  2
_OPEN
 10
-55.0
 20
35.0
 30
0.0
 41
2.229999999999999
 42
2.229999999999999
 43
2.229999999999999
 50
180.0
  0
INSERT
  5
245C
330
2457
100
AcDbEntity
  8
250
  6
CONTINUOUS
100
AcDbBlockReference
  2
_OPEN
 10
0.0000000000000016
 20
35.0
 30
0.0
 41
2.229999999999999
 42
2.229999999999999
 43
2.229999999999999
  0
MTEXT
  5
245D
330
2457
100
AcDbEntity
  8
250
  6
CONTINUOUS
 62
    40
100
AcDbMText
 10
-27.5
 20
37.5
 30
0.0
 40
3.0
 41
0.0
 71
     5
 72
     1
  1
\A1;55
1001
ACAD
1000
MTEXTBEGIN
1070
    73
1070
     1
1070
    44
1040
1.0
1070
    74
1070
     0
1000
MTEXTEND
  0
POINT
  5
245E
330
2457
100
AcDbEntity
  8
DEFPOINTS
  6
CONTINUOUS
 62
     0
100
AcDbPoint
 10
-55.0
 20
9.0
 30
0.0
  0
POINT
  5
245F
330
2457
100
AcDbEntity
  8
DEFPOINTS
  6
CONTINUOUS
 62
     0
100
AcDbPoint
 10
0.0
 20
9.092893000000003
 30
0.0
  0
POINT
  5
2460
330
2457
100
AcDbEntity
  8
DEFPOINTS
  6
CONTINUOUS
 62
     0
100
AcDbPoint
 10
0.0000000000000016
 20
35.0
 30
0.0
  0
ENDBLK
  5
2462
330
2457
100
AcDbEntity
  8
0
100
AcDbBlockEnd
  0
BLOCK
  5
2470
330
2466
100
AcDbEntity
  8
0
100
AcDbBlockBegin
  2
*D6
 70
     1
 10
0.0
 20
0.0
 30
0.0
  3
*D6
  1

  0
LINE
  5
2467
330
2466
100
AcDbEntity
  8
250
  6
CONTINUOUS
100
AcDbLine
 10
-55.0
 20
9.5
 30
0.0
 11
-55.0
 21
29.0
 31
0.0
  0
LINE
  5
2468
330
2466
100
AcDbEntity
  8
250
  6
CONTINUOUS
100
AcDbLine
 10
-14.0
 20
10.5
 30
0.0
 11
-14.0
 21
29.0
 31
0.0
  0
LINE
  5
2469
330
2466
100
AcDbEntity
  8
250
  6
CONTINUOUS
100
AcDbLine
 10
-52.77000000000001
 20
28.0
 30
0.0
 11
-16.23
 21
28.0
 31
0.0
  0
INSERT
  5
246A
330
2466
100
AcDbEntity
  8
250
  6
CONTINUOUS
100
AcDbBlockReference
  2
_OPEN
 10
-55.0
 20
28.0
 30
0.0
 41
2.229999999999999
 42
2.229999999999999
 43
2.229999999999999
 50
180.0
  0
INSERT
  5
246B
330
2466
100
AcDbEntity
  8
250
  6
CONTINUOUS
100
AcDbBlockReference
  2
_OPEN
 10
-14.0
 20
28.0
 30
0.0
 41
2.229999999999999
 42
2.229999999999999
 43
2.229999999999999
  0
MTEXT
  5
246C
330
2466
100
AcDbEntity
  8
250
  6
CONTINUOUS
 62
    40
100
AcDbMText
 10
-34.5
 20
30.5
 30
0.0
 40
3.0
 41
0.0
 71
     5
 72
     1
  1
\A1;41
1001
ACAD
1000
MTEXTBEGIN
1070
    73
1070
     1
1070
    44
1040
1.0
1070
    74
1070
     0
1000
MTEXTEND
  0
POINT
  5
246D
330
2466
100
AcDbEntity
  8
DEFPOINTS
  6
CONTINUOUS
 62
     0
100
AcDbPoint
 10
-55.0
 20
9.0
 30
0.0
  0
POINT
  5
246E
330
2466
100
AcDbEntity
  8
DEFPOINTS
  6
CONTINUOUS
 62
     0
100
AcDbPoint
 10
-14.0
 20
10.0
 30
0.0
  0
POINT
  5
246F
330
2466
100
AcDbEntity
  8
DEFPOINTS
  6
CONTINUOUS
 62
     0
100
AcDbPoint
 10
-14.0
 20
28.0
 30
0.0
  0
ENDBLK
  5
2471
330
2466
100
AcDbEntity
  8
0
100
AcDbBlockEnd
  0
BLOCK
  5
247F
330
2475
100
AcDbEntity
  8
0
100
AcDbBlockBegin
  2
*D7
 70
     1
 10
0.0
 20
0.0
 30
0.0
  3
*D7
  1

  0
LINE
  5
2481
330
2475
100
AcDbEntity
  8
250
  6
CONTINUOUS
100
AcDbLine
 10
-45.0
 20
-11.0
 30
0.0
 11
-64.0
 21
-10.99999999999999
 31
0.0
  0
LINE
  5
2482
330
2475
100
AcDbEntity
  8
250
  6
CONTINUOUS
100
AcDbLine
 10
-45.00000000000002
 20
11.0
 30
0.0
 11
-64.0
 21
11.0
 31
0.0
  0
LINE
  5
2483
330
2475
100
AcDbEntity
  8
250
  6
CONTINUOUS
100
AcDbLine
 10
-63.0
 20
-8.769999999999994
 30
0.0
 11
-63.0
 21
8.770000000000004
 31
0.0
  0
INSERT
  5
2484
330
2475
100
AcDbEntity
  8
250
  6
CONTINUOUS
100
AcDbBlockReference
  2
_OPEN
 10
-63.0
 20
-10.99999999999999
 30
0.0
 41
2.229999999999999
 42
2.229999999999999
 43
2.229999999999999
 50
270.0
  0
INSERT
  5
2485
330
2475
100
AcDbEntity
  8
250
  6
CONTINUOUS
100
AcDbBlockReference
  2
_OPEN
 10
-63.0
 20
11.0
 30
0.0
 41
2.229999999999999
 42
2.229999999999999
 43
2.229999999999999
 50
90.0
  0
MTEXT
  5
2486
330
2475
100
AcDbEntity
  8
250
  6
CONTINUOUS
 62
    40
100
AcDbMText
 10
-65.5
 20
-0.0000000000000047
 30
0.0
 40
3.0
 41
0.0
 71
     5
 72
     1
  1
\A1;{\H3;\U+2205}22
 11
0.0000000000000001
 21
1.0
 31
0.0
1001
ACAD
1000
MTEXTBEGIN
1070
    73
1070
     1
1070
    44
1040
1.0
1070
    74
1070
     0
1000
MTEXTEND
  0
POINT
  5
2487
330
2475
100
AcDbEntity
  8
DEFPOINTS
  6
CONTINUOUS
 62
     0
100
AcDbPoint
 10
-44.5
 20
-11.0
 30
0.0
  0
POINT
  5
2488
330
2475
100
AcDbEntity
  8
DEFPOINTS
  6
CONTINUOUS
 62
     0
100
AcDbPoint
 10
-44.50000000000001
 20
11.0
 30
0.0
  0
POINT
  5
2489
330
2475
100
AcDbEntity
  8
DEFPOINTS
  6
CONTINUOUS
 62
     0
100
AcDbPoint
 10
-63.0
 20
11.0
 30
0.0
  0
ENDBLK
  5
2480
330
2475
100
AcDbEntity
  8
0
100
AcDbBlockEnd
  0
BLOCK
  5
2560
330
248C
100
AcDbEntity
  8
0
100
AcDbBlockBegin
  2
A$C51C66184
 70
     0
 10
0.0
 20
0.0
 30
0.0
  3
A$C51C66184
  1

  0
TEXT
  5
248D
330
248C
100
AcDbEntity
  8
247
100
AcDbText
 10
-34.74195854163717
 20
-9.434210234403128
 30
0.0
 40
1.5
  1
SL22-NBS6-40
  7
YOKO
 11
-34.74195854163717
 21
-9.434210234403128
 31
0.0
100
AcDbText
 73
     1
  0
LINE
  5
248E
330
248C
100
AcDbEntity
  8
242
100
AcDbLine
 10
-20.0
 20
5.545268253204712
 30
0.0
 11
-55.0
 21
-5.545268253204713
 31
0.0
  0
LINE
  5
248F
330
248C
100
AcDbEntity
  8
242
100
AcDbLine
 10
-55.0
 20
5.545268253204713
 30
0.0
 11
-20.00000170339366
 21
-5.545271171410524
 31
0.0
  0
LINE
  5
2490
330
248C
100
AcDbEntity
  8
241
100
AcDbLine
 10
-20.0
 20
-5.545268253204712
 30
0.0
 11
-55.0
 21
-5.545268253204713
 31
0.0
  0
LINE
  5
2491
330
248C
100
AcDbEntity
  8
241
100
AcDbLine
 10
-20.0
 20
5.545268253204712
 30
0.0
 11
-55.0
 21
5.545268253204713
 31
0.0
  0
LINE
  5
2492
330
248C
100
AcDbEntity
  8
240
100
AcDbLine
 10
-15.0
 20
-11.0
 30
0.0
 11
-44.5
 21
-11.0
 31
0.0
  0
LINE
  5
2493
330
248C
100
AcDbEntity
  8
240
100
AcDbLine
 10
-15.0
 20
11.0
 30
0.0
 11
-44.50000000000001
 21
11.0
 31
0.0
  0
LINE
  5
2494
330
248C
100
AcDbEntity
  8
245
100
AcDbLine
 10
2.086953510294392
 20
0.0
 30
0.0
 11
-56.78356268596502
 21
0.0
 31
0.0
  0
LINE
  5
2495
330
248C
100
AcDbEntity
  8
246
100
AcDbLine
 10
-30.0
 20
-2.75
 30
0.0
 11
-31.59529900000006
 21
-1.154700999999931
 31
0.0
  0
LINE
  5
2496
330
248C
100
AcDbEntity
  8
246
100
AcDbLine
 10
-30.0
 20
2.75
 30
0.0
 11
-31.59529900000006
 21
1.154700000000048
 31
0.0
  0
LINE
  5
2497
330
248C
100
AcDbEntity
  8
246
100
AcDbLine
 10
-39.75
 20
3.15000000000009
 30
0.0
 11
-30.15000000000003
 21
3.15000000000009
 31
0.0
  0
LINE
  5
2498
330
248C
100
AcDbEntity
  8
246
100
AcDbLine
 10
-39.40000000000003
 20
3.5
 30
0.0
 11
-30.5
 21
3.5
 31
0.0
  0
LINE
  5
2499
330
248C
100
AcDbEntity
  8
246
100
AcDbLine
 10
-39.40000000000003
 20
-3.5
 30
0.0
 11
-30.5
 21
-3.5
 31
0.0
  0
LINE
  5
249A
330
248C
100
AcDbEntity
  8
246
100
AcDbLine
 10
-39.75
 20
-3.149999999999977
 30
0.0
 11
-30.15000000000003
 21
-3.149999999999977
 31
0.0
  0
LINE
  5
249B
330
248C
100
AcDbEntity
  8
240
100
AcDbLine
 10
-55.0
 20
-9.0
 30
0.0
 11
-55.0
 21
9.0
 31
0.0
  0
ARC
  5
249C
330
248C
100
AcDbEntity
  8
246
100
AcDbCircle
 10
-41.0
 20
-1.899999999999977
 30
0.0
 40
1.0
100
AcDbArc
 50
180.0
 51
270.0
  0
LINE
  5
249D
330
248C
100
AcDbEntity
  8
240
100
AcDbLine
 10
-46.0
 20
-9.500000000000001
 30
0.0
 11
-54.5
 21
-9.5
 31
0.0
  0
LINE
  5
249E
330
248C
100
AcDbEntity
  8
240
100
AcDbLine
 10
-55.0
 20
-9.0
 30
0.0
 11
-54.5
 21
-9.5
 31
0.0
  0
HATCH
  5
249F
330
248C
100
AcDbEntity
  8
247
100
AcDbHatch
 10
0.0
 20
0.0
 30
0.0
210
0.0
220
0.0
230
1.0
  2
ANSI31
 70
     0
 71
     1
 91
        1
 92
       33
 93
       10
 72
     1
 10
-39.68607400991372
 20
-7.79528562559734
 11
-39.73822473623208
 21
-7.977164287706716
 72
     1
 10
-40.06167596914224
 20
-7.79528562559734
 11
-39.68607400991372
 21
-7.79528562559734
 72
     1
 10
-40.06167596914224
 20
-7.977164287706716
 11
-39.73822473623208
 21
-7.977164287706716
 72
     2
 10
-40.06167596914226
 20
-8.75014173521648
 40
0.7729774475097657
 50
90.0
 51
270.0
 73
     1
 72
     2
 10
-40.06167596914226
 20
-8.75014173521648
 40
0.9548561096191406
 50
90.0
 51
270.0
 73
     1
 72
     1
 10
-40.06167596914224
 20
-9.704998054731492
 11
-36.36956247426919
 21
-9.704998054731492
 72
     1
 10
-40.06167596914224
 20
-9.523119397302968
 11
-36.36956247426919
 21
-9.523119397302968
 72
     2
 10
-36.36956247426921
 20
-8.75014173521648
 40
0.9548561096191406
 50
270.0
 51
464.7707939660941
 73
     1
 72
     2
 10
-36.36956247426921
 20
-8.75014173521648
 40
0.7729774475097657
 50
270.0
 51
464.1274364964119
 73
     1
 72
     1
 10
-36.55823206045083
 20
-8.000537700792653
 11
-36.61300577260904
 21
-7.826836986681325
 97
       10
330
24B2
330
24AE
330
24AF
330
24BA
330
24BB
330
24A5
330
24A4
330
2506
330
2505
330
24CA
 75
     0
 76
     1
 52
360.0
 41
0.045
 77
     0
 78
     1
 53
44.99999999999996
 43
-94.92652607061321
 44
-16.79249355330115
 45
-0.101027881362028
 46
0.101027881362028
 79
     0
 98
        1
 10
-94.92652607061321
 20
-16.79249355330115
  0
LINE
  5
24A0
330
248C
100
AcDbEntity
  8
247
100
AcDbLine
 10
-39.21839460931603
 20
-8.769522094881278
 30
0.0
 11
-38.56754568475621
 21
-8.118673170321448
 31
0.0
  0
ARC
  5
24A1
330
248C
100
AcDbEntity
  8
247
100
AcDbCircle
 10
-39.20577921010906
 20
-8.231793041368824
 30
0.0
 40
0.2728103756904602
100
AcDbArc
 50
261.6626016879294
 51
66.33815509518978
  0
LINE
  5
24A2
330
248C
100
AcDbEntity
  8
247
100
AcDbLine
 10
-39.75679206539284
 20
-8.701752262785873
 30
0.0
 11
-39.12014122406118
 21
-8.065101421454221
 31
0.0
  0
LINE
  5
24A3
330
248C
100
AcDbEntity
  8
247
100
AcDbLine
 10
-39.91925481140519
 20
-9.268326534246385
 30
0.0
 11
-39.14970712855174
 21
-8.498778851392899
 31
0.0
  0
LINE
  5
24A4
102
{ACAD_REACTORS
330
249F
102
}
330
248C
100
AcDbEntity
  8
247
100
AcDbLine
 10
-40.06167596914224
 20
-9.523119397302968
 30
0.0
 11
-36.36956247426919
 21
-9.523119397302968
 31
0.0
  0
LINE
  5
24A5
102
{ACAD_REACTORS
330
249F
102
}
330
248C
100
AcDbEntity
  8
247
100
AcDbLine
 10
-40.06167596914224
 20
-9.704998054731492
 30
0.0
 11
-36.36956247426919
 21
-9.704998054731492
 31
0.0
  0
ARC
  5
24A6
330
248C
100
AcDbEntity
  8
247
100
AcDbCircle
 10
-39.2114783678239
 20
-8.977490062853201
 30
0.0
 40
0.4546897888183594
100
AcDbArc
 50
270.0
 51
40.32984065416744
  0
LINE
  5
24A7
330
248C
100
AcDbEntity
  8
247
100
AcDbLine
 10
-39.2748852925109
 20
-9.432180066248315
 30
0.0
 11
-38.76069806209553
 21
-8.917992835832899
 31
0.0
  0
ARC
  5
24A8
330
248C
100
AcDbEntity
  8
247
100
AcDbCircle
 10
-39.41438898183757
 20
-8.959300823351247
 30
0.0
 40
0.2728181809186935
100
AcDbArc
 50
261.6628542111488
 51
66.33819215911007
  0
LINE
  5
24A9
330
248C
100
AcDbEntity
  8
247
100
AcDbLine
 10
-39.47694105523499
 20
-9.43218006624828
 30
0.0
 11
-38.80958689132035
 21
-8.764825902333676
 31
0.0
  0
LINE
  5
24AA
330
248C
100
AcDbEntity
  8
247
100
AcDbLine
 10
-39.0962893347682
 20
-7.981918136101807
 30
0.0
 11
-39.24533685367718
 21
-8.501720242517045
 31
0.0
  0
LINE
  5
24AB
330
248C
100
AcDbEntity
  8
247
100
AcDbLine
 10
-39.59147485830229
 20
-7.79528562559734
 30
0.0
 11
-39.00474273199155
 21
-7.795285625597409
 31
0.0
  0
LINE
  5
24AC
330
248C
100
AcDbEntity
  8
247
100
AcDbLine
 10
-39.67556069238664
 20
-8.41846512705565
 30
0.0
 11
-39.05238119092838
 21
-7.795285625597409
 31
0.0
  0
LINE
  5
24AD
330
248C
100
AcDbEntity
  8
240
100
AcDbLine
 10
-44.5
 20
-11.0
 30
0.0
 11
-46.0
 21
-9.500000000000001
 31
0.0
  0
LINE
  5
24AE
102
{ACAD_REACTORS
330
249F
102
}
330
248C
100
AcDbEntity
  8
247
100
AcDbLine
 10
-40.06167596914224
 20
-7.79528562559734
 30
0.0
 11
-39.68607400991372
 21
-7.79528562559734
 31
0.0
  0
LINE
  5
24AF
102
{ACAD_REACTORS
330
249F
102
}
330
248C
100
AcDbEntity
  8
247
100
AcDbLine
 10
-40.06167596914224
 20
-7.977164287706716
 30
0.0
 11
-39.73822473623208
 21
-7.977164287706716
 31
0.0
  0
LINE
  5
24B0
330
248C
100
AcDbEntity
  8
247
100
AcDbLine
 10
-39.64362558462096
 20
-7.977164287706716
 30
0.0
 11
-39.54901956655454
 21
-7.977164287707261
 31
0.0
  0
LINE
  5
24B1
330
248C
100
AcDbEntity
  8
247
100
AcDbLine
 10
-39.59147485830229
 20
-7.79528562559734
 30
0.0
 11
-39.64362558462096
 21
-7.977164287706716
 31
0.0
  0
LINE
  5
24B2
102
{ACAD_REACTORS
330
249F
102
}
330
248C
100
AcDbEntity
  8
247
100
AcDbLine
 10
-39.68607400991372
 20
-7.79528562559734
 30
0.0
 11
-39.73822473623208
 21
-7.977164287706716
 31
0.0
  0
LINE
  5
24B3
330
248C
100
AcDbEntity
  8
247
100
AcDbLine
 10
-39.63837137848585
 20
-7.97716428770675
 30
0.0
 11
-39.45649271637648
 21
-7.795285625597375
 31
0.0
  0
LINE
  5
24B4
330
248C
100
AcDbEntity
  8
247
100
AcDbLine
 10
-39.59432931938046
 20
-8.135177991325395
 30
0.0
 11
-39.25443695365244
 21
-7.795285625597409
 31
0.0
  0
LINE
  5
24B5
330
248C
100
AcDbEntity
  8
247
100
AcDbLine
 10
-39.30489693574159
 20
-8.709418347612176
 30
0.0
 11
-39.45394690667063
 21
-9.229235871877188
 31
0.0
  0
LINE
  5
24B6
330
248C
100
AcDbEntity
  8
247
100
AcDbLine
 10
-39.96623911001139
 20
-9.43218006624828
 30
0.0
 11
-39.21147836782388
 21
-9.43218006624828
 31
0.0
  0
LINE
  5
24B7
330
248C
100
AcDbEntity
  8
247
100
AcDbLine
 10
-39.88105258068307
 20
-9.43218006624828
 30
0.0
 11
-39.3638331366729
 21
-8.914960622238107
 31
0.0
  0
LINE
  5
24B8
330
248C
100
AcDbEntity
  8
247
100
AcDbLine
 10
-39.67899681795903
 20
-9.43218006624828
 30
0.0
 11
-39.44506032413603
 21
-9.198243572425313
 31
0.0
  0
LINE
  5
24B9
330
248C
100
AcDbEntity
  8
247
100
AcDbLine
 10
-39.96623911001139
 20
-9.43218006624828
 30
0.0
 11
-39.54901956655454
 21
-7.977164287707261
 31
0.0
  0
ARC
  5
24BA
102
{ACAD_REACTORS
330
249F
102
}
330
248C
100
AcDbEntity
  8
247
100
AcDbCircle
 10
-40.06167596914226
 20
-8.75014173521648
 30
0.0
 40
0.7729774475097657
100
AcDbArc
 50
90.0
 51
270.0
  0
ARC
  5
24BB
102
{ACAD_REACTORS
330
249F
102
}
330
248C
100
AcDbEntity
  8
247
100
AcDbCircle
 10
-40.06167596914226
 20
-8.75014173521648
 30
0.0
 40
0.9548561096191406
100
AcDbArc
 50
90.0
 51
270.0
  0
LINE
  5
24BC
330
248C
100
AcDbEntity
  8
247
100
AcDbLine
 10
-39.83802343839902
 20
-8.98503939851613
 30
0.0
 11
-39.2013699158431
 21
-8.348385875960239
 31
0.0
  0
LINE
  5
24BD
330
248C
100
AcDbEntity
  8
246
100
AcDbLine
 10
-41.0
 20
-2.899999999999977
 30
0.0
 11
-40.0
 21
-2.899999999999977
 31
0.0
  0
LINE
  5
24BE
330
248C
100
AcDbEntity
  8
246
100
AcDbLine
 10
-40.0
 20
-2.899999999999977
 30
0.0
 11
-39.40000000000003
 21
-3.5
 31
0.0
  0
HATCH
  5
24BF
330
248C
100
AcDbEntity
  8
247
100
AcDbHatch
 10
0.0
 20
0.0
 30
0.0
210
0.0
220
0.0
230
1.0
  2
ANSI31
 70
     0
 71
     1
 91
        1
 92
       33
 93
       15
 72
     1
 10
-36.64496225454263
 20
-8.027886791368825
 11
-36.69973596670082
 21
-7.854186077257497
 72
     2
 10
-36.36956247426921
 20
-8.75014173521648
 40
0.7729795932769776
 50
110.8721834020771
 51
132.5419489373866
 73
     1
 72
     2
 10
-37.08308328725749
 20
-8.186323375841482
 40
0.1909725040197372
 50
1.710121382062758
 51
163.9983983544486
 73
     1
 72
     1
 10
-37.51177667715005
 20
-8.988503856798512
 11
-37.26665796377115
 21
-8.133678264757497
 72
     2
 10
-37.32820200063639
 20
-9.04114210142742
 40
0.1909723699092865
 50
164.000273057184
 51
344.000273057184
 73
     1
 72
     1
 10
-37.1446273241227
 20
-9.093780346056325
 11
-37.02783578969888
 21
-8.686482830187184
 72
     1
 10
-37.17919992544107
 20
-8.686482830187184
 11
-37.02783578969888
 21
-8.686482830187184
 72
     1
 10
-37.17919992544107
 20
-8.686482830187184
 11
-37.12704919912271
 21
-8.504604168077809
 72
     1
 10
-37.12704919912271
 20
-8.504604168077809
 11
-36.59726785756997
 21
-8.504604168077809
 72
     1
 10
-36.86324686147623
 20
-9.43218006624828
 11
-36.59726785756997
 21
-8.504604168077809
 72
     1
 10
-36.96993784048013
 20
-9.325495953699453
 11
-36.86324686147623
 21
-9.43218006624828
 72
     2
 10
-37.30867380239421
 20
-8.841081066271168
 40
0.5911056518554688
 50
163.9997507017293
 51
304.9638732916317
 73
     1
 72
     2
 10
-36.34224771596842
 20
-8.872158641954763
 40
1.546847534179687
 50
155.2051773698403
 51
172.7948259620522
 73
     1
 72
     2
 10
-37.17829355337078
 20
-8.386384410997731
 40
0.5910996437072754
 50
53.44401219705763
 51
164.0001843876854
 73
     1
 72
     2
 10
-36.36956247426921
 20
-8.75014173521648
 40
0.954856538772583
 50
110.22964506332
 51
118.5716889237176
 73
     1
 97
       15
330
24C8
330
24E3
330
24C7
330
2502
330
24E9
330
24E8
330
24EB
330
2504
330
24C6
330
2503
330
24EA
330
24E5
330
24FE
330
24E4
330
24C9
 75
     0
 76
     1
 52
360.0
 41
0.045
 77
     0
 78
     1
 53
44.99999999999996
 43
-94.92652607061321
 44
-16.79249355330115
 45
-0.101027881362028
 46
0.101027881362028
 79
     0
 98
        1
 10
-94.92652607061321
 20
-16.79249355330115
  0
LINE
  5
24C0
330
248C
100
AcDbEntity
  8
247
100
AcDbLine
 10
-38.25756296255043
 20
-7.79528562559734
 30
0.0
 11
-37.78454660512856
 21
-7.79528562559734
 31
0.0
  0
LINE
  5
24C1
330
248C
100
AcDbEntity
  8
247
100
AcDbLine
 10
-39.05770505235925
 20
-8.00266524975235
 30
0.0
 11
-38.87012856457864
 21
-7.815088761971753
 31
0.0
  0
LINE
  5
24C2
330
248C
100
AcDbEntity
  8
247
100
AcDbLine
 10
-38.96210508067031
 20
-8.109121040787419
 30
0.0
 11
-38.73531583054449
 21
-7.8823317906616
 31
0.0
  0
LINE
  5
24C3
330
248C
100
AcDbEntity
  8
247
100
AcDbLine
 10
-38.31493219472817
 20
-7.995346660753591
 30
0.0
 11
-38.24870523549965
 21
-7.995346660753591
 31
0.0
  0
LINE
  5
24C4
330
248C
100
AcDbEntity
  8
247
100
AcDbLine
 10
-38.938793400085
 20
-8.287865122926154
 30
0.0
 11
-38.6344370175454
 21
-7.983508740386559
 31
0.0
  0
LINE
  5
24C5
330
248C
100
AcDbEntity
  8
247
100
AcDbLine
 10
-38.31493219472817
 20
-7.995346660753591
 30
0.0
 11
-38.25756296255043
 21
-7.79528562559734
 31
0.0
  0
LINE
  5
24C6
102
{ACAD_REACTORS
330
24BF
102
}
330
248C
100
AcDbEntity
  8
247
100
AcDbLine
 10
-37.12704919912271
 20
-8.504604168077809
 30
0.0
 11
-36.59726785756997
 21
-8.504604168077809
 31
0.0
  0
ARC
  5
24C7
102
{ACAD_REACTORS
330
24BF
102
}
330
248C
100
AcDbEntity
  8
247
100
AcDbCircle
 10
-37.08308328725749
 20
-8.186323375841482
 30
0.0
 40
0.1909725040197372
100
AcDbArc
 50
1.710121382062758
 51
163.9983983544486
  0
LINE
  5
24C8
102
{ACAD_REACTORS
330
24BF
102
}
330
248C
100
AcDbEntity
  8
247
100
AcDbLine
 10
-36.64496225454263
 20
-8.027886791368825
 30
0.0
 11
-36.69973596670082
 21
-7.854186077257497
 31
0.0
  0
ARC
  5
24C9
102
{ACAD_REACTORS
330
24BF
102
}
330
248C
100
AcDbEntity
  8
247
100
AcDbCircle
 10
-36.36956247426921
 20
-8.75014173521648
 30
0.0
 40
0.954856538772583
100
AcDbArc
 50
110.22964506332
 51
118.5716889237176
  0
LINE
  5
24CA
102
{ACAD_REACTORS
330
249F
102
}
330
248C
100
AcDbEntity
  8
247
100
AcDbLine
 10
-36.55823206045083
 20
-8.000537700792653
 30
0.0
 11
-36.61300577260904
 21
-7.826836986681325
 31
0.0
  0
POLYLINE
  5
24CB
330
248C
100
AcDbEntity
  8
247
100
AcDb2dPolyline
 66
     1
 10
0.0
 20
0.0
 30
0.0
 70
     1
  0
VERTEX
  5
24CC
330
24CB
100
AcDbEntity
  8
247
100
AcDbVertex
100
AcDb2dVertex
 10
-36.55823206045084
 20
-8.000537700792653
 30
0.0
  0
VERTEX
  5
24CD
330
24CB
100
AcDbEntity
  8
247
100
AcDbVertex
100
AcDb2dVertex
 10
-36.61300577260905
 20
-7.826836986681325
 30
0.0
  0
VERTEX
  5
24CE
330
24CB
100
AcDbEntity
  8
247
100
AcDbVertex
100
AcDb2dVertex
 10
-36.61300577260905
 20
-7.826836986681325
 30
0.0
  0
VERTEX
  5
24CF
330
24CB
100
AcDbEntity
  8
247
100
AcDbVertex
100
AcDb2dVertex
 10
-36.55823206045084
 20
-8.000537700792653
 30
0.0
  0
SEQEND
  5
24D0
330
24CB
100
AcDbEntity
  8
247
  0
POLYLINE
  5
24D1
330
248C
100
AcDbEntity
  8
247
100
AcDb2dPolyline
 66
     1
 10
0.0
 20
0.0
 30
0.0
 70
     1
1001
HATCH_DISTANCE
1040
1.0
1001
HATCH_DISPLAY
1070
     0
1001
HATCH_TYPE
1070
     7
  0
VERTEX
  5
24D2
330
24D1
100
AcDbEntity
  8
247
100
AcDbVertex
100
AcDb2dVertex
 10
-36.55823206045084
 20
-8.000537700792653
 30
0.0
  0
VERTEX
  5
24D3
330
24D1
100
AcDbEntity
  8
247
100
AcDbVertex
100
AcDb2dVertex
 10
-36.61300577260905
 20
-7.826836986681325
 30
0.0
  0
VERTEX
  5
24D4
330
24D1
100
AcDbEntity
  8
247
100
AcDbVertex
100
AcDb2dVertex
 10
-36.61300577260905
 20
-7.826836986681325
 30
0.0
  0
VERTEX
  5
24D5
330
24D1
100
AcDbEntity
  8
247
100
AcDbVertex
100
AcDb2dVertex
 10
-36.55823206045084
 20
-8.000537700792653
 30
0.0
  0
SEQEND
  5
24D6
330
24D1
100
AcDbEntity
  8
247
  0
POLYLINE
  5
24D7
330
248C
100
AcDbEntity
  8
247
100
AcDb2dPolyline
 66
     1
 10
0.0
 20
0.0
 30
0.0
 70
     1
  0
VERTEX
  5
24D8
330
24D7
100
AcDbEntity
  8
247
100
AcDbVertex
100
AcDb2dVertex
 10
-36.55823206045084
 20
-8.000537700792653
 30
0.0
  0
VERTEX
  5
24D9
330
24D7
100
AcDbEntity
  8
247
100
AcDbVertex
100
AcDb2dVertex
 10
-36.61300577260905
 20
-7.826836986681325
 30
0.0
  0
VERTEX
  5
24DA
330
24D7
100
AcDbEntity
  8
247
100
AcDbVertex
100
AcDb2dVertex
 10
-36.61300577260905
 20
-7.826836986681325
 30
0.0
  0
VERTEX
  5
24DB
330
24D7
100
AcDbEntity
  8
247
100
AcDbVertex
100
AcDb2dVertex
 10
-36.55823206045084
 20
-8.000537700792653
 30
0.0
  0
SEQEND
  5
24DC
330
24D7
100
AcDbEntity
  8
247
  0
POLYLINE
  5
24DD
330
248C
100
AcDbEntity
  8
247
100
AcDb2dPolyline
 66
     1
 10
0.0
 20
0.0
 30
0.0
 70
     1
1001
HATCH_DISTANCE
1040
1.0
1001
HATCH_DISPLAY
1070
     0
1001
HATCH_TYPE
1070
     7
  0
VERTEX
  5
24DE
330
24DD
100
AcDbEntity
  8
247
100
AcDbVertex
100
AcDb2dVertex
 10
-36.55823206045084
 20
-8.000537700792653
 30
0.0
  0
VERTEX
  5
24DF
330
24DD
100
AcDbEntity
  8
247
100
AcDbVertex
100
AcDb2dVertex
 10
-36.61300577260905
 20
-7.826836986681325
 30
0.0
  0
VERTEX
  5
24E0
330
24DD
100
AcDbEntity
  8
247
100
AcDbVertex
100
AcDb2dVertex
 10
-36.61300577260905
 20
-7.826836986681325
 30
0.0
  0
VERTEX
  5
24E1
330
24DD
100
AcDbEntity
  8
247
100
AcDbVertex
100
AcDb2dVertex
 10
-36.55823206045084
 20
-8.000537700792653
 30
0.0
  0
SEQEND
  5
24E2
330
24DD
100
AcDbEntity
  8
247
  0
ARC
  5
24E3
102
{ACAD_REACTORS
330
24BF
102
}
330
248C
100
AcDbEntity
  8
247
100
AcDbCircle
 10
-36.36956247426921
 20
-8.75014173521648
 30
0.0
 40
0.7729795932769776
100
AcDbArc
 50
110.8721834020771
 51
132.5419489373866
  0
ARC
  5
24E4
102
{ACAD_REACTORS
330
24BF
102
}
330
248C
100
AcDbEntity
  8
247
100
AcDbCircle
 10
-37.17829355337078
 20
-8.386384410997731
 30
0.0
 40
0.5910996437072754
100
AcDbArc
 50
53.44401219705763
 51
164.0001843876854
  0
ARC
  5
24E5
102
{ACAD_REACTORS
330
24BF
102
}
330
248C
100
AcDbEntity
  8
247
100
AcDbCircle
 10
-37.30867380239421
 20
-8.841081066271168
 30
0.0
 40
0.5911056518554688
100
AcDbArc
 50
163.9997507017293
 51
304.9638732916317
  0
LINE
  5
24E6
330
248C
100
AcDbEntity
  8
247
100
AcDbLine
 10
-39.03873899527953
 20
-9.398089531740993
 30
0.0
 11
-38.79087889893613
 21
-9.150229435397578
 31
0.0
  0
LINE
  5
24E7
330
248C
100
AcDbEntity
  8
247
100
AcDbLine
 10
-38.6607131395524
 20
-9.43218006624828
 30
0.0
 11
-38.25391687490396
 21
-9.43218006624828
 31
0.0
  0
LINE
  5
24E8
102
{ACAD_REACTORS
330
24BF
102
}
330
248C
100
AcDbEntity
  8
247
100
AcDbLine
 10
-37.1446273241227
 20
-9.093780346056325
 30
0.0
 11
-37.02783578969888
 21
-8.686482830187184
 31
0.0
  0
ARC
  5
24E9
102
{ACAD_REACTORS
330
24BF
102
}
330
248C
100
AcDbEntity
  8
247
100
AcDbCircle
 10
-37.32820200063639
 20
-9.04114210142742
 30
0.0
 40
0.1909723699092865
100
AcDbArc
 50
164.000273057184
 51
344.000273057184
  0
LINE
  5
24EA
102
{ACAD_REACTORS
330
24BF
102
}
330
248C
100
AcDbEntity
  8
247
100
AcDbLine
 10
-36.96993784048013
 20
-9.325495953699453
 30
0.0
 11
-36.86324686147623
 21
-9.43218006624828
 31
0.0
  0
LINE
  5
24EB
102
{ACAD_REACTORS
330
24BF
102
}
330
248C
100
AcDbEntity
  8
247
100
AcDbLine
 10
-37.17919992544107
 20
-8.686482830187184
 30
0.0
 11
-37.02783578969888
 21
-8.686482830187184
 31
0.0
  0
HATCH
  5
24EC
330
248C
100
AcDbEntity
  8
247
100
AcDbHatch
 10
0.0
 20
0.0
 30
0.0
210
0.0
220
0.0
230
1.0
  2
ANSI31
 70
     0
 71
     0
 91
        1
 92
        7
 72
     0
 73
     1
 93
        6
 10
-37.78454660512856
 20
-7.795285625597339
 10
-38.25756296255043
 20
-7.795285625597339
 10
-38.31493219472817
 20
-7.995346660753589
 10
-38.24870523549965
 20
-7.995346660753589
 10
-38.6607131395524
 20
-9.432180066248278
 10
-38.25391687490396
 20
-9.432180066248278
 97
        0
 75
     0
 76
     1
 52
360.0
 41
0.045
 77
     0
 78
     1
 53
44.99999999999996
 43
-94.92652607061321
 44
-16.79249355330115
 45
-0.101027881362028
 46
0.101027881362028
 79
     0
 47
0.0134348504236232
 98
        1
 10
-38.20978862435103
 20
-8.570871599596589
  0
POLYLINE
  5
24ED
330
248C
100
AcDbEntity
  8
247
100
AcDb2dPolyline
 66
     1
 10
0.0
 20
0.0
 30
0.0
 70
     1
  0
VERTEX
  5
24EE
330
24ED
100
AcDbEntity
  8
247
100
AcDbVertex
100
AcDb2dVertex
 10
-38.25756296255046
 20
-7.79528562559734
 30
0.0
  0
VERTEX
  5
24EF
330
24ED
100
AcDbEntity
  8
247
100
AcDbVertex
100
AcDb2dVertex
 10
-38.3149321947282
 20
-7.995346660753591
 30
0.0
  0
VERTEX
  5
24F0
330
24ED
100
AcDbEntity
  8
247
100
AcDbVertex
100
AcDb2dVertex
 10
-38.24870523549968
 20
-7.995346660753591
 30
0.0
  0
VERTEX
  5
24F1
330
24ED
100
AcDbEntity
  8
247
100
AcDbVertex
100
AcDb2dVertex
 10
-38.66071313955241
 20
-9.43218006624828
 30
0.0
  0
VERTEX
  5
24F2
330
24ED
100
AcDbEntity
  8
247
100
AcDbVertex
100
AcDb2dVertex
 10
-38.25391687490398
 20
-9.43218006624828
 30
0.0
  0
VERTEX
  5
24F3
330
24ED
100
AcDbEntity
  8
247
100
AcDbVertex
100
AcDb2dVertex
 10
-37.78454660512858
 20
-7.79528562559734
 30
0.0
  0
SEQEND
  5
24F4
330
24ED
100
AcDbEntity
  8
247
  0
POLYLINE
  5
24F5
330
248C
100
AcDbEntity
  8
247
100
AcDb2dPolyline
 66
     1
 10
0.0
 20
0.0
 30
0.0
 70
     1
1001
HATCH_DISTANCE
1040
1.0
1001
HATCH_DISPLAY
1070
     0
1001
HATCH_TYPE
1070
     7
  0
VERTEX
  5
24F6
330
24F5
100
AcDbEntity
  8
247
100
AcDbVertex
100
AcDb2dVertex
 10
-38.25756296255046
 20
-7.79528562559734
 30
0.0
  0
VERTEX
  5
24F7
330
24F5
100
AcDbEntity
  8
247
100
AcDbVertex
100
AcDb2dVertex
 10
-38.3149321947282
 20
-7.995346660753591
 30
0.0
  0
VERTEX
  5
24F8
330
24F5
100
AcDbEntity
  8
247
100
AcDbVertex
100
AcDb2dVertex
 10
-38.24870523549968
 20
-7.995346660753591
 30
0.0
  0
VERTEX
  5
24F9
330
24F5
100
AcDbEntity
  8
247
100
AcDbVertex
100
AcDb2dVertex
 10
-38.66071313955241
 20
-9.43218006624828
 30
0.0
  0
VERTEX
  5
24FA
330
24F5
100
AcDbEntity
  8
247
100
AcDbVertex
100
AcDb2dVertex
 10
-38.25391687490398
 20
-9.43218006624828
 30
0.0
  0
VERTEX
  5
24FB
330
24F5
100
AcDbEntity
  8
247
100
AcDbVertex
100
AcDb2dVertex
 10
-37.78454660512858
 20
-7.79528562559734
 30
0.0
  0
SEQEND
  5
24FC
330
24F5
100
AcDbEntity
  8
247
  0
LINE
  5
24FD
330
248C
100
AcDbEntity
  8
247
100
AcDbLine
 10
-38.25391687490396
 20
-9.43218006624828
 30
0.0
 11
-37.78454660512856
 21
-7.79528562559734
 31
0.0
  0
ARC
  5
24FE
102
{ACAD_REACTORS
330
24BF
102
}
330
248C
100
AcDbEntity
  8
247
100
AcDbCircle
 10
-36.34224771596842
 20
-8.872158641954763
 30
0.0
 40
1.546847534179687
100
AcDbArc
 50
155.2051773698403
 51
172.7948259620522
  0
LINE
  5
24FF
330
248C
100
AcDbEntity
  8
247
100
AcDbLine
 10
-39.14786289942495
 20
-8.901046147714236
 30
0.0
 11
-38.5514750938661
 21
-8.304658342155381
 31
0.0
  0
LINE
  5
2500
330
248C
100
AcDbEntity
  8
247
100
AcDbLine
 10
-38.6607131395524
 20
-9.43218006624828
 30
0.0
 11
-38.24870523549965
 21
-7.995346660753591
 31
0.0
  0
ARC
  5
2501
330
248C
100
AcDbEntity
  8
247
100
AcDbCircle
 10
-39.00286859609538
 20
-8.2499754144157
 30
0.0
 40
0.4546936511993409
100
AcDbArc
 50
287.669577547398
 51
90.23615984267157
  0
LINE
  5
2502
102
{ACAD_REACTORS
330
24BF
102
}
330
248C
100
AcDbEntity
  8
247
100
AcDbLine
 10
-37.51177667715005
 20
-8.988503856798512
 30
0.0
 11
-37.26665796377115
 21
-8.133678264757497
 31
0.0
  0
LINE
  5
2503
102
{ACAD_REACTORS
330
24BF
102
}
330
248C
100
AcDbEntity
  8
247
100
AcDbLine
 10
-36.86324686147623
 20
-9.43218006624828
 30
0.0
 11
-36.59726785756997
 21
-8.504604168077809
 31
0.0
  0
LINE
  5
2504
102
{ACAD_REACTORS
330
24BF
102
}
330
248C
100
AcDbEntity
  8
247
100
AcDbLine
 10
-37.17919992544107
 20
-8.686482830187184
 30
0.0
 11
-37.12704919912271
 21
-8.504604168077809
 31
0.0
  0
ARC
  5
2505
102
{ACAD_REACTORS
330
249F
102
}
330
248C
100
AcDbEntity
  8
247
100
AcDbCircle
 10
-36.36956247426921
 20
-8.75014173521648
 30
0.0
 40
0.7729774475097657
100
AcDbArc
 50
270.0
 51
104.1274364964119
  0
ARC
  5
2506
102
{ACAD_REACTORS
330
249F
102
}
330
248C
100
AcDbEntity
  8
247
100
AcDbCircle
 10
-36.36956247426921
 20
-8.75014173521648
 30
0.0
 40
0.9548561096191406
100
AcDbArc
 50
270.0
 51
104.7707939660941
  0
LINE
  5
2507
330
248C
100
AcDbEntity
  8
240
100
AcDbLine
 10
-46.00000000000002
 20
9.500000000000001
 30
0.0
 11
-54.5
 21
9.5
 31
0.0
  0
LINE
  5
2508
330
248C
100
AcDbEntity
  8
240
100
AcDbLine
 10
-55.0
 20
9.0
 30
0.0
 11
-54.5
 21
9.5
 31
0.0
  0
LINE
  5
2509
330
248C
100
AcDbEntity
  8
246
100
AcDbLine
 10
-34.5
 20
1.5
 30
0.0
 11
-42.0
 21
1.5
 31
0.0
  0
LINE
  5
250A
330
248C
100
AcDbEntity
  8
246
100
AcDbLine
 10
-34.5
 20
-1.5
 30
0.0
 11
-42.0
 21
-1.5
 31
0.0
  0
LINE
  5
250B
330
248C
100
AcDbEntity
  8
246
100
AcDbLine
 10
-42.0
 20
-1.899999999999977
 30
0.0
 11
-42.0
 21
1.90000000000009
 31
0.0
  0
LINE
  5
250C
330
248C
100
AcDbEntity
  8
246
100
AcDbLine
 10
-42.0
 20
-1.899999999999977
 30
0.0
 11
-42.0
 21
-1.849999999999909
 31
0.0
  0
LINE
  5
250D
330
248C
100
AcDbEntity
  8
246
100
AcDbLine
 10
-41.0
 20
2.90000000000009
 30
0.0
 11
-40.0
 21
2.90000000000009
 31
0.0
  0
LINE
  5
250E
330
248C
100
AcDbEntity
  8
246
100
AcDbLine
 10
-40.0
 20
2.90000000000009
 30
0.0
 11
-39.40000000000003
 21
3.5
 31
0.0
  0
LINE
  5
250F
330
248C
100
AcDbEntity
  8
246
100
AcDbLine
 10
-42.0
 20
1.90000000000009
 30
0.0
 11
-42.0
 21
1.850000000000022
 31
0.0
  0
ARC
  5
2510
330
248C
100
AcDbEntity
  8
246
100
AcDbCircle
 10
-41.0
 20
1.90000000000009
 30
0.0
 40
1.0
100
AcDbArc
 50
90.0
 51
180.0
  0
LINE
  5
2511
330
248C
100
AcDbEntity
  8
246
100
AcDbLine
 10
-31.59529900000006
 20
-1.154700999999931
 30
0.0
 11
-34.30064100000004
 21
-1.154700999999931
 31
0.0
  0
LINE
  5
2512
330
248C
100
AcDbEntity
  8
246
100
AcDbLine
 10
-31.59529900000006
 20
1.154700000000048
 30
0.0
 11
-34.30064100000004
 21
1.154700000000048
 31
0.0
  0
LINE
  5
2513
330
248C
100
AcDbEntity
  8
246
100
AcDbLine
 10
-31.59529900000006
 20
-0.5773499999999104
 30
0.0
 11
-34.30064100000004
 21
-0.5773499999999104
 31
0.0
  0
LINE
  5
2514
330
248C
100
AcDbEntity
  8
246
100
AcDbLine
 10
-31.59529900000006
 20
0.577350000000024
 30
0.0
 11
-34.30064100000004
 21
0.577350000000024
 31
0.0
  0
LINE
  5
2515
330
248C
100
AcDbEntity
  8
246
100
AcDbLine
 10
-34.30064100000004
 20
-1.154700999999931
 30
0.0
 11
-34.30064100000004
 21
1.154700000000048
 31
0.0
  0
LINE
  5
2516
330
248C
100
AcDbEntity
  8
246
100
AcDbLine
 10
-31.59529900000006
 20
-1.154700999999931
 30
0.0
 11
-31.59529900000006
 21
1.154700000000048
 31
0.0
  0
LINE
  5
2517
330
248C
100
AcDbEntity
  8
246
100
AcDbLine
 10
-34.5
 20
1.5
 30
0.0
 11
-34.5
 21
0.8240000000000691
 31
0.0
  0
LINE
  5
2518
330
248C
100
AcDbEntity
  8
246
100
AcDbLine
 10
-34.5
 20
-1.5
 30
0.0
 11
-34.5
 21
-0.8514669999999568
 31
0.0
  0
LINE
  5
2519
330
248C
100
AcDbEntity
  8
246
100
AcDbLine
 10
-34.5
 20
-1.5
 30
0.0
 11
-34.30064100000004
 21
-1.154700999999931
 31
0.0
  0
LINE
  5
251A
330
248C
100
AcDbEntity
  8
246
100
AcDbLine
 10
-34.5
 20
1.5
 30
0.0
 11
-34.30064100000004
 21
1.154700000000048
 31
0.0
  0
LINE
  5
251B
330
248C
100
AcDbEntity
  8
240
100
AcDbLine
 10
-44.50000000000001
 20
11.0
 30
0.0
 11
-46.00000000000002
 21
9.500000000000001
 31
0.0
  0
LINE
  5
251C
330
248C
100
AcDbEntity
  8
241
100
AcDbLine
 10
-20.0
 20
-5.545268253204712
 30
0.0
 11
-20.0
 21
5.545268253204712
 31
0.0
  0
ARC
  5
251D
330
248C
100
AcDbEntity
  8
241
100
AcDbCircle
 10
-29.50000000000012
 20
0.0
 30
0.0
 40
11.0000000000001
100
AcDbArc
 50
329.7273410809968
 51
30.27264131890922
  0
LINE
  5
251E
330
248C
100
AcDbEntity
  8
241
100
AcDbLine
 10
-14.0
 20
-7.0
 30
0.0
 11
-14.0
 21
0.0
 31
0.0
  0
LINE
  5
251F
330
248C
100
AcDbEntity
  8
241
100
AcDbLine
 10
-0.948528000000067
 20
-9.649952999999982
 30
0.0
 11
-0.948528000000067
 21
9.602649000000042
 31
0.0
  0
LINE
  5
2520
330
248C
100
AcDbEntity
  8
241
100
AcDbLine
 10
-12.0
 20
-5.5
 30
0.0
 11
-12.0
 21
0.0
 31
0.0
  0
LINE
  5
2521
330
248C
100
AcDbEntity
  8
241
100
AcDbLine
 10
-9.200000000000045
 20
-7.549999999999954
 30
0.0
 11
-9.200000000000045
 21
0.0
 31
0.0
  0
LINE
  5
2522
330
248C
100
AcDbEntity
  8
241
100
AcDbLine
 10
-9.5
 20
-6.0
 30
0.0
 11
-9.5
 21
0.0
 31
0.0
  0
LINE
  5
2523
330
248C
100
AcDbEntity
  8
240
100
AcDbLine
 10
0.0
 20
-9.092892999999889
 30
0.0
 11
0.0
 21
0.0
 31
0.0
  0
LINE
  5
2524
330
248C
100
AcDbEntity
  8
246
100
AcDbLine
 10
-30.0
 20
-3.0
 30
0.0
 11
-30.0
 21
3.0
 31
0.0
  0
LINE
  5
2525
330
248C
100
AcDbEntity
  8
246
100
AcDbLine
 10
-30.0
 20
-3.0
 30
0.0
 11
-30.5
 21
-3.5
 31
0.0
  0
LINE
  5
2526
330
248C
100
AcDbEntity
  8
240
100
AcDbLine
 10
-8.600000000000022
 20
-10.0
 30
0.0
 11
-0.948528000000067
 21
-10.0
 31
0.0
  0
LINE
  5
2527
330
248C
100
AcDbEntity
  8
241
100
AcDbLine
 10
-3.5
 20
-9.217329999999947
 30
0.0
 11
-9.200000000000045
 21
-9.217329999999947
 31
0.0
  0
LINE
  5
2528
330
248C
100
AcDbEntity
  8
241
100
AcDbLine
 10
-3.5
 20
-7.967329999999947
 30
0.0
 11
-9.200000000000045
 21
-7.967329999999947
 31
0.0
  0
LINE
  5
2529
330
248C
100
AcDbEntity
  8
246
100
AcDbLine
 10
-2.600000000000022
 20
-4.75
 30
0.0
 11
-13.99999999999923
 21
-3.551812193548641
 31
0.0
  0
LINE
  5
252A
330
248C
100
AcDbEntity
  8
246
100
AcDbLine
 10
-14.0
 20
-3.0
 30
0.0
 11
0.0
 21
-3.0
 31
0.0
  0
LINE
  5
252B
330
248C
100
AcDbEntity
  8
240
100
AcDbLine
 10
-9.5
 20
-7.25
 30
0.0
 11
-9.200000000000045
 21
-7.549999999999954
 31
0.0
  0
LINE
  5
252C
330
248C
100
AcDbEntity
  8
240
100
AcDbLine
 10
-14.0
 20
-9.000000000000001
 30
0.0
 11
-14.0
 21
-7.0
 31
0.0
  0
ARC
  5
252D
330
248C
100
AcDbEntity
  8
240
100
AcDbCircle
 10
-16.27761757430887
 20
-9.111191212845566
 30
0.0
 40
2.28033008588991
100
AcDbArc
 50
304.0749889047825
 51
2.794908741061472
  0
LINE
  5
252E
330
248C
100
AcDbEntity
  8
240
100
AcDbLine
 10
-9.200000000000045
 20
-9.399999999999977
 30
0.0
 11
-9.200000000000045
 21
-7.549999999999954
 31
0.0
  0
ARC
  5
252F
330
248C
100
AcDbEntity
  8
240
100
AcDbCircle
 10
-8.600000000000022
 20
-9.399999999999977
 30
0.0
 40
0.6
100
AcDbArc
 50
180.0
 51
270.0
  0
LINE
  5
2530
330
248C
100
AcDbEntity
  8
242
100
AcDbLine
 10
-9.5
 20
-5.5
 30
0.0
 11
-12.0
 21
-5.5
 31
0.0
  0
LINE
  5
2531
330
248C
100
AcDbEntity
  8
240
100
AcDbLine
 10
-13.0
 20
-6.0
 30
0.0
 11
-9.5
 21
-6.0
 31
0.0
  0
LINE
  5
2532
330
248C
100
AcDbEntity
  8
242
100
AcDbLine
 10
-12.5
 20
-6.0
 30
0.0
 11
-12.0
 21
-5.5
 31
0.0
  0
ARC
  5
2533
330
248C
100
AcDbEntity
  8
240
100
AcDbCircle
 10
-13.0
 20
-7.0
 30
0.0
 40
1.0
100
AcDbArc
 50
90.0
 51
180.0
  0
LINE
  5
2534
330
248C
100
AcDbEntity
  8
240
100
AcDbLine
 10
-9.5
 20
-7.25
 30
0.0
 11
-9.5
 21
-6.0
 31
0.0
  0
ARC
  5
2535
330
248C
100
AcDbEntity
  8
240
100
AcDbCircle
 10
-0.5
 20
-9.092892999999889
 30
0.0
 40
0.5
100
AcDbArc
 50
314.9999999999993
 51
0.0
  0
ARC
  5
2536
330
248C
100
AcDbEntity
  8
240
100
AcDbCircle
 10
-0.948528000000067
 20
-9.399999999999977
 30
0.0
 40
0.6
100
AcDbArc
 50
270.0
 51
314.9999999999993
  0
LINE
  5
2537
330
248C
100
AcDbEntity
  8
240
100
AcDbLine
 10
-0.5242640000000165
 20
-9.824263999999971
 30
0.0
 11
-0.1464460000000258
 21
-9.44644699999992
 31
0.0
  0
LINE
  5
2538
330
248C
100
AcDbEntity
  8
241
100
AcDbLine
 10
-3.5
 20
-9.217329999999947
 30
0.0
 11
-3.5
 21
-7.967329999999947
 31
0.0
  0
LINE
  5
2539
330
248C
100
AcDbEntity
  8
246
100
AcDbLine
 10
-1.200000000000045
 20
-4.75
 30
0.0
 11
0.0
 21
-4.057179999999902
 31
0.0
  0
LINE
  5
253A
330
248C
100
AcDbEntity
  8
246
100
AcDbLine
 10
-1.300000000000011
 20
-4.75
 30
0.0
 11
-1.200000000000045
 21
-4.75
 31
0.0
  0
LINE
  5
253B
330
248C
100
AcDbEntity
  8
246
100
AcDbLine
 10
-1.300000000000011
 20
-4.099999999999909
 30
0.0
 11
-1.300000000000011
 21
-4.75
 31
0.0
  0
LINE
  5
253C
330
248C
100
AcDbEntity
  8
246
100
AcDbLine
 10
-2.600000000000022
 20
-4.099999999999909
 30
0.0
 11
-2.600000000000022
 21
-4.75
 31
0.0
  0
LINE
  5
253D
330
248C
100
AcDbEntity
  8
246
100
AcDbLine
 10
-2.600000000000022
 20
-4.099999999999909
 30
0.0
 11
-1.300000000000011
 21
-4.099999999999909
 31
0.0
  0
LINE
  5
253E
330
248C
100
AcDbEntity
  8
246
100
AcDbLine
 10
-30.5
 20
3.5
 30
0.0
 11
-30.0
 21
3.0
 31
0.0
  0
LINE
  5
253F
330
248C
100
AcDbEntity
  8
240
100
AcDbLine
 10
0.0
 20
9.092893000000003
 30
0.0
 11
0.0
 21
0.0
 31
0.0
  0
LINE
  5
2540
330
248C
100
AcDbEntity
  8
241
100
AcDbLine
 10
-9.200000000000045
 20
7.550000000000068
 30
0.0
 11
-9.200000000000045
 21
0.0
 31
0.0
  0
LINE
  5
2541
330
248C
100
AcDbEntity
  8
240
100
AcDbLine
 10
-9.5
 20
7.25
 30
0.0
 11
-9.5
 21
6.0
 31
0.0
  0
LINE
  5
2542
330
248C
100
AcDbEntity
  8
241
100
AcDbLine
 10
-14.0
 20
7.0
 30
0.0
 11
-14.0
 21
0.0
 31
0.0
  0
ARC
  5
2543
330
248C
100
AcDbEntity
  8
240
100
AcDbCircle
 10
-13.0
 20
7.0
 30
0.0
 40
1.0
100
AcDbArc
 50
180.0
 51
270.0
  0
LINE
  5
2544
330
248C
100
AcDbEntity
  8
241
100
AcDbLine
 10
-3.5
 20
1.25
 30
0.0
 11
-9.200000000000045
 21
1.25
 31
0.0
  0
LINE
  5
2545
330
248C
100
AcDbEntity
  8
241
100
AcDbLine
 10
-3.5
 20
-1.25
 30
0.0
 11
-9.200000000000045
 21
-1.25
 31
0.0
  0
LINE
  5
2546
330
248C
100
AcDbEntity
  8
246
100
AcDbLine
 10
-2.600000000000022
 20
4.75
 30
0.0
 11
-13.99999999999923
 21
3.551811274193681
 31
0.0
  0
LINE
  5
2547
330
248C
100
AcDbEntity
  8
246
100
AcDbLine
 10
-14.0
 20
3.0
 30
0.0
 11
0.0
 21
3.0
 31
0.0
  0
LINE
  5
2548
330
248C
100
AcDbEntity
  8
241
100
AcDbLine
 10
-9.5
 20
6.0
 30
0.0
 11
-9.5
 21
0.0
 31
0.0
  0
LINE
  5
2549
330
248C
100
AcDbEntity
  8
241
100
AcDbLine
 10
-12.0
 20
5.5
 30
0.0
 11
-12.0
 21
0.0
 31
0.0
  0
LINE
  5
254A
330
248C
100
AcDbEntity
  8
242
100
AcDbLine
 10
-9.5
 20
5.5
 30
0.0
 11
-12.0
 21
5.5
 31
0.0
  0
LINE
  5
254B
330
248C
100
AcDbEntity
  8
240
100
AcDbLine
 10
-13.0
 20
6.0
 30
0.0
 11
-9.5
 21
6.0
 31
0.0
  0
LINE
  5
254C
330
248C
100
AcDbEntity
  8
242
100
AcDbLine
 10
-12.5
 20
6.0
 30
0.0
 11
-12.0
 21
5.5
 31
0.0
  0
LINE
  5
254D
330
248C
100
AcDbEntity
  8
241
100
AcDbLine
 10
-3.5
 20
1.25
 30
0.0
 11
-3.5
 21
0.0
 31
0.0
  0
LINE
  5
254E
330
248C
100
AcDbEntity
  8
241
100
AcDbLine
 10
-3.5
 20
-1.25
 30
0.0
 11
-3.5
 21
0.0
 31
0.0
  0
LINE
  5
254F
330
248C
100
AcDbEntity
  8
246
100
AcDbLine
 10
-1.300000000000011
 20
4.75
 30
0.0
 11
-1.200000000000045
 21
4.75
 31
0.0
  0
LINE
  5
2550
330
248C
100
AcDbEntity
  8
246
100
AcDbLine
 10
-1.300000000000011
 20
4.100000000000022
 30
0.0
 11
-1.300000000000011
 21
4.75
 31
0.0
  0
LINE
  5
2551
330
248C
100
AcDbEntity
  8
246
100
AcDbLine
 10
-1.200000000000045
 20
4.75
 30
0.0
 11
0.0
 21
4.057180000000016
 31
0.0
  0
LINE
  5
2552
330
248C
100
AcDbEntity
  8
246
100
AcDbLine
 10
-2.600000000000022
 20
4.100000000000022
 30
0.0
 11
-2.600000000000022
 21
4.75
 31
0.0
  0
LINE
  5
2553
330
248C
100
AcDbEntity
  8
246
100
AcDbLine
 10
-2.600000000000022
 20
4.100000000000022
 30
0.0
 11
-1.300000000000011
 21
4.100000000000022
 31
0.0
  0
LINE
  5
2554
330
248C
100
AcDbEntity
  8
241
100
AcDbLine
 10
-3.5
 20
7.967329000000063
 30
0.0
 11
-9.200000000000045
 21
7.967329000000063
 31
0.0
  0
LINE
  5
2555
330
248C
100
AcDbEntity
  8
240
100
AcDbLine
 10
-8.600000000000022
 20
10.0
 30
0.0
 11
-0.948528000000067
 21
10.0
 31
0.0
  0
LINE
  5
2556
330
248C
100
AcDbEntity
  8
241
100
AcDbLine
 10
-3.5
 20
9.217329000000063
 30
0.0
 11
-9.200000000000045
 21
9.217329000000063
 31
0.0
  0
ARC
  5
2557
330
248C
100
AcDbEntity
  8
240
100
AcDbCircle
 10
-15.0
 20
10.0
 30
0.0
 40
1.0
100
AcDbArc
 50
0.0
 51
90.0
  0
LINE
  5
2558
330
248C
100
AcDbEntity
  8
240
100
AcDbLine
 10
-14.0
 20
7.0
 30
0.0
 11
-14.0
 21
10.0
 31
0.0
  0
ARC
  5
2559
330
248C
100
AcDbEntity
  8
240
100
AcDbCircle
 10
-8.600000000000022
 20
9.40000000000009
 30
0.0
 40
0.6
100
AcDbArc
 50
90.0
 51
180.0
  0
LINE
  5
255A
330
248C
100
AcDbEntity
  8
240
100
AcDbLine
 10
-9.200000000000045
 20
9.40000000000009
 30
0.0
 11
-9.200000000000045
 21
7.550000000000068
 31
0.0
  0
LINE
  5
255B
330
248C
100
AcDbEntity
  8
240
100
AcDbLine
 10
-9.5
 20
7.25
 30
0.0
 11
-9.200000000000045
 21
7.550000000000068
 31
0.0
  0
LINE
  5
255C
330
248C
100
AcDbEntity
  8
240
100
AcDbLine
 10
-0.1464460000000258
 20
9.446447000000034
 30
0.0
 11
-0.5242640000000165
 21
9.824263999999971
 31
0.0
  0
ARC
  5
255D
330
248C
100
AcDbEntity
  8
240
100
AcDbCircle
 10
-0.5
 20
9.092893000000003
 30
0.0
 40
0.5
100
AcDbArc
 50
0.0
 51
45.00000000000063
  0
ARC
  5
255E
330
248C
100
AcDbEntity
  8
240
100
AcDbCircle
 10
-0.948528000000067
 20
9.40000000000009
 30
0.0
 40
0.6
100
AcDbArc
 50
45.00000000000063
 51
90.0
  0
LINE
  5
255F
330
248C
100
AcDbEntity
  8
241
100
AcDbLine
 10
-3.5
 20
9.217329000000063
 30
0.0
 11
-3.5
 21
7.967329000000063
 31
0.0
  0
ENDBLK
  5
2561
330
248C
100
AcDbEntity
  8
0
100
AcDbBlockEnd
  0
ENDSEC
  0
SECTION
  2
ENTITIES
  0
TEXT
  5
184E
330
1A
100
AcDbEntity
  8
241
100
AcDbText
 10
-53.0
 20
49.0
 30
0.0
 40
5.0
  1
SL22-NBS6-40
  7
YOKO
 11
-53.0
 21
49.0
 31
0.0
100
AcDbText
 73
     1
  0
DIMENSION
  5
184F
330
1A
100
AcDbEntity
  8
250
  6
CONTINUOUS
100
AcDbDimension
  2
*D1
 10
21.0
 20
9.999999999999992
 30
0.0
 11
18.5
 21
-0.0000000000000028
 31
0.0
 70
    32
  1
{\H3;\U+2205}<>
  3
BIGT
100
AcDbAlignedDimension
 13
-0.948528000000067
 23
-10.0
 33
0.0
 14
-0.948528000000067
 24
10.0
 34
0.0
 50
90.0
100
AcDbRotatedDimension
1001
ACAD
1000
DSTYLE
1002
{
1070
    78
1070
     8
1070
   140
1040
3.0
1002
}
  0
DIMENSION
  5
1850
330
1A
100
AcDbEntity
  8
250
100
AcDbDimension
  2
*D2
 10
14.0
 20
2.999999999999996
 30
0.0
 11
11.57333346468186
 21
-1.574769610928058
 31
0.0
 70
   160
  1
MAX.%%c<>
  3
BIGT
100
AcDbAlignedDimension
 13
0.0
 23
-3.0
 33
0.0
 14
0.0
 24
3.0
 34
0.0
 50
90.0
100
AcDbRotatedDimension
1001
ACAD
1000
DSTYLE
1002
{
1070
   287
1070
     5
1070
    78
1070
     8
1070
   140
1040
3.0
1070
   279
1070
     2
1002
}
  0
DIMENSION
  5
1851
330
1A
100
AcDbEntity
  8
250
100
AcDbDimension
  2
*D3
 10
-0.0000000000000012
 20
-28.0
 30
0.0
 11
-15.0
 21
-25.5
 31
0.0
 70
    32
  1
21～40
  3
BIGT
100
AcDbAlignedDimension
 13
-30.0
 23
-3.0
 33
0.0
 14
0.0
 24
-9.092893218813458
 34
0.0
100
AcDbRotatedDimension
1001
ACAD
1000
DSTYLE
1002
{
1070
    78
1070
     8
1070
   140
1040
3.0
1002
}
  0
DIMENSION
  5
2039
330
1A
100
AcDbEntity
  8
250
  6
CONTINUOUS
100
AcDbDimension
  2
*D4
 10
0.0000000000000012
 20
28.0
 30
0.0
 11
-6.999999999999999
 21
30.5
 31
0.0
 70
    32
  3
BIGT
100
AcDbAlignedDimension
 13
-14.0
 23
10.0
 33
0.0
 14
0.0
 24
9.092893000000003
 34
0.0
100
AcDbRotatedDimension
1001
ACAD
1000
DSTYLE
1002
{
1070
    78
1070
     8
1070
   140
1040
3.0
1002
}
  0
DIMENSION
  5
2456
330
1A
100
AcDbEntity
  8
250
  6
CONTINUOUS
100
AcDbDimension
  2
*D5
 10
0.0000000000000016
 20
35.0
 30
0.0
 11
-27.5
 21
37.5
 31
0.0
 70
    32
  3
BIGT
100
AcDbAlignedDimension
 13
-55.0
 23
9.0
 33
0.0
 14
0.0
 24
9.092893000000003
 34
0.0
100
AcDbRotatedDimension
1001
ACAD
1000
DSTYLE
1002
{
1070
    78
1070
     8
1070
   140
1040
3.0
1002
}
  0
DIMENSION
  5
2465
330
1A
100
AcDbEntity
  8
250
  6
CONTINUOUS
100
AcDbDimension
  2
*D6
 10
-14.0
 20
28.0
 30
0.0
 11
-34.5
 21
30.5
 31
0.0
 70
    32
  3
BIGT
100
AcDbAlignedDimension
 13
-55.0
 23
9.0
 33
0.0
 14
-14.0
 24
10.0
 34
0.0
100
AcDbRotatedDimension
1001
ACAD
1000
DSTYLE
1002
{
1070
    78
1070
     8
1070
   140
1040
3.0
1002
}
  0
DIMENSION
  5
2474
330
1A
100
AcDbEntity
  8
250
  6
CONTINUOUS
100
AcDbDimension
  2
*D7
 10
-63.0
 20
11.0
 30
0.0
 11
-65.5
 21
-0.0000000000000047
 31
0.0
 70
    32
  1
{\H3;\U+2205}<>
  3
BIGT
100
AcDbAlignedDimension
 13
-44.5
 23
-11.0
 33
0.0
 14
-44.50000000000001
 24
11.0
 34
0.0
 50
90.0
100
AcDbRotatedDimension
1001
ACAD
1000
DSTYLE
1002
{
1070
    78
1070
     8
1070
   140
1040
3.0
1002
}
  0
INSERT
  5
2562
330
1A
100
AcDbEntity
  8
240
100
AcDbBlockReference
  2
A$C51C66184
 10
0.0
 20
0.0
 30
0.0
  0
VIEWPORT
  5
22
330
17
100
AcDbEntity
 67
     1
  8
0
100
AcDbViewport
 10
261.5176991150442
 20
148.5
 30
0.0
 40
523.0353982300885
 41
297.0
 68
     1
 69
     1
1001
ACAD
1000
MVIEW
1002
{
1070
    16
1010
0.0
1020
0.0
1030
0.0
1010
0.0
1020
0.0
1030
1.0
1040
0.0
1040
297.0
1040
261.5176991150442
1040
148.5
1040
50.0
1040
0.0
1040
0.0
1070
     0
1070
   100
1070
     1
1070
     1
1070
     0
1070
     0
1070
     0
1070
     0
1040
0.0
1040
0.0
1040
0.0
1040
1.0
1040
1.0
1040
10.0
1040
10.0
1070
     0
1002
{
1002
}
1002
}
  0
ENDSEC
  0
SECTION
  2
OBJECTS
  0
DICTIONARY
  5
C
330
0
100
AcDbDictionary
  3
ACAD_GROUP
350
D
  3
ACAD_LAYOUT
350
565
  3
ACAD_MLINESTYLE
350
E
  3
ACAD_PLOTSETTINGS
350
566
  3
ACAD_PLOTSTYLENAME
350
563
  3
ACDBHEADERROUNDTRIPXREC
350
256B
  3
ACDBVARIABLEDICTIONARY
350
18EC
  3
DWGPROPS
350
1AB3
  3
GRADE_DWG
350
540
  0
DICTIONARY
  5
258E
330
1A
100
AcDbDictionary
280
     1
  3
ACAD_LAYOUTSELFREF
360
258F
  0
DICTIONARY
  5
258C
330
17
100
AcDbDictionary
280
     1
  3
ACAD_LAYOUTSELFREF
360
258D
  0
DICTIONARY
  5
D
102
{ACAD_REACTORS
330
C
102
}
330
C
100
AcDbDictionary
  3
*A1
350
DB1
  3
*A2
350
11D0
  3
*A3
350
12C6
  3
*A4
350
15CB
  3
*A5
350
16F8
  3
DM800-1
350
C41
  3
DREC-1
350
5FC
  3
DREC-2
350
654
  3
DREC-3
350
673
  0
DICTIONARY
  5
565
102
{ACAD_REACTORS
330
C
102
}
330
C
100
AcDbDictionary
  0
DICTIONARY
  5
E
102
{ACAD_REACTORS
330
C
102
}
330
C
100
AcDbDictionary
  3
STANDARD
350
13
  0
DICTIONARY
  5
566
102
{ACAD_REACTORS
330
C
102
}
330
C
100
AcDbDictionary
  0
ACDBDICTIONARYWDFLT
  5
563
102
{ACAD_REACTORS
330
C
102
}
330
C
100
AcDbDictionary
281
     1
  3
Normal
350
564
100
AcDbDictionaryWithDefault
340
564
  0
DICTIONARY
  5
256B
102
{ACAD_REACTORS
330
C
102
}
330
C
100
AcDbDictionary
  3
CEPSNTYPE
350
2575
  3
DIMSTYLEDATA
350
2579
  3
FINGERPRINTGUID
350
2576
  3
HYPERLINKBASE
350
256E
  3
INSUNITS
350
2574
  3
LAYOUTDICT
350
2570
  3
LWETCUNION
350
2573
  3
PLOTSETDICT
350
2571
  3
PLOTSTYLNAMDICT
350
2572
  3
PSVPSCALE
350
2578
  3
PUCSBASE
350
257C
  3
PUCSORGBACK
350
2582
  3
PUCSORGBOTTOM
350
257E
  3
PUCSORGFRONT
350
2581
  3
PUCSORGLEFT
350
257F
  3
PUCSORGRIGHT
350
2580
  3
PUCSORGTOP
350
257D
  3
PUCSORTHOREF
350
257A
  3
PUCSORTHOVIEW
350
257B
  3
STYLESHEET
350
256F
  3
TSTACKALIGN
350
256C
  3
TSTACKSIZE
350
256D
  3
UCSBASE
350
2585
  3
UCSORGBACK
350
258B
  3
UCSORGBOTTOM
350
2587
  3
UCSORGFRONT
350
258A
  3
UCSORGLEFT
350
2588
  3
UCSORGRIGHT
350
2589
  3
UCSORGTOP
350
2586
  3
UCSORTHOREF
350
2583
  3
UCSORTHOVIEW
350
2584
  3
VERSIONGUID
350
2577
  0
DICTIONARY
  5
18EC
102
{ACAD_REACTORS
330
C
102
}
330
C
100
AcDbDictionary
  3
DIMASSOC
350
18ED
  3
SORTENTS
350
1FDF
  0
XRECORD
  5
1AB3
102
{ACAD_REACTORS
330
C
102
}
330
C
100
AcDbXrecord
  1
DWGPROPS COOKIE
  2

  3

  4

  6

  7

  8
ymat
  9

300
=
301
=
302
=
303
=
304
=
305
=
306
=
307
=
308
=
309
=
 40
0.1498585648148148
 41
2452180.619342083
 42
2452409.080806018
  1

 90
        0
  0
DICTIONARY
  5
540
102
{ACAD_REACTORS
330
C
102
}
330
C
100
AcDbDictionary
  3
VERSION
350
560
  0
XRECORD
  5
258F
102
{ACAD_REACTORS
330
258E
102
}
330
258E
100
AcDbXrecord
340
1A
  0
XRECORD
  5
258D
102
{ACAD_REACTORS
330
258C
102
}
330
258C
100
AcDbXrecord
340
17
  0
GROUP
  5
DB1
102
{ACAD_REACTORS
330
D
102
}
330
D
100
AcDbGroup
300

 70
     1
 71
     1
1001
GRPNAME
1000
DM800
  0
GROUP
  5
11D0
102
{ACAD_REACTORS
330
D
102
}
330
D
100
AcDbGroup
300

 70
     1
 71
     1
1001
GRPNAME
1000
DM800
  0
GROUP
  5
12C6
102
{ACAD_REACTORS
330
D
102
}
330
D
100
AcDbGroup
300

 70
     1
 71
     1
1001
GRPNAME
1000
DM800
  0
GROUP
  5
15CB
102
{ACAD_REACTORS
330
D
102
}
330
D
100
AcDbGroup
300

 70
     1
 71
     1
1001
GRPNAME
1000
DM800
  0
GROUP
  5
16F8
102
{ACAD_REACTORS
330
D
102
}
330
D
100
AcDbGroup
300

 70
     1
 71
     1
1001
GRPNAME
1000
DM800
  0
GROUP
  5
C41
102
{ACAD_REACTORS
330
D
102
}
330
D
100
AcDbGroup
300

 70
     0
 71
     1
1001
GRPNAME
1000
DM800
  0
GROUP
  5
5FC
102
{ACAD_REACTORS
330
D
102
}
330
D
100
AcDbGroup
300

 70
     0
 71
     1
1001
GRPNAME
1000
DREC-
1001
GPARA
1000
xsiz
1000
44.182
1000
ysiz
1000
40.677
1000
angl
1000
0
1000
ctyp
1000
0
1000
csiz
1000
5
1000
lfnt
1000
cont
1000
hcnt
1000
hoff
1000
vcnt
1000
voff
1000
opnt
1000
4
1000
dxpt
1000
0
1000
dypt
1000
0
  0
GROUP
  5
654
102
{ACAD_REACTORS
330
D
102
}
330
D
100
AcDbGroup
300

 70
     0
 71
     1
1001
GRPNAME
1000
DREC-
1001
GPARA
1000
xsiz
1000
54.592
1000
ysiz
1000
53.036
1000
angl
1000
0
1000
ctyp
1000
0
1000
csiz
1000
5
1000
lfnt
1000
cont
1000
hcnt
1000
hoff
1000
vcnt
1000
voff
1000
opnt
1000
4
1000
dxpt
1000
0
1000
dypt
1000
0
  0
GROUP
  5
673
102
{ACAD_REACTORS
330
D
102
}
330
D
100
AcDbGroup
300

 70
     0
 71
     1
1001
GRPNAME
1000
DREC-
1001
GPARA
1000
xsiz
1000
30.363
1000
ysiz
1000
36.175
1000
angl
1000
0
1000
ctyp
1000
0
1000
csiz
1000
5
1000
lfnt
1000
cont
1000
hcnt
1000
hoff
1000
vcnt
1000
voff
1000
opnt
1000
4
1000
dxpt
1000
0
1000
dypt
1000
0
  0
MLINESTYLE
  5
13
102
{ACAD_REACTORS
330
E
102
}
330
E
100
AcDbMlineStyle
  2
STANDARD
 70
     0
  3

 62
     0
 51
90.0
 52
90.0
 71
     2
 49
0.5
 62
   256
  6
BYLAYER
 49
-0.5
 62
   256
  6
BYLAYER
  0
ACDBPLACEHOLDER
  5
564
102
{ACAD_REACTORS
330
563
102
}
330
563
100
AcDbPlaceHolder
280
     0
  0
XRECORD
  5
2575
102
{ACAD_REACTORS
330
256B
102
}
330
256B
100
AcDbXrecord
 90
        0
  0
XRECORD
  5
2579
102
{ACAD_REACTORS
330
256B
102
}
330
256B
100
AcDbXrecord
1000
DSTYLE
1002
{
1070
    79
 70
     2
1070
   179
 70
     3
1070
   289
 70
     2
1070
   341
340
594
1070
   342
340
594
1070
   371
 70
    -1
1070
   372
 70
    -1
1002
}
  0
XRECORD
  5
2576
102
{ACAD_REACTORS
330
256B
102
}
330
256B
100
AcDbXrecord
  1
{51294030-9CB4-11D3-8E18-00A0C925D94D}
  0
XRECORD
  5
256E
102
{ACAD_REACTORS
330
256B
102
}
330
256B
100
AcDbXrecord
  1

  0
XRECORD
  5
2574
102
{ACAD_REACTORS
330
256B
102
}
330
256B
100
AcDbXrecord
 90
        0
  0
XRECORD
  5
2570
102
{ACAD_REACTORS
330
256B
102
}
330
256B
100
AcDbXrecord
340
565
  0
XRECORD
  5
2573
102
{ACAD_REACTORS
330
256B
102
}
330
256B
100
AcDbXrecord
 90
    10781
  0
XRECORD
  5
2571
102
{ACAD_REACTORS
330
256B
102
}
330
256B
100
AcDbXrecord
340
566
  0
XRECORD
  5
2572
102
{ACAD_REACTORS
330
256B
102
}
330
256B
100
AcDbXrecord
340
563
  0
XRECORD
  5
2578
102
{ACAD_REACTORS
330
256B
102
}
330
256B
100
AcDbXrecord
 40
0.0
  0
XRECORD
  5
257C
102
{ACAD_REACTORS
330
256B
102
}
330
256B
100
AcDbXrecord
340
0
  0
XRECORD
  5
2582
102
{ACAD_REACTORS
330
256B
102
}
330
256B
100
AcDbXrecord
 10
0.0
 20
0.0
 30
0.0
  0
XRECORD
  5
257E
102
{ACAD_REACTORS
330
256B
102
}
330
256B
100
AcDbXrecord
 10
0.0
 20
0.0
 30
0.0
  0
XRECORD
  5
2581
102
{ACAD_REACTORS
330
256B
102
}
330
256B
100
AcDbXrecord
 10
0.0
 20
0.0
 30
0.0
  0
XRECORD
  5
257F
102
{ACAD_REACTORS
330
256B
102
}
330
256B
100
AcDbXrecord
 10
0.0
 20
0.0
 30
0.0
  0
XRECORD
  5
2580
102
{ACAD_REACTORS
330
256B
102
}
330
256B
100
AcDbXrecord
 10
0.0
 20
0.0
 30
0.0
  0
XRECORD
  5
257D
102
{ACAD_REACTORS
330
256B
102
}
330
256B
100
AcDbXrecord
 10
0.0
 20
0.0
 30
0.0
  0
XRECORD
  5
257A
102
{ACAD_REACTORS
330
256B
102
}
330
256B
100
AcDbXrecord
340
0
  0
XRECORD
  5
257B
102
{ACAD_REACTORS
330
256B
102
}
330
256B
100
AcDbXrecord
 70
     0
  0
XRECORD
  5
256F
102
{ACAD_REACTORS
330
256B
102
}
330
256B
100
AcDbXrecord
  1
technical_osaka.ctb
  0
XRECORD
  5
256C
102
{ACAD_REACTORS
330
256B
102
}
330
256B
100
AcDbXrecord
 90
        1
  0
XRECORD
  5
256D
102
{ACAD_REACTORS
330
256B
102
}
330
256B
100
AcDbXrecord
 90
       70
  0
XRECORD
  5
2585
102
{ACAD_REACTORS
330
256B
102
}
330
256B
100
AcDbXrecord
340
0
  0
XRECORD
  5
258B
102
{ACAD_REACTORS
330
256B
102
}
330
256B
100
AcDbXrecord
 10
0.0
 20
0.0
 30
0.0
  0
XRECORD
  5
2587
102
{ACAD_REACTORS
330
256B
102
}
330
256B
100
AcDbXrecord
 10
0.0
 20
0.0
 30
0.0
  0
XRECORD
  5
258A
102
{ACAD_REACTORS
330
256B
102
}
330
256B
100
AcDbXrecord
 10
0.0
 20
0.0
 30
0.0
  0
XRECORD
  5
2588
102
{ACAD_REACTORS
330
256B
102
}
330
256B
100
AcDbXrecord
 10
0.0
 20
0.0
 30
0.0
  0
XRECORD
  5
2589
102
{ACAD_REACTORS
330
256B
102
}
330
256B
100
AcDbXrecord
 10
0.0
 20
0.0
 30
0.0
  0
XRECORD
  5
2586
102
{ACAD_REACTORS
330
256B
102
}
330
256B
100
AcDbXrecord
 10
0.0
 20
0.0
 30
0.0
  0
XRECORD
  5
2583
102
{ACAD_REACTORS
330
256B
102
}
330
256B
100
AcDbXrecord
340
0
  0
XRECORD
  5
2584
102
{ACAD_REACTORS
330
256B
102
}
330
256B
100
AcDbXrecord
 70
     0
  0
XRECORD
  5
2577
102
{ACAD_REACTORS
330
256B
102
}
330
256B
100
AcDbXrecord
  1
{EDD58F12-688C-11D7-AD80-0010B5C7BFCA}
  0
DICTIONARYVAR
  5
18ED
102
{ACAD_REACTORS
330
18EC
102
}
330
18EC
100
DictionaryVariables
280
     0
  1
1
  0
DICTIONARYVAR
  5
1FDF
102
{ACAD_REACTORS
330
18EC
102
}
330
18EC
100
DictionaryVariables
280
     0
  1
96
  0
XRECORD
  5
560
102
{ACAD_REACTORS
330
540
102
}
330
540
100
AcDbXrecord
  1
2.0.0
  0
ENDSEC
  0
EOF
