  0
SECTION
  2
HEADER
  9
$ACADVER
  1
AC1009
  9
$INSBASE
 10
0.0
 20
0.0
 30
0.0
  9
$EXTMIN
 10
-74.0
 20
-36.0
 30
0.0
  9
$EXTMAX
 10
21.999999999999989
 20
54.000000000000007
 30
0.0
  9
$LIMMIN
 10
0.0
 20
0.0
  9
$LIMMAX
 10
297.0
 20
210.0
  9
$ORTHOMODE
 70
     0
  9
$REGENMODE
 70
     1
  9
$FILLMODE
 70
     1
  9
$QTEXTMODE
 70
     0
  9
$MIRRTEXT
 70
     1
  9
$DRAGMODE
 70
     2
  9
$LTSCALE
 40
10.0
  9
$OSMODE
 70
    39
  9
$ATTMODE
 70
     1
  9
$TEXTSIZE
 40
3.0
  9
$TRACEWID
 40
1.0
  9
$TEXTSTYLE
  7
YOKO
  9
$CLAYER
  8
240
  9
$CELTYPE
  6
BYLAYER
  9
$CECOLOR
 62
   256
  9
$DIMSCALE
 40
1.0
  9
$DIMASZ
 40
2.2299999999999991
  9
$DIMEXO
 40
0.5
  9
$DIMDLI
 40
2.5
  9
$DIMRND
 40
0.0
  9
$DIMDLE
 40
0.0
  9
$DIMEXE
 40
1.0
  9
$DIMTP
 40
0.0
  9
$DIMTM
 40
0.0
  9
$DIMTXT
 40
3.0
  9
$DIMCEN
 40
0.0
  9
$DIMTSZ
 40
0.0
  9
$DIMTOL
 70
     0
  9
$DIMLIM
 70
     0
  9
$DIMTIH
 70
     0
  9
$DIMTOH
 70
     0
  9
$DIMSE1
 70
     0
  9
$DIMSE2
 70
     0
  9
$DIMTAD
 70
     3
  9
$DIMZIN
 70
     8
  9
$DIMBLK
  1
OPEN
  9
$DIMASO
 70
     1
  9
$DIMSHO
 70
     1
  9
$DIMPOST
  1

  9
$DIMAPOST
  1

  9
$DIMALT
 70
     0
  9
$DIMALTD
 70
     2
  9
$DIMALTF
 40
25.399999999999999
  9
$DIMLFAC
 40
1.0
  9
$DIMTOFL
 70
     1
  9
$DIMTVP
 40
0.0
  9
$DIMTIX
 70
     0
  9
$DIMSOXD
 70
     0
  9
$DIMSAH
 70
     0
  9
$DIMBLK1
  1

  9
$DIMBLK2
  1

  9
$DIMSTYLE
  2
BIGT
  9
$DIMCLRD
 70
   256
  9
$DIMCLRE
 70
   256
  9
$DIMCLRT
 70
    40
  9
$DIMTFAC
 40
1.0
  9
$DIMGAP
 40
1.0
  9
$LUNITS
 70
     2
  9
$LUPREC
 70
     3
  9
$SKETCHINC
 40
1.0
  9
$FILLETRAD
 40
1.0
  9
$AUNITS
 70
     0
  9
$AUPREC
 70
     3
  9
$MENU
  1
.
  9
$ELEVATION
 40
0.0
  9
$PELEVATION
 40
0.0
  9
$THICKNESS
 40
0.0
  9
$LIMCHECK
 70
     0
  9
$BLIPMODE
 70
     0
  9
$CHAMFERA
 40
0.5
  9
$CHAMFERB
 40
0.5
  9
$SKPOLY
 70
     0
  9
$TDCREATE
 40
2452181.4253680091
  9
$TDUPDATE
 40
2456339.6997864121
  9
$TDINDWG
 40
0.1012038773
  9
$TDUSRTIMER
 40
0.1012036921
  9
$USRTIMER
 70
     1
  9
$ANGBASE
 50
0.0
  9
$ANGDIR
 70
     0
  9
$PDMODE
 70
    35
  9
$PDSIZE
 40
2.0
  9
$PLINEWID
 40
0.0
  9
$COORDS
 70
     0
  9
$SPLFRAME
 70
     0
  9
$SPLINETYPE
 70
     6
  9
$SPLINESEGS
 70
     8
  9
$ATTDIA
 70
     1
  9
$ATTREQ
 70
     1
  9
$HANDLING
 70
     1
  9
$HANDSEED
  5
2363
  9
$SURFTAB1
 70
     6
  9
$SURFTAB2
 70
     6
  9
$SURFTYPE
 70
     6
  9
$SURFU
 70
     6
  9
$SURFV
 70
     6
  9
$UCSNAME
  2

  9
$UCSORG
 10
0.0
 20
0.0
 30
0.0
  9
$UCSXDIR
 10
1.0
 20
0.0
 30
0.0
  9
$UCSYDIR
 10
0.0
 20
1.0
 30
0.0
  9
$PUCSNAME
  2

  9
$PUCSORG
 10
0.0
 20
0.0
 30
0.0
  9
$PUCSXDIR
 10
1.0
 20
0.0
 30
0.0
  9
$PUCSYDIR
 10
0.0
 20
1.0
 30
0.0
  9
$USERI1
 70
     1
  9
$USERI2
 70
     0
  9
$USERI3
 70
     0
  9
$USERI4
 70
     0
  9
$USERI5
 70
     0
  9
$USERR1
 40
0.0
  9
$USERR2
 40
0.0
  9
$USERR3
 40
0.0
  9
$USERR4
 40
0.0
  9
$USERR5
 40
0.0
  9
$WORLDVIEW
 70
     1
  9
$SHADEDGE
 70
     3
  9
$SHADEDIF
 70
    70
  9
$TILEMODE
 70
     1
  9
$MAXACTVP
 70
    16
  9
$PLIMCHECK
 70
     0
  9
$PEXTMIN
 10
1.0000000000000000E+020
 20
1.0000000000000000E+020
 30
1.0000000000000000E+020
  9
$PEXTMAX
 10
-1.0000000000000000E+020
 20
-1.0000000000000000E+020
 30
-1.0000000000000000E+020
  9
$PLIMMIN
 10
0.0
 20
0.0
  9
$PLIMMAX
 10
420.0
 20
297.0
  9
$UNITMODE
 70
     0
  9
$VISRETAIN
 70
     0
  9
$PLINEGEN
 70
     0
  9
$PSLTSCALE
 70
     1
  0
ENDSEC
  0
SECTION
  2
TABLES
  0
TABLE
  2
VPORT
 70
     3
  0
VPORT
  2
*ACTIVE
 70
     0
 10
0.0
 20
0.0
 11
1.0
 21
1.0
 12
-24.643231792228519
 22
8.9989018491456232
 13
0.0
 23
0.0
 14
7.0
 24
7.0
 15
7.0
 25
7.0
 16
0.0
 26
0.0
 36
1.0
 17
0.0
 27
0.0
 37
0.0
 40
90.677936540144785
 41
1.4489795918367341
 42
50.0
 43
0.0
 44
0.0
 50
0.0
 51
0.0
 71
     0
 72
  2000
 73
     1
 74
     0
 75
     0
 76
     1
 77
     0
 78
     0
  0
ENDTAB
  0
TABLE
  2
LTYPE
 70
    13
  0
LTYPE
  2
CONTINUOUS
 70
     0
  3
Solid line
 72
    65
 73
     0
 40
0.0
  0
LTYPE
  2
CENTER2
 70
     0
  3
___ _ ___ _ ___ _ ___ _ ___ _ ___ _ ___ _ ___ _
 72
    65
 73
     4
 40
1.125
 49
0.75
 49
-0.125
 49
0.125
 49
-0.125
  0
LTYPE
  2
PHANTOM2
 70
     0
  3
___ _ _ ___ _ _ ___ _ _ ___ _ _ ___ _ _ ___ _ _
 72
    65
 73
     6
 40
1.25
 49
0.625
 49
-0.125
 49
0.125
 49
-0.125
 49
0.125
 49
-0.125
  0
LTYPE
  2
HIDDEN2
 70
     0
  3
_ _ _ _ _ _ _ _ _ _ _ _ _ _ _ _ _ _ _ _ _ _ _ _
 72
    65
 73
     2
 40
0.1875
 49
0.125
 49
-0.0625
  0
LTYPE
  2
AMCONSTR
 70
     0
  3
_______________________
 72
    65
 73
     2
 40
9999.0
 49
9999.0
 49
0.0
  0
LTYPE
  2
AM_ISO02W050
 70
     0
  3
__ __ __ __ __ __ __ __ __ __ __ __ __ __ __
 72
    65
 73
     2
 40
7.5
 49
6.0
 49
-1.5
  0
LTYPE
  2
HIDDEN
 70
     0
  3
Hidden __ __ __ __ __ __ __ __ __ __ __ __ __ _
 72
    65
 73
     2
 40
9.5249999999999986
 49
6.3499999999999988
 49
-3.1749999999999989
  0
LTYPE
  2
CENTER
 70
     0
  3
____ _ ____ _ ____ _ ____ _ ____ _ ____ _ ____ 
 72
    65
 73
     4
 40
2.0
 49
1.25
 49
-0.25
 49
0.25
 49
-0.25
  0
LTYPE
  2
ACJISTGB
 70
     0
  3
__ . . __ . .
 72
    65
 73
     6
 40
9.0
 49
4.0
 49
-1.0
 49
1.0
 49
-1.0
 49
1.0
 49
-1.0
  0
LTYPE
  2
ACJISTGL
 70
     0
  3
_ _ _ _ _
 72
    65
 73
     2
 40
3.0
 49
2.0
 49
-1.0
  0
LTYPE
  2
ACISOWELD
 70
     0
  3
_ _ _ _ _
 72
    65
 73
     2
 40
2.0
 49
2.0
 49
-1.0
  0
LTYPE
  2
ACISOTGB
 70
     0
  3
__ . . __ . .
 72
    65
 73
     6
 40
9.0
 49
4.0
 49
-1.0
 49
1.0
 49
-1.0
 49
1.0
 49
-1.0
  0
LTYPE
  2
ACISOTGL
 70
     0
  3
_ _ _ _ _
 72
    65
 73
     2
 40
3.0
 49
2.0
 49
-1.0
  0
ENDTAB
  0
TABLE
  2
LAYER
 70
     9
  0
LAYER
  2
0
 70
     0
 62
     7
  6
CONTINUOUS
  0
LAYER
  2
240
 70
     0
 62
     4
  6
CONTINUOUS
  0
LAYER
  2
241
 70
     0
 62
   211
  6
CONTINUOUS
  0
LAYER
  2
242
 70
     0
 62
     3
  6
CONTINUOUS
  0
LAYER
  2
245
 70
     0
 62
     2
  6
CENTER2
  0
LAYER
  2
246
 70
     0
 62
     3
  6
PHANTOM2
  0
LAYER
  2
247
 70
     0
 62
    60
  6
CONTINUOUS
  0
LAYER
  2
250
 70
     0
 62
     3
  6
CONTINUOUS
  0
LAYER
  2
DEFPOINTS
 70
     0
 62
     7
  6
CONTINUOUS
  0
ENDTAB
  0
TABLE
  2
STYLE
 70
     6
  0
STYLE
  2
STANDARD
 70
     0
 40
0.0
 41
1.0
 50
0.0
 71
     0
 42
3.0
  3
romans.shx
  4
BIGFONT.SHX
  0
STYLE
  2
YOKO
 70
     0
 40
0.0
 41
1.0
 50
0.0
 71
     0
 42
3.0
  3
romans.shx
  4
extfont.shx
  0
STYLE
  2
ACJISGDT
 70
     0
 40
0.0
 41
1.0
 50
0.0
 71
     0
 42
3.0
  3
amgdt.shx
  4
extfont.shx
  0
STYLE
  2
ACJISTS
 70
     0
 40
1.0
 41
1.0
 50
0.0
 71
     0
 42
3.0
  3
amgdt.shx
  4
extfont.shx
  0
STYLE
  2
ACISOTS
 70
     0
 40
1.0
 41
1.0
 50
0.0
 71
     0
 42
3.0
  3
amgdt.shx
  4
extfont.shx
  0
STYLE
  2
ACISOGDT
 70
     0
 40
0.0
 41
1.0
 50
0.0
 71
     0
 42
3.0
  3
amgdt.shx
  4
extfont.shx
  0
ENDTAB
  0
TABLE
  2
VIEW
 70
     0
  0
ENDTAB
  0
TABLE
  2
UCS
 70
     0
  0
ENDTAB
  0
TABLE
  2
APPID
 70
    31
  0
APPID
  2
ACAD
 70
     0
  0
APPID
  2
GLOBAL
 70
     0
  0
APPID
  2
DETAIL
 70
     0
  0
APPID
  2
GRPNAME
 70
     0
  0
APPID
  2
GPARA
 70
     0
  0
APPID
  2
ITEMNAME
 70
     0
  0
APPID
  2
HATCH_TYPE
 70
     0
  0
APPID
  2
HATCH_DISPLAY
 70
     0
  0
APPID
  2
HATCH_DISTANCE
 70
     0
  0
APPID
  2
MCAD_NO_VIS
 70
     0
  0
APPID
  2
ACAD_TEMP_GRAPHIC
 70
     0
  0
APPID
  2
ACATTRIBSERVICES
 70
     0
  0
APPID
  2
GENIUS_GENSCREG_15
 70
     0
  0
APPID
  2
GENIUS_GENODEF_13
 70
     0
  0
APPID
  2
GENIUS_GENOBJ-N-SDF_13
 70
     0
  0
APPID
  2
GENIUS_GENREC_14
 70
     0
  0
APPID
  2
GENIUS_GENOBJ-N-REC_13
 70
     0
  0
APPID
  2
GENIUS_GENDIMSH_14
 70
     0
  0
APPID
  2
GENIUS_GENOBJ-N-DIM_13
 70
     0
  0
APPID
  2
GENIUS_GENDIM_13
 70
     0
  0
APPID
  2
GENIUS_GENDTOL_13
 70
     0
  0
APPID
  2
GENIUS_GENOLIS_13
 70
     0
  0
APPID
  2
GENIUS_GENOENT_13
 70
     0
  0
APPID
  2
GENIUS_GENOBJ-F-FEM_13
 70
     0
  0
APPID
  2
GENIUS_GENOREF_13
 70
     0
  0
APPID
  2
GENIUS_GEFFEM_13
 70
     0
  0
APPID
  2
GENIUS_GEFFEMP_13
 70
     0
  0
APPID
  2
AD_DRAW
 70
     0
  0
APPID
  2
DESIGNERASSEMBLIES
 70
     0
  0
APPID
  2
ACADM_DIM_EDIT
 70
     0
  0
APPID
  2
AMDT_DM_ADJ
 70
     0
  0
ENDTAB
  0
TABLE
  2
DIMSTYLE
 70
    24
  0
DIMSTYLE
  2
STANDARD
 70
     0
  3

  4

  5

  6

  7

 40
1.0
 41
2.0
 42
2.0
 43
3.75
 44
2.0
 45
0.0
 46
0.0
 47
0.0
 48
0.0
140
4.0
141
0.09
142
0.0
143
25.399999999999999
144
1.0
145
0.0
146
1.0
147
1.0
 71
     0
 72
     0
 73
     1
 74
     1
 75
     0
 76
     0
 77
     0
 78
     8
170
     0
171
     2
172
     0
173
     1
174
     0
175
     0
176
   256
177
   256
178
   256
  0
DIMSTYLE
  2
BIGT
 70
     0
  3

  4

  5
OPEN
  6

  7

 40
1.0
 41
2.2299999999999991
 42
0.5
 43
7.0
 44
1.0
 45
0.0
 46
0.0
 47
0.0
 48
0.01
140
2.7999999999999989
141
0.0
142
0.0
143
25.399999999999999
144
1.0
145
0.0
146
1.0
147
1.0
 71
     0
 72
     0
 73
     0
 74
     0
 75
     0
 76
     0
 77
     3
 78
     9
170
     0
171
     2
172
     1
173
     0
174
     1
175
     0
176
   256
177
   256
178
    40
  0
DIMSTYLE
  2
BIGT$0
 70
     0
  3

  4

  5
OPEN
  6

  7

 40
1.0
 41
2.2299999999999991
 42
0.5
 43
7.0
 44
1.0
 45
0.0
 46
0.0
 47
0.0
 48
0.01
140
2.7999999999999989
141
0.0
142
0.0
143
25.399999999999999
144
1.0
145
0.0
146
1.0
147
1.0
 71
     0
 72
     0
 73
     0
 74
     0
 75
     0
 76
     0
 77
     3
 78
     9
170
     0
171
     2
172
     1
173
     0
174
     0
175
     0
176
   256
177
   256
178
    40
  0
DIMSTYLE
  2
BIGT$2
 70
     0
  3

  4

  5
OPEN
  6

  7

 40
1.0
 41
2.2299999999999991
 42
0.5
 43
7.0
 44
1.0
 45
0.0
 46
0.0
 47
0.0
 48
0.01
140
2.7999999999999989
141
0.0
142
0.0
143
25.399999999999999
144
1.0
145
0.0
146
1.0
147
1.0
 71
     0
 72
     0
 73
     0
 74
     0
 75
     0
 76
     0
 77
     3
 78
     9
170
     0
171
     2
172
     1
173
     0
174
     0
175
     0
176
   256
177
   256
178
    40
  0
DIMSTYLE
  2
BIGT$3
 70
     0
  3

  4

  5
OPEN
  6

  7

 40
1.0
 41
2.2299999999999991
 42
0.5
 43
2.5
 44
1.0
 45
0.0
 46
0.0
 47
0.0
 48
0.01
140
2.7999999999999989
141
0.0
142
0.0
143
25.399999999999999
144
1.0
145
0.0
146
1.0
147
1.0
 71
     0
 72
     0
 73
     0
 74
     0
 75
     0
 76
     0
 77
     3
 78
     9
170
     0
171
     2
172
     1
173
     0
174
     0
175
     0
176
   256
177
   256
178
    40
  0
DIMSTYLE
  2
BIGT$4
 70
     0
  3

  4

  5
OPEN
  6

  7

 40
1.0
 41
2.2299999999999991
 42
0.5
 43
2.5
 44
1.0
 45
0.0
 46
0.0
 47
0.0
 48
0.01
140
2.7999999999999989
141
0.0
142
0.0
143
25.399999999999999
144
1.0
145
0.0
146
1.0
147
1.0
 71
     0
 72
     0
 73
     0
 74
     0
 75
     0
 76
     0
 77
     3
 78
     9
170
     0
171
     2
172
     1
173
     0
174
     0
175
     0
176
   256
177
   256
178
    40
  0
DIMSTYLE
  2
BIGT$6
 70
     0
  3

  4

  5
OPEN
  6

  7

 40
1.0
 41
2.2299999999999991
 42
0.5
 43
2.5
 44
1.0
 45
0.0
 46
0.0
 47
0.0
 48
0.01
140
2.7999999999999989
141
0.0
142
0.0
143
25.399999999999999
144
1.0
145
0.0
146
1.0
147
1.0
 71
     0
 72
     0
 73
     0
 74
     0
 75
     0
 76
     0
 77
     3
 78
     9
170
     0
171
     2
172
     1
173
     0
174
     0
175
     0
176
   256
177
   256
178
    40
  0
DIMSTYLE
  2
BIGT$7
 70
     0
  3

  4

  5
OPEN
  6

  7

 40
0.0
 41
2.2299999999999991
 42
0.5
 43
7.0
 44
1.0
 45
0.0
 46
0.0
 47
0.0
 48
0.01
140
2.7999999999999989
141
0.0
142
0.0
143
25.399999999999999
144
1.0
145
0.0
146
1.0
147
1.0
 71
     0
 72
     0
 73
     0
 74
     0
 75
     0
 76
     0
 77
     3
 78
     9
170
     0
171
     2
172
     0
173
     0
174
     0
175
     0
176
   256
177
   256
178
    40
  0
DIMSTYLE
  2
BIGT$SF
 70
     0
  3

  4

  5
OPEN
  6

  7

 40
1.0
 41
2.2299999999999991
 42
0.5
 43
7.0
 44
1.0
 45
0.0
 46
0.0
 47
0.0
 48
0.0
140
2.7999999999999989
141
0.0
142
0.0
143
25.399999999999999
144
1.0
145
0.0
146
1.0
147
1.0
 71
     0
 72
     0
 73
     0
 74
     0
 75
     0
 76
     0
 77
     3
 78
     9
170
     0
171
     2
172
     1
173
     0
174
     0
175
     0
176
   256
177
   256
178
    40
  0
DIMSTYLE
  2
BIGT$SH
 70
     0
  3

  4

  5
OPEN
  6

  7

 40
1.0
 41
2.2299999999999991
 42
0.5
 43
7.0
 44
1.0
 45
0.0
 46
0.0
 47
0.0
 48
0.0
140
2.7999999999999989
141
0.0
142
0.0
143
25.399999999999999
144
1.0
145
0.0
146
1.0
147
1.0
 71
     0
 72
     0
 73
     0
 74
     0
 75
     0
 76
     0
 77
     3
 78
     9
170
     0
171
     2
172
     1
173
     0
174
     0
175
     0
176
   256
177
   256
178
    40
  0
DIMSTYLE
  2
AM_ISO
 70
     0
  3

  4
"
  5

  6

  7

 40
1.0
 41
2.5
 42
1.0
 43
10.0
 44
1.0
 45
0.0
 46
0.0
 47
0.1
 48
0.1
140
3.5
141
0.0
142
0.0
143
0.0393701
144
1.0
145
0.0
146
0.71
147
1.5
 71
     0
 72
     0
 73
     0
 74
     0
 75
     0
 76
     0
 77
     1
 78
     8
170
     0
171
     2
172
     1
173
     0
174
     0
175
     0
176
   256
177
   256
178
     2
  0
DIMSTYLE
  2
AM_ISO$3
 70
     0
  3

  4
"
  5

  6

  7

 40
1.0
 41
2.5
 42
1.0
 43
10.0
 44
1.0
 45
0.0
 46
0.0
 47
0.1
 48
0.1
140
3.5
141
0.0
142
0.0
143
0.0393701
144
1.0
145
0.0
146
0.71
147
1.5
 71
     0
 72
     0
 73
     0
 74
     1
 75
     0
 76
     0
 77
     1
 78
     8
170
     0
171
     2
172
     0
173
     0
174
     0
175
     0
176
   256
177
   256
178
     2
  0
DIMSTYLE
  2
AM_ISO$4
 70
     0
  3

  4
"
  5

  6

  7

 40
1.0
 41
2.5
 42
1.0
 43
10.0
 44
1.0
 45
0.0
 46
0.0
 47
0.1
 48
0.1
140
3.5
141
0.0
142
0.0
143
0.0393701
144
1.0
145
0.0
146
0.71
147
1.5
 71
     0
 72
     0
 73
     0
 74
     1
 75
     0
 76
     0
 77
     1
 78
     8
170
     0
171
     2
172
     0
173
     0
174
     0
175
     0
176
   256
177
   256
178
     2
  0
DIMSTYLE
  2
AM_ISO$6
 70
     0
  3

  4
"
  5

  6

  7

 40
1.0
 41
2.5
 42
1.0
 43
10.0
 44
1.0
 45
0.0
 46
0.0
 47
0.1
 48
0.1
140
3.5
141
0.0
142
0.0
143
0.0393701
144
1.0
145
0.0
146
0.71
147
1.5
 71
     0
 72
     0
 73
     0
 74
     0
 75
     0
 76
     0
 77
     0
 78
     8
170
     0
171
     2
172
     1
173
     0
174
     0
175
     0
176
   256
177
   256
178
     2
  0
DIMSTYLE
  2
AM_ISO$7
 70
     0
  3

  4
"
  5

  6

  7

 40
1.0
 41
2.5
 42
1.0
 43
10.0
 44
1.0
 45
0.0
 46
0.0
 47
0.1
 48
0.1
140
5.0
141
0.0
142
0.0
143
0.0393701
144
1.0
145
0.0
146
0.71
147
1.5
 71
     0
 72
     0
 73
     0
 74
     0
 75
     0
 76
     0
 77
     1
 78
     8
170
     0
171
     2
172
     1
173
     0
174
     0
175
     0
176
   256
177
   256
178
     2
  0
DIMSTYLE
  2
AM_ISO$SF
 70
     0
  3

  4
"
  5

  6

  7

 40
1.0
 41
2.5
 42
1.0
 43
10.0
 44
1.0
 45
0.0
 46
0.0
 47
0.1
 48
0.1
140
3.5
141
0.0
142
0.0
143
0.0393701
144
1.0
145
0.0
146
0.71
147
1.5
 71
     0
 72
     0
 73
     0
 74
     0
 75
     1
 76
     1
 77
     1
 78
     8
170
     0
171
     2
172
     1
173
     0
174
     0
175
     0
176
   256
177
   256
178
     2
  0
DIMSTYLE
  2
AM_ISO$SH
 70
     0
  3

  4
"
  5

  6
GENAXEH
  7

 40
1.0
 41
2.5
 42
1.0
 43
10.0
 44
1.0
 45
0.0
 46
0.0
 47
0.1
 48
0.1
140
3.5
141
0.0
142
0.0
143
0.0393701
144
2.0
145
0.0
146
0.71
147
1.5
 71
     0
 72
     0
 73
     0
 74
     0
 75
     1
 76
     1
 77
     1
 78
     8
170
     0
171
     2
172
     1
173
     1
174
     0
175
     0
176
   256
177
   256
178
     2
  0
DIMSTYLE
  2
TECHNICAL_OSAKA
 70
     0
  3

  4
"
  5
OPEN30
  6

  7

 40
1.0
 41
2.5
 42
1.0
 43
10.0
 44
1.0
 45
0.0
 46
0.0
 47
0.1
 48
0.1
140
2.7999999999999989
141
0.0
142
0.0
143
0.0393701
144
1.0
145
0.0
146
0.71
147
1.5
 71
     0
 72
     0
 73
     0
 74
     0
 75
     0
 76
     0
 77
     3
 78
     8
170
     0
171
     2
172
     1
173
     0
174
     0
175
     0
176
   256
177
   256
178
    40
  0
DIMSTYLE
  2
TECHNICAL_OSAKA$3
 70
     0
  3

  4
"
  5
OPEN30
  6

  7

 40
1.0
 41
2.5
 42
1.0
 43
10.0
 44
1.0
 45
0.0
 46
0.0
 47
0.1
 48
0.1
140
2.7999999999999989
141
0.0
142
0.0
143
0.0393701
144
1.0
145
0.0
146
0.71
147
1.5
 71
     0
 72
     0
 73
     0
 74
     1
 75
     0
 76
     0
 77
     3
 78
     8
170
     0
171
     2
172
     0
173
     0
174
     0
175
     0
176
   256
177
   256
178
    40
  0
DIMSTYLE
  2
TECHNICAL_OSAKA$4
 70
     0
  3

  4
"
  5
OPEN30
  6

  7

 40
1.0
 41
2.5
 42
1.0
 43
10.0
 44
1.0
 45
0.0
 46
0.0
 47
0.1
 48
0.1
140
2.7999999999999989
141
0.0
142
0.0
143
0.0393701
144
1.0
145
0.0
146
0.71
147
1.5
 71
     0
 72
     0
 73
     0
 74
     1
 75
     0
 76
     0
 77
     3
 78
     8
170
     0
171
     2
172
     0
173
     0
174
     0
175
     0
176
   256
177
   256
178
    40
  0
DIMSTYLE
  2
TECHNICAL_OSAKA$6
 70
     0
  3

  4
"
  5
OPEN30
  6

  7

 40
1.0
 41
2.5
 42
1.0
 43
10.0
 44
1.0
 45
0.0
 46
0.0
 47
0.1
 48
0.1
140
2.7999999999999989
141
0.0
142
0.0
143
0.0393701
144
1.0
145
0.0
146
0.71
147
1.5
 71
     0
 72
     0
 73
     0
 74
     0
 75
     0
 76
     0
 77
     0
 78
     8
170
     0
171
     2
172
     1
173
     0
174
     0
175
     0
176
   256
177
   256
178
    40
  0
DIMSTYLE
  2
TECHNICAL_OSAKA$7
 70
     0
  3

  4
"
  5
OPEN30
  6

  7

 40
1.0
 41
2.5
 42
1.0
 43
10.0
 44
1.0
 45
0.0
 46
0.0
 47
0.1
 48
0.1
140
2.7999999999999989
141
0.0
142
0.0
143
0.0393701
144
1.0
145
0.0
146
0.71
147
1.5
 71
     0
 72
     0
 73
     0
 74
     0
 75
     0
 76
     0
 77
     3
 78
     8
170
     0
171
     2
172
     1
173
     0
174
     0
175
     0
176
   256
177
   256
178
    40
  0
DIMSTYLE
  2
TECHNICAL_OSAKA$SF
 70
     0
  3

  4
"
  5
OPEN30
  6
OPEN30
  7
OPEN30
 40
1.0
 41
2.5
 42
1.0
 43
10.0
 44
1.0
 45
0.0
 46
0.0
 47
0.1
 48
0.1
140
3.5
141
0.0
142
0.0
143
0.0393701
144
1.0
145
0.0
146
0.71
147
1.5
 71
     0
 72
     0
 73
     0
 74
     0
 75
     1
 76
     1
 77
     3
 78
     8
170
     0
171
     2
172
     1
173
     0
174
     0
175
     0
176
   256
177
   256
178
    40
  0
DIMSTYLE
  2
TECHNICAL_OSAKA$SH
 70
     0
  3

  4
"
  5
OPEN30
  6
GENAXEH
  7
OPEN30
 40
1.0
 41
2.5
 42
1.0
 43
10.0
 44
1.0
 45
0.0
 46
0.0
 47
0.1
 48
0.1
140
3.5
141
0.0
142
0.0
143
0.0393701
144
2.0
145
0.0
146
0.71
147
1.5
 71
     0
 72
     0
 73
     0
 74
     0
 75
     1
 76
     1
 77
     3
 78
     8
170
     0
171
     2
172
     1
173
     1
174
     0
175
     0
176
   256
177
   256
178
    40
  0
ENDTAB
  0
ENDSEC
  0
SECTION
  2
BLOCKS
  0
BLOCK
  8
0
  2
$MODEL_SPACE
 70
     0
 10
0.0
 20
0.0
 30
0.0
  3
$MODEL_SPACE
  1

  0
ENDBLK
  5
1C
  8
0
  0
BLOCK
 67
     1
  8
0
  2
$PAPER_SPACE
 70
     0
 10
0.0
 20
0.0
 30
0.0
  3
$PAPER_SPACE
  1

  0
ENDBLK
  5
19
 67
     1
  8
0
  0
BLOCK
  8
0
  2
_OPEN
 70
     0
 10
0.0
 20
0.0
 30
0.0
  3
_OPEN
  1

  0
LINE
  5
215A
  8
0
  6
BYBLOCK
 62
     0
 10
-1.0
 20
0.1666666666666666
 30
0.0
 11
0.0
 21
0.0
 31
0.0
  0
LINE
  5
215B
  8
0
  6
BYBLOCK
 62
     0
 10
-1.0
 20
-0.1666666666666666
 30
0.0
 11
0.0
 21
0.0
 31
0.0
  0
LINE
  5
215C
  8
0
  6
BYBLOCK
 62
     0
 10
0.0
 20
0.0
 30
0.0
 11
-1.0
 21
0.0
 31
0.0
  0
ENDBLK
  5
215D
  8
0
  0
BLOCK
  8
0
  2
*D1
 70
     1
 10
0.0
 20
0.0
 30
0.0
  3
*D1
  1

  0
LINE
  5
229D
  8
250
  6
CONTINUOUS
 10
0.5
 20
-6.4999999999999432
 30
0.0
 11
15.0
 21
-6.4999999999999467
 31
0.0
  0
LINE
  5
229E
  8
250
  6
CONTINUOUS
 10
0.5
 20
6.5
 30
0.0
 11
15.0
 21
6.4999999999999947
 31
0.0
  0
LINE
  5
229F
  8
250
  6
CONTINUOUS
 10
13.999999999999989
 20
-4.2699999999999472
 30
0.0
 11
14.0
 21
4.269999999999996
 31
0.0
  0
TEXT
  8
250
  40
3
  5
2362
  62
40
  72
0
  71
0
 10
5.83780
 20
-2.43475
 30
0.000000
  1
MAX.%%c13
  0
INSERT
  5
22A1
  8
250
  6
CONTINUOUS
  2
_OPEN
 10
13.999999999999989
 20
-6.4999999999999458
 30
0.0
 41
2.2299999999999991
 42
2.2299999999999991
 43
2.2299999999999991
 50
270.0
  0
INSERT
  5
22A2
  8
250
  6
CONTINUOUS
  2
_OPEN
 10
14.0
 20
6.4999999999999956
 30
0.0
 41
2.2299999999999991
 42
2.2299999999999991
 43
2.2299999999999991
 50
90.0
  0
POINT
  5
22A3
  8
DEFPOINTS
  6
CONTINUOUS
 62
     0
 10
0.0
 20
-6.4999999999999432
 30
0.0
  0
POINT
  5
22A4
  8
DEFPOINTS
  6
CONTINUOUS
 62
     0
 10
0.0
 20
6.5
 30
0.0
  0
POINT
  5
22A5
  8
DEFPOINTS
  6
CONTINUOUS
 62
     0
 10
14.0
 20
6.4999999999999956
 30
0.0
  0
ENDBLK
  5
1551
  8
0
  0
BLOCK
  8
0
  2
*D2
 70
     1
 10
0.0
 20
0.0
 30
0.0
  3
*D2
  1

  0
LINE
  5
1923
  8
250
  6
CONTINUOUS
 10
-1.0813709999999901
 20
-17.5
 30
0.0
 11
21.999999999999979
 21
-17.5
 31
0.0
  0
LINE
  5
1924
  8
250
  6
CONTINUOUS
 10
-1.0813709999999901
 20
17.5
 30
0.0
 11
21.999999999999989
 21
17.499999999999989
 31
0.0
  0
LINE
  5
1925
  8
250
  6
CONTINUOUS
 10
20.999999999999989
 20
-15.27
 30
0.0
 11
20.999999999999989
 21
15.269999999999991
 31
0.0
  0
INSERT
  5
1926
  8
250
  6
CONTINUOUS
  2
_OPEN
 10
20.999999999999989
 20
-17.5
 30
0.0
 41
2.2299999999999991
 42
2.2299999999999991
 43
2.2299999999999991
 50
270.0
  0
INSERT
  5
1927
  8
250
  6
CONTINUOUS
  2
_OPEN
 10
20.999999999999989
 20
17.499999999999989
 30
0.0
 41
2.2299999999999991
 42
2.2299999999999991
 43
2.2299999999999991
 50
90.0
  0
INSERT
  5
1928
  8
240
  2
*U12
 10
0.0
 20
0.0
 30
0.0
  0
POINT
  5
1929
  8
DEFPOINTS
  6
CONTINUOUS
 62
     0
 10
-1.581370999999989
 20
-17.5
 30
0.0
  0
POINT
  5
192A
  8
DEFPOINTS
  6
CONTINUOUS
 62
     0
 10
-1.581370999999989
 20
17.5
 30
0.0
  0
POINT
  5
192B
  8
DEFPOINTS
  6
CONTINUOUS
 62
     0
 10
20.999999999999989
 20
17.499999999999989
 30
0.0
  0
ENDBLK
  5
155D
  8
0
  0
BLOCK
  8
0
  2
*D3
 70
     1
 10
0.0
 20
0.0
 30
0.0
  3
*D3
  1

  0
LINE
  5
1EE6
  8
250
  6
CONTINUOUS
 10
-41.0
 20
-6.7999999999999527
 30
0.0
 11
-41.0
 21
-36.0
 31
0.0
  0
LINE
  5
1EE7
  8
250
  6
CONTINUOUS
 10
0.0000000000000568
 20
-16.460050999999961
 30
0.0
 11
0.0000000000000556
 21
-36.0
 31
0.0
  0
LINE
  5
1EE8
  8
250
  6
CONTINUOUS
 10
-38.77000000000001
 20
-35.0
 30
0.0
 11
-2.229999999999944
 21
-35.0
 31
0.0
  0
INSERT
  5
1EE9
  8
250
  6
CONTINUOUS
  2
_OPEN
 10
-41.0
 20
-35.0
 30
0.0
 41
2.2299999999999991
 42
2.2299999999999991
 43
2.2299999999999991
 50
180.0
  0
INSERT
  5
1EEA
  8
250
  6
CONTINUOUS
  2
_OPEN
 10
0.0000000000000557
 20
-35.0
 30
0.0
 41
2.2299999999999991
 42
2.2299999999999991
 43
2.2299999999999991
  0
INSERT
  5
1EEB
  8
240
  2
*U14
 10
0.0
 20
0.0
 30
0.0
  0
POINT
  5
1EEC
  8
DEFPOINTS
  6
CONTINUOUS
 62
     0
 10
-41.0
 20
-6.2999999999999527
 30
0.0
  0
POINT
  5
1EED
  8
DEFPOINTS
  6
CONTINUOUS
 62
     0
 10
0.0000000000000568
 20
-15.960050999999959
 30
0.0
  0
POINT
  5
1EEE
  8
DEFPOINTS
  6
CONTINUOUS
 62
     0
 10
0.0000000000000557
 20
-35.0
 30
0.0
  0
ENDBLK
  5
1569
  8
0
  0
BLOCK
  8
0
  2
*D4
 70
     1
 10
0.0
 20
0.0
 30
0.0
  3
*D4
  1

  0
LINE
  5
1E17
  8
250
  6
CONTINUOUS
 10
-21.499999999999989
 20
12.5
 30
0.0
 11
-21.499999999999989
 21
29.0
 31
0.0
  0
LINE
  5
1E18
  8
250
  6
CONTINUOUS
 10
0.0000000000000682
 20
16.46004999999996
 30
0.0
 11
0.000000000000069
 21
29.0
 31
0.0
  0
LINE
  5
1E19
  8
250
  6
CONTINUOUS
 10
-19.269999999999989
 20
28.0
 30
0.0
 11
-2.2299999999999311
 21
28.0
 31
0.0
  0
INSERT
  5
1E1A
  8
250
  6
CONTINUOUS
  2
_OPEN
 10
-21.499999999999989
 20
28.0
 30
0.0
 41
2.2299999999999991
 42
2.2299999999999991
 43
2.2299999999999991
 50
180.0
  0
INSERT
  5
1E1B
  8
250
  6
CONTINUOUS
  2
_OPEN
 10
0.0000000000000689
 20
28.0
 30
0.0
 41
2.2299999999999991
 42
2.2299999999999991
 43
2.2299999999999991
  0
INSERT
  5
1E1C
  8
240
  2
*U13
 10
0.0
 20
0.0
 30
0.0
  0
POINT
  5
1E1D
  8
DEFPOINTS
  6
CONTINUOUS
 62
     0
 10
-21.499999999999989
 20
11.999999999999989
 30
0.0
  0
POINT
  5
1E1E
  8
DEFPOINTS
  6
CONTINUOUS
 62
     0
 10
0.0000000000000682
 20
15.96004999999996
 30
0.0
  0
POINT
  5
1E1F
  8
DEFPOINTS
  6
CONTINUOUS
 62
     0
 10
0.0000000000000689
 20
28.0
 30
0.0
  0
ENDBLK
  5
1914
  8
0
  0
BLOCK
  8
0
  2
*D5
 70
     1
 10
0.0
 20
0.0
 30
0.0
  3
*D5
  1

  0
LINE
  5
1F4B
  8
250
  6
CONTINUOUS
 10
-61.5
 20
9.5
 30
0.0
 11
-61.5
 21
36.0
 31
0.0
  0
LINE
  5
1F4C
  8
250
  6
CONTINUOUS
 10
0.0000000000000682
 20
16.46004999999996
 30
0.0
 11
0.0000000000000694
 21
36.0
 31
0.0
  0
LINE
  5
1F4D
  8
250
  6
CONTINUOUS
 10
-59.270000000000003
 20
35.0
 30
0.0
 11
-2.2299999999999298
 21
35.0
 31
0.0
  0
INSERT
  5
1F4E
  8
250
  6
CONTINUOUS
  2
_OPEN
 10
-61.5
 20
35.0
 30
0.0
 41
2.2299999999999991
 42
2.2299999999999991
 43
2.2299999999999991
 50
180.0
  0
INSERT
  5
1F4F
  8
250
  6
CONTINUOUS
  2
_OPEN
 10
0.0000000000000693
 20
35.0
 30
0.0
 41
2.2299999999999991
 42
2.2299999999999991
 43
2.2299999999999991
  0
INSERT
  5
1F50
  8
240
  2
*U15
 10
0.0
 20
0.0
 30
0.0
  0
POINT
  5
1F51
  8
DEFPOINTS
  6
CONTINUOUS
 62
     0
 10
-61.5
 20
9.0
 30
0.0
  0
POINT
  5
1F52
  8
DEFPOINTS
  6
CONTINUOUS
 62
     0
 10
0.0000000000000682
 20
15.96004999999996
 30
0.0
  0
POINT
  5
1F53
  8
DEFPOINTS
  6
CONTINUOUS
 62
     0
 10
0.0000000000000693
 20
35.0
 30
0.0
  0
ENDBLK
  5
1F55
  8
0
  0
BLOCK
  8
0
  2
*D6
 70
     1
 10
0.0
 20
0.0
 30
0.0
  3
*D6
  1

  0
LINE
  5
1F5A
  8
250
  6
CONTINUOUS
 10
-61.5
 20
9.5
 30
0.0
 11
-61.5
 21
29.0
 31
0.0
  0
LINE
  5
1F5B
  8
250
  6
CONTINUOUS
 10
-21.499999999999989
 20
12.5
 30
0.0
 11
-21.499999999999989
 21
29.0
 31
0.0
  0
LINE
  5
1F5C
  8
250
  6
CONTINUOUS
 10
-59.270000000000003
 20
28.0
 30
0.0
 11
-23.73
 21
28.0
 31
0.0
  0
INSERT
  5
1F5D
  8
250
  6
CONTINUOUS
  2
_OPEN
 10
-61.5
 20
28.0
 30
0.0
 41
2.2299999999999991
 42
2.2299999999999991
 43
2.2299999999999991
 50
180.0
  0
INSERT
  5
1F5E
  8
250
  6
CONTINUOUS
  2
_OPEN
 10
-21.499999999999989
 20
28.0
 30
0.0
 41
2.2299999999999991
 42
2.2299999999999991
 43
2.2299999999999991
  0
INSERT
  5
1F5F
  8
240
  2
*U16
 10
0.0
 20
0.0
 30
0.0
  0
POINT
  5
1F60
  8
DEFPOINTS
  6
CONTINUOUS
 62
     0
 10
-61.5
 20
9.0
 30
0.0
  0
POINT
  5
1F61
  8
DEFPOINTS
  6
CONTINUOUS
 62
     0
 10
-21.499999999999989
 20
11.999999999999989
 30
0.0
  0
POINT
  5
1F62
  8
DEFPOINTS
  6
CONTINUOUS
 62
     0
 10
-21.499999999999989
 20
28.0
 30
0.0
  0
ENDBLK
  5
1F64
  8
0
  0
BLOCK
  8
0
  2
*D7
 70
     1
 10
0.0
 20
0.0
 30
0.0
  3
*D7
  1

  0
LINE
  5
1FA0
  8
250
  6
CONTINUOUS
 10
-51.500000000000057
 20
-10.999999999999931
 30
0.0
 11
-71.0
 21
-10.99999999999992
 31
0.0
  0
LINE
  5
1FA1
  8
250
  6
CONTINUOUS
 10
-51.5
 20
10.999999999999989
 30
0.0
 11
-71.0
 21
11.0
 31
0.0
  0
LINE
  5
1FA2
  8
250
  6
CONTINUOUS
 10
-70.0
 20
-8.7699999999999267
 30
0.0
 11
-70.0
 21
8.7700000000000031
 31
0.0
  0
INSERT
  5
1FA3
  8
250
  6
CONTINUOUS
  2
_OPEN
 10
-70.0
 20
-10.99999999999992
 30
0.0
 41
2.2299999999999991
 42
2.2299999999999991
 43
2.2299999999999991
 50
270.0
  0
INSERT
  5
1FA4
  8
250
  6
CONTINUOUS
  2
_OPEN
 10
-70.0
 20
11.0
 30
0.0
 41
2.2299999999999991
 42
2.2299999999999991
 43
2.2299999999999991
 50
90.0
  0
INSERT
  5
1FA5
  8
240
  2
*U17
 10
0.0
 20
0.0
 30
0.0
  0
POINT
  5
1FA6
  8
DEFPOINTS
  6
CONTINUOUS
 62
     0
 10
-51.000000000000057
 20
-10.999999999999931
 30
0.0
  0
POINT
  5
1FA7
  8
DEFPOINTS
  6
CONTINUOUS
 62
     0
 10
-51.0
 20
10.999999999999989
 30
0.0
  0
POINT
  5
1FA8
  8
DEFPOINTS
  6
CONTINUOUS
 62
     0
 10
-70.0
 20
11.0
 30
0.0
  0
ENDBLK
  5
1F73
  8
0
  0
BLOCK
  8
0
  2
A$C0AF32B92
 70
     0
 10
0.0
 20
0.0
 30
0.0
  3
A$C0AF32B92
  1

  0
LINE
  5
1FAC
  8
242
 10
-26.5
 20
5.5452682532047204
 30
0.0
 11
-61.5
 21
-5.5452682532047204
 31
0.0
  0
LINE
  5
1FAD
  8
242
 10
-61.5
 20
5.5452682532047204
 30
0.0
 11
-26.500001703393661
 21
-5.5452711714105298
 31
0.0
  0
LINE
  5
1FAE
  8
241
 10
-26.5
 20
5.5452682532047213
 30
0.0
 11
-61.5
 21
5.5452682532047204
 31
0.0
  0
LINE
  5
1FAF
  8
241
 10
-26.5
 20
-5.5452682532047213
 30
0.0
 11
-61.5
 21
-5.5452682532047204
 31
0.0
  0
LINE
  5
1FB0
  8
245
 10
2.656739425502336
 20
0.0
 30
0.0
 11
-63.724539992109271
 21
0.0
 31
0.0
  0
LINE
  5
1FB1
  8
240
 10
-52.5
 20
-9.5
 30
0.0
 11
-61.0
 21
-9.5
 31
0.0
  0
LINE
  5
1FB2
  8
240
 10
-52.5
 20
9.5
 30
0.0
 11
-61.0
 21
9.5
 31
0.0
  0
LINE
  5
1FB3
  8
246
 10
-56.000000000000007
 20
6.25
 30
0.0
 11
-55.250000000000021
 21
7.0
 31
0.0
  0
LINE
  5
1FB4
  8
246
 10
-56.000000000000007
 20
-6.2499999999999432
 30
0.0
 11
-55.250000000000021
 21
-6.9999999999999432
 31
0.0
  0
LINE
  5
1FB5
  8
246
 10
-49.000000000000021
 20
-2.9999999999999432
 30
0.0
 11
-61.000000000000007
 21
-2.9999999999999432
 31
0.0
  0
LINE
  5
1FB6
  8
246
 10
-49.000000000000021
 20
3.0
 30
0.0
 11
-61.000000000000007
 21
3.0
 31
0.0
  0
LINE
  5
1FB7
  8
240
 10
-61.5
 20
-9.0
 30
0.0
 11
-61.0
 21
-9.5
 31
0.0
  0
LINE
  5
1FB8
  8
240
 10
-61.5
 20
-9.0
 30
0.0
 11
-61.5
 21
9.0
 31
0.0
  0
LINE
  5
1FB9
  8
246
 10
-61.000000000000007
 20
-5.2499999999999432
 30
0.0
 11
-61.000000000000007
 21
5.25
 31
0.0
  0
LINE
  5
1FBA
  8
246
 10
-60.0
 20
-6.2499999999999432
 30
0.0
 11
-56.000000000000007
 21
-6.2499999999999432
 31
0.0
  0
ARC
  5
1FBB
  8
246
 10
-60.0
 20
-5.2499999999999432
 30
0.0
 40
1.0
 50
180.0
 51
270.0
  0
ARC
  5
1FBC
  8
246
 10
-60.0
 20
5.25
 30
0.0
 40
1.0
 50
90.0
 51
180.0
  0
LINE
  5
1FBD
  8
246
 10
-60.0
 20
6.25
 30
0.0
 11
-56.000000000000007
 21
6.25
 31
0.0
  0
LINE
  5
1FBE
  8
240
 10
-61.0
 20
9.5
 30
0.0
 11
-61.5
 21
9.0
 31
0.0
  0
LINE
  5
1FBF
  8
240
 10
-51.0
 20
10.999999999999989
 30
0.0
 11
-52.5
 21
9.5
 31
0.0
  0
LINE
  5
1FC0
  8
241
 10
-22.79999999999999
 20
-10.799999999999949
 30
0.0
 11
-22.79999999999999
 21
10.80000000000001
 31
0.0
  0
LINE
  5
1FC1
  8
241
 10
-21.499999999999989
 20
-10.799999999999949
 30
0.0
 11
-21.499999999999989
 21
10.80000000000001
 31
0.0
  0
LINE
  5
1FC2
  8
241
 10
-18.5
 20
12.5
 30
0.0
 11
-18.5
 21
0.0
 31
0.0
  0
LINE
  5
1FC3
  8
246
 10
-3.19999999999993
 20
8.75
 30
0.0
 11
-3.19999999999993
 21
10.25
 31
0.0
  0
LINE
  5
1FC4
  8
246
 10
-5.600000000000021
 20
10.25
 30
0.0
 11
-5.600000000000021
 21
8.75
 31
0.0
  0
LINE
  5
1FC5
  8
246
 10
-3.0
 20
10.25
 30
0.0
 11
0.0
 21
8.5179489999999873
 31
0.0
  0
LINE
  5
1FC6
  8
241
 10
-15.5
 20
15.0
 30
0.0
 11
-15.5
 21
0.0
 31
0.0
  0
LINE
  5
1FC7
  8
241
 10
-1.581370999999989
 20
17.000946000000049
 30
0.0
 11
-1.581370999999989
 21
-17.152317999999969
 31
0.0
  0
LINE
  5
1FC8
  8
240
 10
0.0
 20
15.96004999999996
 30
0.0
 11
0.0
 21
-15.960050999999959
 31
0.0
  0
LINE
  5
1FC9
  8
241
 10
-16.0
 20
13.0
 30
0.0
 11
-16.0
 21
0.0
 31
0.0
  0
LINE
  5
1FCA
  8
246
 10
-5.600000000000021
 20
10.25
 30
0.0
 11
-31.0
 21
7.5803520000000608
 31
0.0
  0
LINE
  5
1FCB
  8
240
 10
-22.79999999999999
 20
-10.799999999999949
 30
0.0
 11
-21.499999999999989
 21
-10.799999999999949
 31
0.0
  0
LINE
  5
1FCC
  8
246
 10
-31.0
 20
-6.4999999999999432
 30
0.0
 11
0.0
 21
-6.4999999999999432
 31
0.0
  0
LINE
  5
1FCD
  8
246
 10
-5.600000000000021
 20
-10.24999999999994
 30
0.0
 11
-31.0
 21
-7.5803529999999446
 31
0.0
  0
LINE
  5
1FCE
  8
246
 10
-31.0
 20
6.5
 30
0.0
 11
0.0
 21
6.5
 31
0.0
  0
INSERT
  5
1FCF
  8
247
  6
CONTINUOUS
  2
*X18
 10
0.0
 20
0.0
 30
0.0
1001
ACAD
1000
HATCH
1002
{
1070
    19
1000
ANSI31
1040
0.045
1040
6.2831853071795862
1000
ASC_BOUNDS
1070
     1
1070
     2
1070
    15
1005
2040
1005
2023
1005
1FF2
1005
2002
1005
2005
1005
1FD2
1005
203D
1005
1FF3
1005
2006
1005
2003
1005
2004
1005
1FD4
1005
203E
1005
2041
1005
203F
1000
ASC_SEEDPOINT
1011
-103.8251432109133
1021
-2.2684608731935987E+074
1031
-8.0243960805294083
1021
-17.285739415750719
1031
0.0
1000
R14_HATCH_DATA
1000
1FCF
1011
1.0
1021
-2.2684608731935987E+074
1031
-8.0243960805294083
1021
0.0
1031
0.0
1011
0.0
1021
-2.2684608731935987E+074
1031
-8.0243960805294083
1021
1.0
1031
0.0
1011
0.0
1021
-2.2684608731935987E+074
1031
-8.0243960805294083
1021
0.0
1031
1.0
1040
0.0
1010
0.0
1020
0.0
1030
1.0
1000
ANSI31
1070
     0
1070
     1
1071
        1
1071
       33
1071
       15
1070
     1
1040
-45.54357939484278
1040
-8.521132653818384
1040
-45.598353107000968
1040
-8.3474319397070502
1070
     2
1040
-45.268179614569348
1040
-9.2433875976660396
1040
0.7729795932769777
1040
1.935084649241253
1040
2.313293405967598
1070
     1
1070
     2
1040
-45.981700427557627
1040
-8.6795692382910392
1040
0.1909725040197372
1040
0.0298472487257512
1040
2.8623120192823772
1070
     1
1070
     1
1040
-46.410393817450192
1040
-9.4817497192480715
1040
-46.165275104071291
1040
-8.6269241272070527
1070
     2
1040
-46.226819140936527
1040
-9.5343879638769771
1040
0.1909723699092865
1040
2.8623447390176038
1040
6.0039373926073969
1070
     1
1070
     1
1040
-46.043244464422848
1040
-9.5870262085058826
1040
-45.92645292999903
1040
-9.1797286926367434
1070
     1
1040
-46.077817065741222
1040
-9.1797286926367434
1040
-45.92645292999903
1040
-9.1797286926367434
1070
     1
1040
-46.077817065741222
1040
-9.1797286926367434
1040
-46.025666339422848
1040
-8.9978500305273652
1070
     1
1040
-46.025666339422848
1040
-8.9978500305273652
1040
-45.495884997870121
1040
-8.9978500305273652
1070
     1
1040
-45.761864001776367
1040
-9.9254259286978357
1040
-45.495884997870121
1040
-8.9978500305273652
1070
     1
1040
-45.868554980780267
1040
-9.8187418161490072
1040
-45.761864001776367
1040
-9.9254259286978357
1070
     2
1040
-46.207290942694343
1040
-9.3343269287207278
1040
0.5911056518554689
1040
2.8623356221950571
1040
5.3226236885737688
1070
     1
1070
     2
1040
-45.240864856268558
1040
-9.3654045044043208
1040
1.5468475341796859
1040
2.7088413612455078
1040
3.015838643448387
1070
     1
1070
     2
1040
-46.076910693670911
1040
-8.8796302734472903
1040
0.5910996437072754
1040
0.9327739783146625
1040
2.8623431914429092
1070
     1
1070
     2
1040
-45.268179614569348
1040
-9.2433875976660396
1040
0.954856538772583
1040
1.923870239659647
1040
2.0694663713693631
1070
     1
1071
       15
1005
203F
1005
2041
1005
203E
1005
1FD4
1005
2004
1005
2003
1005
2006
1005
1FF3
1005
203D
1005
1FD2
1005
2005
1005
2002
1005
1FF2
1005
2023
1005
2040
1070
     0
1070
     1
1040
6.2831853071795862
1040
0.045
1070
     0
1070
     1
1040
0.7853981633974478
1040
-103.8251432109133
1040
-17.285739415750719
1040
-0.101027881362028
1040
0.101027881362028
1070
     0
1071
        1
1040
-103.8251432109133
1040
-17.285739415750719
1040
0.0
1002
}
  0
INSERT
  5
1FD0
  8
247
  6
CONTINUOUS
  2
*X19
 10
0.0
 20
0.0
 30
0.0
1001
ACAD
1000
HATCH
1002
{
1070
    19
1000
ANSI31
1040
0.045
1040
6.2831853071795862
1000
ASC_BOUNDS
1070
     1
1070
     2
1070
    10
1005
2024
1005
1FD3
1005
1FD1
1005
1FF7
1005
1FF6
1005
1FD5
1005
1FD8
1005
201B
1005
201A
1005
201C
1000
ASC_SEEDPOINT
1011
-103.8251432109133
1021
-2.2684608731935987E+074
1031
-8.0243960805294083
1021
-17.285739415750719
1031
0.0
1000
R14_HATCH_DATA
1000
1FD0
1011
1.0
1021
-2.2684608731935987E+074
1031
-8.0243960805294083
1021
0.0
1031
0.0
1011
0.0
1021
-2.2684608731935987E+074
1031
-8.0243960805294083
1021
1.0
1031
0.0
1011
0.0
1021
-2.2684608731935987E+074
1031
-8.0243960805294083
1021
0.0
1031
1.0
1040
0.0
1010
0.0
1020
0.0
1030
1.0
1000
ANSI31
1070
     0
1070
     1
1071
        1
1071
       33
1071
       10
1070
     1
1040
-48.584691150213871
1040
-8.2885314880468979
1040
-48.63684187653223
1040
-8.4704101501562725
1070
     1
1040
-48.960293109442389
1040
-8.2885314880468979
1040
-48.584691150213871
1040
-8.2885314880468979
1070
     1
1040
-48.960293109442389
1040
-8.4704101501562725
1040
-48.63684187653223
1040
-8.4704101501562725
1070
     2
1040
-48.960293109442389
1040
-9.2433875976660396
1040
0.7729774475097658
1040
1.5707963267948959
1040
4.7123889803846888
1070
     1
1070
     2
1040
-48.960293109442389
1040
-9.2433875976660396
1040
0.9548561096191406
1040
1.5707963267948959
1040
4.7123889803846888
1070
     1
1070
     1
1040
-48.960293109442389
1040
-10.19824391718104
1040
-45.268179614569327
1040
-10.19824391718104
1070
     1
1040
-48.960293109442389
1040
-10.01636525975252
1040
-45.268179614569327
1040
-10.01636525975252
1070
     2
1040
-45.268179614569348
1040
-9.2433875976660396
1040
0.9548561096191406
1040
4.7123889803846888
1040
8.1117806218165374
1070
     1
1070
     2
1040
-45.268179614569348
1040
-9.2433875976660396
1040
0.7729774475097658
1040
4.7123889803846888
1040
8.1005519157032833
1070
     1
1070
     1
1040
-45.45684920075098
1040
-8.4937835632422107
1040
-45.511622912909182
1040
-8.320082849130884
1071
       10
1005
201C
1005
201A
1005
201B
1005
1FD8
1005
1FD5
1005
1FF6
1005
1FF7
1005
1FD1
1005
1FD3
1005
2024
1070
     0
1070
     1
1040
6.2831853071795862
1040
0.045
1070
     0
1070
     1
1040
0.7853981633974478
1040
-103.8251432109133
1040
-17.285739415750719
1040
-0.101027881362028
1040
0.101027881362028
1070
     0
1071
        1
1040
-103.8251432109133
1040
-17.285739415750719
1040
0.0
1002
}
  0
ARC
  5
1FD1
  8
247
 10
-45.268179614569348
 20
-9.2433875976660396
 30
0.0
 40
0.9548561096191406
 50
270.0
 51
104.7707939660941
1001
ACAD
1000
ASC_BOUNDS
1002
{
1070
    19
1005
1FD0
1002
}
  0
LINE
  5
1FD2
  8
247
 10
-45.761864001776367
 20
-9.9254259286978357
 30
0.0
 11
-45.495884997870121
 21
-8.9978500305273652
 31
0.0
1001
ACAD
1000
ASC_BOUNDS
1002
{
1070
    19
1005
1FCF
1002
}
  0
ARC
  5
1FD3
  8
247
 10
-45.268179614569348
 20
-9.2433875976660396
 30
0.0
 40
0.7729774475097658
 50
270.0
 51
104.1274364964119
1001
ACAD
1000
ASC_BOUNDS
1002
{
1070
    19
1005
1FD0
1002
}
  0
LINE
  5
1FD4
  8
247
 10
-46.410393817450192
 20
-9.4817497192480715
 30
0.0
 11
-46.165275104071291
 21
-8.6269241272070527
 31
0.0
1001
ACAD
1000
ASC_BOUNDS
1002
{
1070
    19
1005
1FCF
1002
}
  0
ARC
  5
1FD5
  8
247
 10
-48.960293109442389
 20
-9.2433875976660396
 30
0.0
 40
0.9548561096191406
 50
90.0
 51
270.0
1001
ACAD
1000
ASC_BOUNDS
1002
{
1070
    19
1005
1FD0
1002
}
  0
LINE
  5
1FD6
  8
247
 10
-47.559330279852539
 20
-9.9254259286978357
 30
0.0
 11
-47.147322375799789
 21
-8.4885925232031472
 31
0.0
  0
LINE
  5
1FD7
  8
247
 10
-48.04648003972509
 20
-9.394292010163797
 30
0.0
 11
-47.450092234166249
 21
-8.7979042046049383
 31
0.0
  0
ARC
  5
1FD8
  8
247
 10
-48.960293109442389
 20
-9.2433875976660396
 30
0.0
 40
0.7729774475097658
 50
90.0
 51
270.0
1001
ACAD
1000
ASC_BOUNDS
1002
{
1070
    19
1005
1FD0
1002
}
  0
LINE
  5
1FD9
  8
247
 10
-48.864856250311519
 20
-9.9254259286978357
 30
0.0
 11
-48.447636706854709
 21
-8.4704101501568179
 31
0.0
  0
LINE
  5
1FDA
  8
247
 10
-48.817871951705342
 20
-9.7615723966959411
 30
0.0
 11
-48.048324268851871
 21
-8.9920247138424578
 31
0.0
  0
LINE
  5
1FDB
  8
247
 10
-48.736640578699159
 20
-9.4782852609656878
 30
0.0
 11
-48.099987056143249
 21
-8.8416317384097969
 31
0.0
  0
INSERT
  5
1FDC
  8
247
  6
CONTINUOUS
  2
*X20
 10
0.0
 20
0.0
 30
0.0
1001
ACAD
1000
HATCH
1002
{
1070
    19
1000
ANSI31
1040
0.045
1040
6.2831853071795862
1000
R14_HATCH_DATA
1000
1FDC
1011
1.0
1021
-2.2684608731935987E+074
1031
-8.0243960805294083
1021
0.0
1031
0.0
1011
0.0
1021
-2.2684608731935987E+074
1031
-8.0243960805294083
1021
1.0
1031
0.0
1011
0.0
1021
-2.2684608731935987E+074
1031
-8.0243960805294083
1021
0.0
1031
1.0
1040
0.0
1010
0.0
1020
0.0
1030
1.0
1000
ANSI31
1070
     0
1070
     0
1071
        1
1071
        7
1070
     0
1070
     1
1071
        6
1040
-46.683163745428708
1040
-8.2885314880468961
1040
-47.156180102850577
1040
-8.2885314880468961
1040
-47.213549335028333
1040
-8.4885925232031436
1040
-47.147322375799789
1040
-8.4885925232031436
1040
-47.559330279852539
1040
-9.9254259286978357
1040
-47.152534015204097
1040
-9.9254259286978357
1071
        0
1070
     0
1070
     1
1040
6.2831853071795862
1040
0.045
1070
     0
1070
     1
1040
0.7853981633974478
1040
-103.8251432109133
1040
-17.285739415750719
1040
-0.101027881362028
1040
0.101027881362028
1070
     0
1040
0.0134348504236232
1071
        1
1040
-47.108405764651181
1040
-9.0641174620461484
1040
0.0
1002
}
  0
POLYLINE
  5
1FDD
  8
247
 66
     1
 10
0.0
 20
0.0
 30
0.0
 70
     1
  0
VERTEX
  5
1FDE
  8
247
 10
-47.156180102850598
 20
-8.2885314880468979
 30
0.0
  0
VERTEX
  5
1FDF
  8
247
 10
-47.213549335028333
 20
-8.4885925232031472
 30
0.0
  0
VERTEX
  5
1FE0
  8
247
 10
-47.147322375799817
 20
-8.4885925232031472
 30
0.0
  0
VERTEX
  5
1FE1
  8
247
 10
-47.55933027985256
 20
-9.9254259286978357
 30
0.0
  0
VERTEX
  5
1FE2
  8
247
 10
-47.152534015204132
 20
-9.9254259286978357
 30
0.0
  0
VERTEX
  5
1FE3
  8
247
 10
-46.683163745428722
 20
-8.2885314880468979
 30
0.0
  0
SEQEND
  5
1FE4
  8
247
  0
POLYLINE
  5
1FE5
  8
247
 66
     1
 10
0.0
 20
0.0
 30
0.0
 70
     1
1001
HATCH_DISTANCE
1040
1.0
1001
HATCH_DISPLAY
1070
     0
1001
HATCH_TYPE
1070
     7
  0
VERTEX
  5
1FE6
  8
247
 10
-47.156180102850598
 20
-8.2885314880468979
 30
0.0
  0
VERTEX
  5
1FE7
  8
247
 10
-47.213549335028333
 20
-8.4885925232031472
 30
0.0
  0
VERTEX
  5
1FE8
  8
247
 10
-47.147322375799817
 20
-8.4885925232031472
 30
0.0
  0
VERTEX
  5
1FE9
  8
247
 10
-47.55933027985256
 20
-9.9254259286978357
 30
0.0
  0
VERTEX
  5
1FEA
  8
247
 10
-47.152534015204132
 20
-9.9254259286978357
 30
0.0
  0
VERTEX
  5
1FEB
  8
247
 10
-46.683163745428722
 20
-8.2885314880468979
 30
0.0
  0
SEQEND
  5
1FEC
  8
247
  0
LINE
  5
1FED
  8
247
 10
-47.152534015204097
 20
-9.9254259286978357
 30
0.0
 11
-46.683163745428708
 21
-8.2885314880468979
 31
0.0
  0
TEXT
  5
1FEE
  8
247
 10
-43.860095337184802
 20
-10.10113973810936
 30
0.0
 40
1.5
  1
SL22-NBS13-40
  7
YOKO
 11
-43.860095337184802
 21
-10.10113973810936
 31
0.0
 73
     1
  0
LINE
  5
1FEF
  8
247
 10
-48.117011749616182
 20
-9.2627679573308352
 30
0.0
 11
-47.466162825056372
 21
-8.611919032771004
 31
0.0
  0
ARC
  5
1FF0
  8
247
 10
-47.901485736395529
 20
-8.7432212768652562
 30
0.0
 40
0.4546936511993409
 50
287.66957754739792
 51
90.236159842671569
  0
LINE
  5
1FF1
  8
247
 10
-48.65540920569299
 20
-9.1949981252354291
 30
0.0
 11
-48.018758364361318
 21
-8.5583472839037782
 31
0.0
  0
ARC
  5
1FF2
  8
247
 10
-45.240864856268558
 20
-9.3654045044043208
 30
0.0
 40
1.5468475341796859
 50
155.20517736984041
 51
172.79482596205199
1001
ACAD
1000
ASC_BOUNDS
1002
{
1070
    19
1005
1FCF
1002
}
  0
LINE
  5
1FF3
  8
247
 10
-46.077817065741222
 20
-9.1797286926367434
 30
0.0
 11
-46.025666339422848
 21
-8.9978500305273652
 31
0.0
1001
ACAD
1000
ASC_BOUNDS
1002
{
1070
    19
1005
1FCF
1002
}
  0
LINE
  5
1FF4
  8
240
 10
-51.000000000000057
 20
-10.999999999999931
 30
0.0
 11
-22.999999999999929
 21
-10.99999999999994
 31
0.0
  0
LINE
  5
1FF5
  8
247
 10
-47.559330279852539
 20
-9.9254259286978357
 30
0.0
 11
-47.152534015204097
 21
-9.9254259286978357
 31
0.0
  0
LINE
  5
1FF6
  8
247
 10
-48.960293109442389
 20
-10.19824391718104
 30
0.0
 11
-45.268179614569327
 21
-10.19824391718104
 31
0.0
1001
ACAD
1000
ASC_BOUNDS
1002
{
1070
    19
1005
1FD0
1002
}
  0
LINE
  5
1FF7
  8
247
 10
-48.960293109442389
 20
-10.01636525975252
 30
0.0
 11
-45.268179614569327
 21
-10.01636525975252
 31
0.0
1001
ACAD
1000
ASC_BOUNDS
1002
{
1070
    19
1005
1FD0
1002
}
  0
LINE
  5
1FF8
  8
240
 10
-51.000000000000057
 20
-10.999999999999931
 30
0.0
 11
-52.5
 21
-9.5
 31
0.0
  0
ARC
  5
1FF9
  8
247
 10
-48.313006122137708
 20
-9.4525466858008045
 30
0.0
 40
0.2728181809186934
 50
261.66285421114878
 51
66.338192159110051
  0
LINE
  5
1FFA
  8
247
 10
-48.203514076041742
 20
-9.2026642100617302
 30
0.0
 11
-48.35256404697077
 21
-9.7224817343267436
 31
0.0
  0
LINE
  5
1FFB
  8
247
 10
-48.375558195535127
 20
-9.9254259286978357
 30
0.0
 11
-47.708204031620497
 21
-9.2580717647832351
 31
0.0
  0
LINE
  5
1FFC
  8
247
 10
-47.937356135579662
 20
-9.8913353941905502
 30
0.0
 11
-47.689496039236261
 21
-9.6434752978471359
 31
0.0
  0
LINE
  5
1FFD
  8
247
 10
-48.779669720983222
 20
-9.9254259286978357
 30
0.0
 11
-48.262450276973048
 21
-9.4082064846876641
 31
0.0
  0
LINE
  5
1FFE
  8
247
 10
-48.864856250311519
 20
-9.9254259286978357
 30
0.0
 11
-48.11009550812404
 21
-9.9254259286978357
 31
0.0
  0
LINE
  5
1FFF
  8
247
 10
-48.577613958259171
 20
-9.9254259286978357
 30
0.0
 11
-48.343677464436183
 21
-9.6914894348748728
 31
0.0
  0
ARC
  5
2000
  8
247
 10
-48.11009550812404
 20
-9.4707359253027583
 30
0.0
 40
0.4546897888183594
 50
270.0
 51
40.329840654167192
  0
LINE
  5
2001
  8
247
 10
-48.173502432811041
 20
-9.9254259286978712
 30
0.0
 11
-47.659315202395682
 21
-9.4112386982824567
 31
0.0
  0
ARC
  5
2002
  8
247
 10
-46.207290942694343
 20
-9.3343269287207278
 30
0.0
 40
0.5911056518554689
 50
163.99975070172931
 51
304.96387329163173
1001
ACAD
1000
ASC_BOUNDS
1002
{
1070
    19
1005
1FCF
1002
}
  0
LINE
  5
2003
  8
247
 10
-46.043244464422848
 20
-9.5870262085058826
 30
0.0
 11
-45.92645292999903
 21
-9.1797286926367434
 31
0.0
1001
ACAD
1000
ASC_BOUNDS
1002
{
1070
    19
1005
1FCF
1002
}
  0
ARC
  5
2004
  8
247
 10
-46.226819140936527
 20
-9.5343879638769771
 30
0.0
 40
0.1909723699092865
 50
164.00027305718379
 51
344.00027305718379
1001
ACAD
1000
ASC_BOUNDS
1002
{
1070
    19
1005
1FCF
1002
}
  0
LINE
  5
2005
  8
247
 10
-45.868554980780267
 20
-9.8187418161490072
 30
0.0
 11
-45.761864001776367
 21
-9.9254259286978357
 31
0.0
1001
ACAD
1000
ASC_BOUNDS
1002
{
1070
    19
1005
1FCF
1002
}
  0
LINE
  5
2006
  8
247
 10
-46.077817065741222
 20
-9.1797286926367434
 30
0.0
 11
-45.92645292999903
 21
-9.1797286926367434
 31
0.0
1001
ACAD
1000
ASC_BOUNDS
1002
{
1070
    19
1005
1FCF
1002
}
  0
LINE
  5
2007
  8
240
 10
-22.999999999999929
 20
-10.99999999999994
 30
0.0
 11
-22.79999999999999
 21
-10.799999999999949
 31
0.0
  0
LINE
  5
2008
  8
246
 10
-48.601282999999981
 20
-2.3094009999999781
 30
0.0
 11
-48.601282999999981
 21
2.3094010000000358
 31
0.0
  0
LINE
  5
2009
  8
246
 10
-41.0
 20
6.3000000000000123
 30
0.0
 11
-41.0
 21
-6.2999999999999527
 31
0.0
  0
LINE
  5
200A
  8
246
 10
-44.69059900000002
 20
-2.3094009999999781
 30
0.0
 11
-44.69059900000002
 21
2.3094010000000358
 31
0.0
  0
LINE
  5
200B
  8
247
 10
-47.213549335028333
 20
-8.4885925232031472
 30
0.0
 11
-47.147322375799789
 21
-8.4885925232031472
 31
0.0
  0
LINE
  5
200C
  8
247
 10
-47.213549335028333
 20
-8.4885925232031472
 30
0.0
 11
-47.156180102850577
 21
-8.2885314880468979
 31
0.0
  0
LINE
  5
200D
  8
246
 10
-48.601282999999981
 20
-1.1547009999999871
 30
0.0
 11
-44.69059900000002
 21
-1.1547009999999871
 31
0.0
  0
LINE
  5
200E
  8
246
 10
-48.601282999999981
 20
-2.3094009999999781
 30
0.0
 11
-44.69059900000002
 21
-2.3094009999999781
 31
0.0
  0
LINE
  5
200F
  8
246
 10
-55.600000000000037
 20
-6.6499999999999773
 30
0.0
 11
-41.350000000000023
 21
-6.6499999999999773
 31
0.0
  0
LINE
  5
2010
  8
246
 10
-55.250000000000021
 20
-6.9999999999999432
 30
0.0
 11
-41.699999999999932
 21
-6.9999999999999432
 31
0.0
  0
ARC
  5
2011
  8
247
 10
-48.104396350409203
 20
-8.7250389038183833
 30
0.0
 40
0.2728103756904602
 50
261.6626016879294
 51
66.338155095189762
  0
LINE
  5
2012
  8
247
 10
-47.994906475068348
 20
-8.4751639985513627
 30
0.0
 11
-48.14395399397732
 21
-8.9949661049666041
 31
0.0
  0
LINE
  5
2013
  8
247
 10
-47.956322192659393
 20
-8.4959111122019078
 30
0.0
 11
-47.768745704878789
 21
-8.3083346244213079
 31
0.0
  0
LINE
  5
2014
  8
247
 10
-48.542242724921103
 20
-8.4704101501562725
 30
0.0
 11
-48.447636706854709
 21
-8.4704101501568179
 31
0.0
  0
LINE
  5
2015
  8
247
 10
-48.490091998602438
 20
-8.2885314880468979
 30
0.0
 11
-48.542242724921103
 21
-8.4704101501562725
 31
0.0
  0
LINE
  5
2016
  8
247
 10
-48.490091998602438
 20
-8.2885314880468979
 30
0.0
 11
-47.903359872291702
 21
-8.2885314880469672
 31
0.0
  0
LINE
  5
2017
  8
247
 10
-48.492946459680603
 20
-8.6284238537749491
 30
0.0
 11
-48.153054093952591
 21
-8.2885314880469672
 31
0.0
  0
LINE
  5
2018
  8
247
 10
-48.574177832686793
 20
-8.9117109895052096
 30
0.0
 11
-47.950998331228533
 21
-8.2885314880469672
 31
0.0
  0
LINE
  5
2019
  8
247
 10
-48.536988518786011
 20
-8.470410150156308
 30
0.0
 11
-48.355109856676648
 21
-8.2885314880469316
 31
0.0
  0
LINE
  5
201A
  8
247
 10
-48.960293109442389
 20
-8.2885314880468979
 30
0.0
 11
-48.584691150213871
 21
-8.2885314880468979
 31
0.0
1001
ACAD
1000
ASC_BOUNDS
1002
{
1070
    19
1005
1FD0
1002
}
  0
LINE
  5
201B
  8
247
 10
-48.960293109442389
 20
-8.4704101501562725
 30
0.0
 11
-48.63684187653223
 21
-8.4704101501562725
 31
0.0
1001
ACAD
1000
ASC_BOUNDS
1002
{
1070
    19
1005
1FD0
1002
}
  0
LINE
  5
201C
  8
247
 10
-48.584691150213871
 20
-8.2885314880468979
 30
0.0
 11
-48.63684187653223
 21
-8.4704101501562725
 31
0.0
1001
ACAD
1000
ASC_BOUNDS
1002
{
1070
    19
1005
1FD0
1002
}
  0
LINE
  5
201D
  8
247
 10
-47.860722220970459
 20
-8.6023669032369767
 30
0.0
 11
-47.63393297084464
 21
-8.3755776531111579
 31
0.0
  0
LINE
  5
201E
  8
247
 10
-47.83741054038515
 20
-8.7811109853757099
 30
0.0
 11
-47.533054157845548
 21
-8.4767546028361167
 31
0.0
  0
LINE
  5
201F
  8
246
 10
-49.000000000000021
 20
-2.9999999999999432
 30
0.0
 11
-49.000000000000021
 21
-1.7725149999999401
 31
0.0
  0
LINE
  5
2020
  8
246
 10
-48.601282999999981
 20
-2.3094009999999781
 30
0.0
 11
-49.000000000000021
 21
-2.9999999999999432
 31
0.0
  0
LINE
  5
2021
  8
246
 10
-41.0
 20
-5.9999999999999432
 30
0.0
 11
-44.69059900000002
 21
-2.3094009999999781
 31
0.0
  0
LINE
  5
2022
  8
247
 10
-47.156180102850577
 20
-8.2885314880468979
 30
0.0
 11
-46.683163745428708
 21
-8.2885314880468979
 31
0.0
  0
ARC
  5
2023
  8
247
 10
-46.076910693670911
 20
-8.8796302734472903
 30
0.0
 40
0.5910996437072754
 50
53.444012197057553
 51
164.00018438768529
1001
ACAD
1000
ASC_BOUNDS
1002
{
1070
    19
1005
1FCF
1002
}
  0
LINE
  5
2024
  8
247
 10
-45.45684920075098
 20
-8.4937835632422107
 30
0.0
 11
-45.511622912909182
 21
-8.320082849130884
 31
0.0
1001
ACAD
1000
ASC_BOUNDS
1002
{
1070
    19
1005
1FD0
1002
}
  0
POLYLINE
  5
2025
  8
247
 66
     1
 10
0.0
 20
0.0
 30
0.0
 70
     1
  0
VERTEX
  5
2026
  8
247
 10
-45.456849200750987
 20
-8.4937835632422107
 30
0.0
  0
VERTEX
  5
2027
  8
247
 10
-45.511622912909203
 20
-8.320082849130884
 30
0.0
  0
VERTEX
  5
2028
  8
247
 10
-45.511622912909203
 20
-8.320082849130884
 30
0.0
  0
VERTEX
  5
2029
  8
247
 10
-45.456849200750987
 20
-8.4937835632422107
 30
0.0
  0
SEQEND
  5
202A
  8
247
  0
POLYLINE
  5
202B
  8
247
 66
     1
 10
0.0
 20
0.0
 30
0.0
 70
     1
1001
HATCH_DISTANCE
1040
1.0
1001
HATCH_DISPLAY
1070
     0
1001
HATCH_TYPE
1070
     7
  0
VERTEX
  5
202C
  8
247
 10
-45.456849200750987
 20
-8.4937835632422107
 30
0.0
  0
VERTEX
  5
202D
  8
247
 10
-45.511622912909203
 20
-8.320082849130884
 30
0.0
  0
VERTEX
  5
202E
  8
247
 10
-45.511622912909203
 20
-8.320082849130884
 30
0.0
  0
VERTEX
  5
202F
  8
247
 10
-45.456849200750987
 20
-8.4937835632422107
 30
0.0
  0
SEQEND
  5
2030
  8
247
  0
POLYLINE
  5
2031
  8
247
 66
     1
 10
0.0
 20
0.0
 30
0.0
 70
     1
  0
VERTEX
  5
2032
  8
247
 10
-45.456849200750987
 20
-8.4937835632422107
 30
0.0
  0
VERTEX
  5
2033
  8
247
 10
-45.511622912909203
 20
-8.320082849130884
 30
0.0
  0
VERTEX
  5
2034
  8
247
 10
-45.511622912909203
 20
-8.320082849130884
 30
0.0
  0
VERTEX
  5
2035
  8
247
 10
-45.456849200750987
 20
-8.4937835632422107
 30
0.0
  0
SEQEND
  5
2036
  8
247
  0
POLYLINE
  5
2037
  8
247
 66
     1
 10
0.0
 20
0.0
 30
0.0
 70
     1
1001
HATCH_DISTANCE
1040
1.0
1001
HATCH_DISPLAY
1070
     0
1001
HATCH_TYPE
1070
     7
  0
VERTEX
  5
2038
  8
247
 10
-45.456849200750987
 20
-8.4937835632422107
 30
0.0
  0
VERTEX
  5
2039
  8
247
 10
-45.511622912909203
 20
-8.320082849130884
 30
0.0
  0
VERTEX
  5
203A
  8
247
 10
-45.511622912909203
 20
-8.320082849130884
 30
0.0
  0
VERTEX
  5
203B
  8
247
 10
-45.456849200750987
 20
-8.4937835632422107
 30
0.0
  0
SEQEND
  5
203C
  8
247
  0
LINE
  5
203D
  8
247
 10
-46.025666339422848
 20
-8.9978500305273652
 30
0.0
 11
-45.495884997870121
 21
-8.9978500305273652
 31
0.0
1001
ACAD
1000
ASC_BOUNDS
1002
{
1070
    19
1005
1FCF
1002
}
  0
ARC
  5
203E
  8
247
 10
-45.981700427557627
 20
-8.6795692382910392
 30
0.0
 40
0.1909725040197372
 50
1.7101213820627641
 51
163.99839835444851
1001
ACAD
1000
ASC_BOUNDS
1002
{
1070
    19
1005
1FCF
1002
}
  0
LINE
  5
203F
  8
247
 10
-45.54357939484278
 20
-8.521132653818384
 30
0.0
 11
-45.598353107000968
 21
-8.3474319397070502
 31
0.0
1001
ACAD
1000
ASC_BOUNDS
1002
{
1070
    19
1005
1FCF
1002
}
  0
ARC
  5
2040
  8
247
 10
-45.268179614569348
 20
-9.2433875976660396
 30
0.0
 40
0.954856538772583
 50
110.22964506332001
 51
118.5716889237176
1001
ACAD
1000
ASC_BOUNDS
1002
{
1070
    19
1005
1FCF
1002
}
  0
ARC
  5
2041
  8
247
 10
-45.268179614569348
 20
-9.2433875976660396
 30
0.0
 40
0.7729795932769777
 50
110.8721834020771
 51
132.54194893738679
1001
ACAD
1000
ASC_BOUNDS
1002
{
1070
    19
1005
1FCF
1002
}
  0
LINE
  5
2042
  8
246
 10
-41.699999999999932
 20
-6.9999999999999432
 30
0.0
 11
-41.0
 21
-6.2999999999999527
 31
0.0
  0
LINE
  5
2043
  8
246
 10
-48.601282999999981
 20
2.3094010000000358
 30
0.0
 11
-44.69059900000002
 21
2.3094010000000358
 31
0.0
  0
LINE
  5
2044
  8
246
 10
-48.601282999999981
 20
1.1546999999999901
 30
0.0
 11
-44.69059900000002
 21
1.1546999999999901
 31
0.0
  0
LINE
  5
2045
  8
246
 10
-55.600000000000037
 20
6.6499999999999773
 30
0.0
 11
-41.350000000000023
 21
6.6499999999999773
 31
0.0
  0
LINE
  5
2046
  8
246
 10
-55.250000000000021
 20
7.0
 30
0.0
 11
-41.699999999999932
 21
7.0
 31
0.0
  0
LINE
  5
2047
  8
246
 10
-48.601282999999981
 20
2.3094010000000358
 30
0.0
 11
-49.000000000000021
 21
3.0
 31
0.0
  0
LINE
  5
2048
  8
246
 10
-49.000000000000021
 20
3.0
 30
0.0
 11
-49.000000000000021
 21
1.772514999999997
 31
0.0
  0
LINE
  5
2049
  8
246
 10
-41.0
 20
6.0
 30
0.0
 11
-44.69059900000002
 21
2.3094010000000358
 31
0.0
  0
LINE
  5
204A
  8
246
 10
-41.0
 20
6.3000000000000123
 30
0.0
 11
-41.699999999999932
 21
7.0
 31
0.0
  0
LINE
  5
204B
  8
241
 10
-26.5
 20
-5.5452682532047213
 30
0.0
 11
-26.5
 21
5.5452682532047213
 31
0.0
  0
ARC
  5
204C
  8
241
 10
-36.000000000000362
 20
0.0
 30
0.0
 40
11.000000000000311
 50
329.72734108099752
 51
30.272641318908619
  0
LINE
  5
204D
  8
246
 10
-31.00000000000005
 20
7.5803520000000031
 30
0.0
 11
-31.00000000000005
 21
-7.5803530000000023
 31
0.0
  0
LINE
  5
204E
  8
246
 10
-5.600000000000021
 20
-10.24999999999994
 30
0.0
 11
-5.600000000000021
 21
-8.7499999999999432
 31
0.0
  0
LINE
  5
204F
  8
246
 10
-3.0
 20
-10.24999999999994
 30
0.0
 11
0.0
 21
-8.5179489999999873
 31
0.0
  0
LINE
  5
2050
  8
246
 10
-3.19999999999993
 20
-8.7499999999999432
 30
0.0
 11
-3.19999999999993
 21
-10.24999999999994
 31
0.0
  0
LINE
  5
2051
  8
241
 10
-16.0
 20
-12.99999999999994
 30
0.0
 11
-16.0
 21
0.0
 31
0.0
  0
LINE
  5
2052
  8
241
 10
-18.5
 20
-12.49999999999994
 30
0.0
 11
-18.5
 21
0.0
 31
0.0
  0
LINE
  5
2053
  8
241
 10
-15.5
 20
-14.99999999999994
 30
0.0
 11
-15.5
 21
0.0
 31
0.0
  0
LINE
  5
2054
  8
240
 10
-14.69999999999993
 20
-17.49999999999994
 30
0.0
 11
-1.581370999999989
 21
-17.49999999999994
 31
0.0
  0
LINE
  5
2055
  8
241
 10
-6.5
 20
-16.056144999999951
 30
0.0
 11
-15.5
 21
-16.056144999999951
 31
0.0
  0
LINE
  5
2056
  8
241
 10
-6.5
 20
-14.056144999999949
 30
0.0
 11
-15.5
 21
-14.056144999999949
 31
0.0
  0
LINE
  5
2057
  8
240
 10
-16.0
 20
-14.49999999999994
 30
0.0
 11
-16.0
 21
-12.99999999999994
 31
0.0
  0
LINE
  5
2058
  8
240
 10
-15.5
 20
-16.699999999999989
 30
0.0
 11
-15.5
 21
-14.99999999999994
 31
0.0
  0
LINE
  5
2059
  8
240
 10
-16.0
 20
-14.49999999999994
 30
0.0
 11
-15.5
 21
-14.99999999999994
 31
0.0
  0
ARC
  5
205A
  8
240
 10
-14.69999999999993
 20
-16.699999999999989
 30
0.0
 40
0.8
 50
180.0
 51
270.0
  0
LINE
  5
205B
  8
240
 10
-20.5
 20
-12.99999999999994
 30
0.0
 11
-16.0
 21
-12.99999999999994
 31
0.0
  0
LINE
  5
205C
  8
242
 10
-16.0
 20
-12.49999999999994
 30
0.0
 11
-18.5
 21
-12.49999999999994
 31
0.0
  0
ARC
  5
205D
  8
240
 10
-20.5
 20
-11.99999999999994
 30
0.0
 40
1.0
 50
180.0
 51
270.0
  0
LINE
  5
205E
  8
240
 10
-21.499999999999989
 20
-11.99999999999994
 30
0.0
 11
-21.499999999999989
 21
-10.799999999999949
 31
0.0
  0
LINE
  5
205F
  8
242
 10
-18.5
 20
-12.49999999999994
 30
0.0
 11
-19.0
 21
-12.99999999999994
 31
0.0
  0
LINE
  5
2060
  8
241
 10
-6.5
 20
-16.056144999999951
 30
0.0
 11
-6.5
 21
-14.056144999999949
 31
0.0
  0
LINE
  5
2061
  8
240
 10
-1.015686000000072
 20
-17.265685999999949
 30
0.0
 11
-0.2050249999999778
 21
-16.455024999999971
 31
0.0
  0
ARC
  5
2062
  8
240
 10
-1.581370999999989
 20
-16.699999999999989
 30
0.0
 40
0.8
 50
270.0
 51
315.0
  0
ARC
  5
2063
  8
240
 10
-0.6999999999999318
 20
-15.960050999999959
 30
0.0
 40
0.7
 50
315.0
 51
0.0
  0
LINE
  5
2064
  8
246
 10
-3.19999999999993
 20
-10.24999999999994
 30
0.0
 11
-3.0
 21
-10.24999999999994
 31
0.0
  0
LINE
  5
2065
  8
246
 10
-5.600000000000021
 20
8.75
 30
0.0
 11
-3.19999999999993
 21
8.75
 31
0.0
  0
LINE
  5
2066
  8
246
 10
-5.600000000000021
 20
-8.7499999999999432
 30
0.0
 11
-3.19999999999993
 21
-8.7499999999999432
 31
0.0
  0
LINE
  5
2067
  8
241
 10
-6.5
 20
2.0
 30
0.0
 11
-6.5
 21
0.0
 31
0.0
  0
LINE
  5
2068
  8
241
 10
-6.5
 20
-1.9999999999999429
 30
0.0
 11
-15.5
 21
-1.9999999999999429
 31
0.0
  0
LINE
  5
2069
  8
241
 10
-6.5
 20
-1.9999999999999429
 30
0.0
 11
-6.5
 21
0.0
 31
0.0
  0
LINE
  5
206A
  8
241
 10
-6.5
 20
2.0
 30
0.0
 11
-15.5
 21
2.0
 31
0.0
  0
LINE
  5
206B
  8
240
 10
-22.79999999999999
 20
10.80000000000001
 30
0.0
 11
-21.499999999999989
 21
10.80000000000001
 31
0.0
  0
LINE
  5
206C
  8
240
 10
-51.0
 20
10.999999999999989
 30
0.0
 11
-22.999999999999929
 21
11.0
 31
0.0
  0
LINE
  5
206D
  8
240
 10
-22.79999999999999
 20
10.80000000000001
 30
0.0
 11
-22.999999999999929
 21
11.0
 31
0.0
  0
LINE
  5
206E
  8
240
 10
-14.69999999999993
 20
17.5
 30
0.0
 11
-1.581370999999989
 21
17.5
 31
0.0
  0
LINE
  5
206F
  8
241
 10
-6.5
 20
14.05614500000001
 30
0.0
 11
-15.5
 21
14.05614500000001
 31
0.0
  0
LINE
  5
2070
  8
241
 10
-6.5
 20
16.056145000000011
 30
0.0
 11
-15.5
 21
16.056145000000011
 31
0.0
  0
LINE
  5
2071
  8
240
 10
-16.0
 20
14.5
 30
0.0
 11
-15.5
 21
15.0
 31
0.0
  0
LINE
  5
2072
  8
240
 10
-20.5
 20
12.999999999999989
 30
0.0
 11
-16.0
 21
13.0
 31
0.0
  0
LINE
  5
2073
  8
242
 10
-16.0
 20
12.5
 30
0.0
 11
-18.5
 21
12.5
 31
0.0
  0
LINE
  5
2074
  8
240
 10
-21.499999999999989
 20
10.80000000000001
 30
0.0
 11
-21.499999999999989
 21
11.999999999999989
 31
0.0
  0
ARC
  5
2075
  8
240
 10
-20.5
 20
11.999999999999989
 30
0.0
 40
1.0
 50
90.0
 51
180.0
  0
LINE
  5
2076
  8
242
 10
-18.5
 20
12.5
 30
0.0
 11
-19.0
 21
13.0
 31
0.0
  0
LINE
  5
2077
  8
240
 10
-16.0
 20
14.5
 30
0.0
 11
-16.0
 21
13.0
 31
0.0
  0
LINE
  5
2078
  8
240
 10
-15.5
 20
16.699999999999989
 30
0.0
 11
-15.5
 21
15.0
 31
0.0
  0
ARC
  5
2079
  8
240
 10
-14.69999999999993
 20
16.699999999999989
 30
0.0
 40
0.8
 50
90.0
 51
180.0
  0
LINE
  5
207A
  8
241
 10
-6.5
 20
16.056145000000011
 30
0.0
 11
-6.5
 21
14.05614500000001
 31
0.0
  0
LINE
  5
207B
  8
246
 10
-3.19999999999993
 20
10.25
 30
0.0
 11
-3.0
 21
10.25
 31
0.0
  0
LINE
  5
207C
  8
240
 10
-0.2050249999999778
 20
16.455024999999971
 30
0.0
 11
-1.015686000000072
 21
17.265685000000008
 31
0.0
  0
ARC
  5
207D
  8
240
 10
-1.581370999999989
 20
16.699999999999989
 30
0.0
 40
0.8
 50
44.999999999999922
 51
90.0
  0
ARC
  5
207E
  8
240
 10
-0.6999999999999318
 20
15.96004999999996
 30
0.0
 40
0.7
 50
0.0
 51
44.999999999999922
  0
ENDBLK
  5
2080
  8
0
  0
BLOCK
  8
0
  2
GENAXEH
 70
     0
 10
0.0
 20
0.0
 30
0.0
  3
GENAXEH
  1

  0
LINE
  5
2185
  8
0
 10
-1.0
 20
0.0
 30
0.0
 11
1.0
 21
0.0
 31
0.0
  0
ENDBLK
  5
2186
  8
0
  0
BLOCK
  8
0
  2
_OPEN30
 70
     0
 10
0.0
 20
0.0
 30
0.0
  3
_OPEN30
  1

  0
LINE
  5
21AA
  8
0
  6
BYBLOCK
 62
     0
 10
-1.0
 20
0.26794919
 30
0.0
 11
0.0
 21
0.0
 31
0.0
  0
LINE
  5
21AB
  8
0
  6
BYBLOCK
 62
     0
 10
0.0
 20
0.0
 30
0.0
 11
-1.0
 21
-0.26794919
 31
0.0
  0
LINE
  5
21AC
  8
0
  6
BYBLOCK
 62
     0
 10
0.0
 20
0.0
 30
0.0
 11
-1.0
 21
0.0
 31
0.0
  0
ENDBLK
  5
21AD
  8
0
  0
BLOCK
  8
0
  2
*U12
 70
     1
 10
0.0
 20
0.0
 30
0.0
  3
*U12
  1

  0
TEXT
  5
22A7
  8
250
 62
    40
 10
19.999999999999989
 20
-4.0714285714285721
 30
0.0
 40
3.0
  1
\U+2205
 50
90.0
  0
TEXT
  5
22A8
  8
250
 62
    40
 10
19.999999999999989
 20
-1.3571428571428581
 30
0.0
 40
3.0
  1
35
 50
90.0
  0
ENDBLK
  5
22AA
  8
0
  0
BLOCK
  8
0
  2
*U13
 70
     1
 10
0.0
 20
0.0
 30
0.0
  3
*U13
  1

  0
TEXT
  5
22AC
  8
250
 62
    40
 10
-15.749999999999959
 20
29.0
 30
0.0
 40
3.0
  1
21.5
  0
ENDBLK
  5
22AE
  8
0
  0
BLOCK
  8
0
  2
*U14
 70
     1
 10
0.0
 20
0.0
 30
0.0
  3
*U14
  1

  0
TEXT
  5
22B0
  8
250
 62
    40
 10
-28.01428571428568
 20
-34.0
 30
0.0
 40
3.0
  1
41ü`47
  0
ENDBLK
  5
22B2
  8
0
  0
BLOCK
  8
0
  2
*U15
 70
     1
 10
0.0
 20
0.0
 30
0.0
  3
*U15
  1

  0
TEXT
  5
22B4
  8
250
 62
    40
 10
-35.821428571428541
 20
36.0
 30
0.0
 40
3.0
  1
61.5
  0
ENDBLK
  5
22B6
  8
0
  0
BLOCK
  8
0
  2
*U16
 70
     1
 10
0.0
 20
0.0
 30
0.0
  3
*U16
  1

  0
TEXT
  5
22B8
  8
250
 62
    40
 10
-44.357142857142847
 20
29.0
 30
0.0
 40
3.0
  1
40
  0
ENDBLK
  5
22BA
  8
0
  0
BLOCK
  8
0
  2
*U17
 70
     1
 10
0.0
 20
0.0
 30
0.0
  3
*U17
  1

  0
TEXT
  5
22BC
  8
250
 62
    40
 10
-71.0
 20
-4.0714285714285436
 30
0.0
 40
3.0
  1
\U+2205
 50
90.0
  0
TEXT
  5
22BD
  8
250
 62
    40
 10
-71.0
 20
-1.3571428571428299
 30
0.0
 40
3.0
  1
22
 50
90.0
  0
ENDBLK
  5
22BF
  8
0
  0
BLOCK
  8
0
  2
*X18
 70
     1
 10
0.0
 20
0.0
 30
0.0
  3
*X18
  1

  0
LINE
  5
22C1
  8
0
 62
     0
 10
-45.856379563744049
 20
-9.830916449595513
 30
0.0
 11
-45.685871063216638
 21
-9.6604079490680945
 31
0.0
  0
LINE
  5
22C2
  8
0
 62
     0
 10
-46.150186689732017
 20
-9.9226678128594141
 30
0.0
 11
-45.60463943869
 21
-9.3771205618173994
 31
0.0
  0
LINE
  5
22C3
  8
0
 62
     0
 10
-46.06437743620328
 20
-9.6348027966066212
 30
0.0
 11
-45.523407814163363
 21
-9.0938331745667043
 31
0.0
  0
LINE
  5
22C4
  8
0
 62
     0
 10
-46.339932834904808
 20
-9.9103581953081488
 30
0.0
 11
-46.126404308206887
 21
-9.6968296686102349
 31
0.0
  0
LINE
  5
22C5
  8
0
 62
     0
 10
-45.97272387261561
 20
-9.3410934702949007
 30
0.0
 11
-45.629480432848077
 21
-8.9978500305273599
 31
0.0
  0
LINE
  5
22C6
  8
0
 62
     0
 10
-46.486802181992047
 20
-9.8551717796713305
 30
0.0
 11
-46.327990177068472
 21
-9.6963597747477621
 31
0.0
  0
LINE
  5
22C7
  8
0
 62
     0
 10
-46.013414857681489
 20
-9.1797286926367363
 30
0.0
 11
-45.83153619557212
 21
-8.9978500305273599
 31
0.0
  0
LINE
  5
22C8
  8
0
 62
     0
 10
-46.605165201822508
 20
-9.7714790367777482
 30
0.0
 11
-46.412542161022493
 21
-9.5788559959777402
 31
0.0
  0
LINE
  5
22C9
  8
0
 62
     0
 10
-45.565703144804829
 20
-8.5299612170360106
 30
0.0
 11
-45.54676673945599
 21
-8.5110248116871787
 31
0.0
  0
LINE
  5
22CA
  8
0
 62
     0
 10
-46.698654025022883
 20
-9.6629120972540647
 30
0.0
 11
-46.367337583204211
 21
-9.3315956554353932
 31
0.0
  0
LINE
  5
22CB
  8
0
 62
     0
 10
-45.81838281511731
 20
-8.5805851246244345
 30
0.0
 11
-45.595206927568313
 21
-8.3574092370754443
 31
0.0
  0
LINE
  5
22CC
  8
0
 62
     0
 10
-46.765775651087942
 20
-9.5279779605950665
 30
0.0
 11
-46.286105682559771
 21
-9.0483079920669027
 31
0.0
  0
LINE
  5
22CD
  8
0
 62
     0
 10
-45.934400493986359
 20
-8.494547040769433
 30
0.0
 11
-45.798210991265528
 21
-8.3583575380486081
 31
0.0
  0
LINE
  5
22CE
  8
0
 62
     0
 10
-46.797919706085111
 20
-9.3580662528681771
 30
0.0
 11
-46.204873781915317
 21
-8.7650203286983981
 31
0.0
  0
LINE
  5
22CF
  8
0
 62
     0
 10
-46.769289450775432
 20
-9.1273802348344404
 30
0.0
 11
-45.945282012913587
 21
-8.3033727969726172
 31
0.0
  0
LINE
  5
22D0
  8
0
 62
     0
 10
-46.702208387954137
 20
-8.8582434092891091
 30
0.0
 11
-46.135396096704127
 21
-8.2914311180390996
 31
0.0
  0
ENDBLK
  5
22D2
  8
0
  0
BLOCK
  8
0
  2
*X19
 70
     1
 10
0.0
 20
0.0
 30
0.0
  3
*X19
  1

  0
LINE
  5
22D4
  8
0
 62
     0
 10
-44.96041330138263
 20
-10.147284763578419
 30
0.0
 11
-44.364282448656951
 21
-9.5511539108527543
 31
0.0
  0
LINE
  5
22D5
  8
0
 62
     0
 10
-44.553804451241191
 20
-9.5386201507129371
 30
0.0
 11
-44.314991813987042
 21
-9.2998075134587808
 31
0.0
  0
LINE
  5
22D6
  8
0
 62
     0
 10
-45.211759698776611
 20
-10.196575398248349
 30
0.0
 11
-44.972947061522447
 21
-9.9577627609941857
 31
0.0
  0
LINE
  5
22D7
  8
0
 62
     0
 10
-44.496012503597044
 20
-9.2787724403447314
 30
0.0
 11
-44.323256656252582
 21
-9.1060165930002626
 31
0.0
  0
LINE
  5
22D8
  8
0
 62
     0
 10
-45.415483980433343
 20
-10.19824391718103
 30
0.0
 11
-45.23279477189066
 21
-10.015554708638341
 31
0.0
  0
LINE
  5
22D9
  8
0
 62
     0
 10
-44.510359373317328
 20
-9.0910635473409585
 30
0.0
 11
-44.361926187123018
 21
-8.9426303611466551
 31
0.0
  0
LINE
  5
22DA
  8
0
 62
     0
 10
-45.617539743157408
 20
-10.19824391718104
 30
0.0
 11
-45.435661085728881
 21
-10.01636525975252
 31
0.0
  0
LINE
  5
22DB
  8
0
 62
     0
 10
-44.5584672524949
 20
-8.9371156637944793
 30
0.0
 11
-44.422111629259398
 21
-8.8007600405589752
 31
0.0
  0
LINE
  5
22DC
  8
0
 62
     0
 10
-45.819595505881459
 20
-10.19824391718104
 30
0.0
 11
-45.637716848452939
 21
-10.01636525975252
 31
0.0
  0
LINE
  5
22DD
  8
0
 62
     0
 10
-44.630264682429228
 20
-8.8068573310047498
 30
0.0
 11
-44.499852539499969
 21
-8.6764451880754905
 31
0.0
  0
LINE
  5
22DE
  8
0
 62
     0
 10
-46.02165126860551
 20
-10.19824391718103
 30
0.0
 11
-45.839772611176997
 21
-10.01636525975252
 31
0.0
  0
LINE
  5
22DF
  8
0
 62
     0
 10
-44.721937671351618
 20
-8.6964745572030893
 30
0.0
 11
-44.593330016402128
 21
-8.5678669022535843
 31
0.0
  0
LINE
  5
22E0
  8
0
 62
     0
 10
-46.223707031329567
 20
-10.19824391718103
 30
0.0
 11
-46.041828373901062
 21
-10.01636525975252
 31
0.0
  0
LINE
  5
22E1
  8
0
 62
     0
 10
-44.832446663779457
 20
-8.6049277869068632
 30
0.0
 11
-44.70200986178309
 21
-8.4744909849104957
 31
0.0
  0
LINE
  5
22E2
  8
0
 62
     0
 10
-46.425762794053632
 20
-10.19824391718103
 30
0.0
 11
-46.243884136625113
 21
-10.01636525975252
 31
0.0
  0
LINE
  5
22E3
  8
0
 62
     0
 10
-44.962845779531939
 20
-8.5332711399352945
 30
0.0
 11
-44.826433632996363
 21
-8.3968589933997038
 31
0.0
  0
LINE
  5
22E4
  8
0
 62
     0
 10
-46.62781855677769
 20
-10.19824391718103
 30
0.0
 11
-46.44593989934917
 21
-10.01636525975251
 31
0.0
  0
LINE
  5
22E5
  8
0
 62
     0
 10
-45.116973840216893
 20
-8.4853434378961836
 30
0.0
 11
-44.968430598123668
 21
-8.3368001958029581
 31
0.0
  0
LINE
  5
22E6
  8
0
 62
     0
 10
-46.829874319501741
 20
-10.19824391718103
 30
0.0
 11
-46.647995662073228
 21
-10.01636525975251
 31
0.0
  0
LINE
  5
22E7
  8
0
 62
     0
 10
-45.304972460519423
 20
-8.4712862954746697
 30
0.0
 11
-45.131981093712923
 21
-8.2982949286681631
 31
0.0
  0
LINE
  5
22E8
  8
0
 62
     0
 10
-47.031930082225777
 20
-10.19824391718103
 30
0.0
 11
-46.850051424797272
 21
-10.01636525975251
 31
0.0
  0
LINE
  5
22E9
  8
0
 62
     0
 10
-45.474272377026871
 20
-8.4385304492580602
 30
0.0
 11
-45.326027309361329
 21
-8.2902853815925184
 31
0.0
  0
LINE
  5
22EA
  8
0
 62
     0
 10
-47.233985844949842
 20
-10.19824391718103
 30
0.0
 11
-47.052107187521329
 21
-10.01636525975251
 31
0.0
  0
LINE
  5
22EB
  8
0
 62
     0
 10
-47.4360416076739
 20
-10.19824391718103
 30
0.0
 11
-47.254162950245387
 21
-10.01636525975251
 31
0.0
  0
LINE
  5
22EC
  8
0
 62
     0
 10
-47.638097370397951
 20
-10.19824391718103
 30
0.0
 11
-47.456218712969438
 21
-10.01636525975251
 31
0.0
  0
LINE
  5
22ED
  8
0
 62
     0
 10
-47.840153133122023
 20
-10.198243917181021
 30
0.0
 11
-47.658274475693503
 21
-10.01636525975251
 31
0.0
  0
LINE
  5
22EE
  8
0
 62
     0
 10
-48.042208895846073
 20
-10.19824391718103
 30
0.0
 11
-47.860330238417554
 21
-10.01636525975251
 31
0.0
  0
LINE
  5
22EF
  8
0
 62
     0
 10
-48.244264658570131
 20
-10.19824391718103
 30
0.0
 11
-48.062386001141611
 21
-10.01636525975251
 31
0.0
  0
LINE
  5
22F0
  8
0
 62
     0
 10
-48.446320421294182
 20
-10.19824391718103
 30
0.0
 11
-48.264441763865669
 21
-10.01636525975251
 31
0.0
  0
LINE
  5
22F1
  8
0
 62
     0
 10
-48.648376184018247
 20
-10.19824391718103
 30
0.0
 11
-48.46649752658972
 21
-10.01636525975251
 31
0.0
  0
LINE
  5
22F2
  8
0
 62
     0
 10
-48.850431946742297
 20
-10.19824391718103
 30
0.0
 11
-48.668553289313792
 21
-10.01636525975252
 31
0.0
  0
LINE
  5
22F3
  8
0
 62
     0
 10
-49.048412713619747
 20
-10.19416892133443
 30
0.0
 11
-48.870609052037828
 21
-10.01636525975251
 31
0.0
  0
LINE
  5
22F4
  8
0
 62
     0
 10
-49.218866210985333
 20
-10.16256665597594
 30
0.0
 11
-49.06547492947368
 21
-10.0091753744643
 31
0.0
  0
LINE
  5
22F5
  8
0
 62
     0
 10
-49.36608338301226
 20
-10.107728065278829
 30
0.0
 11
-49.227183304501267
 21
-9.9688279867678276
 31
0.0
  0
LINE
  5
22F6
  8
0
 62
     0
 10
-49.494939359367081
 20
-10.034528278909571
 30
0.0
 11
-49.363364742361632
 21
-9.9029536619041352
 31
0.0
  0
LINE
  5
22F7
  8
0
 62
     0
 10
-49.60771012376469
 20
-9.9452432805831315
 30
0.0
 11
-49.478973193554438
 21
-9.8165063503728831
 31
0.0
  0
LINE
  5
22F8
  8
0
 62
     0
 10
-49.705240534399451
 20
-9.8407179284938451
 30
0.0
 11
-49.575672857328819
 21
-9.7111502514232164
 31
0.0
  0
LINE
  5
22F9
  8
0
 62
     0
 10
-49.787285438197742
 20
-9.7207070695680642
 30
0.0
 11
-49.652989838021867
 21
-9.5864114693922033
 31
0.0
  0
LINE
  5
22FA
  8
0
 62
     0
 10
-48.73904428150999
 20
-8.4704101501562654
 30
0.0
 11
-48.595756433997643
 21
-8.3271223026439216
 31
0.0
  0
LINE
  5
22FB
  8
0
 62
     0
 10
-49.85241546390337
 20
-9.5837813325496484
 30
0.0
 11
-49.708011156912761
 21
-9.4393770255590397
 31
0.0
  0
LINE
  5
22FC
  8
0
 62
     0
 10
-48.941100044234027
 20
-8.4704101501562619
 30
0.0
 11
-48.759221382124657
 21
-8.2885314880468854
 31
0.0
  0
LINE
  5
22FD
  8
0
 62
     0
 10
-49.897388273887707
 20
-9.4266983798099346
 30
0.0
 11
-49.733037979539418
 21
-9.262348085461646
 31
0.0
  0
LINE
  5
22FE
  8
0
 62
     0
 10
-49.172997285997177
 20
-8.5002516291953452
 30
0.0
 11
-48.961277652425267
 21
-8.2885319956234405
 31
0.0
  0
LINE
  5
22FF
  8
0
 62
     0
 10
-49.915148711484989
 20
-9.2424030546831553
 30
0.0
 11
-49.703429077913093
 21
-9.0306834211112523
 31
0.0
  0
LINE
  5
2300
  8
0
 62
     0
 10
-49.886652004052657
 20
-9.0118505845267727
 30
0.0
 11
-49.191830122581649
 21
-8.3170287030557652
 31
0.0
  0
ENDBLK
  5
2302
  8
0
  0
BLOCK
  8
0
  2
*X20
 70
     1
 10
0.0
 20
0.0
 30
0.0
  3
*X20
  1

  0
LINE
  5
2304
  8
0
 62
     0
 10
-47.163223619190703
 20
-9.9254259286978268
 30
0.0
 11
-47.148236560442868
 21
-9.9104388699499921
 31
0.0
  0
LINE
  5
2305
  8
0
 62
     0
 10
-47.36527938191476
 20
-9.9254259286978268
 30
0.0
 11
-47.067005721522989
 21
-9.6271522683060553
 31
0.0
  0
LINE
  5
2306
  8
0
 62
     0
 10
-47.556112105091891
 20
-9.9142028891509035
 30
0.0
 11
-46.985774882603103
 21
-9.3438656666621114
 31
0.0
  0
LINE
  5
2307
  8
0
 62
     0
 10
-47.474880157619289
 20
-9.6309151789542469
 30
0.0
 11
-46.904544043683217
 21
-9.0605790650181817
 31
0.0
  0
LINE
  5
2308
  8
0
 62
     0
 10
-47.393648210146679
 20
-9.3476274687575867
 30
0.0
 11
-46.823313204763338
 21
-8.7772924633742448
 31
0.0
  0
LINE
  5
2309
  8
0
 62
     0
 10
-47.31241626267407
 20
-9.0643397585609193
 30
0.0
 11
-46.742082365843459
 21
-8.494005861730308
 31
0.0
  0
LINE
  5
230A
  8
0
 62
     0
 10
-47.231184315201467
 20
-8.7810520483642591
 30
0.0
 11
-46.738663754884108
 21
-8.2885314880468925
 31
0.0
  0
LINE
  5
230B
  8
0
 62
     0
 10
-47.149952367728872
 20
-8.497764338167606
 30
0.0
 11
-46.940719517608159
 21
-8.2885314880468997
 31
0.0
  0
LINE
  5
230C
  8
0
 62
     0
 10
-47.16156951106678
 20
-8.3073257187814633
 30
0.0
 11
-47.142775280332209
 21
-8.2885314880468997
 31
0.0
  0
ENDBLK
  5
230E
  8
0
  0
BLOCK
  8
0
  2
*X21
 70
     1
 10
0.0
 20
0.0
 30
0.0
  3
*X21
  1

  0
LINE
  5
2314
  8
0
 62
     0
 10
-45.856379563744049
 20
-9.830916449595513
 30
0.0
 11
-45.685871063216638
 21
-9.6604079490680945
 31
0.0
  0
LINE
  5
2315
  8
0
 62
     0
 10
-46.150186689732017
 20
-9.9226678128594141
 30
0.0
 11
-45.60463943869
 21
-9.3771205618173994
 31
0.0
  0
LINE
  5
2316
  8
0
 62
     0
 10
-46.06437743620328
 20
-9.6348027966066212
 30
0.0
 11
-45.523407814163363
 21
-9.0938331745667043
 31
0.0
  0
LINE
  5
2317
  8
0
 62
     0
 10
-46.339932834904808
 20
-9.9103581953081488
 30
0.0
 11
-46.126404308206887
 21
-9.6968296686102349
 31
0.0
  0
LINE
  5
2318
  8
0
 62
     0
 10
-45.97272387261561
 20
-9.3410934702949007
 30
0.0
 11
-45.629480432848077
 21
-8.9978500305273599
 31
0.0
  0
LINE
  5
2319
  8
0
 62
     0
 10
-46.486802181992047
 20
-9.8551717796713305
 30
0.0
 11
-46.327990177068472
 21
-9.6963597747477621
 31
0.0
  0
LINE
  5
231A
  8
0
 62
     0
 10
-46.013414857681489
 20
-9.1797286926367363
 30
0.0
 11
-45.83153619557212
 21
-8.9978500305273599
 31
0.0
  0
LINE
  5
231B
  8
0
 62
     0
 10
-46.605165201822508
 20
-9.7714790367777482
 30
0.0
 11
-46.412542161022493
 21
-9.5788559959777402
 31
0.0
  0
LINE
  5
231C
  8
0
 62
     0
 10
-45.565703144804829
 20
-8.5299612170360106
 30
0.0
 11
-45.54676673945599
 21
-8.5110248116871787
 31
0.0
  0
LINE
  5
231D
  8
0
 62
     0
 10
-46.698654025022883
 20
-9.6629120972540647
 30
0.0
 11
-46.367337583204211
 21
-9.3315956554353932
 31
0.0
  0
LINE
  5
231E
  8
0
 62
     0
 10
-45.81838281511731
 20
-8.5805851246244345
 30
0.0
 11
-45.595206927568313
 21
-8.3574092370754443
 31
0.0
  0
LINE
  5
231F
  8
0
 62
     0
 10
-46.765775651087942
 20
-9.5279779605950665
 30
0.0
 11
-46.286105682559771
 21
-9.0483079920669027
 31
0.0
  0
LINE
  5
2320
  8
0
 62
     0
 10
-45.934400493986359
 20
-8.494547040769433
 30
0.0
 11
-45.798210991265528
 21
-8.3583575380486081
 31
0.0
  0
LINE
  5
2321
  8
0
 62
     0
 10
-46.797919706085111
 20
-9.3580662528681771
 30
0.0
 11
-46.204873781915317
 21
-8.7650203286983981
 31
0.0
  0
LINE
  5
2322
  8
0
 62
     0
 10
-46.769289450775432
 20
-9.1273802348344404
 30
0.0
 11
-45.945282012913587
 21
-8.3033727969726172
 31
0.0
  0
LINE
  5
2323
  8
0
 62
     0
 10
-46.702208387954137
 20
-8.8582434092891091
 30
0.0
 11
-46.135396096704127
 21
-8.2914311180390996
 31
0.0
  0
ENDBLK
  5
2325
  8
0
  0
BLOCK
  8
0
  2
*X22
 70
     1
 10
0.0
 20
0.0
 30
0.0
  3
*X22
  1

  0
LINE
  5
2327
  8
0
 62
     0
 10
-44.96041330138263
 20
-10.147284763578419
 30
0.0
 11
-44.364282448656951
 21
-9.5511539108527543
 31
0.0
  0
LINE
  5
2328
  8
0
 62
     0
 10
-44.553804451241191
 20
-9.5386201507129371
 30
0.0
 11
-44.314991813987042
 21
-9.2998075134587808
 31
0.0
  0
LINE
  5
2329
  8
0
 62
     0
 10
-45.211759698776611
 20
-10.196575398248349
 30
0.0
 11
-44.972947061522447
 21
-9.9577627609941857
 31
0.0
  0
LINE
  5
232A
  8
0
 62
     0
 10
-44.496012503597044
 20
-9.2787724403447314
 30
0.0
 11
-44.323256656252582
 21
-9.1060165930002626
 31
0.0
  0
LINE
  5
232B
  8
0
 62
     0
 10
-45.415483980433343
 20
-10.19824391718103
 30
0.0
 11
-45.23279477189066
 21
-10.015554708638341
 31
0.0
  0
LINE
  5
232C
  8
0
 62
     0
 10
-44.510359373317328
 20
-9.0910635473409585
 30
0.0
 11
-44.361926187123018
 21
-8.9426303611466551
 31
0.0
  0
LINE
  5
232D
  8
0
 62
     0
 10
-45.617539743157408
 20
-10.19824391718104
 30
0.0
 11
-45.435661085728881
 21
-10.01636525975252
 31
0.0
  0
LINE
  5
232E
  8
0
 62
     0
 10
-44.5584672524949
 20
-8.9371156637944793
 30
0.0
 11
-44.422111629259398
 21
-8.8007600405589752
 31
0.0
  0
LINE
  5
232F
  8
0
 62
     0
 10
-45.819595505881459
 20
-10.19824391718104
 30
0.0
 11
-45.637716848452939
 21
-10.01636525975252
 31
0.0
  0
LINE
  5
2330
  8
0
 62
     0
 10
-44.630264682429228
 20
-8.8068573310047498
 30
0.0
 11
-44.499852539499969
 21
-8.6764451880754905
 31
0.0
  0
LINE
  5
2331
  8
0
 62
     0
 10
-46.02165126860551
 20
-10.19824391718103
 30
0.0
 11
-45.839772611176997
 21
-10.01636525975252
 31
0.0
  0
LINE
  5
2332
  8
0
 62
     0
 10
-44.721937671351618
 20
-8.6964745572030893
 30
0.0
 11
-44.593330016402128
 21
-8.5678669022535843
 31
0.0
  0
LINE
  5
2333
  8
0
 62
     0
 10
-46.223707031329567
 20
-10.19824391718103
 30
0.0
 11
-46.041828373901062
 21
-10.01636525975252
 31
0.0
  0
LINE
  5
2334
  8
0
 62
     0
 10
-44.832446663779457
 20
-8.6049277869068632
 30
0.0
 11
-44.70200986178309
 21
-8.4744909849104957
 31
0.0
  0
LINE
  5
2335
  8
0
 62
     0
 10
-46.425762794053632
 20
-10.19824391718103
 30
0.0
 11
-46.243884136625113
 21
-10.01636525975252
 31
0.0
  0
LINE
  5
2336
  8
0
 62
     0
 10
-44.962845779531939
 20
-8.5332711399352945
 30
0.0
 11
-44.826433632996363
 21
-8.3968589933997038
 31
0.0
  0
LINE
  5
2337
  8
0
 62
     0
 10
-46.62781855677769
 20
-10.19824391718103
 30
0.0
 11
-46.44593989934917
 21
-10.01636525975251
 31
0.0
  0
LINE
  5
2338
  8
0
 62
     0
 10
-45.116973840216893
 20
-8.4853434378961836
 30
0.0
 11
-44.968430598123668
 21
-8.3368001958029581
 31
0.0
  0
LINE
  5
2339
  8
0
 62
     0
 10
-46.829874319501741
 20
-10.19824391718103
 30
0.0
 11
-46.647995662073228
 21
-10.01636525975251
 31
0.0
  0
LINE
  5
233A
  8
0
 62
     0
 10
-45.304972460519423
 20
-8.4712862954746697
 30
0.0
 11
-45.131981093712923
 21
-8.2982949286681631
 31
0.0
  0
LINE
  5
233B
  8
0
 62
     0
 10
-47.031930082225777
 20
-10.19824391718103
 30
0.0
 11
-46.850051424797272
 21
-10.01636525975251
 31
0.0
  0
LINE
  5
233C
  8
0
 62
     0
 10
-45.474272377026871
 20
-8.4385304492580602
 30
0.0
 11
-45.326027309361329
 21
-8.2902853815925184
 31
0.0
  0
LINE
  5
233D
  8
0
 62
     0
 10
-47.233985844949842
 20
-10.19824391718103
 30
0.0
 11
-47.052107187521329
 21
-10.01636525975251
 31
0.0
  0
LINE
  5
233E
  8
0
 62
     0
 10
-47.4360416076739
 20
-10.19824391718103
 30
0.0
 11
-47.254162950245387
 21
-10.01636525975251
 31
0.0
  0
LINE
  5
233F
  8
0
 62
     0
 10
-47.638097370397951
 20
-10.19824391718103
 30
0.0
 11
-47.456218712969438
 21
-10.01636525975251
 31
0.0
  0
LINE
  5
2340
  8
0
 62
     0
 10
-47.840153133122023
 20
-10.198243917181021
 30
0.0
 11
-47.658274475693503
 21
-10.01636525975251
 31
0.0
  0
LINE
  5
2341
  8
0
 62
     0
 10
-48.042208895846073
 20
-10.19824391718103
 30
0.0
 11
-47.860330238417554
 21
-10.01636525975251
 31
0.0
  0
LINE
  5
2342
  8
0
 62
     0
 10
-48.244264658570131
 20
-10.19824391718103
 30
0.0
 11
-48.062386001141611
 21
-10.01636525975251
 31
0.0
  0
LINE
  5
2343
  8
0
 62
     0
 10
-48.446320421294182
 20
-10.19824391718103
 30
0.0
 11
-48.264441763865669
 21
-10.01636525975251
 31
0.0
  0
LINE
  5
2344
  8
0
 62
     0
 10
-48.648376184018247
 20
-10.19824391718103
 30
0.0
 11
-48.46649752658972
 21
-10.01636525975251
 31
0.0
  0
LINE
  5
2345
  8
0
 62
     0
 10
-48.850431946742297
 20
-10.19824391718103
 30
0.0
 11
-48.668553289313792
 21
-10.01636525975252
 31
0.0
  0
LINE
  5
2346
  8
0
 62
     0
 10
-49.048412713619747
 20
-10.19416892133443
 30
0.0
 11
-48.870609052037828
 21
-10.01636525975251
 31
0.0
  0
LINE
  5
2347
  8
0
 62
     0
 10
-49.218866210985333
 20
-10.16256665597594
 30
0.0
 11
-49.06547492947368
 21
-10.0091753744643
 31
0.0
  0
LINE
  5
2348
  8
0
 62
     0
 10
-49.36608338301226
 20
-10.107728065278829
 30
0.0
 11
-49.227183304501267
 21
-9.9688279867678276
 31
0.0
  0
LINE
  5
2349
  8
0
 62
     0
 10
-49.494939359367081
 20
-10.034528278909571
 30
0.0
 11
-49.363364742361632
 21
-9.9029536619041352
 31
0.0
  0
LINE
  5
234A
  8
0
 62
     0
 10
-49.60771012376469
 20
-9.9452432805831315
 30
0.0
 11
-49.478973193554438
 21
-9.8165063503728831
 31
0.0
  0
LINE
  5
234B
  8
0
 62
     0
 10
-49.705240534399451
 20
-9.8407179284938451
 30
0.0
 11
-49.575672857328819
 21
-9.7111502514232164
 31
0.0
  0
LINE
  5
234C
  8
0
 62
     0
 10
-49.787285438197742
 20
-9.7207070695680642
 30
0.0
 11
-49.652989838021867
 21
-9.5864114693922033
 31
0.0
  0
LINE
  5
234D
  8
0
 62
     0
 10
-48.73904428150999
 20
-8.4704101501562654
 30
0.0
 11
-48.595756433997643
 21
-8.3271223026439216
 31
0.0
  0
LINE
  5
234E
  8
0
 62
     0
 10
-49.85241546390337
 20
-9.5837813325496484
 30
0.0
 11
-49.708011156912761
 21
-9.4393770255590397
 31
0.0
  0
LINE
  5
234F
  8
0
 62
     0
 10
-48.941100044234027
 20
-8.4704101501562619
 30
0.0
 11
-48.759221382124657
 21
-8.2885314880468854
 31
0.0
  0
LINE
  5
2350
  8
0
 62
     0
 10
-49.897388273887707
 20
-9.4266983798099346
 30
0.0
 11
-49.733037979539418
 21
-9.262348085461646
 31
0.0
  0
LINE
  5
2351
  8
0
 62
     0
 10
-49.172997285997177
 20
-8.5002516291953452
 30
0.0
 11
-48.961277652425267
 21
-8.2885319956234405
 31
0.0
  0
LINE
  5
2352
  8
0
 62
     0
 10
-49.915148711484989
 20
-9.2424030546831553
 30
0.0
 11
-49.703429077913093
 21
-9.0306834211112523
 31
0.0
  0
LINE
  5
2353
  8
0
 62
     0
 10
-49.886652004052657
 20
-9.0118505845267727
 30
0.0
 11
-49.191830122581649
 21
-8.3170287030557652
 31
0.0
  0
ENDBLK
  5
2355
  8
0
  0
BLOCK
  8
0
  2
*X23
 70
     1
 10
0.0
 20
0.0
 30
0.0
  3
*X23
  1

  0
LINE
  5
2357
  8
0
 62
     0
 10
-47.163223619190703
 20
-9.9254259286978268
 30
0.0
 11
-47.148236560442868
 21
-9.9104388699499921
 31
0.0
  0
LINE
  5
2358
  8
0
 62
     0
 10
-47.36527938191476
 20
-9.9254259286978268
 30
0.0
 11
-47.067005721522989
 21
-9.6271522683060553
 31
0.0
  0
LINE
  5
2359
  8
0
 62
     0
 10
-47.556112105091891
 20
-9.9142028891509035
 30
0.0
 11
-46.985774882603103
 21
-9.3438656666621114
 31
0.0
  0
LINE
  5
235A
  8
0
 62
     0
 10
-47.474880157619289
 20
-9.6309151789542469
 30
0.0
 11
-46.904544043683217
 21
-9.0605790650181817
 31
0.0
  0
LINE
  5
235B
  8
0
 62
     0
 10
-47.393648210146679
 20
-9.3476274687575867
 30
0.0
 11
-46.823313204763338
 21
-8.7772924633742448
 31
0.0
  0
LINE
  5
235C
  8
0
 62
     0
 10
-47.31241626267407
 20
-9.0643397585609193
 30
0.0
 11
-46.742082365843459
 21
-8.494005861730308
 31
0.0
  0
LINE
  5
235D
  8
0
 62
     0
 10
-47.231184315201467
 20
-8.7810520483642591
 30
0.0
 11
-46.738663754884108
 21
-8.2885314880468925
 31
0.0
  0
LINE
  5
235E
  8
0
 62
     0
 10
-47.149952367728872
 20
-8.497764338167606
 30
0.0
 11
-46.940719517608159
 21
-8.2885314880468997
 31
0.0
  0
LINE
  5
235F
  8
0
 62
     0
 10
-47.16156951106678
 20
-8.3073257187814633
 30
0.0
 11
-47.142775280332209
 21
-8.2885314880468997
 31
0.0
  0
ENDBLK
  5
2361
  8
0
  0
ENDSEC
  0
SECTION
  2
ENTITIES
  0
TEXT
  5
151D
  8
241
 10
-58.5
 20
49.0
 30
0.0
 40
5.0
  1
SL22-NBS13-40
  7
YOKO
 11
-58.5
 21
49.0
 31
0.0
 73
     1
  0
DIMENSION
  5
151E
  8
250
  6
CONTINUOUS
  2
*D1
 10
14.0
 20
6.4999999999999956
 30
0.0
 11
11.83780158699278
 21
2.8752461880775382
 31
0.0
 70
   128
  1
MAX.%%c<>
 13
0.0
 23
-6.4999999999999432
 33
0.0
 14
0.0
 24
6.5
 34
0.0
 50
90.0
1001
ACAD
1000
DSTYLE
1002
{
1070
   287
1070
     5
1070
   287
1070
     5
1070
    78
1070
     8
1070
   140
1040
3.0
1070
   279
1070
     2
1002
}
  0
DIMENSION
  5
151F
  8
250
  6
CONTINUOUS
  2
*D2
 10
20.999999999999989
 20
17.499999999999989
 30
0.0
 11
18.499999999999989
 21
-0.000000000000001
 31
0.0
 70
     0
  1
{\H3;\U+2205}<>
 13
-1.581370999999989
 23
-17.5
 33
0.0
 14
-1.581370999999989
 24
17.5
 34
0.0
 50
90.0
1001
ACAD
1000
DSTYLE
1002
{
1070
    78
1070
     8
1070
   140
1040
3.0
1002
}
  0
DIMENSION
  5
1520
  8
250
  6
CONTINUOUS
  2
*D3
 10
0.0000000000000557
 20
-35.0
 30
0.0
 11
-20.499999999999972
 21
-32.5
 31
0.0
 70
     0
  1
41ü`47
 13
-41.0
 23
-6.2999999999999527
 33
0.0
 14
0.0000000000000568
 24
-15.960050999999959
 34
0.0
1001
ACAD
1000
DSTYLE
1002
{
1070
    78
1070
     8
1070
   140
1040
3.0
1002
}
  0
DIMENSION
  5
1908
  8
250
  6
CONTINUOUS
  2
*D4
 10
0.0000000000000689
 20
28.0
 30
0.0
 11
-10.749999999999959
 21
30.5
 31
0.0
 70
     0
 13
-21.499999999999989
 23
11.999999999999989
 33
0.0
 14
0.0000000000000682
 24
15.96004999999996
 34
0.0
1001
ACAD
1000
DSTYLE
1002
{
1070
    78
1070
     8
1070
   140
1040
3.0
1002
}
  0
DIMENSION
  5
1F49
  8
250
  6
CONTINUOUS
  2
*D5
 10
0.0000000000000693
 20
35.0
 30
0.0
 11
-30.749999999999972
 21
37.5
 31
0.0
 70
     0
 13
-61.5
 23
9.0
 33
0.0
 14
0.0000000000000682
 24
15.96004999999996
 34
0.0
1001
ACAD
1000
DSTYLE
1002
{
1070
    78
1070
     8
1070
   140
1040
3.0
1002
}
  0
DIMENSION
  5
1F58
  8
250
  6
CONTINUOUS
  2
*D6
 10
-21.499999999999989
 20
28.0
 30
0.0
 11
-41.5
 21
30.5
 31
0.0
 70
     0
 13
-61.5
 23
9.0
 33
0.0
 14
-21.499999999999989
 24
11.999999999999989
 34
0.0
1001
ACAD
1000
DSTYLE
1002
{
1070
    78
1070
     8
1070
   140
1040
3.0
1002
}
  0
DIMENSION
  5
1F67
  8
250
  6
CONTINUOUS
  2
*D7
 10
-70.0
 20
11.0
 30
0.0
 11
-72.5
 21
0.0000000000000277
 31
0.0
 70
     0
  1
{\H3;\U+2205}<>
 13
-51.000000000000057
 23
-10.999999999999931
 33
0.0
 14
-51.0
 24
10.999999999999989
 34
0.0
 50
90.0
1001
ACAD
1000
DSTYLE
1002
{
1070
    78
1070
     8
1070
   140
1040
3.0
1002
}
  0
LINE
  5
21C0
  8
242
 10
-26.5
 20
5.5452682532047204
 30
0.0
 11
-61.5
 21
-5.5452682532047204
 31
0.0
  0
LINE
  5
21C1
  8
242
 10
-61.5
 20
5.5452682532047204
 30
0.0
 11
-26.500001703393661
 21
-5.5452711714105298
 31
0.0
  0
LINE
  5
21C2
  8
241
 10
-26.5
 20
5.5452682532047213
 30
0.0
 11
-61.5
 21
5.5452682532047204
 31
0.0
  0
LINE
  5
21C3
  8
241
 10
-26.5
 20
-5.5452682532047213
 30
0.0
 11
-61.5
 21
-5.5452682532047204
 31
0.0
  0
LINE
  5
21C4
  8
245
 10
2.656739425502336
 20
0.0
 30
0.0
 11
-63.724539992109271
 21
0.0
 31
0.0
  0
LINE
  5
21C5
  8
240
 10
-52.5
 20
-9.5
 30
0.0
 11
-61.0
 21
-9.5
 31
0.0
  0
LINE
  5
21C6
  8
240
 10
-52.5
 20
9.5
 30
0.0
 11
-61.0
 21
9.5
 31
0.0
  0
LINE
  5
21C7
  8
246
 10
-56.000000000000007
 20
6.25
 30
0.0
 11
-55.250000000000021
 21
7.0
 31
0.0
  0
LINE
  5
21C8
  8
246
 10
-56.000000000000007
 20
-6.2499999999999432
 30
0.0
 11
-55.250000000000021
 21
-6.9999999999999432
 31
0.0
  0
LINE
  5
21C9
  8
246
 10
-49.000000000000021
 20
-2.9999999999999432
 30
0.0
 11
-61.000000000000007
 21
-2.9999999999999432
 31
0.0
  0
LINE
  5
21CA
  8
246
 10
-49.000000000000021
 20
3.0
 30
0.0
 11
-61.000000000000007
 21
3.0
 31
0.0
  0
LINE
  5
21CB
  8
240
 10
-61.5
 20
-9.0
 30
0.0
 11
-61.0
 21
-9.5
 31
0.0
  0
LINE
  5
21CC
  8
240
 10
-61.5
 20
-9.0
 30
0.0
 11
-61.5
 21
9.0
 31
0.0
  0
LINE
  5
21CD
  8
246
 10
-61.000000000000007
 20
-5.2499999999999432
 30
0.0
 11
-61.000000000000007
 21
5.25
 31
0.0
  0
LINE
  5
21CE
  8
246
 10
-60.0
 20
-6.2499999999999432
 30
0.0
 11
-56.000000000000007
 21
-6.2499999999999432
 31
0.0
  0
ARC
  5
21CF
  8
246
 10
-60.0
 20
-5.2499999999999432
 30
0.0
 40
1.0
 50
180.0
 51
270.0
  0
ARC
  5
21D0
  8
246
 10
-60.0
 20
5.25
 30
0.0
 40
1.0
 50
90.0
 51
180.0
  0
LINE
  5
21D1
  8
246
 10
-60.0
 20
6.25
 30
0.0
 11
-56.000000000000007
 21
6.25
 31
0.0
  0
LINE
  5
21D2
  8
240
 10
-61.0
 20
9.5
 30
0.0
 11
-61.5
 21
9.0
 31
0.0
  0
LINE
  5
21D3
  8
240
 10
-51.0
 20
10.999999999999989
 30
0.0
 11
-52.5
 21
9.5
 31
0.0
  0
LINE
  5
21D4
  8
241
 10
-22.79999999999999
 20
-10.799999999999949
 30
0.0
 11
-22.79999999999999
 21
10.80000000000001
 31
0.0
  0
LINE
  5
21D5
  8
241
 10
-21.499999999999989
 20
-10.799999999999949
 30
0.0
 11
-21.499999999999989
 21
10.80000000000001
 31
0.0
  0
LINE
  5
21D6
  8
241
 10
-18.5
 20
12.5
 30
0.0
 11
-18.5
 21
0.0
 31
0.0
  0
LINE
  5
21D7
  8
246
 10
-3.19999999999993
 20
8.75
 30
0.0
 11
-3.19999999999993
 21
10.25
 31
0.0
  0
LINE
  5
21D8
  8
246
 10
-5.600000000000021
 20
10.25
 30
0.0
 11
-5.600000000000021
 21
8.75
 31
0.0
  0
LINE
  5
21D9
  8
246
 10
-3.0
 20
10.25
 30
0.0
 11
0.0
 21
8.5179489999999873
 31
0.0
  0
LINE
  5
21DA
  8
241
 10
-15.5
 20
15.0
 30
0.0
 11
-15.5
 21
0.0
 31
0.0
  0
LINE
  5
21DB
  8
241
 10
-1.581370999999989
 20
17.000946000000049
 30
0.0
 11
-1.581370999999989
 21
-17.152317999999969
 31
0.0
  0
LINE
  5
21DC
  8
240
 10
0.0
 20
15.96004999999996
 30
0.0
 11
0.0
 21
-15.960050999999959
 31
0.0
  0
LINE
  5
21DD
  8
241
 10
-16.0
 20
13.0
 30
0.0
 11
-16.0
 21
0.0
 31
0.0
  0
LINE
  5
21DE
  8
246
 10
-5.600000000000021
 20
10.25
 30
0.0
 11
-31.0
 21
7.5803520000000608
 31
0.0
  0
LINE
  5
21DF
  8
240
 10
-22.79999999999999
 20
-10.799999999999949
 30
0.0
 11
-21.499999999999989
 21
-10.799999999999949
 31
0.0
  0
LINE
  5
21E0
  8
246
 10
-31.0
 20
-6.4999999999999432
 30
0.0
 11
0.0
 21
-6.4999999999999432
 31
0.0
  0
LINE
  5
21E1
  8
246
 10
-5.600000000000021
 20
-10.24999999999994
 30
0.0
 11
-31.0
 21
-7.5803529999999446
 31
0.0
  0
LINE
  5
21E2
  8
246
 10
-31.0
 20
6.5
 30
0.0
 11
0.0
 21
6.5
 31
0.0
  0
INSERT
  5
21E3
  8
247
  6
CONTINUOUS
  2
*X21
 10
0.0
 20
0.0
 30
0.0
1001
ACAD
1000
HATCH
1002
{
1070
    19
1000
ANSI31
1040
0.045
1040
6.2831853071795862
1000
ASC_BOUNDS
1070
     1
1070
     2
1070
    15
1005
2254
1005
2237
1005
2206
1005
2216
1005
2219
1005
21E6
1005
2251
1005
2207
1005
221A
1005
2217
1005
2218
1005
21E8
1005
2252
1005
2255
1005
2253
1000
ASC_SEEDPOINT
1011
-103.8251432109133
1021
-2.2684608731935987E+074
1031
-8.0243960805294083
1021
-17.285739415750719
1031
0.0
1000
R14_HATCH_DATA
1000
21E3
1011
1.0
1021
-2.2684608731935987E+074
1031
-8.0243960805294083
1021
0.0
1031
0.0
1011
0.0
1021
-2.2684608731935987E+074
1031
-8.0243960805294083
1021
1.0
1031
0.0
1011
0.0
1021
-2.2684608731935987E+074
1031
-8.0243960805294083
1021
0.0
1031
1.0
1040
0.0
1010
0.0
1020
0.0
1030
1.0
1000
ANSI31
1070
     0
1070
     1
1071
        1
1071
       33
1071
       15
1070
     1
1040
-45.54357939484278
1040
-8.521132653818384
1040
-45.598353107000968
1040
-8.3474319397070502
1070
     2
1040
-45.268179614569348
1040
-9.2433875976660396
1040
0.7729795932769777
1040
1.935084649241253
1040
2.313293405967598
1070
     1
1070
     2
1040
-45.981700427557627
1040
-8.6795692382910392
1040
0.1909725040197372
1040
0.0298472487257512
1040
2.8623120192823772
1070
     1
1070
     1
1040
-46.410393817450192
1040
-9.4817497192480715
1040
-46.165275104071291
1040
-8.6269241272070527
1070
     2
1040
-46.226819140936527
1040
-9.5343879638769771
1040
0.1909723699092865
1040
2.8623447390176038
1040
6.0039373926073969
1070
     1
1070
     1
1040
-46.043244464422848
1040
-9.5870262085058826
1040
-45.92645292999903
1040
-9.1797286926367434
1070
     1
1040
-46.077817065741222
1040
-9.1797286926367434
1040
-45.92645292999903
1040
-9.1797286926367434
1070
     1
1040
-46.077817065741222
1040
-9.1797286926367434
1040
-46.025666339422848
1040
-8.9978500305273652
1070
     1
1040
-46.025666339422848
1040
-8.9978500305273652
1040
-45.495884997870121
1040
-8.9978500305273652
1070
     1
1040
-45.761864001776367
1040
-9.9254259286978357
1040
-45.495884997870121
1040
-8.9978500305273652
1070
     1
1040
-45.868554980780267
1040
-9.8187418161490072
1040
-45.761864001776367
1040
-9.9254259286978357
1070
     2
1040
-46.207290942694343
1040
-9.3343269287207278
1040
0.5911056518554689
1040
2.8623356221950571
1040
5.3226236885737688
1070
     1
1070
     2
1040
-45.240864856268558
1040
-9.3654045044043208
1040
1.5468475341796859
1040
2.7088413612455078
1040
3.015838643448387
1070
     1
1070
     2
1040
-46.076910693670911
1040
-8.8796302734472903
1040
0.5910996437072754
1040
0.9327739783146625
1040
2.8623431914429092
1070
     1
1070
     2
1040
-45.268179614569348
1040
-9.2433875976660396
1040
0.954856538772583
1040
1.923870239659647
1040
2.0694663713693631
1070
     1
1071
       15
1005
2253
1005
2255
1005
2252
1005
21E8
1005
2218
1005
2217
1005
221A
1005
2207
1005
2251
1005
21E6
1005
2219
1005
2216
1005
2206
1005
2237
1005
2254
1070
     0
1070
     1
1040
6.2831853071795862
1040
0.045
1070
     0
1070
     1
1040
0.7853981633974478
1040
-103.8251432109133
1040
-17.285739415750719
1040
-0.101027881362028
1040
0.101027881362028
1070
     0
1071
        1
1040
-103.8251432109133
1040
-17.285739415750719
1040
0.0
1002
}
  0
INSERT
  5
21E4
  8
247
  6
CONTINUOUS
  2
*X22
 10
0.0
 20
0.0
 30
0.0
1001
ACAD
1000
HATCH
1002
{
1070
    19
1000
ANSI31
1040
0.045
1040
6.2831853071795862
1000
ASC_BOUNDS
1070
     1
1070
     2
1070
    10
1005
2238
1005
21E7
1005
21E5
1005
220B
1005
220A
1005
21E9
1005
21EC
1005
222F
1005
222E
1005
2230
1000
ASC_SEEDPOINT
1011
-103.8251432109133
1021
-2.2684608731935987E+074
1031
-8.0243960805294083
1021
-17.285739415750719
1031
0.0
1000
R14_HATCH_DATA
1000
21E4
1011
1.0
1021
-2.2684608731935987E+074
1031
-8.0243960805294083
1021
0.0
1031
0.0
1011
0.0
1021
-2.2684608731935987E+074
1031
-8.0243960805294083
1021
1.0
1031
0.0
1011
0.0
1021
-2.2684608731935987E+074
1031
-8.0243960805294083
1021
0.0
1031
1.0
1040
0.0
1010
0.0
1020
0.0
1030
1.0
1000
ANSI31
1070
     0
1070
     1
1071
        1
1071
       33
1071
       10
1070
     1
1040
-48.584691150213871
1040
-8.2885314880468979
1040
-48.63684187653223
1040
-8.4704101501562725
1070
     1
1040
-48.960293109442389
1040
-8.2885314880468979
1040
-48.584691150213871
1040
-8.2885314880468979
1070
     1
1040
-48.960293109442389
1040
-8.4704101501562725
1040
-48.63684187653223
1040
-8.4704101501562725
1070
     2
1040
-48.960293109442389
1040
-9.2433875976660396
1040
0.7729774475097658
1040
1.5707963267948959
1040
4.7123889803846888
1070
     1
1070
     2
1040
-48.960293109442389
1040
-9.2433875976660396
1040
0.9548561096191406
1040
1.5707963267948959
1040
4.7123889803846888
1070
     1
1070
     1
1040
-48.960293109442389
1040
-10.19824391718104
1040
-45.268179614569327
1040
-10.19824391718104
1070
     1
1040
-48.960293109442389
1040
-10.01636525975252
1040
-45.268179614569327
1040
-10.01636525975252
1070
     2
1040
-45.268179614569348
1040
-9.2433875976660396
1040
0.9548561096191406
1040
4.7123889803846888
1040
8.1117806218165374
1070
     1
1070
     2
1040
-45.268179614569348
1040
-9.2433875976660396
1040
0.7729774475097658
1040
4.7123889803846888
1040
8.1005519157032833
1070
     1
1070
     1
1040
-45.45684920075098
1040
-8.4937835632422107
1040
-45.511622912909182
1040
-8.320082849130884
1071
       10
1005
2230
1005
222E
1005
222F
1005
21EC
1005
21E9
1005
220A
1005
220B
1005
21E5
1005
21E7
1005
2238
1070
     0
1070
     1
1040
6.2831853071795862
1040
0.045
1070
     0
1070
     1
1040
0.7853981633974478
1040
-103.8251432109133
1040
-17.285739415750719
1040
-0.101027881362028
1040
0.101027881362028
1070
     0
1071
        1
1040
-103.8251432109133
1040
-17.285739415750719
1040
0.0
1002
}
  0
ARC
  5
21E5
  8
247
 10
-45.268179614569348
 20
-9.2433875976660396
 30
0.0
 40
0.9548561096191406
 50
270.0
 51
104.7707939660941
1001
ACAD
1000
ASC_BOUNDS
1002
{
1070
    19
1005
21E4
1002
}
  0
LINE
  5
21E6
  8
247
 10
-45.761864001776367
 20
-9.9254259286978357
 30
0.0
 11
-45.495884997870121
 21
-8.9978500305273652
 31
0.0
1001
ACAD
1000
ASC_BOUNDS
1002
{
1070
    19
1005
21E3
1002
}
  0
ARC
  5
21E7
  8
247
 10
-45.268179614569348
 20
-9.2433875976660396
 30
0.0
 40
0.7729774475097658
 50
270.0
 51
104.1274364964119
1001
ACAD
1000
ASC_BOUNDS
1002
{
1070
    19
1005
21E4
1002
}
  0
LINE
  5
21E8
  8
247
 10
-46.410393817450192
 20
-9.4817497192480715
 30
0.0
 11
-46.165275104071291
 21
-8.6269241272070527
 31
0.0
1001
ACAD
1000
ASC_BOUNDS
1002
{
1070
    19
1005
21E3
1002
}
  0
ARC
  5
21E9
  8
247
 10
-48.960293109442389
 20
-9.2433875976660396
 30
0.0
 40
0.9548561096191406
 50
90.0
 51
270.0
1001
ACAD
1000
ASC_BOUNDS
1002
{
1070
    19
1005
21E4
1002
}
  0
LINE
  5
21EA
  8
247
 10
-47.559330279852539
 20
-9.9254259286978357
 30
0.0
 11
-47.147322375799789
 21
-8.4885925232031472
 31
0.0
  0
LINE
  5
21EB
  8
247
 10
-48.04648003972509
 20
-9.394292010163797
 30
0.0
 11
-47.450092234166249
 21
-8.7979042046049383
 31
0.0
  0
ARC
  5
21EC
  8
247
 10
-48.960293109442389
 20
-9.2433875976660396
 30
0.0
 40
0.7729774475097658
 50
90.0
 51
270.0
1001
ACAD
1000
ASC_BOUNDS
1002
{
1070
    19
1005
21E4
1002
}
  0
LINE
  5
21ED
  8
247
 10
-48.864856250311519
 20
-9.9254259286978357
 30
0.0
 11
-48.447636706854709
 21
-8.4704101501568179
 31
0.0
  0
LINE
  5
21EE
  8
247
 10
-48.817871951705342
 20
-9.7615723966959411
 30
0.0
 11
-48.048324268851871
 21
-8.9920247138424578
 31
0.0
  0
LINE
  5
21EF
  8
247
 10
-48.736640578699159
 20
-9.4782852609656878
 30
0.0
 11
-48.099987056143249
 21
-8.8416317384097969
 31
0.0
  0
INSERT
  5
21F0
  8
247
  6
CONTINUOUS
  2
*X23
 10
0.0
 20
0.0
 30
0.0
1001
ACAD
1000
HATCH
1002
{
1070
    19
1000
ANSI31
1040
0.045
1040
6.2831853071795862
1000
R14_HATCH_DATA
1000
21F0
1011
1.0
1021
-2.2684608731935987E+074
1031
-8.0243960805294083
1021
0.0
1031
0.0
1011
0.0
1021
-2.2684608731935987E+074
1031
-8.0243960805294083
1021
1.0
1031
0.0
1011
0.0
1021
-2.2684608731935987E+074
1031
-8.0243960805294083
1021
0.0
1031
1.0
1040
0.0
1010
0.0
1020
0.0
1030
1.0
1000
ANSI31
1070
     0
1070
     0
1071
        1
1071
        7
1070
     0
1070
     1
1071
        6
1040
-46.683163745428708
1040
-8.2885314880468961
1040
-47.156180102850577
1040
-8.2885314880468961
1040
-47.213549335028333
1040
-8.4885925232031436
1040
-47.147322375799789
1040
-8.4885925232031436
1040
-47.559330279852539
1040
-9.9254259286978357
1040
-47.152534015204097
1040
-9.9254259286978357
1071
        0
1070
     0
1070
     1
1040
6.2831853071795862
1040
0.045
1070
     0
1070
     1
1040
0.7853981633974478
1040
-103.8251432109133
1040
-17.285739415750719
1040
-0.101027881362028
1040
0.101027881362028
1070
     0
1040
0.0134348504236232
1071
        1
1040
-47.108405764651181
1040
-9.0641174620461484
1040
0.0
1002
}
  0
POLYLINE
  5
21F1
  8
247
 66
     1
 10
0.0
 20
0.0
 30
0.0
 70
     1
  0
VERTEX
  5
21F2
  8
247
 10
-47.156180102850598
 20
-8.2885314880468979
 30
0.0
  0
VERTEX
  5
21F3
  8
247
 10
-47.213549335028333
 20
-8.4885925232031472
 30
0.0
  0
VERTEX
  5
21F4
  8
247
 10
-47.147322375799817
 20
-8.4885925232031472
 30
0.0
  0
VERTEX
  5
21F5
  8
247
 10
-47.55933027985256
 20
-9.9254259286978357
 30
0.0
  0
VERTEX
  5
21F6
  8
247
 10
-47.152534015204132
 20
-9.9254259286978357
 30
0.0
  0
VERTEX
  5
21F7
  8
247
 10
-46.683163745428722
 20
-8.2885314880468979
 30
0.0
  0
SEQEND
  5
21F8
  8
247
  0
POLYLINE
  5
21F9
  8
247
 66
     1
 10
0.0
 20
0.0
 30
0.0
 70
     1
1001
HATCH_DISTANCE
1040
1.0
1001
HATCH_DISPLAY
1070
     0
1001
HATCH_TYPE
1070
     7
  0
VERTEX
  5
21FA
  8
247
 10
-47.156180102850598
 20
-8.2885314880468979
 30
0.0
  0
VERTEX
  5
21FB
  8
247
 10
-47.213549335028333
 20
-8.4885925232031472
 30
0.0
  0
VERTEX
  5
21FC
  8
247
 10
-47.147322375799817
 20
-8.4885925232031472
 30
0.0
  0
VERTEX
  5
21FD
  8
247
 10
-47.55933027985256
 20
-9.9254259286978357
 30
0.0
  0
VERTEX
  5
21FE
  8
247
 10
-47.152534015204132
 20
-9.9254259286978357
 30
0.0
  0
VERTEX
  5
21FF
  8
247
 10
-46.683163745428722
 20
-8.2885314880468979
 30
0.0
  0
SEQEND
  5
2200
  8
247
  0
LINE
  5
2201
  8
247
 10
-47.152534015204097
 20
-9.9254259286978357
 30
0.0
 11
-46.683163745428708
 21
-8.2885314880468979
 31
0.0
  0
TEXT
  5
2202
  8
247
 10
-43.860095337184802
 20
-10.10113973810936
 30
0.0
 40
1.5
  1
SL22-NBS13-40
  7
YOKO
 11
-43.860095337184802
 21
-10.10113973810936
 31
0.0
 73
     1
  0
LINE
  5
2203
  8
247
 10
-48.117011749616182
 20
-9.2627679573308352
 30
0.0
 11
-47.466162825056372
 21
-8.611919032771004
 31
0.0
  0
ARC
  5
2204
  8
247
 10
-47.901485736395529
 20
-8.7432212768652562
 30
0.0
 40
0.4546936511993409
 50
287.66957754739792
 51
90.236159842671555
  0
LINE
  5
2205
  8
247
 10
-48.65540920569299
 20
-9.1949981252354291
 30
0.0
 11
-48.018758364361318
 21
-8.5583472839037782
 31
0.0
  0
ARC
  5
2206
  8
247
 10
-45.240864856268558
 20
-9.3654045044043208
 30
0.0
 40
1.5468475341796859
 50
155.20517736984041
 51
172.79482596205199
1001
ACAD
1000
ASC_BOUNDS
1002
{
1070
    19
1005
21E3
1002
}
  0
LINE
  5
2207
  8
247
 10
-46.077817065741222
 20
-9.1797286926367434
 30
0.0
 11
-46.025666339422848
 21
-8.9978500305273652
 31
0.0
1001
ACAD
1000
ASC_BOUNDS
1002
{
1070
    19
1005
21E3
1002
}
  0
LINE
  5
2208
  8
240
 10
-51.000000000000057
 20
-10.999999999999931
 30
0.0
 11
-22.999999999999929
 21
-10.99999999999994
 31
0.0
  0
LINE
  5
2209
  8
247
 10
-47.559330279852539
 20
-9.9254259286978357
 30
0.0
 11
-47.152534015204097
 21
-9.9254259286978357
 31
0.0
  0
LINE
  5
220A
  8
247
 10
-48.960293109442389
 20
-10.19824391718104
 30
0.0
 11
-45.268179614569327
 21
-10.19824391718104
 31
0.0
1001
ACAD
1000
ASC_BOUNDS
1002
{
1070
    19
1005
21E4
1002
}
  0
LINE
  5
220B
  8
247
 10
-48.960293109442389
 20
-10.01636525975252
 30
0.0
 11
-45.268179614569327
 21
-10.01636525975252
 31
0.0
1001
ACAD
1000
ASC_BOUNDS
1002
{
1070
    19
1005
21E4
1002
}
  0
LINE
  5
220C
  8
240
 10
-51.000000000000057
 20
-10.999999999999931
 30
0.0
 11
-52.5
 21
-9.5
 31
0.0
  0
ARC
  5
220D
  8
247
 10
-48.313006122137708
 20
-9.4525466858008045
 30
0.0
 40
0.2728181809186934
 50
261.66285421114878
 51
66.338192159110051
  0
LINE
  5
220E
  8
247
 10
-48.203514076041742
 20
-9.2026642100617302
 30
0.0
 11
-48.35256404697077
 21
-9.7224817343267436
 31
0.0
  0
LINE
  5
220F
  8
247
 10
-48.375558195535127
 20
-9.9254259286978357
 30
0.0
 11
-47.708204031620497
 21
-9.2580717647832351
 31
0.0
  0
LINE
  5
2210
  8
247
 10
-47.937356135579662
 20
-9.8913353941905502
 30
0.0
 11
-47.689496039236261
 21
-9.6434752978471359
 31
0.0
  0
LINE
  5
2211
  8
247
 10
-48.779669720983222
 20
-9.9254259286978357
 30
0.0
 11
-48.262450276973048
 21
-9.4082064846876641
 31
0.0
  0
LINE
  5
2212
  8
247
 10
-48.864856250311519
 20
-9.9254259286978357
 30
0.0
 11
-48.11009550812404
 21
-9.9254259286978357
 31
0.0
  0
LINE
  5
2213
  8
247
 10
-48.577613958259171
 20
-9.9254259286978357
 30
0.0
 11
-48.343677464436183
 21
-9.6914894348748728
 31
0.0
  0
ARC
  5
2214
  8
247
 10
-48.11009550812404
 20
-9.4707359253027583
 30
0.0
 40
0.4546897888183594
 50
270.0
 51
40.329840654167192
  0
LINE
  5
2215
  8
247
 10
-48.173502432811041
 20
-9.9254259286978712
 30
0.0
 11
-47.659315202395682
 21
-9.4112386982824567
 31
0.0
  0
ARC
  5
2216
  8
247
 10
-46.207290942694343
 20
-9.3343269287207278
 30
0.0
 40
0.5911056518554689
 50
163.99975070172931
 51
304.96387329163173
1001
ACAD
1000
ASC_BOUNDS
1002
{
1070
    19
1005
21E3
1002
}
  0
LINE
  5
2217
  8
247
 10
-46.043244464422848
 20
-9.5870262085058826
 30
0.0
 11
-45.92645292999903
 21
-9.1797286926367434
 31
0.0
1001
ACAD
1000
ASC_BOUNDS
1002
{
1070
    19
1005
21E3
1002
}
  0
ARC
  5
2218
  8
247
 10
-46.226819140936527
 20
-9.5343879638769771
 30
0.0
 40
0.1909723699092865
 50
164.00027305718379
 51
344.00027305718379
1001
ACAD
1000
ASC_BOUNDS
1002
{
1070
    19
1005
21E3
1002
}
  0
LINE
  5
2219
  8
247
 10
-45.868554980780267
 20
-9.8187418161490072
 30
0.0
 11
-45.761864001776367
 21
-9.9254259286978357
 31
0.0
1001
ACAD
1000
ASC_BOUNDS
1002
{
1070
    19
1005
21E3
1002
}
  0
LINE
  5
221A
  8
247
 10
-46.077817065741222
 20
-9.1797286926367434
 30
0.0
 11
-45.92645292999903
 21
-9.1797286926367434
 31
0.0
1001
ACAD
1000
ASC_BOUNDS
1002
{
1070
    19
1005
21E3
1002
}
  0
LINE
  5
221B
  8
240
 10
-22.999999999999929
 20
-10.99999999999994
 30
0.0
 11
-22.79999999999999
 21
-10.799999999999949
 31
0.0
  0
LINE
  5
221C
  8
246
 10
-48.601282999999981
 20
-2.3094009999999781
 30
0.0
 11
-48.601282999999981
 21
2.3094010000000358
 31
0.0
  0
LINE
  5
221D
  8
246
 10
-41.0
 20
6.3000000000000123
 30
0.0
 11
-41.0
 21
-6.2999999999999527
 31
0.0
  0
LINE
  5
221E
  8
246
 10
-44.69059900000002
 20
-2.3094009999999781
 30
0.0
 11
-44.69059900000002
 21
2.3094010000000358
 31
0.0
  0
LINE
  5
221F
  8
247
 10
-47.213549335028333
 20
-8.4885925232031472
 30
0.0
 11
-47.147322375799789
 21
-8.4885925232031472
 31
0.0
  0
LINE
  5
2220
  8
247
 10
-47.213549335028333
 20
-8.4885925232031472
 30
0.0
 11
-47.156180102850577
 21
-8.2885314880468979
 31
0.0
  0
LINE
  5
2221
  8
246
 10
-48.601282999999981
 20
-1.1547009999999871
 30
0.0
 11
-44.69059900000002
 21
-1.1547009999999871
 31
0.0
  0
LINE
  5
2222
  8
246
 10
-48.601282999999981
 20
-2.3094009999999781
 30
0.0
 11
-44.69059900000002
 21
-2.3094009999999781
 31
0.0
  0
LINE
  5
2223
  8
246
 10
-55.600000000000037
 20
-6.6499999999999773
 30
0.0
 11
-41.350000000000023
 21
-6.6499999999999773
 31
0.0
  0
LINE
  5
2224
  8
246
 10
-55.250000000000021
 20
-6.9999999999999432
 30
0.0
 11
-41.699999999999932
 21
-6.9999999999999432
 31
0.0
  0
ARC
  5
2225
  8
247
 10
-48.104396350409203
 20
-8.7250389038183833
 30
0.0
 40
0.2728103756904602
 50
261.6626016879294
 51
66.338155095189762
  0
LINE
  5
2226
  8
247
 10
-47.994906475068348
 20
-8.4751639985513627
 30
0.0
 11
-48.14395399397732
 21
-8.9949661049666041
 31
0.0
  0
LINE
  5
2227
  8
247
 10
-47.956322192659393
 20
-8.4959111122019078
 30
0.0
 11
-47.768745704878789
 21
-8.3083346244213079
 31
0.0
  0
LINE
  5
2228
  8
247
 10
-48.542242724921103
 20
-8.4704101501562725
 30
0.0
 11
-48.447636706854709
 21
-8.4704101501568179
 31
0.0
  0
LINE
  5
2229
  8
247
 10
-48.490091998602438
 20
-8.2885314880468979
 30
0.0
 11
-48.542242724921103
 21
-8.4704101501562725
 31
0.0
  0
LINE
  5
222A
  8
247
 10
-48.490091998602438
 20
-8.2885314880468979
 30
0.0
 11
-47.903359872291702
 21
-8.2885314880469672
 31
0.0
  0
LINE
  5
222B
  8
247
 10
-48.492946459680603
 20
-8.6284238537749491
 30
0.0
 11
-48.153054093952591
 21
-8.2885314880469672
 31
0.0
  0
LINE
  5
222C
  8
247
 10
-48.574177832686793
 20
-8.9117109895052096
 30
0.0
 11
-47.950998331228533
 21
-8.2885314880469672
 31
0.0
  0
LINE
  5
222D
  8
247
 10
-48.536988518786011
 20
-8.470410150156308
 30
0.0
 11
-48.355109856676648
 21
-8.2885314880469316
 31
0.0
  0
LINE
  5
222E
  8
247
 10
-48.960293109442389
 20
-8.2885314880468979
 30
0.0
 11
-48.584691150213871
 21
-8.2885314880468979
 31
0.0
1001
ACAD
1000
ASC_BOUNDS
1002
{
1070
    19
1005
21E4
1002
}
  0
LINE
  5
222F
  8
247
 10
-48.960293109442389
 20
-8.4704101501562725
 30
0.0
 11
-48.63684187653223
 21
-8.4704101501562725
 31
0.0
1001
ACAD
1000
ASC_BOUNDS
1002
{
1070
    19
1005
21E4
1002
}
  0
LINE
  5
2230
  8
247
 10
-48.584691150213871
 20
-8.2885314880468979
 30
0.0
 11
-48.63684187653223
 21
-8.4704101501562725
 31
0.0
1001
ACAD
1000
ASC_BOUNDS
1002
{
1070
    19
1005
21E4
1002
}
  0
LINE
  5
2231
  8
247
 10
-47.860722220970459
 20
-8.6023669032369767
 30
0.0
 11
-47.63393297084464
 21
-8.3755776531111579
 31
0.0
  0
LINE
  5
2232
  8
247
 10
-47.83741054038515
 20
-8.7811109853757099
 30
0.0
 11
-47.533054157845548
 21
-8.4767546028361167
 31
0.0
  0
LINE
  5
2233
  8
246
 10
-49.000000000000021
 20
-2.9999999999999432
 30
0.0
 11
-49.000000000000021
 21
-1.7725149999999401
 31
0.0
  0
LINE
  5
2234
  8
246
 10
-48.601282999999981
 20
-2.3094009999999781
 30
0.0
 11
-49.000000000000021
 21
-2.9999999999999432
 31
0.0
  0
LINE
  5
2235
  8
246
 10
-41.0
 20
-5.9999999999999432
 30
0.0
 11
-44.69059900000002
 21
-2.3094009999999781
 31
0.0
  0
LINE
  5
2236
  8
247
 10
-47.156180102850577
 20
-8.2885314880468979
 30
0.0
 11
-46.683163745428708
 21
-8.2885314880468979
 31
0.0
  0
ARC
  5
2237
  8
247
 10
-46.076910693670911
 20
-8.8796302734472903
 30
0.0
 40
0.5910996437072754
 50
53.444012197057553
 51
164.00018438768529
1001
ACAD
1000
ASC_BOUNDS
1002
{
1070
    19
1005
21E3
1002
}
  0
LINE
  5
2238
  8
247
 10
-45.45684920075098
 20
-8.4937835632422107
 30
0.0
 11
-45.511622912909182
 21
-8.320082849130884
 31
0.0
1001
ACAD
1000
ASC_BOUNDS
1002
{
1070
    19
1005
21E4
1002
}
  0
POLYLINE
  5
2239
  8
247
 66
     1
 10
0.0
 20
0.0
 30
0.0
 70
     1
  0
VERTEX
  5
223A
  8
247
 10
-45.456849200750987
 20
-8.4937835632422107
 30
0.0
  0
VERTEX
  5
223B
  8
247
 10
-45.511622912909203
 20
-8.320082849130884
 30
0.0
  0
VERTEX
  5
223C
  8
247
 10
-45.511622912909203
 20
-8.320082849130884
 30
0.0
  0
VERTEX
  5
223D
  8
247
 10
-45.456849200750987
 20
-8.4937835632422107
 30
0.0
  0
SEQEND
  5
223E
  8
247
  0
POLYLINE
  5
223F
  8
247
 66
     1
 10
0.0
 20
0.0
 30
0.0
 70
     1
1001
HATCH_DISTANCE
1040
1.0
1001
HATCH_DISPLAY
1070
     0
1001
HATCH_TYPE
1070
     7
  0
VERTEX
  5
2240
  8
247
 10
-45.456849200750987
 20
-8.4937835632422107
 30
0.0
  0
VERTEX
  5
2241
  8
247
 10
-45.511622912909203
 20
-8.320082849130884
 30
0.0
  0
VERTEX
  5
2242
  8
247
 10
-45.511622912909203
 20
-8.320082849130884
 30
0.0
  0
VERTEX
  5
2243
  8
247
 10
-45.456849200750987
 20
-8.4937835632422107
 30
0.0
  0
SEQEND
  5
2244
  8
247
  0
POLYLINE
  5
2245
  8
247
 66
     1
 10
0.0
 20
0.0
 30
0.0
 70
     1
  0
VERTEX
  5
2246
  8
247
 10
-45.456849200750987
 20
-8.4937835632422107
 30
0.0
  0
VERTEX
  5
2247
  8
247
 10
-45.511622912909203
 20
-8.320082849130884
 30
0.0
  0
VERTEX
  5
2248
  8
247
 10
-45.511622912909203
 20
-8.320082849130884
 30
0.0
  0
VERTEX
  5
2249
  8
247
 10
-45.456849200750987
 20
-8.4937835632422107
 30
0.0
  0
SEQEND
  5
224A
  8
247
  0
POLYLINE
  5
224B
  8
247
 66
     1
 10
0.0
 20
0.0
 30
0.0
 70
     1
1001
HATCH_DISTANCE
1040
1.0
1001
HATCH_DISPLAY
1070
     0
1001
HATCH_TYPE
1070
     7
  0
VERTEX
  5
224C
  8
247
 10
-45.456849200750987
 20
-8.4937835632422107
 30
0.0
  0
VERTEX
  5
224D
  8
247
 10
-45.511622912909203
 20
-8.320082849130884
 30
0.0
  0
VERTEX
  5
224E
  8
247
 10
-45.511622912909203
 20
-8.320082849130884
 30
0.0
  0
VERTEX
  5
224F
  8
247
 10
-45.456849200750987
 20
-8.4937835632422107
 30
0.0
  0
SEQEND
  5
2250
  8
247
  0
LINE
  5
2251
  8
247
 10
-46.025666339422848
 20
-8.9978500305273652
 30
0.0
 11
-45.495884997870121
 21
-8.9978500305273652
 31
0.0
1001
ACAD
1000
ASC_BOUNDS
1002
{
1070
    19
1005
21E3
1002
}
  0
ARC
  5
2252
  8
247
 10
-45.981700427557627
 20
-8.6795692382910392
 30
0.0
 40
0.1909725040197372
 50
1.7101213820627641
 51
163.99839835444851
1001
ACAD
1000
ASC_BOUNDS
1002
{
1070
    19
1005
21E3
1002
}
  0
LINE
  5
2253
  8
247
 10
-45.54357939484278
 20
-8.521132653818384
 30
0.0
 11
-45.598353107000968
 21
-8.3474319397070502
 31
0.0
1001
ACAD
1000
ASC_BOUNDS
1002
{
1070
    19
1005
21E3
1002
}
  0
ARC
  5
2254
  8
247
 10
-45.268179614569348
 20
-9.2433875976660396
 30
0.0
 40
0.954856538772583
 50
110.22964506332001
 51
118.5716889237176
1001
ACAD
1000
ASC_BOUNDS
1002
{
1070
    19
1005
21E3
1002
}
  0
ARC
  5
2255
  8
247
 10
-45.268179614569348
 20
-9.2433875976660396
 30
0.0
 40
0.7729795932769777
 50
110.8721834020771
 51
132.54194893738679
1001
ACAD
1000
ASC_BOUNDS
1002
{
1070
    19
1005
21E3
1002
}
  0
LINE
  5
2256
  8
246
 10
-41.699999999999932
 20
-6.9999999999999432
 30
0.0
 11
-41.0
 21
-6.2999999999999527
 31
0.0
  0
LINE
  5
2257
  8
246
 10
-48.601282999999981
 20
2.3094010000000358
 30
0.0
 11
-44.69059900000002
 21
2.3094010000000358
 31
0.0
  0
LINE
  5
2258
  8
246
 10
-48.601282999999981
 20
1.1546999999999901
 30
0.0
 11
-44.69059900000002
 21
1.1546999999999901
 31
0.0
  0
LINE
  5
2259
  8
246
 10
-55.600000000000037
 20
6.6499999999999773
 30
0.0
 11
-41.350000000000023
 21
6.6499999999999773
 31
0.0
  0
LINE
  5
225A
  8
246
 10
-55.250000000000021
 20
7.0
 30
0.0
 11
-41.699999999999932
 21
7.0
 31
0.0
  0
LINE
  5
225B
  8
246
 10
-48.601282999999981
 20
2.3094010000000358
 30
0.0
 11
-49.000000000000021
 21
3.0
 31
0.0
  0
LINE
  5
225C
  8
246
 10
-49.000000000000021
 20
3.0
 30
0.0
 11
-49.000000000000021
 21
1.772514999999997
 31
0.0
  0
LINE
  5
225D
  8
246
 10
-41.0
 20
6.0
 30
0.0
 11
-44.69059900000002
 21
2.3094010000000358
 31
0.0
  0
LINE
  5
225E
  8
246
 10
-41.0
 20
6.3000000000000123
 30
0.0
 11
-41.699999999999932
 21
7.0
 31
0.0
  0
LINE
  5
225F
  8
241
 10
-26.5
 20
-5.5452682532047213
 30
0.0
 11
-26.5
 21
5.5452682532047213
 31
0.0
  0
ARC
  5
2260
  8
241
 10
-36.000000000000362
 20
0.0
 30
0.0
 40
11.000000000000311
 50
329.72734108099752
 51
30.272641318908619
  0
LINE
  5
2261
  8
246
 10
-31.00000000000005
 20
7.5803520000000031
 30
0.0
 11
-31.00000000000005
 21
-7.5803530000000023
 31
0.0
  0
LINE
  5
2262
  8
246
 10
-5.600000000000021
 20
-10.24999999999994
 30
0.0
 11
-5.600000000000021
 21
-8.7499999999999432
 31
0.0
  0
LINE
  5
2263
  8
246
 10
-3.0
 20
-10.24999999999994
 30
0.0
 11
0.0
 21
-8.5179489999999873
 31
0.0
  0
LINE
  5
2264
  8
246
 10
-3.19999999999993
 20
-8.7499999999999432
 30
0.0
 11
-3.19999999999993
 21
-10.24999999999994
 31
0.0
  0
LINE
  5
2265
  8
241
 10
-16.0
 20
-12.99999999999994
 30
0.0
 11
-16.0
 21
0.0
 31
0.0
  0
LINE
  5
2266
  8
241
 10
-18.5
 20
-12.49999999999994
 30
0.0
 11
-18.5
 21
0.0
 31
0.0
  0
LINE
  5
2267
  8
241
 10
-15.5
 20
-14.99999999999994
 30
0.0
 11
-15.5
 21
0.0
 31
0.0
  0
LINE
  5
2268
  8
240
 10
-14.69999999999993
 20
-17.49999999999994
 30
0.0
 11
-1.581370999999989
 21
-17.49999999999994
 31
0.0
  0
LINE
  5
2269
  8
241
 10
-6.5
 20
-16.056144999999951
 30
0.0
 11
-15.5
 21
-16.056144999999951
 31
0.0
  0
LINE
  5
226A
  8
241
 10
-6.5
 20
-14.056144999999949
 30
0.0
 11
-15.5
 21
-14.056144999999949
 31
0.0
  0
LINE
  5
226B
  8
240
 10
-16.0
 20
-14.49999999999994
 30
0.0
 11
-16.0
 21
-12.99999999999994
 31
0.0
  0
LINE
  5
226C
  8
240
 10
-15.5
 20
-16.699999999999989
 30
0.0
 11
-15.5
 21
-14.99999999999994
 31
0.0
  0
LINE
  5
226D
  8
240
 10
-16.0
 20
-14.49999999999994
 30
0.0
 11
-15.5
 21
-14.99999999999994
 31
0.0
  0
ARC
  5
226E
  8
240
 10
-14.69999999999993
 20
-16.699999999999989
 30
0.0
 40
0.8
 50
180.0
 51
270.0
  0
LINE
  5
226F
  8
240
 10
-20.5
 20
-12.99999999999994
 30
0.0
 11
-16.0
 21
-12.99999999999994
 31
0.0
  0
LINE
  5
2270
  8
242
 10
-16.0
 20
-12.49999999999994
 30
0.0
 11
-18.5
 21
-12.49999999999994
 31
0.0
  0
ARC
  5
2271
  8
240
 10
-20.5
 20
-11.99999999999994
 30
0.0
 40
1.0
 50
180.0
 51
270.0
  0
LINE
  5
2272
  8
240
 10
-21.499999999999989
 20
-11.99999999999994
 30
0.0
 11
-21.499999999999989
 21
-10.799999999999949
 31
0.0
  0
LINE
  5
2273
  8
242
 10
-18.5
 20
-12.49999999999994
 30
0.0
 11
-19.0
 21
-12.99999999999994
 31
0.0
  0
LINE
  5
2274
  8
241
 10
-6.5
 20
-16.056144999999951
 30
0.0
 11
-6.5
 21
-14.056144999999949
 31
0.0
  0
LINE
  5
2275
  8
240
 10
-1.015686000000072
 20
-17.265685999999949
 30
0.0
 11
-0.2050249999999778
 21
-16.455024999999971
 31
0.0
  0
ARC
  5
2276
  8
240
 10
-1.581370999999989
 20
-16.699999999999989
 30
0.0
 40
0.8
 50
270.0
 51
315.0
  0
ARC
  5
2277
  8
240
 10
-0.6999999999999318
 20
-15.960050999999959
 30
0.0
 40
0.7
 50
315.0
 51
0.0
  0
LINE
  5
2278
  8
246
 10
-3.19999999999993
 20
-10.24999999999994
 30
0.0
 11
-3.0
 21
-10.24999999999994
 31
0.0
  0
LINE
  5
2279
  8
246
 10
-5.600000000000021
 20
8.75
 30
0.0
 11
-3.19999999999993
 21
8.75
 31
0.0
  0
LINE
  5
227A
  8
246
 10
-5.600000000000021
 20
-8.7499999999999432
 30
0.0
 11
-3.19999999999993
 21
-8.7499999999999432
 31
0.0
  0
LINE
  5
227B
  8
241
 10
-6.5
 20
2.0
 30
0.0
 11
-6.5
 21
0.0
 31
0.0
  0
LINE
  5
227C
  8
241
 10
-6.5
 20
-1.9999999999999429
 30
0.0
 11
-15.5
 21
-1.9999999999999429
 31
0.0
  0
LINE
  5
227D
  8
241
 10
-6.5
 20
-1.9999999999999429
 30
0.0
 11
-6.5
 21
0.0
 31
0.0
  0
LINE
  5
227E
  8
241
 10
-6.5
 20
2.0
 30
0.0
 11
-15.5
 21
2.0
 31
0.0
  0
LINE
  5
227F
  8
240
 10
-22.79999999999999
 20
10.80000000000001
 30
0.0
 11
-21.499999999999989
 21
10.80000000000001
 31
0.0
  0
LINE
  5
2280
  8
240
 10
-51.0
 20
10.999999999999989
 30
0.0
 11
-22.999999999999929
 21
11.0
 31
0.0
  0
LINE
  5
2281
  8
240
 10
-22.79999999999999
 20
10.80000000000001
 30
0.0
 11
-22.999999999999929
 21
11.0
 31
0.0
  0
LINE
  5
2282
  8
240
 10
-14.69999999999993
 20
17.5
 30
0.0
 11
-1.581370999999989
 21
17.5
 31
0.0
  0
LINE
  5
2283
  8
241
 10
-6.5
 20
14.05614500000001
 30
0.0
 11
-15.5
 21
14.05614500000001
 31
0.0
  0
LINE
  5
2284
  8
241
 10
-6.5
 20
16.056145000000011
 30
0.0
 11
-15.5
 21
16.056145000000011
 31
0.0
  0
LINE
  5
2285
  8
240
 10
-16.0
 20
14.5
 30
0.0
 11
-15.5
 21
15.0
 31
0.0
  0
LINE
  5
2286
  8
240
 10
-20.5
 20
12.999999999999989
 30
0.0
 11
-16.0
 21
13.0
 31
0.0
  0
LINE
  5
2287
  8
242
 10
-16.0
 20
12.5
 30
0.0
 11
-18.5
 21
12.5
 31
0.0
  0
LINE
  5
2288
  8
240
 10
-21.499999999999989
 20
10.80000000000001
 30
0.0
 11
-21.499999999999989
 21
11.999999999999989
 31
0.0
  0
ARC
  5
2289
  8
240
 10
-20.5
 20
11.999999999999989
 30
0.0
 40
1.0
 50
90.0
 51
180.0
  0
LINE
  5
228A
  8
242
 10
-18.5
 20
12.5
 30
0.0
 11
-19.0
 21
13.0
 31
0.0
  0
LINE
  5
228B
  8
240
 10
-16.0
 20
14.5
 30
0.0
 11
-16.0
 21
13.0
 31
0.0
  0
LINE
  5
228C
  8
240
 10
-15.5
 20
16.699999999999989
 30
0.0
 11
-15.5
 21
15.0
 31
0.0
  0
ARC
  5
228D
  8
240
 10
-14.69999999999993
 20
16.699999999999989
 30
0.0
 40
0.8
 50
90.0
 51
180.0
  0
LINE
  5
228E
  8
241
 10
-6.5
 20
16.056145000000011
 30
0.0
 11
-6.5
 21
14.05614500000001
 31
0.0
  0
LINE
  5
228F
  8
246
 10
-3.19999999999993
 20
10.25
 30
0.0
 11
-3.0
 21
10.25
 31
0.0
  0
LINE
  5
2290
  8
240
 10
-0.2050249999999778
 20
16.455024999999971
 30
0.0
 11
-1.015686000000072
 21
17.265685000000008
 31
0.0
  0
ARC
  5
2291
  8
240
 10
-1.581370999999989
 20
16.699999999999989
 30
0.0
 40
0.8
 50
44.999999999999922
 51
90.0
  0
ARC
  5
2292
  8
240
 10
-0.6999999999999318
 20
15.96004999999996
 30
0.0
 40
0.7
 50
0.0
 51
44.999999999999922
  0
VIEWPORT
  5
22
 67
     1
  8
0
 10
261.51769911504419
 20
148.5
 30
0.0
 40
523.0353982300885
 41
297.0
 68
     1
 69
     1
1001
ACAD
1000
MVIEW
1002
{
1070
    16
1010
0.0
1020
0.0
1030
0.0
1010
0.0
1020
0.0
1030
1.0
1040
0.0
1040
297.0
1040
261.51769911504419
1040
148.5
1040
50.0
1040
0.0
1040
0.0
1070
     0
1070
   100
1070
     1
1070
     1
1070
     0
1070
     0
1070
     0
1070
     0
1040
0.0
1040
0.0
1040
0.0
1040
1.0
1040
1.0
1040
10.0
1040
10.0
1070
     0
1002
{
1002
}
1002
}
1001
GENIUS_GENODEF_13
1002
{
1000
HIER
1070
     0
1002
}
1002
{
1000
MANEDIT
1070
     0
1002
}
1002
{
1000
NOSEL
1070
     0
1002
}
1002
{
1000
BEHIND
1070
     0
1002
}
1002
{
1000
OTHER
1070
     0
1002
}
1002
{
1000
REACTOR
1002
}
1001
GENIUS_GENOBJ-N-SDF_13
1002
{
1000
OWNER
1000
GEN
1002
}
1001
GENIUS_GENSCREG_15
1000
PF
1040
1.0
1000
DF
1040
1.0
1000
MIN
1011
0.0
1021
-2.2684608731935987E+074
1031
-8.0243960805294083
1021
0.0
1031
0.0
1000
MAX
1011
523.0353982300885
1021
-2.2684608731935987E+074
1031
-8.0243960805294083
1021
297.0
1031
0.0
1000
FLAGS
1070
     2
  0
ENDSEC
  0
EOF
