  0
SECTION
  2
HEADER
  9
$ACADVER
  1
AC1014
  9
$ACADMAINTVER
 70
     9
  9
$DWGCODEPAGE
  3
ANSI_932
  9
$INSBASE
 10
0.0
 20
0.0
 30
0.0
  9
$EXTMIN
 10
-114.0125417676899
 20
-36.00750675146412
 30
-0.0015258207003583
  9
$EXTMAX
 10
22.01330630086988
 20
54.00531044975537
 30
0.0000000349246037
  9
$LIMMIN
 10
0.0
 20
0.0
  9
$LIMMAX
 10
297.0
 20
210.0
  9
$ORTHOMODE
 70
     0
  9
$REGENMODE
 70
     1
  9
$FILLMODE
 70
     1
  9
$QTEXTMODE
 70
     0
  9
$MIRRTEXT
 70
     1
  9
$DRAGMODE
 70
     2
  9
$LTSCALE
 40
10.0
  9
$OSMODE
 70
   613
  9
$ATTMODE
 70
     1
  9
$TEXTSIZE
 40
3.0
  9
$TRACEWID
 40
1.0
  9
$TEXTSTYLE
  7
YOKO
  9
$CLAYER
  8
240
  9
$CELTYPE
  6
BYLAYER
  9
$CECOLOR
 62
   256
  9
$CELTSCALE
 40
1.0
  9
$DELOBJ
 70
     1
  9
$DISPSILH
 70
     0
  9
$DIMSCALE
 40
1.0
  9
$DIMASZ
 40
2.229999999999999
  9
$DIMEXO
 40
0.5
  9
$DIMDLI
 40
2.5
  9
$DIMRND
 40
0.0
  9
$DIMDLE
 40
0.0
  9
$DIMEXE
 40
1.0
  9
$DIMTP
 40
0.0
  9
$DIMTM
 40
0.0
  9
$DIMTXT
 40
3.0
  9
$DIMCEN
 40
0.0
  9
$DIMTSZ
 40
0.0
  9
$DIMTOL
 70
     0
  9
$DIMLIM
 70
     0
  9
$DIMTIH
 70
     0
  9
$DIMTOH
 70
     0
  9
$DIMSE1
 70
     0
  9
$DIMSE2
 70
     0
  9
$DIMTAD
 70
     3
  9
$DIMZIN
 70
     8
  9
$DIMBLK
  1
OPEN
  9
$DIMASO
 70
     1
  9
$DIMSHO
 70
     1
  9
$DIMPOST
  1

  9
$DIMAPOST
  1

  9
$DIMALT
 70
     0
  9
$DIMALTD
 70
     2
  9
$DIMALTF
 40
25.4
  9
$DIMLFAC
 40
1.0
  9
$DIMTOFL
 70
     1
  9
$DIMTVP
 40
0.0
  9
$DIMTIX
 70
     0
  9
$DIMSOXD
 70
     0
  9
$DIMSAH
 70
     0
  9
$DIMBLK1
  1

  9
$DIMBLK2
  1

  9
$DIMSTYLE
  2
BIGT
  9
$DIMCLRD
 70
   256
  9
$DIMCLRE
 70
   256
  9
$DIMCLRT
 70
    40
  9
$DIMTFAC
 40
1.0
  9
$DIMGAP
 40
1.0
  9
$DIMJUST
 70
     0
  9
$DIMSD1
 70
     0
  9
$DIMSD2
 70
     0
  9
$DIMTOLJ
 70
     1
  9
$DIMTZIN
 70
     8
  9
$DIMALTZ
 70
     0
  9
$DIMALTTZ
 70
     0
  9
$DIMFIT
 70
     2
  9
$DIMUPT
 70
     0
  9
$DIMUNIT
 70
     2
  9
$DIMDEC
 70
     3
  9
$DIMTDEC
 70
     3
  9
$DIMALTU
 70
     2
  9
$DIMALTTD
 70
     2
  9
$DIMTXSTY
  7
STANDARD
  9
$DIMAUNIT
 70
     0
  9
$LUNITS
 70
     2
  9
$LUPREC
 70
     3
  9
$SKETCHINC
 40
1.0
  9
$FILLETRAD
 40
0.5
  9
$AUNITS
 70
     0
  9
$AUPREC
 70
     3
  9
$MENU
  1
.
  9
$ELEVATION
 40
0.0
  9
$PELEVATION
 40
0.0
  9
$THICKNESS
 40
0.0
  9
$LIMCHECK
 70
     0
  9
$BLIPMODE
 70
     0
  9
$CHAMFERA
 40
0.5
  9
$CHAMFERB
 40
0.5
  9
$CHAMFERC
 40
0.0
  9
$CHAMFERD
 40
0.0
  9
$SKPOLY
 70
     0
  9
$TDCREATE
 40
2452180.683445092
  9
$TDUPDATE
 40
2452737.393968819
  9
$TDINDWG
 40
0.1006696759
  9
$TDUSRTIMER
 40
0.1006696759
  9
$USRTIMER
 70
     1
  9
$ANGBASE
 50
0.0
  9
$ANGDIR
 70
     0
  9
$PDMODE
 70
    35
  9
$PDSIZE
 40
2.0
  9
$PLINEWID
 40
0.0
  9
$COORDS
 70
     2
  9
$SPLFRAME
 70
     0
  9
$SPLINETYPE
 70
     6
  9
$SPLINESEGS
 70
     8
  9
$ATTDIA
 70
     0
  9
$ATTREQ
 70
     0
  9
$HANDLING
 70
-16383
  9
$HANDSEED
  5
21BE
  9
$SURFTAB1
 70
     6
  9
$SURFTAB2
 70
     6
  9
$SURFTYPE
 70
     6
  9
$SURFU
 70
     6
  9
$SURFV
 70
     6
  9
$UCSNAME
  2

  9
$UCSORG
 10
0.0
 20
0.0
 30
0.0
  9
$UCSXDIR
 10
1.0
 20
0.0
 30
0.0
  9
$UCSYDIR
 10
0.0
 20
1.0
 30
0.0
  9
$PUCSNAME
  2

  9
$PUCSORG
 10
0.0
 20
0.0
 30
0.0
  9
$PUCSXDIR
 10
1.0
 20
0.0
 30
0.0
  9
$PUCSYDIR
 10
0.0
 20
1.0
 30
0.0
  9
$USERI1
 70
     1
  9
$USERI2
 70
     0
  9
$USERI3
 70
     0
  9
$USERI4
 70
     0
  9
$USERI5
 70
     0
  9
$USERR1
 40
0.0
  9
$USERR2
 40
0.0
  9
$USERR3
 40
0.0
  9
$USERR4
 40
0.0
  9
$USERR5
 40
0.0
  9
$WORLDVIEW
 70
     1
  9
$SHADEDGE
 70
     3
  9
$SHADEDIF
 70
    70
  9
$TILEMODE
 70
     1
  9
$MAXACTVP
 70
    16
  9
$PINSBASE
 10
0.0
 20
0.0
 30
0.0
  9
$PLIMCHECK
 70
     0
  9
$PEXTMIN
 10
1.000000000000000E+20
 20
1.000000000000000E+20
 30
1.000000000000000E+20
  9
$PEXTMAX
 10
-1.000000000000000E+20
 20
-1.000000000000000E+20
 30
-1.000000000000000E+20
  9
$PLIMMIN
 10
0.0
 20
0.0
  9
$PLIMMAX
 10
420.0
 20
297.0
  9
$UNITMODE
 70
     0
  9
$VISRETAIN
 70
     0
  9
$PLINEGEN
 70
     0
  9
$PSLTSCALE
 70
     1
  9
$TREEDEPTH
 70
  3020
  9
$PICKSTYLE
 70
     0
  9
$CMLSTYLE
  2
STANDARD
  9
$CMLJUST
 70
     0
  9
$CMLSCALE
 40
1.0
  9
$PROXYGRAPHICS
 70
     1
  9
$MEASUREMENT
 70
     1
  0
ENDSEC
  0
SECTION
  2
CLASSES
  0
CLASS
  1
XRECORD
  2
AcDbXrecord
  3
AutoCAD 2000
 90
        0
280
     0
281
     0
  0
CLASS
  1
ACDBDICTIONARYWDFLT
  2
AcDbDictionaryWithDefault
  3
AutoCAD 2000
 90
        0
280
     0
281
     0
  0
CLASS
  1
ACDBPLACEHOLDER
  2
AcDbPlaceHolder
  3
AutoCAD 2000
 90
        0
280
     0
281
     0
  0
CLASS
  1
LAYOUT
  2
AcDbLayout
  3
AutoCAD 2000
 90
        0
280
     0
281
     0
  0
CLASS
  1
DICTIONARYVAR
  2
AcDbDictionaryVar
  3
AutoCAD 2000
 90
        0
280
     0
281
     0
  0
CLASS
  1
LONG_TRANSACTION
  2
AcDbLongTransaction
  3
AutoCAD 2000
 90
        0
280
     0
281
     0
  0
CLASS
  1
LWPOLYLINE
  2
AcDbPolyline
  3
AutoCAD 2000
 90
        0
280
     0
281
     1
  0
CLASS
  1
HATCH
  2
AcDbHatch
  3
AutoCAD 2000
 90
        0
280
     0
281
     1
  0
CLASS
  1
XRECORD
  2
AcDbXrecord
  3
AutoCAD 2000
 90
        0
280
     0
281
     0
  0
ENDSEC
  0
SECTION
  2
TABLES
  0
TABLE
  2
VPORT
  5
8
330
0
100
AcDbSymbolTable
 70
     2
  0
VPORT
  5
218F
330
8
100
AcDbSymbolTableRecord
100
AcDbViewportTableRecord
  2
*ACTIVE
 70
     0
 10
0.0
 20
0.0
 11
1.0
 21
1.0
 12
-45.99961773341004
 22
8.998901849145624
 13
0.0
 23
0.0
 14
7.0
 24
7.0
 15
7.0
 25
7.0
 16
0.0
 26
0.0
 36
1.0
 17
0.0
 27
0.0
 37
0.0
 40
96.34345897282406
 41
1.419235511713933
 42
50.0
 43
0.0
 44
0.0
 50
0.0
 51
0.0
 71
     0
 72
  2000
 73
     1
 74
     0
 75
     0
 76
     1
 77
     0
 78
     0
  0
ENDTAB
  0
TABLE
  2
LTYPE
  5
5
330
0
100
AcDbSymbolTable
 70
     3
  0
LTYPE
  5
14
330
5
100
AcDbSymbolTableRecord
100
AcDbLinetypeTableRecord
  2
BYBLOCK
 70
     0
  3

 72
    65
 73
     0
 40
0.0
  0
LTYPE
  5
15
330
5
100
AcDbSymbolTableRecord
100
AcDbLinetypeTableRecord
  2
BYLAYER
 70
     0
  3

 72
    65
 73
     0
 40
0.0
  0
LTYPE
  5
16
330
5
100
AcDbSymbolTableRecord
100
AcDbLinetypeTableRecord
  2
CONTINUOUS
 70
     0
  3
Solid line
 72
    65
 73
     0
 40
0.0
  0
LTYPE
  5
258
330
5
100
AcDbSymbolTableRecord
100
AcDbLinetypeTableRecord
  2
CENTER2
 70
     0
  3
___ _ ___ _ ___ _ ___ _ ___ _ ___ _ ___ _ ___ _
 72
    65
 73
     4
 40
1.125
 49
0.75
 74
     0
 49
-0.125
 74
     0
 49
0.125
 74
     0
 49
-0.125
 74
     0
  0
LTYPE
  5
25D
330
5
100
AcDbSymbolTableRecord
100
AcDbLinetypeTableRecord
  2
PHANTOM2
 70
     0
  3
___ _ _ ___ _ _ ___ _ _ ___ _ _ ___ _ _ ___ _ _
 72
    65
 73
     6
 40
1.25
 49
0.625
 74
     0
 49
-0.125
 74
     0
 49
0.125
 74
     0
 49
-0.125
 74
     0
 49
0.125
 74
     0
 49
-0.125
 74
     0
  0
ENDTAB
  0
TABLE
  2
LAYER
  5
2
330
0
100
AcDbSymbolTable
 70
    10
  0
LAYER
  5
F
330
2
100
AcDbSymbolTableRecord
100
AcDbLayerTableRecord
  2
0
 70
     0
 62
     7
  6
CONTINUOUS
  0
LAYER
  5
1AA
330
2
100
AcDbSymbolTableRecord
100
AcDbLayerTableRecord
  2
240
 70
     0
 62
     4
  6
CONTINUOUS
  0
LAYER
  5
1AB
330
2
100
AcDbSymbolTableRecord
100
AcDbLayerTableRecord
  2
241
 70
     0
 62
   211
  6
CONTINUOUS
  0
LAYER
  5
1AC
330
2
100
AcDbSymbolTableRecord
100
AcDbLayerTableRecord
  2
242
 70
     0
 62
     3
  6
CONTINUOUS
  0
LAYER
  5
1AF
330
2
100
AcDbSymbolTableRecord
100
AcDbLayerTableRecord
  2
245
 70
     0
 62
     2
  6
CENTER2
  0
LAYER
  5
21A
330
2
100
AcDbSymbolTableRecord
100
AcDbLayerTableRecord
  2
246
 70
     0
 62
     3
  6
PHANTOM2
  0
LAYER
  5
21B
330
2
100
AcDbSymbolTableRecord
100
AcDbLayerTableRecord
  2
247
 70
     0
 62
    60
  6
CONTINUOUS
  0
LAYER
  5
21E
330
2
100
AcDbSymbolTableRecord
100
AcDbLayerTableRecord
  2
250
 70
     0
 62
     3
  6
CONTINUOUS
  0
LAYER
  5
5C4
330
2
100
AcDbSymbolTableRecord
100
AcDbLayerTableRecord
  2
DEFPOINTS
 70
     0
 62
     7
  6
CONTINUOUS
  0
ENDTAB
  0
TABLE
  2
STYLE
  5
3
330
0
100
AcDbSymbolTable
 70
     2
  0
STYLE
  5
10
330
3
100
AcDbSymbolTableRecord
100
AcDbTextStyleTableRecord
  2
STANDARD
 70
     0
 40
0.0
 41
1.0
 50
0.0
 71
     0
 42
3.0
  3
romans.shx
  4
BIGFONT.SHX
  0
STYLE
  5
339
330
3
100
AcDbSymbolTableRecord
100
AcDbTextStyleTableRecord
  2
YOKO
 70
     0
 40
0.0
 41
1.0
 50
0.0
 71
     0
 42
3.0
  3
romans.shx
  4
extfont.shx
  0
ENDTAB
  0
TABLE
  2
VIEW
  5
6
330
0
100
AcDbSymbolTable
 70
     0
  0
ENDTAB
  0
TABLE
  2
UCS
  5
7
330
0
100
AcDbSymbolTable
 70
     0
  0
ENDTAB
  0
TABLE
  2
APPID
  5
9
330
0
100
AcDbSymbolTable
 70
     9
  0
APPID
  5
11
330
9
100
AcDbSymbolTableRecord
100
AcDbRegAppTableRecord
  2
ACAD
 70
     0
  0
APPID
  5
1B1
330
9
100
AcDbSymbolTableRecord
100
AcDbRegAppTableRecord
  2
GLOBAL
 70
     0
  0
APPID
  5
2A4
330
9
100
AcDbSymbolTableRecord
100
AcDbRegAppTableRecord
  2
DETAIL
 70
     0
  0
APPID
  5
5FD
330
9
100
AcDbSymbolTableRecord
100
AcDbRegAppTableRecord
  2
GRPNAME
 70
     0
  0
APPID
  5
5FE
330
9
100
AcDbSymbolTableRecord
100
AcDbRegAppTableRecord
  2
GPARA
 70
     0
  0
APPID
  5
9C6
330
9
100
AcDbSymbolTableRecord
100
AcDbRegAppTableRecord
  2
ITEMNAME
 70
     0
  0
APPID
  5
9C7
330
9
100
AcDbSymbolTableRecord
100
AcDbRegAppTableRecord
  2
HATCH_TYPE
 70
     0
  0
APPID
  5
9C8
330
9
100
AcDbSymbolTableRecord
100
AcDbRegAppTableRecord
  2
HATCH_DISPLAY
 70
     0
  0
APPID
  5
9C9
330
9
100
AcDbSymbolTableRecord
100
AcDbRegAppTableRecord
  2
HATCH_DISTANCE
 70
     0
  0
ENDTAB
  0
TABLE
  2
DIMSTYLE
  5
A
330
0
100
AcDbSymbolTable
 70
     2
  0
DIMSTYLE
105
48F
330
A
100
AcDbSymbolTableRecord
100
AcDbDimStyleTableRecord
  2
STANDARD
 70
     0
  3

  4

  5

  6

  7

 40
1.0
 41
2.0
 42
2.0
 43
3.75
 44
2.0
 45
0.0
 46
0.0
 47
0.0
 48
0.0
140
4.0
141
0.09
142
0.0
143
25.4
144
1.0
145
0.0
146
1.0
147
1.0
 71
     0
 72
     0
 73
     1
 74
     1
 75
     0
 76
     0
 77
     0
 78
     8
170
     0
171
     2
172
     0
173
     1
174
     0
175
     0
176
   256
177
   256
178
   256
270
     2
271
     3
272
     4
273
     2
274
     2
340
10
275
     0
280
     0
281
     0
282
     0
283
     1
284
     8
285
     0
286
     0
287
     3
288
     0
  0
DIMSTYLE
105
59A
102
{ACAD_REACTORS
330
13C3
330
13C4
330
13C5
330
1E91
330
1EA1
330
1EAE
330
1EBD
102
}
330
A
100
AcDbSymbolTableRecord
100
AcDbDimStyleTableRecord
  2
BIGT
 70
     0
  3

  4

  5
OPEN
  6

  7

 40
1.0
 41
2.229999999999999
 42
0.5
 43
2.5
 44
1.0
 45
0.0
 46
0.0
 47
0.0
 48
0.0
140
3.5
141
0.0
142
0.0
143
25.4
144
1.0
145
0.0
146
1.0
147
1.0
 71
     0
 72
     0
 73
     0
 74
     0
 75
     0
 76
     0
 77
     3
 78
     9
170
     0
171
     2
172
     1
173
     0
174
     0
175
     0
176
   256
177
   256
178
    40
270
     2
271
     3
272
     3
273
     2
274
     2
340
10
275
     0
280
     0
281
     0
282
     0
283
     1
284
     8
285
     0
286
     0
287
     2
288
     0
  0
ENDTAB
  0
TABLE
  2
BLOCK_RECORD
  5
1
330
0
100
AcDbSymbolTable
 70
     9
  0
BLOCK_RECORD
  5
1A
102
{ACAD_XDICTIONARY
360
21B3
102
}
330
1
100
AcDbSymbolTableRecord
100
AcDbBlockTableRecord
  2
*MODEL_SPACE
  0
BLOCK_RECORD
  5
17
102
{ACAD_XDICTIONARY
360
21B1
102
}
330
1
100
AcDbSymbolTableRecord
100
AcDbBlockTableRecord
  2
*PAPER_SPACE
  0
BLOCK_RECORD
  5
594
330
1
100
AcDbSymbolTableRecord
100
AcDbBlockTableRecord
  2
_OPEN
  0
BLOCK_RECORD
  5
13F6
330
1
100
AcDbSymbolTableRecord
100
AcDbBlockTableRecord
  2
*D1
  0
BLOCK_RECORD
  5
1402
330
1
100
AcDbSymbolTableRecord
100
AcDbBlockTableRecord
  2
*D2
  0
BLOCK_RECORD
  5
140E
330
1
100
AcDbSymbolTableRecord
100
AcDbBlockTableRecord
  2
*D3
  0
BLOCK_RECORD
  5
1E92
330
1
100
AcDbSymbolTableRecord
100
AcDbBlockTableRecord
  2
*D4
  0
BLOCK_RECORD
  5
1EA2
330
1
100
AcDbSymbolTableRecord
100
AcDbBlockTableRecord
  2
*D5
  0
BLOCK_RECORD
  5
1EAF
330
1
100
AcDbSymbolTableRecord
100
AcDbBlockTableRecord
  2
*D6
  0
BLOCK_RECORD
  5
1EBE
330
1
100
AcDbSymbolTableRecord
100
AcDbBlockTableRecord
  2
*D7
  0
BLOCK_RECORD
  5
20B6
330
1
100
AcDbSymbolTableRecord
100
AcDbBlockTableRecord
  2
A$C78A13EAD
  0
ENDTAB
  0
ENDSEC
  0
SECTION
  2
BLOCKS
  0
BLOCK
  5
1B
330
1A
100
AcDbEntity
  8
0
100
AcDbBlockBegin
  2
*MODEL_SPACE
 70
     0
 10
0.0
 20
0.0
 30
0.0
  3
*MODEL_SPACE
  1

  0
ENDBLK
  5
1C
330
1A
100
AcDbEntity
  8
0
100
AcDbBlockEnd
  0
BLOCK
  5
18
330
17
100
AcDbEntity
 67
     1
  8
0
100
AcDbBlockBegin
  2
*PAPER_SPACE
 70
     0
 10
0.0
 20
0.0
 30
0.0
  3
*PAPER_SPACE
  1

  0
ENDBLK
  5
19
330
17
100
AcDbEntity
 67
     1
  8
0
100
AcDbBlockEnd
  0
BLOCK
  5
598
330
594
100
AcDbEntity
  8
0
100
AcDbBlockBegin
  2
_OPEN
 70
     0
 10
0.0
 20
0.0
 30
0.0
  3
_OPEN
  1

  0
LINE
  5
595
330
594
100
AcDbEntity
  8
0
  6
BYBLOCK
 62
     0
100
AcDbLine
 10
-1.0
 20
0.1666666666666666
 30
0.0
 11
0.0
 21
0.0
 31
0.0
  0
LINE
  5
596
330
594
100
AcDbEntity
  8
0
  6
BYBLOCK
 62
     0
100
AcDbLine
 10
-1.0
 20
-0.1666666666666666
 30
0.0
 11
0.0
 21
0.0
 31
0.0
  0
LINE
  5
597
330
594
100
AcDbEntity
  8
0
  6
BYBLOCK
 62
     0
100
AcDbLine
 10
0.0
 20
0.0
 30
0.0
 11
-1.0
 21
0.0
 31
0.0
  0
ENDBLK
  5
599
330
594
100
AcDbEntity
  8
0
100
AcDbBlockEnd
  0
BLOCK
  5
1400
330
13F6
100
AcDbEntity
  8
0
100
AcDbBlockBegin
  2
*D1
 70
     1
 10
0.0
 20
0.0
 30
0.0
  3
*D1
  1

  0
LINE
  5
17CD
330
13F6
100
AcDbEntity
  8
250
  6
CONTINUOUS
100
AcDbLine
 10
-0.6899499999999535
 20
-14.99999999999994
 30
0.0
 11
21.99999999999999
 21
-14.99999999999995
 31
0.0
  0
LINE
  5
17CE
330
13F6
100
AcDbEntity
  8
250
  6
CONTINUOUS
100
AcDbLine
 10
-0.6899499999999535
 20
15.0
 30
0.0
 11
22.0
 21
14.99999999999999
 31
0.0
  0
LINE
  5
17CF
330
13F6
100
AcDbEntity
  8
250
  6
CONTINUOUS
100
AcDbLine
 10
20.99999999999999
 20
-12.76999999999995
 30
0.0
 11
21.0
 21
12.76999999999999
 31
0.0
  0
INSERT
  5
17D0
330
13F6
100
AcDbEntity
  8
250
  6
CONTINUOUS
100
AcDbBlockReference
  2
_OPEN
 10
20.99999999999999
 20
-14.99999999999995
 30
0.0
 41
2.229999999999999
 42
2.229999999999999
 43
2.229999999999999
 50
270.0
  0
INSERT
  5
17D1
330
13F6
100
AcDbEntity
  8
250
  6
CONTINUOUS
100
AcDbBlockReference
  2
_OPEN
 10
21.0
 20
14.99999999999999
 30
0.0
 41
2.229999999999999
 42
2.229999999999999
 43
2.229999999999999
 50
90.0
  0
MTEXT
  5
17D2
330
13F6
100
AcDbEntity
  8
250
  6
CONTINUOUS
 62
    40
100
AcDbMText
 10
18.49999999999999
 20
0.0000000000000257
 30
0.0
 40
3.0
 41
0.0
 71
     5
 72
     1
  1
\A1;{\H3;\U+2205}30
 11
0.0000000000000001
 21
1.0
 31
0.0
1001
ACAD
1000
MTEXTBEGIN
1070
    73
1070
     1
1070
    44
1040
1.0
1070
    74
1070
     0
1000
MTEXTEND
  0
POINT
  5
17D3
330
13F6
100
AcDbEntity
  8
DEFPOINTS
  6
CONTINUOUS
 62
     0
100
AcDbPoint
 10
-1.189949999999953
 20
-14.99999999999994
 30
0.0
  0
POINT
  5
17D4
330
13F6
100
AcDbEntity
  8
DEFPOINTS
  6
CONTINUOUS
 62
     0
100
AcDbPoint
 10
-1.189949999999953
 20
15.0
 30
0.0
  0
POINT
  5
17D5
330
13F6
100
AcDbEntity
  8
DEFPOINTS
  6
CONTINUOUS
 62
     0
100
AcDbPoint
 10
21.0
 20
14.99999999999999
 30
0.0
  0
ENDBLK
  5
1401
330
13F6
100
AcDbEntity
  8
0
100
AcDbBlockEnd
  0
BLOCK
  5
140C
330
1402
100
AcDbEntity
  8
0
100
AcDbBlockBegin
  2
*D2
 70
     1
 10
0.0
 20
0.0
 30
0.0
  3
*D2
  1

  0
LINE
  5
1447
330
1402
100
AcDbEntity
  8
250
  6
CONTINUOUS
100
AcDbLine
 10
-40.0
 20
-5.5
 30
0.0
 11
-40.0
 21
-36.0
 31
0.0
  0
LINE
  5
1448
330
1402
100
AcDbEntity
  8
250
  6
CONTINUOUS
100
AcDbLine
 10
0.0
 20
-14.35147199999994
 30
0.0
 11
-0.0000000000000014
 21
-36.0
 31
0.0
  0
LINE
  5
1449
330
1402
100
AcDbEntity
  8
250
  6
CONTINUOUS
100
AcDbLine
 10
-37.77
 20
-35.0
 30
0.0
 11
-2.230000000000001
 21
-35.0
 31
0.0
  0
INSERT
  5
144A
330
1402
100
AcDbEntity
  8
250
  6
CONTINUOUS
100
AcDbBlockReference
  2
_OPEN
 10
-40.0
 20
-35.0
 30
0.0
 41
2.229999999999999
 42
2.229999999999999
 43
2.229999999999999
 50
180.0
  0
INSERT
  5
144B
330
1402
100
AcDbEntity
  8
250
  6
CONTINUOUS
100
AcDbBlockReference
  2
_OPEN
 10
-0.0000000000000013
 20
-35.0
 30
0.0
 41
2.229999999999999
 42
2.229999999999999
 43
2.229999999999999
  0
MTEXT
  5
144C
330
1402
100
AcDbEntity
  8
250
  6
CONTINUOUS
 62
    40
100
AcDbMText
 10
-20.0
 20
-32.5
 30
0.0
 40
3.0
 41
0.0
 71
     5
 72
     1
  1
\A1;35～45
1001
ACAD
1000
MTEXTBEGIN
1070
    73
1070
     1
1070
    44
1040
1.0
1070
    74
1070
     0
1000
MTEXTEND
  0
POINT
  5
144D
330
1402
100
AcDbEntity
  8
DEFPOINTS
  6
CONTINUOUS
 62
     0
100
AcDbPoint
 10
-40.0
 20
-5.0
 30
0.0
  0
POINT
  5
144E
330
1402
100
AcDbEntity
  8
DEFPOINTS
  6
CONTINUOUS
 62
     0
100
AcDbPoint
 10
0.0
 20
-13.85147199999994
 30
0.0
  0
POINT
  5
144F
330
1402
100
AcDbEntity
  8
DEFPOINTS
  6
CONTINUOUS
 62
     0
100
AcDbPoint
 10
-0.0000000000000013
 20
-35.0
 30
0.0
  0
ENDBLK
  5
140D
330
1402
100
AcDbEntity
  8
0
100
AcDbBlockEnd
  0
BLOCK
  5
1418
330
140E
100
AcDbEntity
  8
0
100
AcDbBlockBegin
  2
*D3
 70
     1
 10
0.0
 20
0.0
 30
0.0
  3
*D3
  1

  0
LINE
  5
21B5
330
140E
100
AcDbEntity
  8
250
  6
CONTINUOUS
100
AcDbLine
 10
0.5
 20
-5.0
 30
0.0
 11
15.0
 21
-5.000000000000004
 31
0.0
  0
LINE
  5
21B6
330
140E
100
AcDbEntity
  8
250
  6
CONTINUOUS
100
AcDbLine
 10
0.5
 20
5.0
 30
0.0
 11
15.0
 21
4.999999999999995
 31
0.0
  0
LINE
  5
21B7
330
140E
100
AcDbEntity
  8
250
  6
CONTINUOUS
100
AcDbLine
 10
14.0
 20
-2.770000000000004
 30
0.0
 11
14.0
 21
2.769999999999996
 31
0.0
  0
MTEXT
  5
21B8
330
140E
100
AcDbEntity
  8
250
  6
CONTINUOUS
 62
    40
100
AcDbMText
 10
11.27464379319485
 20
0.730192865609638
 30
0.0
 40
3.0
 41
0.0
 71
     5
 72
     1
  1
\A1;MAX.%%c10
 11
0.0000000000000001
 21
1.0
 31
0.0
  0
INSERT
  5
21B9
330
140E
100
AcDbEntity
  8
250
  6
CONTINUOUS
100
AcDbBlockReference
  2
_OPEN
 10
14.0
 20
-5.000000000000004
 30
0.0
 41
2.229999999999999
 42
2.229999999999999
 43
2.229999999999999
 50
270.0
  0
INSERT
  5
21BA
330
140E
100
AcDbEntity
  8
250
  6
CONTINUOUS
100
AcDbBlockReference
  2
_OPEN
 10
14.0
 20
4.999999999999995
 30
0.0
 41
2.229999999999999
 42
2.229999999999999
 43
2.229999999999999
 50
90.0
  0
POINT
  5
21BB
330
140E
100
AcDbEntity
  8
DEFPOINTS
  6
CONTINUOUS
 62
     0
100
AcDbPoint
 10
0.0
 20
-5.0
 30
0.0
  0
POINT
  5
21BC
330
140E
100
AcDbEntity
  8
DEFPOINTS
  6
CONTINUOUS
 62
     0
100
AcDbPoint
 10
0.0
 20
5.0
 30
0.0
  0
POINT
  5
21BD
330
140E
100
AcDbEntity
  8
DEFPOINTS
  6
CONTINUOUS
 62
     0
100
AcDbPoint
 10
14.0
 20
4.999999999999995
 30
0.0
  0
ENDBLK
  5
1419
330
140E
100
AcDbEntity
  8
0
100
AcDbBlockEnd
  0
BLOCK
  5
1E9C
330
1E92
100
AcDbEntity
  8
0
100
AcDbBlockBegin
  2
*D4
 70
     1
 10
0.0
 20
0.0
 30
0.0
  3
*D4
  1

  0
LINE
  5
2098
330
1E92
100
AcDbEntity
  8
250
  6
CONTINUOUS
100
AcDbLine
 10
-98.0
 20
9.500000000000001
 30
0.0
 11
-98.0
 21
36.0
 31
0.0
  0
LINE
  5
2099
330
1E92
100
AcDbEntity
  8
250
  6
CONTINUOUS
100
AcDbLine
 10
0.0
 20
14.35147200000005
 30
0.0
 11
0.0000000000000014
 21
36.0
 31
0.0
  0
LINE
  5
209A
330
1E92
100
AcDbEntity
  8
250
  6
CONTINUOUS
100
AcDbLine
 10
-95.76999999999999
 20
35.0
 30
0.0
 11
-2.229999999999998
 21
35.0
 31
0.0
  0
INSERT
  5
209B
330
1E92
100
AcDbEntity
  8
250
  6
CONTINUOUS
100
AcDbBlockReference
  2
_OPEN
 10
-98.0
 20
35.0
 30
0.0
 41
2.229999999999999
 42
2.229999999999999
 43
2.229999999999999
 50
180.0
  0
INSERT
  5
209C
330
1E92
100
AcDbEntity
  8
250
  6
CONTINUOUS
100
AcDbBlockReference
  2
_OPEN
 10
0.0000000000000013
 20
35.0
 30
0.0
 41
2.229999999999999
 42
2.229999999999999
 43
2.229999999999999
  0
MTEXT
  5
209D
330
1E92
100
AcDbEntity
  8
250
  6
CONTINUOUS
 62
    40
100
AcDbMText
 10
-49.0
 20
37.5
 30
0.0
 40
3.0
 41
0.0
 71
     5
 72
     1
  1
\A1;98
1001
ACAD
1000
MTEXTBEGIN
1070
    73
1070
     1
1070
    44
1040
1.0
1070
    74
1070
     0
1000
MTEXTEND
  0
POINT
  5
209E
330
1E92
100
AcDbEntity
  8
DEFPOINTS
  6
CONTINUOUS
 62
     0
100
AcDbPoint
 10
-98.0
 20
9.000000000000001
 30
0.0
  0
POINT
  5
209F
330
1E92
100
AcDbEntity
  8
DEFPOINTS
  6
CONTINUOUS
 62
     0
100
AcDbPoint
 10
0.0
 20
13.85147200000005
 30
0.0
  0
POINT
  5
20A0
330
1E92
100
AcDbEntity
  8
DEFPOINTS
  6
CONTINUOUS
 62
     0
100
AcDbPoint
 10
0.0000000000000013
 20
35.0
 30
0.0
  0
ENDBLK
  5
1E9D
330
1E92
100
AcDbEntity
  8
0
100
AcDbBlockEnd
  0
BLOCK
  5
1EAC
330
1EA2
100
AcDbEntity
  8
0
100
AcDbBlockBegin
  2
*D5
 70
     1
 10
0.0
 20
0.0
 30
0.0
  3
*D5
  1

  0
LINE
  5
1EA3
330
1EA2
100
AcDbEntity
  8
250
  6
CONTINUOUS
100
AcDbLine
 10
-17.99999999999999
 20
11.0
 30
0.0
 11
-17.99999999999999
 21
29.0
 31
0.0
  0
LINE
  5
1EA4
330
1EA2
100
AcDbEntity
  8
250
  6
CONTINUOUS
100
AcDbLine
 10
0.0
 20
14.35147200000005
 30
0.0
 11
0.0000000000000009
 21
29.0
 31
0.0
  0
LINE
  5
1EA5
330
1EA2
100
AcDbEntity
  8
250
  6
CONTINUOUS
100
AcDbLine
 10
-15.76999999999999
 20
28.0
 30
0.0
 11
-2.229999999999999
 21
28.0
 31
0.0
  0
INSERT
  5
1EA6
330
1EA2
100
AcDbEntity
  8
250
  6
CONTINUOUS
100
AcDbBlockReference
  2
_OPEN
 10
-17.99999999999999
 20
28.0
 30
0.0
 41
2.229999999999999
 42
2.229999999999999
 43
2.229999999999999
 50
180.0
  0
INSERT
  5
1EA7
330
1EA2
100
AcDbEntity
  8
250
  6
CONTINUOUS
100
AcDbBlockReference
  2
_OPEN
 10
0.0000000000000009
 20
28.0
 30
0.0
 41
2.229999999999999
 42
2.229999999999999
 43
2.229999999999999
  0
MTEXT
  5
1EA8
330
1EA2
100
AcDbEntity
  8
250
  6
CONTINUOUS
 62
    40
100
AcDbMText
 10
-8.999999999999998
 20
30.5
 30
0.0
 40
3.0
 41
0.0
 71
     5
 72
     1
  1
\A1;18
1001
ACAD
1000
MTEXTBEGIN
1070
    73
1070
     1
1070
    44
1040
1.0
1070
    74
1070
     0
1000
MTEXTEND
  0
POINT
  5
1EA9
330
1EA2
100
AcDbEntity
  8
DEFPOINTS
  6
CONTINUOUS
 62
     0
100
AcDbPoint
 10
-17.99999999999999
 20
10.5
 30
0.0
  0
POINT
  5
1EAA
330
1EA2
100
AcDbEntity
  8
DEFPOINTS
  6
CONTINUOUS
 62
     0
100
AcDbPoint
 10
0.0
 20
13.85147200000005
 30
0.0
  0
POINT
  5
1EAB
330
1EA2
100
AcDbEntity
  8
DEFPOINTS
  6
CONTINUOUS
 62
     0
100
AcDbPoint
 10
0.0000000000000009
 20
28.0
 30
0.0
  0
ENDBLK
  5
1EAD
330
1EA2
100
AcDbEntity
  8
0
100
AcDbBlockEnd
  0
BLOCK
  5
1EB9
330
1EAF
100
AcDbEntity
  8
0
100
AcDbBlockBegin
  2
*D6
 70
     1
 10
0.0
 20
0.0
 30
0.0
  3
*D6
  1

  0
LINE
  5
20AA
330
1EAF
100
AcDbEntity
  8
250
  6
CONTINUOUS
100
AcDbLine
 10
-98.0
 20
9.500000000000001
 30
0.0
 11
-98.0
 21
29.0
 31
0.0
  0
LINE
  5
20AB
330
1EAF
100
AcDbEntity
  8
250
  6
CONTINUOUS
100
AcDbLine
 10
-17.99999999999999
 20
11.0
 30
0.0
 11
-17.99999999999999
 21
29.0
 31
0.0
  0
LINE
  5
20AC
330
1EAF
100
AcDbEntity
  8
250
  6
CONTINUOUS
100
AcDbLine
 10
-95.76999999999999
 20
28.0
 30
0.0
 11
-20.22999999999999
 21
28.0
 31
0.0
  0
INSERT
  5
20AD
330
1EAF
100
AcDbEntity
  8
250
  6
CONTINUOUS
100
AcDbBlockReference
  2
_OPEN
 10
-98.0
 20
28.0
 30
0.0
 41
2.229999999999999
 42
2.229999999999999
 43
2.229999999999999
 50
180.0
  0
INSERT
  5
20AE
330
1EAF
100
AcDbEntity
  8
250
  6
CONTINUOUS
100
AcDbBlockReference
  2
_OPEN
 10
-17.99999999999999
 20
28.0
 30
0.0
 41
2.229999999999999
 42
2.229999999999999
 43
2.229999999999999
  0
MTEXT
  5
20AF
330
1EAF
100
AcDbEntity
  8
250
  6
CONTINUOUS
 62
    40
100
AcDbMText
 10
-58.0
 20
30.5
 30
0.0
 40
3.0
 41
0.0
 71
     5
 72
     1
  1
\A1;80
1001
ACAD
1000
MTEXTBEGIN
1070
    73
1070
     1
1070
    44
1040
1.0
1070
    74
1070
     0
1000
MTEXTEND
  0
POINT
  5
20B0
330
1EAF
100
AcDbEntity
  8
DEFPOINTS
  6
CONTINUOUS
 62
     0
100
AcDbPoint
 10
-98.0
 20
9.000000000000001
 30
0.0
  0
POINT
  5
20B1
330
1EAF
100
AcDbEntity
  8
DEFPOINTS
  6
CONTINUOUS
 62
     0
100
AcDbPoint
 10
-17.99999999999999
 20
10.5
 30
0.0
  0
POINT
  5
20B2
330
1EAF
100
AcDbEntity
  8
DEFPOINTS
  6
CONTINUOUS
 62
     0
100
AcDbPoint
 10
-17.99999999999999
 20
28.0
 30
0.0
  0
ENDBLK
  5
1EBA
330
1EAF
100
AcDbEntity
  8
0
100
AcDbBlockEnd
  0
BLOCK
  5
1EC8
330
1EBE
100
AcDbEntity
  8
0
100
AcDbBlockBegin
  2
*D7
 70
     1
 10
0.0
 20
0.0
 30
0.0
  3
*D7
  1

  0
LINE
  5
20A1
330
1EBE
100
AcDbEntity
  8
250
  6
CONTINUOUS
100
AcDbLine
 10
-87.99999999999998
 20
-11.0
 30
0.0
 11
-111.0
 21
-10.99999999999999
 31
0.0
  0
LINE
  5
20A2
330
1EBE
100
AcDbEntity
  8
250
  6
CONTINUOUS
100
AcDbLine
 10
-88.0
 20
11.0
 30
0.0
 11
-111.0
 21
11.0
 31
0.0
  0
LINE
  5
20A3
330
1EBE
100
AcDbEntity
  8
250
  6
CONTINUOUS
100
AcDbLine
 10
-110.0
 20
-8.769999999999994
 30
0.0
 11
-110.0
 21
8.770000000000008
 31
0.0
  0
INSERT
  5
20A4
330
1EBE
100
AcDbEntity
  8
250
  6
CONTINUOUS
100
AcDbBlockReference
  2
_OPEN
 10
-110.0
 20
-10.99999999999999
 30
0.0
 41
2.229999999999999
 42
2.229999999999999
 43
2.229999999999999
 50
270.0
  0
INSERT
  5
20A5
330
1EBE
100
AcDbEntity
  8
250
  6
CONTINUOUS
100
AcDbBlockReference
  2
_OPEN
 10
-110.0
 20
11.0
 30
0.0
 41
2.229999999999999
 42
2.229999999999999
 43
2.229999999999999
 50
90.0
  0
MTEXT
  5
20A6
330
1EBE
100
AcDbEntity
  8
250
  6
CONTINUOUS
 62
    40
100
AcDbMText
 10
-112.5
 20
-0.0000000000000107
 30
0.0
 40
3.0
 41
0.0
 71
     5
 72
     1
  1
\A1;{\H3;\U+2205}22
 11
0.0000000000000001
 21
1.0
 31
0.0
1001
ACAD
1000
MTEXTBEGIN
1070
    73
1070
     1
1070
    44
1040
1.0
1070
    74
1070
     0
1000
MTEXTEND
  0
POINT
  5
20A7
330
1EBE
100
AcDbEntity
  8
DEFPOINTS
  6
CONTINUOUS
 62
     0
100
AcDbPoint
 10
-87.49999999999998
 20
-11.0
 30
0.0
  0
POINT
  5
20A8
330
1EBE
100
AcDbEntity
  8
DEFPOINTS
  6
CONTINUOUS
 62
     0
100
AcDbPoint
 10
-87.5
 20
11.0
 30
0.0
  0
POINT
  5
20A9
330
1EBE
100
AcDbEntity
  8
DEFPOINTS
  6
CONTINUOUS
 62
     0
100
AcDbPoint
 10
-110.0
 20
11.0
 30
0.0
  0
ENDBLK
  5
1EC9
330
1EBE
100
AcDbEntity
  8
0
100
AcDbBlockEnd
  0
BLOCK
  5
2185
330
20B6
100
AcDbEntity
  8
0
100
AcDbBlockBegin
  2
A$C78A13EAD
 70
     0
 10
0.0
 20
0.0
 30
0.0
  3
A$C78A13EAD
  1

  0
LINE
  5
20B7
330
20B6
100
AcDbEntity
  8
245
100
AcDbLine
 10
1.910872413295351
 20
0.0
 30
0.0
 11
-99.25325015929155
 21
0.0
 31
0.0
  0
LINE
  5
20B8
330
20B6
100
AcDbEntity
  8
246
100
AcDbLine
 10
-27.0
 20
5.0
 30
0.0
 11
0.0
 21
5.0
 31
0.0
  0
LINE
  5
20B9
330
20B6
100
AcDbEntity
  8
246
100
AcDbLine
 10
-27.0
 20
-5.0
 30
0.0
 11
0.0
 21
-5.0
 31
0.0
  0
LINE
  5
20BA
330
20B6
100
AcDbEntity
  8
240
100
AcDbLine
 10
-11.45000000000004
 20
-15.0
 30
0.0
 11
-1.189949999999953
 21
-15.0
 31
0.0
  0
LINE
  5
20BB
330
20B6
100
AcDbEntity
  8
246
100
AcDbLine
 10
-4.600000000000022
 20
-7.0
 30
0.0
 11
-2.5
 21
-7.0
 31
0.0
  0
LINE
  5
20BC
330
20B6
100
AcDbEntity
  8
246
100
AcDbLine
 10
-4.600000000000022
 20
7.0
 30
0.0
 11
-2.5
 21
7.0
 31
0.0
  0
LINE
  5
20BD
330
20B6
100
AcDbEntity
  8
240
100
AcDbLine
 10
-11.45000000000004
 20
15.0
 30
0.0
 11
-1.189949999999953
 21
15.0
 31
0.0
  0
LINE
  5
20BE
330
20B6
100
AcDbEntity
  8
240
100
AcDbLine
 10
-87.5
 20
11.0
 30
0.0
 11
-89.00000000000002
 21
9.500000000000001
 31
0.0
  0
LINE
  5
20BF
330
20B6
100
AcDbEntity
  8
242
100
AcDbLine
 10
-15.0
 20
10.0
 30
0.0
 11
-15.5
 21
10.5
 31
0.0
  0
LINE
  5
20C0
330
20B6
100
AcDbEntity
  8
241
100
AcDbLine
 10
-12.14999999999997
 20
0.0
 30
0.0
 11
-12.14999999999997
 21
11.60000000000002
 31
0.0
  0
LINE
  5
20C1
330
20B6
100
AcDbEntity
  8
241
100
AcDbLine
 10
-12.5
 20
0.0
 30
0.0
 11
-12.5
 21
10.5
 31
0.0
  0
LINE
  5
20C2
330
20B6
100
AcDbEntity
  8
241
100
AcDbLine
 10
-18.0
 20
-10.5
 30
0.0
 11
-18.0
 21
10.5
 31
0.0
  0
LINE
  5
20C3
330
20B6
100
AcDbEntity
  8
241
100
AcDbLine
 10
-18.49999999999999
 20
-11.0
 30
0.0
 11
-18.49999999999999
 21
11.0
 31
0.0
  0
LINE
  5
20C4
330
20B6
100
AcDbEntity
  8
242
100
AcDbLine
 10
-23.0
 20
5.545268253204716
 30
0.0
 11
-98.0
 21
-5.545268253204712
 31
0.0
  0
LINE
  5
20C5
330
20B6
100
AcDbEntity
  8
242
100
AcDbLine
 10
-98.0
 20
5.545268253204713
 30
0.0
 11
-23.00000170339365
 21
-5.545271171410528
 31
0.0
  0
LINE
  5
20C6
330
20B6
100
AcDbEntity
  8
241
100
AcDbLine
 10
-23.0
 20
-5.545268253204713
 30
0.0
 11
-98.0
 21
-5.545268253204712
 31
0.0
  0
LINE
  5
20C7
330
20B6
100
AcDbEntity
  8
241
100
AcDbLine
 10
-23.0
 20
5.545268253204713
 30
0.0
 11
-98.0
 21
5.545268253204713
 31
0.0
  0
LINE
  5
20C8
330
20B6
100
AcDbEntity
  8
240
100
AcDbLine
 10
-18.5
 20
-11.0
 30
0.0
 11
-87.49999999999998
 21
-11.0
 31
0.0
  0
LINE
  5
20C9
330
20B6
100
AcDbEntity
  8
240
100
AcDbLine
 10
-89.00000000000002
 20
9.500000000000001
 30
0.0
 11
-97.5
 21
9.500000000000001
 31
0.0
  0
LINE
  5
20CA
330
20B6
100
AcDbEntity
  8
240
100
AcDbLine
 10
-88.99999999999996
 20
-9.500000000000001
 30
0.0
 11
-97.5
 21
-9.500000000000001
 31
0.0
  0
LINE
  5
20CB
330
20B6
100
AcDbEntity
  8
240
100
AcDbLine
 10
-98.0
 20
-9.000000000000001
 30
0.0
 11
-97.5
 21
-9.500000000000001
 31
0.0
  0
LINE
  5
20CC
330
20B6
100
AcDbEntity
  8
240
100
AcDbLine
 10
-98.0
 20
-9.000000000000001
 30
0.0
 11
-98.0
 21
9.000000000000001
 31
0.0
  0
LINE
  5
20CD
330
20B6
100
AcDbEntity
  8
240
100
AcDbLine
 10
-98.0
 20
9.000000000000001
 30
0.0
 11
-97.5
 21
9.500000000000001
 31
0.0
  0
LINE
  5
20CE
330
20B6
100
AcDbEntity
  8
240
100
AcDbLine
 10
-87.49999999999998
 20
-11.0
 30
0.0
 11
-88.99999999999996
 21
-9.500000000000001
 31
0.0
  0
TEXT
  5
20CF
330
20B6
100
AcDbEntity
  8
247
100
AcDbText
 10
-38.6586644262515
 20
-9.834157711151476
 30
0.0
 40
1.5
  1
SL22-NBS10-80
  7
YOKO
 11
-38.6586644262515
 21
-9.834157711151476
 31
0.0
100
AcDbText
 73
     1
  0
LINE
  5
20D0
102
{ACAD_REACTORS
330
20F3
102
}
330
20B6
100
AcDbEntity
  8
247
100
AcDbLine
 10
-41.29446636106188
 20
-9.271396724331419
 30
0.0
 11
-41.04934764768298
 21
-8.4165711322904
 31
0.0
  0
ARC
  5
20D1
102
{ACAD_REACTORS
330
20F3
102
}
330
20B6
100
AcDbEntity
  8
247
100
AcDbCircle
 10
-41.09136348630604
 20
-9.123973933804075
 30
0.0
 40
0.5911056518554688
100
AcDbArc
 50
163.9997507017293
 51
304.9638732916317
  0
ARC
  5
20D2
330
20B6
100
AcDbEntity
  8
247
100
AcDbCircle
 10
-43.1970786657494
 20
-9.242193690884151
 30
0.0
 40
0.2728181809186935
100
AcDbArc
 50
261.6628542111488
 51
66.33819215911005
  0
LINE
  5
20D3
330
20B6
100
AcDbEntity
  8
247
100
AcDbLine
 10
-43.08758661965343
 20
-8.992311215145081
 30
0.0
 11
-43.23663659058246
 21
-9.512128739410092
 31
0.0
  0
LINE
  5
20D4
330
20B6
100
AcDbEntity
  8
247
100
AcDbLine
 10
-42.93055258333678
 20
-9.183939015247142
 30
0.0
 11
-42.33416477777793
 21
-8.587551209688285
 31
0.0
  0
LINE
  5
20D5
330
20B6
100
AcDbEntity
  8
247
100
AcDbLine
 10
-42.0366065588158
 20
-9.715072933781184
 30
0.0
 11
-41.5672362890404
 21
-8.078178493130245
 31
0.0
  0
LINE
  5
20D6
330
20B6
100
AcDbEntity
  8
247
100
AcDbLine
 10
-43.25963073914682
 20
-9.715072933781184
 30
0.0
 11
-42.59227657523218
 21
-9.047718769866582
 31
0.0
  0
ARC
  5
20D7
330
20B6
100
AcDbEntity
  8
247
100
AcDbCircle
 10
-42.99416805173573
 20
-9.260382930386105
 30
0.0
 40
0.4546897888183594
100
AcDbArc
 50
270.0
 51
40.32984065416728
  0
HATCH
  5
20D8
330
20B6
100
AcDbEntity
  8
247
100
AcDbHatch
 10
0.0
 20
0.0
 30
0.0
210
0.0
220
0.0
230
1.0
  2
ANSI31
 70
     0
 71
     0
 91
        1
 92
        7
 72
     0
 73
     1
 93
        6
 10
-41.5672362890404
 20
-8.078178493130243
 10
-42.04025264646227
 20
-8.078178493130243
 10
-42.09762187864
 20
-8.278239528286494
 10
-42.03139491941149
 20
-8.278239528286494
 10
-42.44340282346423
 20
-9.715072933781184
 10
-42.0366065588158
 20
-9.715072933781184
 97
        0
 75
     0
 76
     1
 52
360.0
 41
0.045
 77
     0
 78
     1
 53
44.99999999999996
 43
-98.70921575452506
 44
-17.07538642083406
 45
-0.101027881362028
 46
0.101027881362028
 79
     0
 47
0.0134348504236232
 98
        1
 10
-41.99247830826286
 20
-8.853764467129495
  0
POLYLINE
  5
20D9
330
20B6
100
AcDbEntity
  8
247
100
AcDb2dPolyline
 66
     1
 10
0.0
 20
0.0
 30
0.0
 70
     1
  0
VERTEX
  5
20DA
330
20D9
100
AcDbEntity
  8
247
100
AcDbVertex
100
AcDb2dVertex
 10
-42.04025264646229
 20
-8.078178493130245
 30
0.0
  0
VERTEX
  5
20DB
330
20D9
100
AcDbEntity
  8
247
100
AcDbVertex
100
AcDb2dVertex
 10
-42.09762187864003
 20
-8.278239528286494
 30
0.0
  0
VERTEX
  5
20DC
330
20D9
100
AcDbEntity
  8
247
100
AcDbVertex
100
AcDb2dVertex
 10
-42.03139491941151
 20
-8.278239528286494
 30
0.0
  0
VERTEX
  5
20DD
330
20D9
100
AcDbEntity
  8
247
100
AcDbVertex
100
AcDb2dVertex
 10
-42.44340282346424
 20
-9.715072933781184
 30
0.0
  0
VERTEX
  5
20DE
330
20D9
100
AcDbEntity
  8
247
100
AcDbVertex
100
AcDb2dVertex
 10
-42.03660655881581
 20
-9.715072933781184
 30
0.0
  0
VERTEX
  5
20DF
330
20D9
100
AcDbEntity
  8
247
100
AcDbVertex
100
AcDb2dVertex
 10
-41.56723628904042
 20
-8.078178493130245
 30
0.0
  0
SEQEND
  5
20E0
330
20D9
100
AcDbEntity
  8
247
  0
POLYLINE
  5
20E1
330
20B6
100
AcDbEntity
  8
247
100
AcDb2dPolyline
 66
     1
 10
0.0
 20
0.0
 30
0.0
 70
     1
1001
HATCH_DISTANCE
1040
1.0
1001
HATCH_DISPLAY
1070
     0
1001
HATCH_TYPE
1070
     7
  0
VERTEX
  5
20E2
330
20E1
100
AcDbEntity
  8
247
100
AcDbVertex
100
AcDb2dVertex
 10
-42.04025264646229
 20
-8.078178493130245
 30
0.0
  0
VERTEX
  5
20E3
330
20E1
100
AcDbEntity
  8
247
100
AcDbVertex
100
AcDb2dVertex
 10
-42.09762187864003
 20
-8.278239528286494
 30
0.0
  0
VERTEX
  5
20E4
330
20E1
100
AcDbEntity
  8
247
100
AcDbVertex
100
AcDb2dVertex
 10
-42.03139491941151
 20
-8.278239528286494
 30
0.0
  0
VERTEX
  5
20E5
330
20E1
100
AcDbEntity
  8
247
100
AcDbVertex
100
AcDb2dVertex
 10
-42.44340282346424
 20
-9.715072933781184
 30
0.0
  0
VERTEX
  5
20E6
330
20E1
100
AcDbEntity
  8
247
100
AcDbVertex
100
AcDb2dVertex
 10
-42.03660655881581
 20
-9.715072933781184
 30
0.0
  0
VERTEX
  5
20E7
330
20E1
100
AcDbEntity
  8
247
100
AcDbVertex
100
AcDb2dVertex
 10
-41.56723628904042
 20
-8.078178493130245
 30
0.0
  0
SEQEND
  5
20E8
330
20E1
100
AcDbEntity
  8
247
  0
LINE
  5
20E9
330
20B6
100
AcDbEntity
  8
247
100
AcDbLine
 10
-42.44340282346423
 20
-9.715072933781184
 30
0.0
 11
-42.03139491941149
 21
-8.278239528286494
 31
0.0
  0
LINE
  5
20EA
102
{ACAD_REACTORS
330
20F3
102
}
330
20B6
100
AcDbEntity
  8
247
100
AcDbLine
 10
-40.92731700803454
 20
-9.37667321358923
 30
0.0
 11
-40.81052547361071
 21
-8.96937569772009
 31
0.0
  0
LINE
  5
20EB
102
{ACAD_REACTORS
330
20F3
102
}
330
20B6
100
AcDbEntity
  8
247
100
AcDbLine
 10
-40.64593654538806
 20
-9.715072933781184
 30
0.0
 11
-40.3799575414818
 21
-8.787497035610714
 31
0.0
  0
ARC
  5
20EC
102
{ACAD_REACTORS
330
20F4
102
}
330
20B6
100
AcDbEntity
  8
247
100
AcDbCircle
 10
-43.84436565305409
 20
-9.033034602749387
 30
0.0
 40
0.7729774475097657
100
AcDbArc
 50
90.0
 51
270.0
  0
ARC
  5
20ED
102
{ACAD_REACTORS
330
20F4
102
}
330
20B6
100
AcDbEntity
  8
247
100
AcDbCircle
 10
-43.84436565305409
 20
-9.033034602749387
 30
0.0
 40
0.9548561096191406
100
AcDbArc
 50
90.0
 51
270.0
  0
LINE
  5
20EE
330
20B6
100
AcDbEntity
  8
247
100
AcDbLine
 10
-43.74892879392322
 20
-9.715072933781184
 30
0.0
 11
-43.33170925046638
 21
-8.260057155240165
 31
0.0
  0
LINE
  5
20EF
330
20B6
100
AcDbEntity
  8
247
100
AcDbLine
 10
-43.70194449531703
 20
-9.55121940177929
 30
0.0
 11
-42.93239681246357
 21
-8.781671718925805
 31
0.0
  0
LINE
  5
20F0
330
20B6
100
AcDbEntity
  8
247
100
AcDbLine
 10
-43.62071312231085
 20
-9.267932266049035
 30
0.0
 11
-42.98405959975493
 21
-8.631278743493146
 31
0.0
  0
ARC
  5
20F1
102
{ACAD_REACTORS
330
20F4
102
}
330
20B6
100
AcDbEntity
  8
247
100
AcDbCircle
 10
-40.15225215818104
 20
-9.033034602749387
 30
0.0
 40
0.7729774475097657
100
AcDbArc
 50
270.0
 51
104.1274364964119
  0
ARC
  5
20F2
102
{ACAD_REACTORS
330
20F4
102
}
330
20B6
100
AcDbEntity
  8
247
100
AcDbCircle
 10
-40.15225215818104
 20
-9.033034602749387
 30
0.0
 40
0.9548561096191406
100
AcDbArc
 50
270.0
 51
104.7707939660941
  0
HATCH
  5
20F3
330
20B6
100
AcDbEntity
  8
247
100
AcDbHatch
 10
0.0
 20
0.0
 30
0.0
210
0.0
220
0.0
230
1.0
  2
ANSI31
 70
     0
 71
     1
 91
        1
 92
       33
 93
       15
 72
     1
 10
-40.42765193845446
 20
-8.310779658901729
 11
-40.48242565061266
 21
-8.137078944790403
 72
     2
 10
-40.15225215818104
 20
-9.033034602749387
 40
0.7729795932769776
 50
110.8721834020771
 51
132.5419489373868
 73
     1
 72
     2
 10
-40.86577297116932
 20
-8.469216243374386
 40
0.1909725040197372
 50
1.710121382062761
 51
163.9983983544485
 73
     1
 72
     1
 10
-41.29446636106188
 20
-9.271396724331419
 11
-41.04934764768298
 21
-8.4165711322904
 72
     2
 10
-41.11089168454823
 20
-9.324034968960324
 40
0.1909723699092865
 50
164.0002730571839
 51
344.0002730571838
 73
     1
 72
     1
 10
-40.92731700803454
 20
-9.37667321358923
 11
-40.81052547361071
 21
-8.96937569772009
 72
     1
 10
-40.9618896093529
 20
-8.96937569772009
 11
-40.81052547361071
 21
-8.96937569772009
 72
     1
 10
-40.9618896093529
 20
-8.96937569772009
 11
-40.90973888303454
 21
-8.787497035610714
 72
     1
 10
-40.90973888303454
 20
-8.787497035610714
 11
-40.3799575414818
 21
-8.787497035610714
 72
     1
 10
-40.64593654538806
 20
-9.715072933781184
 11
-40.3799575414818
 21
-8.787497035610714
 72
     1
 10
-40.75262752439196
 20
-9.608388821232358
 11
-40.64593654538806
 21
-9.715072933781184
 72
     2
 10
-41.09136348630604
 20
-9.123973933804075
 40
0.5911056518554688
 50
163.9997507017293
 51
304.9638732916317
 73
     1
 72
     2
 10
-40.12493739988026
 20
-9.155051509487668
 40
1.546847534179687
 50
155.2051773698404
 51
172.7948259620522
 73
     1
 72
     2
 10
-40.96098323728261
 20
-8.669277278530637
 40
0.5910996437072754
 50
53.44401219705755
 51
164.0001843876852
 73
     1
 72
     2
 10
-40.15225215818104
 20
-9.033034602749387
 40
0.954856538772583
 50
110.22964506332
 51
118.5716889237176
 73
     1
 97
       15
330
2149
330
2113
330
2112
330
20D0
330
20FB
330
20EA
330
2129
330
212A
330
2111
330
20EB
330
20F7
330
20D1
330
211E
330
2110
330
214A
 75
     0
 76
     1
 52
360.0
 41
0.045
 77
     0
 78
     1
 53
44.99999999999996
 43
-98.70921575452506
 44
-17.07538642083406
 45
-0.101027881362028
 46
0.101027881362028
 79
     0
 98
        1
 10
-98.70921575452506
 20
-17.07538642083406
  0
HATCH
  5
20F4
330
20B6
100
AcDbEntity
  8
247
100
AcDbHatch
 10
0.0
 20
0.0
 30
0.0
210
0.0
220
0.0
230
1.0
  2
ANSI31
 70
     0
 71
     1
 91
        1
 92
       33
 93
       10
 72
     1
 10
-43.46876369382555
 20
-8.078178493130245
 11
-43.52091442014391
 21
-8.260057155239621
 72
     1
 10
-43.84436565305407
 20
-8.078178493130245
 11
-43.46876369382555
 21
-8.078178493130245
 72
     1
 10
-43.84436565305407
 20
-8.260057155239621
 11
-43.52091442014391
 21
-8.260057155239621
 72
     2
 10
-43.84436565305409
 20
-9.033034602749387
 40
0.7729774475097657
 50
90.0
 51
270.0
 73
     1
 72
     2
 10
-43.84436565305409
 20
-9.033034602749387
 40
0.9548561096191406
 50
90.0
 51
270.0
 73
     1
 72
     1
 10
-43.84436565305407
 20
-9.987890922264396
 11
-40.15225215818102
 21
-9.987890922264396
 72
     1
 10
-43.84436565305407
 20
-9.806012264835873
 11
-40.15225215818102
 21
-9.806012264835873
 72
     2
 10
-40.15225215818104
 20
-9.033034602749387
 40
0.9548561096191406
 50
270.0
 51
464.7707939660941
 73
     1
 72
     2
 10
-40.15225215818104
 20
-9.033034602749387
 40
0.7729774475097657
 50
270.0
 51
464.1274364964119
 73
     1
 72
     1
 10
-40.34092174436266
 20
-8.283430568325558
 11
-40.39569545652088
 21
-8.109729854214229
 97
       10
330
211D
330
2119
330
211A
330
20EC
330
20ED
330
20F6
330
20F5
330
20F2
330
20F1
330
2130
 75
     0
 76
     1
 52
360.0
 41
0.045
 77
     0
 78
     1
 53
44.99999999999996
 43
-98.70921575452506
 44
-17.07538642083406
 45
-0.101027881362028
 46
0.101027881362028
 79
     0
 98
        1
 10
-98.70921575452506
 20
-17.07538642083406
  0
LINE
  5
20F5
102
{ACAD_REACTORS
330
20F4
102
}
330
20B6
100
AcDbEntity
  8
247
100
AcDbLine
 10
-43.84436565305407
 20
-9.806012264835873
 30
0.0
 11
-40.15225215818102
 21
-9.806012264835873
 31
0.0
  0
LINE
  5
20F6
102
{ACAD_REACTORS
330
20F4
102
}
330
20B6
100
AcDbEntity
  8
247
100
AcDbLine
 10
-43.84436565305407
 20
-9.987890922264396
 30
0.0
 11
-40.15225215818102
 21
-9.987890922264396
 31
0.0
  0
LINE
  5
20F7
102
{ACAD_REACTORS
330
20F3
102
}
330
20B6
100
AcDbEntity
  8
247
100
AcDbLine
 10
-40.75262752439196
 20
-9.608388821232358
 30
0.0
 11
-40.64593654538806
 21
-9.715072933781184
 31
0.0
  0
LINE
  5
20F8
330
20B6
100
AcDbEntity
  8
247
100
AcDbLine
 10
-43.74892879392322
 20
-9.715072933781184
 30
0.0
 11
-42.99416805173572
 21
-9.715072933781184
 31
0.0
  0
LINE
  5
20F9
330
20B6
100
AcDbEntity
  8
247
100
AcDbLine
 10
-43.6637422645949
 20
-9.715072933781184
 30
0.0
 11
-43.14652282058474
 21
-9.197853489771011
 31
0.0
  0
LINE
  5
20FA
330
20B6
100
AcDbEntity
  8
247
100
AcDbLine
 10
-43.46168650187086
 20
-9.715072933781184
 30
0.0
 11
-43.22775000804787
 21
-9.481136439958218
 31
0.0
  0
ARC
  5
20FB
102
{ACAD_REACTORS
330
20F3
102
}
330
20B6
100
AcDbEntity
  8
247
100
AcDbCircle
 10
-41.11089168454823
 20
-9.324034968960324
 30
0.0
 40
0.1909723699092865
100
AcDbArc
 50
164.0002730571839
 51
344.0002730571838
  0
LINE
  5
20FC
330
20B6
100
AcDbEntity
  8
247
100
AcDbLine
 10
-42.44340282346423
 20
-9.715072933781184
 30
0.0
 11
-42.0366065588158
 21
-9.715072933781184
 31
0.0
  0
LINE
  5
20FD
330
20B6
100
AcDbEntity
  8
247
100
AcDbLine
 10
-43.05757497642273
 20
-9.71507293378122
 30
0.0
 11
-42.54338774600736
 21
-9.200885703365804
 31
0.0
  0
LINE
  5
20FE
330
20B6
100
AcDbEntity
  8
247
100
AcDbLine
 10
-42.82142867919136
 20
-9.680982399273899
 30
0.0
 11
-42.57356858284796
 21
-9.433122302930483
 31
0.0
  0
LINE
  5
20FF
330
20B6
100
AcDbEntity
  8
246
100
AcDbLine
 10
-51.25
 20
5.5
 30
0.0
 11
-40.49999999999999
 21
5.5
 31
0.0
  0
LINE
  5
2100
330
20B6
100
AcDbEntity
  8
246
100
AcDbLine
 10
-51.60000000000002
 20
5.200000000000045
 30
0.0
 11
-40.14999999999997
 21
5.200000000000045
 31
0.0
  0
LINE
  5
2101
330
20B6
100
AcDbEntity
  8
246
100
AcDbLine
 10
-51.25
 20
-5.5
 30
0.0
 11
-40.49999999999999
 21
-5.5
 31
0.0
  0
LINE
  5
2102
330
20B6
100
AcDbEntity
  8
246
100
AcDbLine
 10
-51.60000000000002
 20
-5.199999999999931
 30
0.0
 11
-40.14999999999997
 21
-5.199999999999931
 31
0.0
  0
LINE
  5
2103
330
20B6
100
AcDbEntity
  8
246
100
AcDbLine
 10
-56.0
 20
-2.5
 30
0.0
 11
-46.0
 21
-2.5
 31
0.0
  0
LINE
  5
2104
330
20B6
100
AcDbEntity
  8
246
100
AcDbLine
 10
-56.0
 20
2.5
 30
0.0
 11
-46.0
 21
2.5
 31
0.0
  0
LINE
  5
2105
330
20B6
100
AcDbEntity
  8
246
100
AcDbLine
 10
-56.0
 20
3.75
 30
0.0
 11
-56.0
 21
-3.75
 31
0.0
  0
ARC
  5
2106
330
20B6
100
AcDbEntity
  8
246
100
AcDbCircle
 10
-55.0
 20
-3.75
 30
0.0
 40
1.0
100
AcDbArc
 50
180.0
 51
270.0
  0
LINE
  5
2107
330
20B6
100
AcDbEntity
  8
246
100
AcDbLine
 10
-52.0
 20
-4.75
 30
0.0
 11
-51.25
 21
-5.5
 31
0.0
  0
LINE
  5
2108
330
20B6
100
AcDbEntity
  8
246
100
AcDbLine
 10
-55.0
 20
-4.75
 30
0.0
 11
-52.0
 21
-4.75
 31
0.0
  0
ARC
  5
2109
330
20B6
100
AcDbEntity
  8
246
100
AcDbCircle
 10
-55.0
 20
3.75
 30
0.0
 40
1.0
100
AcDbArc
 50
90.0
 51
180.0
  0
LINE
  5
210A
330
20B6
100
AcDbEntity
  8
246
100
AcDbLine
 10
-52.0
 20
4.75
 30
0.0
 11
-51.25
 21
5.5
 31
0.0
  0
LINE
  5
210B
330
20B6
100
AcDbEntity
  8
246
100
AcDbLine
 10
-55.0
 20
4.75
 30
0.0
 11
-52.0
 21
4.75
 31
0.0
  0
LINE
  5
210C
330
20B6
100
AcDbEntity
  8
246
100
AcDbLine
 10
-43.01794900000004
 20
-1.732050999999955
 30
0.0
 11
-43.01794900000004
 21
1.732051000000069
 31
0.0
  0
LINE
  5
210D
330
20B6
100
AcDbEntity
  8
246
100
AcDbLine
 10
-45.55662499999994
 20
-1.732050999999955
 30
0.0
 11
-45.55662499999994
 21
1.732051000000069
 31
0.0
  0
LINE
  5
210E
330
20B6
100
AcDbEntity
  8
246
100
AcDbLine
 10
-40.0
 20
5.0
 30
0.0
 11
-40.0
 21
-5.0
 31
0.0
  0
LINE
  5
210F
330
20B6
100
AcDbEntity
  8
246
100
AcDbLine
 10
-43.01794900000004
 20
-1.732050999999955
 30
0.0
 11
-40.0
 21
-4.75
 31
0.0
  0
ARC
  5
2110
102
{ACAD_REACTORS
330
20F3
102
}
330
20B6
100
AcDbEntity
  8
247
100
AcDbCircle
 10
-40.96098323728261
 20
-8.669277278530637
 30
0.0
 40
0.5910996437072754
100
AcDbArc
 50
53.44401219705755
 51
164.0001843876852
  0
LINE
  5
2111
102
{ACAD_REACTORS
330
20F3
102
}
330
20B6
100
AcDbEntity
  8
247
100
AcDbLine
 10
-40.90973888303454
 20
-8.787497035610714
 30
0.0
 11
-40.3799575414818
 21
-8.787497035610714
 31
0.0
  0
ARC
  5
2112
102
{ACAD_REACTORS
330
20F3
102
}
330
20B6
100
AcDbEntity
  8
247
100
AcDbCircle
 10
-40.86577297116932
 20
-8.469216243374386
 30
0.0
 40
0.1909725040197372
100
AcDbArc
 50
1.710121382062761
 51
163.9983983544485
  0
ARC
  5
2113
102
{ACAD_REACTORS
330
20F3
102
}
330
20B6
100
AcDbEntity
  8
247
100
AcDbCircle
 10
-40.15225215818104
 20
-9.033034602749387
 30
0.0
 40
0.7729795932769776
100
AcDbArc
 50
110.8721834020771
 51
132.5419489373868
  0
LINE
  5
2114
330
20B6
100
AcDbEntity
  8
247
100
AcDbLine
 10
-43.53948174930468
 20
-8.98464513031878
 30
0.0
 11
-42.90283090797301
 21
-8.347994288987125
 31
0.0
  0
LINE
  5
2115
330
20B6
100
AcDbEntity
  8
247
100
AcDbLine
 10
-43.37416454221412
 20
-8.078178493130245
 30
0.0
 11
-42.78743241590339
 21
-8.078178493130312
 31
0.0
  0
LINE
  5
2116
330
20B6
100
AcDbEntity
  8
247
100
AcDbLine
 10
-43.37701900329229
 20
-8.4180708588583
 30
0.0
 11
-43.03712663756427
 21
-8.078178493130312
 31
0.0
  0
LINE
  5
2117
330
20B6
100
AcDbEntity
  8
247
100
AcDbLine
 10
-43.45825037629847
 20
-8.701357994588557
 30
0.0
 11
-42.83507087484021
 21
-8.078178493130312
 31
0.0
  0
LINE
  5
2118
330
20B6
100
AcDbEntity
  8
247
100
AcDbLine
 10
-43.42106106239769
 20
-8.260057155239653
 30
0.0
 11
-43.23918240028832
 21
-8.07817849313028
 31
0.0
  0
LINE
  5
2119
102
{ACAD_REACTORS
330
20F4
102
}
330
20B6
100
AcDbEntity
  8
247
100
AcDbLine
 10
-43.84436565305407
 20
-8.078178493130245
 30
0.0
 11
-43.46876369382555
 21
-8.078178493130245
 31
0.0
  0
LINE
  5
211A
102
{ACAD_REACTORS
330
20F4
102
}
330
20B6
100
AcDbEntity
  8
247
100
AcDbLine
 10
-43.84436565305407
 20
-8.260057155239621
 30
0.0
 11
-43.52091442014391
 21
-8.260057155239621
 31
0.0
  0
LINE
  5
211B
330
20B6
100
AcDbEntity
  8
247
100
AcDbLine
 10
-43.4263152685328
 20
-8.260057155239621
 30
0.0
 11
-43.33170925046638
 21
-8.260057155240165
 31
0.0
  0
LINE
  5
211C
330
20B6
100
AcDbEntity
  8
247
100
AcDbLine
 10
-43.37416454221412
 20
-8.078178493130245
 30
0.0
 11
-43.4263152685328
 21
-8.260057155239621
 31
0.0
  0
LINE
  5
211D
102
{ACAD_REACTORS
330
20F4
102
}
330
20B6
100
AcDbEntity
  8
247
100
AcDbLine
 10
-43.46876369382555
 20
-8.078178493130245
 30
0.0
 11
-43.52091442014391
 21
-8.260057155239621
 31
0.0
  0
ARC
  5
211E
102
{ACAD_REACTORS
330
20F3
102
}
330
20B6
100
AcDbEntity
  8
247
100
AcDbCircle
 10
-40.12493739988026
 20
-9.155051509487668
 30
0.0
 40
1.546847534179687
100
AcDbArc
 50
155.2051773698404
 51
172.7948259620522
  0
LINE
  5
211F
330
20B6
100
AcDbEntity
  8
247
100
AcDbLine
 10
-42.09762187864
 20
-8.278239528286494
 30
0.0
 11
-42.03139491941149
 21
-8.278239528286494
 31
0.0
  0
LINE
  5
2120
330
20B6
100
AcDbEntity
  8
247
100
AcDbLine
 10
-42.09762187864
 20
-8.278239528286494
 30
0.0
 11
-42.04025264646227
 21
-8.078178493130245
 31
0.0
  0
ARC
  5
2121
330
20B6
100
AcDbEntity
  8
247
100
AcDbCircle
 10
-42.98846889402089
 20
-8.51468590890173
 30
0.0
 40
0.2728103756904602
100
AcDbArc
 50
261.6626016879294
 51
66.33815509518976
  0
LINE
  5
2122
330
20B6
100
AcDbEntity
  8
247
100
AcDbLine
 10
-42.87897901868003
 20
-8.264811003634711
 30
0.0
 11
-43.02802653758901
 21
-8.784613110049951
 31
0.0
  0
LINE
  5
2123
330
20B6
100
AcDbEntity
  8
247
100
AcDbLine
 10
-42.84039473627109
 20
-8.285558117285255
 30
0.0
 11
-42.65281824849048
 21
-8.097981629504658
 31
0.0
  0
LINE
  5
2124
330
20B6
100
AcDbEntity
  8
247
100
AcDbLine
 10
-42.74479476458214
 20
-8.392013908320324
 30
0.0
 11
-42.51800551445632
 21
-8.165224658194505
 31
0.0
  0
LINE
  5
2125
330
20B6
100
AcDbEntity
  8
247
100
AcDbLine
 10
-43.00108429322786
 20
-9.052414962414184
 30
0.0
 11
-42.35023536866804
 21
-8.401566037854351
 31
0.0
  0
ARC
  5
2126
330
20B6
100
AcDbEntity
  8
247
100
AcDbCircle
 10
-42.78555828000722
 20
-8.532868281948607
 30
0.0
 40
0.4546936511993409
100
AcDbArc
 50
287.6695775473979
 51
90.23615984267157
  0
LINE
  5
2127
330
20B6
100
AcDbEntity
  8
247
100
AcDbLine
 10
-42.72148308399684
 20
-8.570757990459059
 30
0.0
 11
-42.41712670145724
 21
-8.266401607919464
 31
0.0
  0
LINE
  5
2128
330
20B6
100
AcDbEntity
  8
247
100
AcDbLine
 10
-42.04025264646227
 20
-8.078178493130245
 30
0.0
 11
-41.5672362890404
 21
-8.078178493130245
 31
0.0
  0
LINE
  5
2129
102
{ACAD_REACTORS
330
20F3
102
}
330
20B6
100
AcDbEntity
  8
247
100
AcDbLine
 10
-40.9618896093529
 20
-8.96937569772009
 30
0.0
 11
-40.81052547361071
 21
-8.96937569772009
 31
0.0
  0
LINE
  5
212A
102
{ACAD_REACTORS
330
20F3
102
}
330
20B6
100
AcDbEntity
  8
247
100
AcDbLine
 10
-40.9618896093529
 20
-8.96937569772009
 30
0.0
 11
-40.90973888303454
 21
-8.787497035610714
 31
0.0
  0
LINE
  5
212B
330
20B6
100
AcDbEntity
  8
246
100
AcDbLine
 10
-43.01794900000004
 20
-0.8660259999999198
 30
0.0
 11
-45.55662499999994
 21
-0.8660259999999198
 31
0.0
  0
LINE
  5
212C
330
20B6
100
AcDbEntity
  8
246
100
AcDbLine
 10
-43.01794900000004
 20
-1.732050999999955
 30
0.0
 11
-45.55662499999994
 21
-1.732050999999955
 31
0.0
  0
LINE
  5
212D
330
20B6
100
AcDbEntity
  8
246
100
AcDbLine
 10
-45.55662499999994
 20
-1.732050999999955
 30
0.0
 11
-46.0
 21
-2.5
 31
0.0
  0
LINE
  5
212E
330
20B6
100
AcDbEntity
  8
246
100
AcDbLine
 10
-46.0
 20
-1.332132999999998
 30
0.0
 11
-46.0
 21
-2.5
 31
0.0
  0
LINE
  5
212F
330
20B6
100
AcDbEntity
  8
246
100
AcDbLine
 10
-40.49999999999999
 20
-5.5
 30
0.0
 11
-40.0
 21
-5.0
 31
0.0
  0
LINE
  5
2130
102
{ACAD_REACTORS
330
20F4
102
}
330
20B6
100
AcDbEntity
  8
247
100
AcDbLine
 10
-40.34092174436266
 20
-8.283430568325558
 30
0.0
 11
-40.39569545652088
 21
-8.109729854214229
 31
0.0
  0
POLYLINE
  5
2131
330
20B6
100
AcDbEntity
  8
247
100
AcDb2dPolyline
 66
     1
 10
0.0
 20
0.0
 30
0.0
 70
     1
  0
VERTEX
  5
2132
330
2131
100
AcDbEntity
  8
247
100
AcDbVertex
100
AcDb2dVertex
 10
-40.34092174436268
 20
-8.283430568325558
 30
0.0
  0
VERTEX
  5
2133
330
2131
100
AcDbEntity
  8
247
100
AcDbVertex
100
AcDb2dVertex
 10
-40.39569545652089
 20
-8.109729854214229
 30
0.0
  0
VERTEX
  5
2134
330
2131
100
AcDbEntity
  8
247
100
AcDbVertex
100
AcDb2dVertex
 10
-40.39569545652089
 20
-8.109729854214229
 30
0.0
  0
VERTEX
  5
2135
330
2131
100
AcDbEntity
  8
247
100
AcDbVertex
100
AcDb2dVertex
 10
-40.34092174436268
 20
-8.283430568325558
 30
0.0
  0
SEQEND
  5
2136
330
2131
100
AcDbEntity
  8
247
  0
POLYLINE
  5
2137
330
20B6
100
AcDbEntity
  8
247
100
AcDb2dPolyline
 66
     1
 10
0.0
 20
0.0
 30
0.0
 70
     1
1001
HATCH_DISTANCE
1040
1.0
1001
HATCH_DISPLAY
1070
     0
1001
HATCH_TYPE
1070
     7
  0
VERTEX
  5
2138
330
2137
100
AcDbEntity
  8
247
100
AcDbVertex
100
AcDb2dVertex
 10
-40.34092174436268
 20
-8.283430568325558
 30
0.0
  0
VERTEX
  5
2139
330
2137
100
AcDbEntity
  8
247
100
AcDbVertex
100
AcDb2dVertex
 10
-40.39569545652089
 20
-8.109729854214229
 30
0.0
  0
VERTEX
  5
213A
330
2137
100
AcDbEntity
  8
247
100
AcDbVertex
100
AcDb2dVertex
 10
-40.39569545652089
 20
-8.109729854214229
 30
0.0
  0
VERTEX
  5
213B
330
2137
100
AcDbEntity
  8
247
100
AcDbVertex
100
AcDb2dVertex
 10
-40.34092174436268
 20
-8.283430568325558
 30
0.0
  0
SEQEND
  5
213C
330
2137
100
AcDbEntity
  8
247
  0
POLYLINE
  5
213D
330
20B6
100
AcDbEntity
  8
247
100
AcDb2dPolyline
 66
     1
 10
0.0
 20
0.0
 30
0.0
 70
     1
  0
VERTEX
  5
213E
330
213D
100
AcDbEntity
  8
247
100
AcDbVertex
100
AcDb2dVertex
 10
-40.34092174436268
 20
-8.283430568325558
 30
0.0
  0
VERTEX
  5
213F
330
213D
100
AcDbEntity
  8
247
100
AcDbVertex
100
AcDb2dVertex
 10
-40.39569545652089
 20
-8.109729854214229
 30
0.0
  0
VERTEX
  5
2140
330
213D
100
AcDbEntity
  8
247
100
AcDbVertex
100
AcDb2dVertex
 10
-40.39569545652089
 20
-8.109729854214229
 30
0.0
  0
VERTEX
  5
2141
330
213D
100
AcDbEntity
  8
247
100
AcDbVertex
100
AcDb2dVertex
 10
-40.34092174436268
 20
-8.283430568325558
 30
0.0
  0
SEQEND
  5
2142
330
213D
100
AcDbEntity
  8
247
  0
POLYLINE
  5
2143
330
20B6
100
AcDbEntity
  8
247
100
AcDb2dPolyline
 66
     1
 10
0.0
 20
0.0
 30
0.0
 70
     1
1001
HATCH_DISTANCE
1040
1.0
1001
HATCH_DISPLAY
1070
     0
1001
HATCH_TYPE
1070
     7
  0
VERTEX
  5
2144
330
2143
100
AcDbEntity
  8
247
100
AcDbVertex
100
AcDb2dVertex
 10
-40.34092174436268
 20
-8.283430568325558
 30
0.0
  0
VERTEX
  5
2145
330
2143
100
AcDbEntity
  8
247
100
AcDbVertex
100
AcDb2dVertex
 10
-40.39569545652089
 20
-8.109729854214229
 30
0.0
  0
VERTEX
  5
2146
330
2143
100
AcDbEntity
  8
247
100
AcDbVertex
100
AcDb2dVertex
 10
-40.39569545652089
 20
-8.109729854214229
 30
0.0
  0
VERTEX
  5
2147
330
2143
100
AcDbEntity
  8
247
100
AcDbVertex
100
AcDb2dVertex
 10
-40.34092174436268
 20
-8.283430568325558
 30
0.0
  0
SEQEND
  5
2148
330
2143
100
AcDbEntity
  8
247
  0
LINE
  5
2149
102
{ACAD_REACTORS
330
20F3
102
}
330
20B6
100
AcDbEntity
  8
247
100
AcDbLine
 10
-40.42765193845446
 20
-8.310779658901729
 30
0.0
 11
-40.48242565061266
 21
-8.137078944790403
 31
0.0
  0
ARC
  5
214A
102
{ACAD_REACTORS
330
20F3
102
}
330
20B6
100
AcDbEntity
  8
247
100
AcDbCircle
 10
-40.15225215818104
 20
-9.033034602749387
 30
0.0
 40
0.954856538772583
100
AcDbArc
 50
110.22964506332
 51
118.5716889237176
  0
LINE
  5
214B
330
20B6
100
AcDbEntity
  8
246
100
AcDbLine
 10
-43.01794900000004
 20
1.732051000000069
 30
0.0
 11
-40.0
 21
4.75
 31
0.0
  0
LINE
  5
214C
330
20B6
100
AcDbEntity
  8
246
100
AcDbLine
 10
-43.01794900000004
 20
0.866025000000036
 30
0.0
 11
-45.55662499999994
 21
0.866025000000036
 31
0.0
  0
LINE
  5
214D
330
20B6
100
AcDbEntity
  8
246
100
AcDbLine
 10
-43.01794900000004
 20
1.732051000000069
 30
0.0
 11
-45.55662499999994
 21
1.732051000000069
 31
0.0
  0
LINE
  5
214E
330
20B6
100
AcDbEntity
  8
246
100
AcDbLine
 10
-45.55662499999994
 20
1.732051000000069
 30
0.0
 11
-46.0
 21
2.5
 31
0.0
  0
LINE
  5
214F
330
20B6
100
AcDbEntity
  8
246
100
AcDbLine
 10
-46.0
 20
1.332132999999998
 30
0.0
 11
-46.0
 21
2.5
 31
0.0
  0
LINE
  5
2150
330
20B6
100
AcDbEntity
  8
246
100
AcDbLine
 10
-40.0
 20
5.0
 30
0.0
 11
-40.49999999999999
 21
5.5
 31
0.0
  0
LINE
  5
2151
330
20B6
100
AcDbEntity
  8
241
100
AcDbLine
 10
-15.0
 20
-10.0
 30
0.0
 11
-15.0
 21
0.0
 31
0.0
  0
LINE
  5
2152
330
20B6
100
AcDbEntity
  8
241
100
AcDbLine
 10
-12.14999999999997
 20
0.0
 30
0.0
 11
-12.14999999999997
 21
-11.59999999999991
 31
0.0
  0
LINE
  5
2153
330
20B6
100
AcDbEntity
  8
241
100
AcDbLine
 10
-12.5
 20
0.0
 30
0.0
 11
-12.5
 21
-10.5
 31
0.0
  0
LINE
  5
2154
330
20B6
100
AcDbEntity
  8
241
100
AcDbLine
 10
-4.5
 20
-12.17526599999996
 30
0.0
 11
-12.14999999999997
 21
-12.17526599999996
 31
0.0
  0
LINE
  5
2155
330
20B6
100
AcDbEntity
  8
241
100
AcDbLine
 10
-4.5
 20
-13.67526599999996
 30
0.0
 11
-12.14999999999997
 21
-13.67526599999996
 31
0.0
  0
ARC
  5
2156
330
20B6
100
AcDbEntity
  8
240
100
AcDbCircle
 10
-11.45000000000004
 20
-14.29999999999995
 30
0.0
 40
0.7
100
AcDbArc
 50
180.0
 51
270.0
  0
LINE
  5
2157
330
20B6
100
AcDbEntity
  8
240
100
AcDbLine
 10
-12.14999999999997
 20
-14.29999999999995
 30
0.0
 11
-12.14999999999997
 21
-11.59999999999991
 31
0.0
  0
LINE
  5
2158
330
20B6
100
AcDbEntity
  8
242
100
AcDbLine
 10
-15.0
 20
-10.0
 30
0.0
 11
-15.5
 21
-10.5
 31
0.0
  0
LINE
  5
2159
330
20B6
100
AcDbEntity
  8
240
100
AcDbLine
 10
-18.0
 20
-10.5
 30
0.0
 11
-12.5
 21
-10.5
 31
0.0
  0
LINE
  5
215A
330
20B6
100
AcDbEntity
  8
240
100
AcDbLine
 10
-18.0
 20
-10.5
 30
0.0
 11
-18.5
 21
-11.0
 31
0.0
  0
LINE
  5
215B
330
20B6
100
AcDbEntity
  8
242
100
AcDbLine
 10
-12.5
 20
-10.0
 30
0.0
 11
-15.0
 21
-10.0
 31
0.0
  0
LINE
  5
215C
330
20B6
100
AcDbEntity
  8
240
100
AcDbLine
 10
-12.5
 20
-10.5
 30
0.0
 11
-12.5
 21
-11.25
 31
0.0
  0
LINE
  5
215D
330
20B6
100
AcDbEntity
  8
240
100
AcDbLine
 10
-12.5
 20
-11.25
 30
0.0
 11
-12.14999999999997
 21
-11.59999999999991
 31
0.0
  0
LINE
  5
215E
330
20B6
100
AcDbEntity
  8
241
100
AcDbLine
 10
-4.5
 20
-12.17526599999996
 30
0.0
 11
-4.5
 21
-13.67526599999996
 31
0.0
  0
LINE
  5
215F
330
20B6
100
AcDbEntity
  8
246
100
AcDbLine
 10
-27.0
 20
5.866415000000074
 30
0.0
 11
-4.600000000000022
 21
8.25
 31
0.0
  0
LINE
  5
2160
330
20B6
100
AcDbEntity
  8
246
100
AcDbLine
 10
-4.600000000000022
 20
-8.25
 30
0.0
 11
-27.0
 21
-5.895665000000008
 31
0.0
  0
LINE
  5
2161
330
20B6
100
AcDbEntity
  8
246
100
AcDbLine
 10
-27.00000000000002
 20
5.866415000000188
 30
0.0
 11
-27.00000000000057
 21
-5.895664999999951
 31
0.0
  0
ARC
  5
2162
330
20B6
100
AcDbEntity
  8
241
100
AcDbCircle
 10
-32.50000000000001
 20
0.0000000000000009
 30
0.0
 40
11.00000000000001
100
AcDbArc
 50
329.7273410809966
 51
30.27264131890949
  0
LINE
  5
2163
330
20B6
100
AcDbEntity
  8
241
100
AcDbLine
 10
-23.0
 20
-5.545268253204713
 30
0.0
 11
-23.0
 21
5.545268253204713
 31
0.0
  0
LINE
  5
2164
330
20B6
100
AcDbEntity
  8
241
100
AcDbLine
 10
-4.5
 20
1.5
 30
0.0
 11
-4.5
 21
0.0
 31
0.0
  0
LINE
  5
2165
330
20B6
100
AcDbEntity
  8
241
100
AcDbLine
 10
-15.0
 20
10.0
 30
0.0
 11
-15.0
 21
0.0
 31
0.0
  0
LINE
  5
2166
330
20B6
100
AcDbEntity
  8
241
100
AcDbLine
 10
-4.5
 20
-1.5
 30
0.0
 11
-12.14999999999997
 21
-1.5
 31
0.0
  0
LINE
  5
2167
330
20B6
100
AcDbEntity
  8
246
100
AcDbLine
 10
-4.600000000000022
 20
-7.0
 30
0.0
 11
-4.600000000000022
 21
-8.25
 31
0.0
  0
LINE
  5
2168
330
20B6
100
AcDbEntity
  8
241
100
AcDbLine
 10
-4.5
 20
-1.5
 30
0.0
 11
-4.5
 21
0.0
 31
0.0
  0
LINE
  5
2169
330
20B6
100
AcDbEntity
  8
241
100
AcDbLine
 10
-4.5
 20
1.5
 30
0.0
 11
-12.14999999999997
 21
1.5
 31
0.0
  0
LINE
  5
216A
330
20B6
100
AcDbEntity
  8
242
100
AcDbLine
 10
-12.5
 20
10.0
 30
0.0
 11
-15.0
 21
10.0
 31
0.0
  0
LINE
  5
216B
330
20B6
100
AcDbEntity
  8
246
100
AcDbLine
 10
-4.600000000000022
 20
7.0
 30
0.0
 11
-4.600000000000022
 21
8.25
 31
0.0
  0
LINE
  5
216C
330
20B6
100
AcDbEntity
  8
240
100
AcDbLine
 10
-18.49999999999999
 20
11.0
 30
0.0
 11
-87.5
 21
11.0
 31
0.0
  0
LINE
  5
216D
330
20B6
100
AcDbEntity
  8
241
100
AcDbLine
 10
-4.5
 20
13.67526600000007
 30
0.0
 11
-12.14999999999997
 21
13.67526600000007
 31
0.0
  0
LINE
  5
216E
330
20B6
100
AcDbEntity
  8
241
100
AcDbLine
 10
-4.5
 20
12.17526600000008
 30
0.0
 11
-12.14999999999997
 21
12.17526600000008
 31
0.0
  0
ARC
  5
216F
330
20B6
100
AcDbEntity
  8
240
100
AcDbCircle
 10
-11.45000000000004
 20
14.30000000000006
 30
0.0
 40
0.7
100
AcDbArc
 50
90.0
 51
180.0
  0
LINE
  5
2170
330
20B6
100
AcDbEntity
  8
240
100
AcDbLine
 10
-17.99999999999999
 20
10.5
 30
0.0
 11
-12.5
 21
10.5
 31
0.0
  0
LINE
  5
2171
330
20B6
100
AcDbEntity
  8
240
100
AcDbLine
 10
-17.99999999999999
 20
10.5
 30
0.0
 11
-18.49999999999999
 21
11.0
 31
0.0
  0
LINE
  5
2172
330
20B6
100
AcDbEntity
  8
240
100
AcDbLine
 10
-12.14999999999997
 20
14.30000000000006
 30
0.0
 11
-12.14999999999997
 21
11.60000000000002
 31
0.0
  0
LINE
  5
2173
330
20B6
100
AcDbEntity
  8
240
100
AcDbLine
 10
-12.5
 20
11.25
 30
0.0
 11
-12.14999999999997
 21
11.60000000000002
 31
0.0
  0
LINE
  5
2174
330
20B6
100
AcDbEntity
  8
240
100
AcDbLine
 10
-12.5
 20
10.5
 30
0.0
 11
-12.5
 21
11.25
 31
0.0
  0
LINE
  5
2175
330
20B6
100
AcDbEntity
  8
241
100
AcDbLine
 10
-4.5
 20
12.17526600000008
 30
0.0
 11
-4.5
 21
13.67526600000007
 31
0.0
  0
LINE
  5
2176
330
20B6
100
AcDbEntity
  8
240
100
AcDbLine
 10
0.0
 20
13.85147200000005
 30
0.0
 11
0.0
 21
0.0
 31
0.0
  0
LINE
  5
2177
330
20B6
100
AcDbEntity
  8
241
100
AcDbLine
 10
-1.189949999999953
 20
14.50331100000005
 30
0.0
 11
-1.189949999999953
 21
-14.70198699999991
 31
0.0
  0
LINE
  5
2178
330
20B6
100
AcDbEntity
  8
240
100
AcDbLine
 10
0.0
 20
-13.85147199999994
 30
0.0
 11
0.0
 21
0.0
 31
0.0
  0
ARC
  5
2179
330
20B6
100
AcDbEntity
  8
240
100
AcDbCircle
 10
-0.6000000000000228
 20
-13.85147199999994
 30
0.0
 40
0.6
100
AcDbArc
 50
314.9999999999993
 51
0.0
  0
ARC
  5
217A
330
20B6
100
AcDbEntity
  8
240
100
AcDbCircle
 10
-1.189949999999953
 20
-14.29999999999995
 30
0.0
 40
0.7
100
AcDbArc
 50
270.0
 51
314.9999999999993
  0
LINE
  5
217B
330
20B6
100
AcDbEntity
  8
240
100
AcDbLine
 10
-0.6949749999999995
 20
-14.79497499999991
 30
0.0
 11
-0.1757359999999153
 21
-14.27573599999993
 31
0.0
  0
LINE
  5
217C
330
20B6
100
AcDbEntity
  8
246
100
AcDbLine
 10
0.0
 20
-6.922094000000015
 30
0.0
 11
-2.299999999999954
 21
-8.25
 31
0.0
  0
LINE
  5
217D
330
20B6
100
AcDbEntity
  8
246
100
AcDbLine
 10
-2.5
 20
-8.25
 30
0.0
 11
-2.5
 21
-7.0
 31
0.0
  0
LINE
  5
217E
330
20B6
100
AcDbEntity
  8
246
100
AcDbLine
 10
-2.5
 20
-8.25
 30
0.0
 11
-2.299999999999954
 21
-8.25
 31
0.0
  0
LINE
  5
217F
330
20B6
100
AcDbEntity
  8
246
100
AcDbLine
 10
0.0
 20
6.922094000000129
 30
0.0
 11
-2.299999999999954
 21
8.25
 31
0.0
  0
LINE
  5
2180
330
20B6
100
AcDbEntity
  8
246
100
AcDbLine
 10
-2.5
 20
8.25
 30
0.0
 11
-2.5
 21
7.0
 31
0.0
  0
LINE
  5
2181
330
20B6
100
AcDbEntity
  8
246
100
AcDbLine
 10
-2.5
 20
8.25
 30
0.0
 11
-2.299999999999954
 21
8.25
 31
0.0
  0
ARC
  5
2182
330
20B6
100
AcDbEntity
  8
240
100
AcDbCircle
 10
-1.189949999999953
 20
14.30000000000006
 30
0.0
 40
0.7
100
AcDbArc
 50
45.00000000000063
 51
90.0
  0
ARC
  5
2183
330
20B6
100
AcDbEntity
  8
240
100
AcDbCircle
 10
-0.6000000000000228
 20
13.85147200000005
 30
0.0
 40
0.6
100
AcDbArc
 50
0.0
 51
45.00000000000063
  0
LINE
  5
2184
330
20B6
100
AcDbEntity
  8
240
100
AcDbLine
 10
-0.1757359999999153
 20
14.27573600000005
 30
0.0
 11
-0.6949749999999995
 21
14.79497500000002
 31
0.0
  0
ENDBLK
  5
2186
330
20B6
100
AcDbEntity
  8
0
100
AcDbBlockEnd
  0
ENDSEC
  0
SECTION
  2
ENTITIES
  0
TEXT
  5
13C1
330
1A
100
AcDbEntity
  8
241
100
AcDbText
 10
-95.0
 20
48.99999999999998
 30
0.0
 40
5.0
  1
SL22-NBS10-80
  7
YOKO
 11
-95.0
 21
48.99999999999998
 31
0.0
100
AcDbText
 73
     1
  0
DIMENSION
  5
13C3
330
1A
100
AcDbEntity
  8
250
  6
CONTINUOUS
100
AcDbDimension
  2
*D1
 10
21.0
 20
14.99999999999999
 30
0.0
 11
18.49999999999999
 21
0.0000000000000257
 31
0.0
 70
    32
  1
{\H3;\U+2205}<>
  3
BIGT
100
AcDbAlignedDimension
 13
-1.189949999999953
 23
-14.99999999999994
 33
0.0
 14
-1.189949999999953
 24
15.0
 34
0.0
 50
90.0
100
AcDbRotatedDimension
1001
ACAD
1000
DSTYLE
1002
{
1070
    78
1070
     8
1070
   140
1040
3.0
1002
}
  0
DIMENSION
  5
13C4
330
1A
100
AcDbEntity
  8
250
  6
CONTINUOUS
100
AcDbDimension
  2
*D2
 10
-0.0000000000000013
 20
-35.0
 30
0.0
 11
-20.0
 21
-32.5
 31
0.0
 70
    32
  1
35～45
  3
BIGT
100
AcDbAlignedDimension
 13
-40.0
 23
-5.0
 33
0.0
 14
0.0
 24
-13.85147199999994
 34
0.0
100
AcDbRotatedDimension
1001
ACAD
1000
DSTYLE
1002
{
1070
    78
1070
     8
1070
   140
1040
3.0
1002
}
  0
DIMENSION
  5
13C5
330
1A
100
AcDbEntity
  8
250
  6
CONTINUOUS
100
AcDbDimension
  2
*D3
 10
14.0
 20
4.999999999999995
 30
0.0
 11
11.27464379319485
 21
0.730192865609638
 31
0.0
 70
   160
  1
MAX.%%c<>
  3
BIGT
100
AcDbAlignedDimension
 13
0.0
 23
-5.0
 33
0.0
 14
0.0
 24
5.0
 34
0.0
 50
90.0
100
AcDbRotatedDimension
1001
ACAD
1000
DSTYLE
1002
{
1070
   287
1070
     5
1070
    78
1070
     8
1070
   140
1040
3.0
1070
   145
1040
1.0
1070
   279
1070
     2
1070
   289
1070
     3
1002
}
  0
DIMENSION
  5
1E91
330
1A
100
AcDbEntity
  8
250
  6
CONTINUOUS
100
AcDbDimension
  2
*D4
 10
0.0000000000000013
 20
35.0
 30
0.0
 11
-49.0
 21
37.5
 31
0.0
 70
    32
  3
BIGT
100
AcDbAlignedDimension
 13
-98.0
 23
9.000000000000001
 33
0.0
 14
0.0
 24
13.85147200000005
 34
0.0
100
AcDbRotatedDimension
1001
ACAD
1000
DSTYLE
1002
{
1070
    78
1070
     8
1070
   140
1040
3.0
1002
}
  0
DIMENSION
  5
1EA1
330
1A
100
AcDbEntity
  8
250
  6
CONTINUOUS
100
AcDbDimension
  2
*D5
 10
0.0000000000000009
 20
28.0
 30
0.0
 11
-8.999999999999998
 21
30.5
 31
0.0
 70
    32
  3
BIGT
100
AcDbAlignedDimension
 13
-17.99999999999999
 23
10.5
 33
0.0
 14
0.0
 24
13.85147200000005
 34
0.0
100
AcDbRotatedDimension
1001
ACAD
1000
DSTYLE
1002
{
1070
    78
1070
     8
1070
   140
1040
3.0
1002
}
  0
DIMENSION
  5
1EAE
330
1A
100
AcDbEntity
  8
250
  6
CONTINUOUS
100
AcDbDimension
  2
*D6
 10
-17.99999999999999
 20
28.0
 30
0.0
 11
-58.0
 21
30.5
 31
0.0
 70
    32
  3
BIGT
100
AcDbAlignedDimension
 13
-98.0
 23
9.000000000000001
 33
0.0
 14
-17.99999999999999
 24
10.5
 34
0.0
100
AcDbRotatedDimension
1001
ACAD
1000
DSTYLE
1002
{
1070
    78
1070
     8
1070
   140
1040
3.0
1002
}
  0
DIMENSION
  5
1EBD
330
1A
100
AcDbEntity
  8
250
  6
CONTINUOUS
100
AcDbDimension
  2
*D7
 10
-110.0
 20
11.0
 30
0.0
 11
-112.5
 21
-0.0000000000000107
 31
0.0
 70
    32
  1
{\H3;\U+2205}<>
  3
BIGT
100
AcDbAlignedDimension
 13
-87.49999999999998
 23
-11.0
 33
0.0
 14
-87.5
 24
11.0
 34
0.0
 50
90.0
100
AcDbRotatedDimension
1001
ACAD
1000
DSTYLE
1002
{
1070
    78
1070
     8
1070
   140
1040
3.0
1002
}
  0
INSERT
  5
2187
330
1A
100
AcDbEntity
  8
240
100
AcDbBlockReference
  2
A$C78A13EAD
 10
0.0
 20
0.0
 30
0.0
  0
VIEWPORT
  5
22
330
17
100
AcDbEntity
 67
     1
  8
0
100
AcDbViewport
 10
261.5176991150442
 20
148.5
 30
0.0
 40
523.0353982300885
 41
297.0
 68
     1
 69
     1
1001
ACAD
1000
MVIEW
1002
{
1070
    16
1010
0.0
1020
0.0
1030
0.0
1010
0.0
1020
0.0
1030
1.0
1040
0.0
1040
297.0
1040
261.5176991150442
1040
148.5
1040
50.0
1040
0.0
1040
0.0
1070
     0
1070
   100
1070
     1
1070
     1
1070
     0
1070
     0
1070
     0
1070
     0
1040
0.0
1040
0.0
1040
0.0
1040
1.0
1040
1.0
1040
10.0
1040
10.0
1070
     0
1002
{
1002
}
1002
}
  0
ENDSEC
  0
SECTION
  2
OBJECTS
  0
DICTIONARY
  5
C
330
0
100
AcDbDictionary
  3
ACAD_GROUP
350
D
  3
ACAD_LAYOUT
350
565
  3
ACAD_MLINESTYLE
350
E
  3
ACAD_PLOTSETTINGS
350
566
  3
ACAD_PLOTSTYLENAME
350
563
  3
ACDBHEADERROUNDTRIPXREC
350
2190
  3
ACDBVARIABLEDICTIONARY
350
145B
  3
DWGPROPS
350
1622
  3
GRADE_DWG
350
540
  0
DICTIONARY
  5
21B3
330
1A
100
AcDbDictionary
280
     1
  3
ACAD_LAYOUTSELFREF
360
21B4
  0
DICTIONARY
  5
21B1
330
17
100
AcDbDictionary
280
     1
  3
ACAD_LAYOUTSELFREF
360
21B2
  0
DICTIONARY
  5
D
102
{ACAD_REACTORS
330
C
102
}
330
C
100
AcDbDictionary
  3
DREC-1
350
5FC
  3
DREC-2
350
654
  3
DREC-3
350
673
  0
DICTIONARY
  5
565
102
{ACAD_REACTORS
330
C
102
}
330
C
100
AcDbDictionary
  0
DICTIONARY
  5
E
102
{ACAD_REACTORS
330
C
102
}
330
C
100
AcDbDictionary
  3
STANDARD
350
13
  0
DICTIONARY
  5
566
102
{ACAD_REACTORS
330
C
102
}
330
C
100
AcDbDictionary
  0
ACDBDICTIONARYWDFLT
  5
563
102
{ACAD_REACTORS
330
C
102
}
330
C
100
AcDbDictionary
281
     1
  3
Normal
350
564
100
AcDbDictionaryWithDefault
340
564
  0
DICTIONARY
  5
2190
102
{ACAD_REACTORS
330
C
102
}
330
C
100
AcDbDictionary
  3
CEPSNTYPE
350
219A
  3
DIMSTYLEDATA
350
219E
  3
FINGERPRINTGUID
350
219B
  3
HYPERLINKBASE
350
2193
  3
INSUNITS
350
2199
  3
LAYOUTDICT
350
2195
  3
LWETCUNION
350
2198
  3
PLOTSETDICT
350
2196
  3
PLOTSTYLNAMDICT
350
2197
  3
PSVPSCALE
350
219D
  3
PUCSBASE
350
21A1
  3
PUCSORGBACK
350
21A7
  3
PUCSORGBOTTOM
350
21A3
  3
PUCSORGFRONT
350
21A6
  3
PUCSORGLEFT
350
21A4
  3
PUCSORGRIGHT
350
21A5
  3
PUCSORGTOP
350
21A2
  3
PUCSORTHOREF
350
219F
  3
PUCSORTHOVIEW
350
21A0
  3
STYLESHEET
350
2194
  3
TSTACKALIGN
350
2191
  3
TSTACKSIZE
350
2192
  3
UCSBASE
350
21AA
  3
UCSORGBACK
350
21B0
  3
UCSORGBOTTOM
350
21AC
  3
UCSORGFRONT
350
21AF
  3
UCSORGLEFT
350
21AD
  3
UCSORGRIGHT
350
21AE
  3
UCSORGTOP
350
21AB
  3
UCSORTHOREF
350
21A8
  3
UCSORTHOVIEW
350
21A9
  3
VERSIONGUID
350
219C
  0
DICTIONARY
  5
145B
102
{ACAD_REACTORS
330
C
102
}
330
C
100
AcDbDictionary
  3
DIMASSOC
350
145C
  3
SORTENTS
350
177E
  0
XRECORD
  5
1622
102
{ACAD_REACTORS
330
C
102
}
330
C
100
AcDbXrecord
  1
DWGPROPS COOKIE
  2

  3

  4

  6

  7

  8
ymat
  9

300
=
301
=
302
=
303
=
304
=
305
=
306
=
307
=
308
=
309
=
 40
0.0710792824074074
 41
2452180.683445092
 42
2452409.086919479
  1

 90
        0
  0
DICTIONARY
  5
540
102
{ACAD_REACTORS
330
C
102
}
330
C
100
AcDbDictionary
  3
VERSION
350
560
  0
XRECORD
  5
21B4
102
{ACAD_REACTORS
330
21B3
102
}
330
21B3
100
AcDbXrecord
340
1A
  0
XRECORD
  5
21B2
102
{ACAD_REACTORS
330
21B1
102
}
330
21B1
100
AcDbXrecord
340
17
  0
GROUP
  5
5FC
102
{ACAD_REACTORS
330
D
102
}
330
D
100
AcDbGroup
300

 70
     0
 71
     1
1001
GRPNAME
1000
DREC-
1001
GPARA
1000
xsiz
1000
44.182
1000
ysiz
1000
40.677
1000
angl
1000
0
1000
ctyp
1000
0
1000
csiz
1000
5
1000
lfnt
1000
cont
1000
hcnt
1000
hoff
1000
vcnt
1000
voff
1000
opnt
1000
4
1000
dxpt
1000
0
1000
dypt
1000
0
  0
GROUP
  5
654
102
{ACAD_REACTORS
330
D
102
}
330
D
100
AcDbGroup
300

 70
     0
 71
     1
1001
GRPNAME
1000
DREC-
1001
GPARA
1000
xsiz
1000
54.592
1000
ysiz
1000
53.036
1000
angl
1000
0
1000
ctyp
1000
0
1000
csiz
1000
5
1000
lfnt
1000
cont
1000
hcnt
1000
hoff
1000
vcnt
1000
voff
1000
opnt
1000
4
1000
dxpt
1000
0
1000
dypt
1000
0
  0
GROUP
  5
673
102
{ACAD_REACTORS
330
D
102
}
330
D
100
AcDbGroup
300

 70
     0
 71
     1
1001
GRPNAME
1000
DREC-
1001
GPARA
1000
xsiz
1000
30.363
1000
ysiz
1000
36.175
1000
angl
1000
0
1000
ctyp
1000
0
1000
csiz
1000
5
1000
lfnt
1000
cont
1000
hcnt
1000
hoff
1000
vcnt
1000
voff
1000
opnt
1000
4
1000
dxpt
1000
0
1000
dypt
1000
0
  0
MLINESTYLE
  5
13
102
{ACAD_REACTORS
330
E
102
}
330
E
100
AcDbMlineStyle
  2
STANDARD
 70
     0
  3

 62
     0
 51
90.0
 52
90.0
 71
     2
 49
0.5
 62
   256
  6
BYLAYER
 49
-0.5
 62
   256
  6
BYLAYER
  0
ACDBPLACEHOLDER
  5
564
102
{ACAD_REACTORS
330
563
102
}
330
563
100
AcDbPlaceHolder
280
     0
  0
XRECORD
  5
219A
102
{ACAD_REACTORS
330
2190
102
}
330
2190
100
AcDbXrecord
 90
        0
  0
XRECORD
  5
219E
102
{ACAD_REACTORS
330
2190
102
}
330
2190
100
AcDbXrecord
1000
DSTYLE
1002
{
1070
    79
 70
     2
1070
   179
 70
     3
1070
   289
 70
     2
1070
   341
340
594
1070
   342
340
594
1070
   371
 70
    -1
1070
   372
 70
    -1
1002
}
  0
XRECORD
  5
219B
102
{ACAD_REACTORS
330
2190
102
}
330
2190
100
AcDbXrecord
  1
{51294030-9CB4-11D3-8E18-00A0C925D94D}
  0
XRECORD
  5
2193
102
{ACAD_REACTORS
330
2190
102
}
330
2190
100
AcDbXrecord
  1

  0
XRECORD
  5
2199
102
{ACAD_REACTORS
330
2190
102
}
330
2190
100
AcDbXrecord
 90
        0
  0
XRECORD
  5
2195
102
{ACAD_REACTORS
330
2190
102
}
330
2190
100
AcDbXrecord
340
565
  0
XRECORD
  5
2198
102
{ACAD_REACTORS
330
2190
102
}
330
2190
100
AcDbXrecord
 90
    10781
  0
XRECORD
  5
2196
102
{ACAD_REACTORS
330
2190
102
}
330
2190
100
AcDbXrecord
340
566
  0
XRECORD
  5
2197
102
{ACAD_REACTORS
330
2190
102
}
330
2190
100
AcDbXrecord
340
563
  0
XRECORD
  5
219D
102
{ACAD_REACTORS
330
2190
102
}
330
2190
100
AcDbXrecord
 40
0.0
  0
XRECORD
  5
21A1
102
{ACAD_REACTORS
330
2190
102
}
330
2190
100
AcDbXrecord
340
0
  0
XRECORD
  5
21A7
102
{ACAD_REACTORS
330
2190
102
}
330
2190
100
AcDbXrecord
 10
0.0
 20
0.0
 30
0.0
  0
XRECORD
  5
21A3
102
{ACAD_REACTORS
330
2190
102
}
330
2190
100
AcDbXrecord
 10
0.0
 20
0.0
 30
0.0
  0
XRECORD
  5
21A6
102
{ACAD_REACTORS
330
2190
102
}
330
2190
100
AcDbXrecord
 10
0.0
 20
0.0
 30
0.0
  0
XRECORD
  5
21A4
102
{ACAD_REACTORS
330
2190
102
}
330
2190
100
AcDbXrecord
 10
0.0
 20
0.0
 30
0.0
  0
XRECORD
  5
21A5
102
{ACAD_REACTORS
330
2190
102
}
330
2190
100
AcDbXrecord
 10
0.0
 20
0.0
 30
0.0
  0
XRECORD
  5
21A2
102
{ACAD_REACTORS
330
2190
102
}
330
2190
100
AcDbXrecord
 10
0.0
 20
0.0
 30
0.0
  0
XRECORD
  5
219F
102
{ACAD_REACTORS
330
2190
102
}
330
2190
100
AcDbXrecord
340
0
  0
XRECORD
  5
21A0
102
{ACAD_REACTORS
330
2190
102
}
330
2190
100
AcDbXrecord
 70
     0
  0
XRECORD
  5
2194
102
{ACAD_REACTORS
330
2190
102
}
330
2190
100
AcDbXrecord
  1
big.ctb
  0
XRECORD
  5
2191
102
{ACAD_REACTORS
330
2190
102
}
330
2190
100
AcDbXrecord
 90
        1
  0
XRECORD
  5
2192
102
{ACAD_REACTORS
330
2190
102
}
330
2190
100
AcDbXrecord
 90
       70
  0
XRECORD
  5
21AA
102
{ACAD_REACTORS
330
2190
102
}
330
2190
100
AcDbXrecord
340
0
  0
XRECORD
  5
21B0
102
{ACAD_REACTORS
330
2190
102
}
330
2190
100
AcDbXrecord
 10
0.0
 20
0.0
 30
0.0
  0
XRECORD
  5
21AC
102
{ACAD_REACTORS
330
2190
102
}
330
2190
100
AcDbXrecord
 10
0.0
 20
0.0
 30
0.0
  0
XRECORD
  5
21AF
102
{ACAD_REACTORS
330
2190
102
}
330
2190
100
AcDbXrecord
 10
0.0
 20
0.0
 30
0.0
  0
XRECORD
  5
21AD
102
{ACAD_REACTORS
330
2190
102
}
330
2190
100
AcDbXrecord
 10
0.0
 20
0.0
 30
0.0
  0
XRECORD
  5
21AE
102
{ACAD_REACTORS
330
2190
102
}
330
2190
100
AcDbXrecord
 10
0.0
 20
0.0
 30
0.0
  0
XRECORD
  5
21AB
102
{ACAD_REACTORS
330
2190
102
}
330
2190
100
AcDbXrecord
 10
0.0
 20
0.0
 30
0.0
  0
XRECORD
  5
21A8
102
{ACAD_REACTORS
330
2190
102
}
330
2190
100
AcDbXrecord
340
0
  0
XRECORD
  5
21A9
102
{ACAD_REACTORS
330
2190
102
}
330
2190
100
AcDbXrecord
 70
     0
  0
XRECORD
  5
219C
102
{ACAD_REACTORS
330
2190
102
}
330
2190
100
AcDbXrecord
  1
{EDD58F19-688C-11D7-AD80-0010B5C7BFCA}
  0
DICTIONARYVAR
  5
145C
102
{ACAD_REACTORS
330
145B
102
}
330
145B
100
DictionaryVariables
280
     0
  1
1
  0
DICTIONARYVAR
  5
177E
102
{ACAD_REACTORS
330
145B
102
}
330
145B
100
DictionaryVariables
280
     0
  1
96
  0
XRECORD
  5
560
102
{ACAD_REACTORS
330
540
102
}
330
540
100
AcDbXrecord
  1
2.0.0
  0
ENDSEC
  0
EOF
