  0
SECTION
  2
HEADER
  9
$ACADVER
  1
AC1014
  9
$ACADMAINTVER
 70
     9
  9
$DWGCODEPAGE
  3
ANSI_932
  9
$INSBASE
 10
0.0
 20
0.0
 30
0.0
  9
$EXTMIN
 10
-74.01132115769588
 20
-29.0072931447151
 30
-0.0015258207003583
  9
$EXTMAX
 10
22.0277257634184
 20
54.01326026256811
 30
0.0000000349246037
  9
$LIMMIN
 10
0.0
 20
0.0
  9
$LIMMAX
 10
297.0
 20
210.0
  9
$ORTHOMODE
 70
     1
  9
$REGENMODE
 70
     1
  9
$FILLMODE
 70
     1
  9
$QTEXTMODE
 70
     0
  9
$MIRRTEXT
 70
     1
  9
$DRAGMODE
 70
     2
  9
$LTSCALE
 40
10.0
  9
$OSMODE
 70
   613
  9
$ATTMODE
 70
     1
  9
$TEXTSIZE
 40
3.0
  9
$TRACEWID
 40
1.0
  9
$TEXTSTYLE
  7
YOKO
  9
$CLAYER
  8
240
  9
$CELTYPE
  6
BYLAYER
  9
$CECOLOR
 62
   256
  9
$CELTSCALE
 40
1.0
  9
$DELOBJ
 70
     1
  9
$DISPSILH
 70
     0
  9
$DIMSCALE
 40
1.0
  9
$DIMASZ
 40
2.229999999999999
  9
$DIMEXO
 40
0.5
  9
$DIMDLI
 40
2.5
  9
$DIMRND
 40
0.0
  9
$DIMDLE
 40
0.0
  9
$DIMEXE
 40
1.0
  9
$DIMTP
 40
0.0
  9
$DIMTM
 40
0.0
  9
$DIMTXT
 40
3.0
  9
$DIMCEN
 40
0.0
  9
$DIMTSZ
 40
0.0
  9
$DIMTOL
 70
     0
  9
$DIMLIM
 70
     0
  9
$DIMTIH
 70
     0
  9
$DIMTOH
 70
     0
  9
$DIMSE1
 70
     0
  9
$DIMSE2
 70
     0
  9
$DIMTAD
 70
     3
  9
$DIMZIN
 70
     8
  9
$DIMBLK
  1
OPEN
  9
$DIMASO
 70
     1
  9
$DIMSHO
 70
     1
  9
$DIMPOST
  1

  9
$DIMAPOST
  1

  9
$DIMALT
 70
     0
  9
$DIMALTD
 70
     2
  9
$DIMALTF
 40
25.4
  9
$DIMLFAC
 40
1.0
  9
$DIMTOFL
 70
     1
  9
$DIMTVP
 40
0.0
  9
$DIMTIX
 70
     0
  9
$DIMSOXD
 70
     0
  9
$DIMSAH
 70
     0
  9
$DIMBLK1
  1

  9
$DIMBLK2
  1

  9
$DIMSTYLE
  2
BIGT
  9
$DIMCLRD
 70
   256
  9
$DIMCLRE
 70
   256
  9
$DIMCLRT
 70
    40
  9
$DIMTFAC
 40
1.0
  9
$DIMGAP
 40
1.0
  9
$DIMJUST
 70
     0
  9
$DIMSD1
 70
     0
  9
$DIMSD2
 70
     0
  9
$DIMTOLJ
 70
     1
  9
$DIMTZIN
 70
     8
  9
$DIMALTZ
 70
     0
  9
$DIMALTTZ
 70
     0
  9
$DIMFIT
 70
     2
  9
$DIMUPT
 70
     0
  9
$DIMUNIT
 70
     2
  9
$DIMDEC
 70
     3
  9
$DIMTDEC
 70
     3
  9
$DIMALTU
 70
     2
  9
$DIMALTTD
 70
     2
  9
$DIMTXSTY
  7
STANDARD
  9
$DIMAUNIT
 70
     0
  9
$LUNITS
 70
     2
  9
$LUPREC
 70
     3
  9
$SKETCHINC
 40
1.0
  9
$FILLETRAD
 40
1.0
  9
$AUNITS
 70
     0
  9
$AUPREC
 70
     3
  9
$MENU
  1
.
  9
$ELEVATION
 40
0.0
  9
$PELEVATION
 40
0.0
  9
$THICKNESS
 40
0.0
  9
$LIMCHECK
 70
     0
  9
$BLIPMODE
 70
     0
  9
$CHAMFERA
 40
0.3
  9
$CHAMFERB
 40
0.3
  9
$CHAMFERC
 40
0.0
  9
$CHAMFERD
 40
0.0
  9
$SKPOLY
 70
     0
  9
$TDCREATE
 40
2452180.656863055
  9
$TDUPDATE
 40
2452737.388359548
  9
$TDINDWG
 40
0.1364644560
  9
$TDUSRTIMER
 40
0.1364644560
  9
$USRTIMER
 70
     1
  9
$ANGBASE
 50
0.0
  9
$ANGDIR
 70
     0
  9
$PDMODE
 70
    35
  9
$PDSIZE
 40
2.0
  9
$PLINEWID
 40
0.0
  9
$COORDS
 70
     2
  9
$SPLFRAME
 70
     0
  9
$SPLINETYPE
 70
     6
  9
$SPLINESEGS
 70
     8
  9
$ATTDIA
 70
     0
  9
$ATTREQ
 70
     0
  9
$HANDLING
 70
-16383
  9
$HANDSEED
  5
1E23
  9
$SURFTAB1
 70
     6
  9
$SURFTAB2
 70
     6
  9
$SURFTYPE
 70
     6
  9
$SURFU
 70
     6
  9
$SURFV
 70
     6
  9
$UCSNAME
  2

  9
$UCSORG
 10
0.0
 20
0.0
 30
0.0
  9
$UCSXDIR
 10
1.0
 20
0.0
 30
0.0
  9
$UCSYDIR
 10
0.0
 20
1.0
 30
0.0
  9
$PUCSNAME
  2

  9
$PUCSORG
 10
0.0
 20
0.0
 30
0.0
  9
$PUCSXDIR
 10
1.0
 20
0.0
 30
0.0
  9
$PUCSYDIR
 10
0.0
 20
1.0
 30
0.0
  9
$USERI1
 70
     1
  9
$USERI2
 70
     0
  9
$USERI3
 70
     0
  9
$USERI4
 70
     0
  9
$USERI5
 70
     0
  9
$USERR1
 40
0.0
  9
$USERR2
 40
0.0
  9
$USERR3
 40
0.0
  9
$USERR4
 40
0.0
  9
$USERR5
 40
0.0
  9
$WORLDVIEW
 70
     1
  9
$SHADEDGE
 70
     3
  9
$SHADEDIF
 70
    70
  9
$TILEMODE
 70
     1
  9
$MAXACTVP
 70
    16
  9
$PINSBASE
 10
0.0
 20
0.0
 30
0.0
  9
$PLIMCHECK
 70
     0
  9
$PEXTMIN
 10
1.000000000000000E+20
 20
1.000000000000000E+20
 30
1.000000000000000E+20
  9
$PEXTMAX
 10
-1.000000000000000E+20
 20
-1.000000000000000E+20
 30
-1.000000000000000E+20
  9
$PLIMMIN
 10
0.0
 20
0.0
  9
$PLIMMAX
 10
420.0
 20
297.0
  9
$UNITMODE
 70
     0
  9
$VISRETAIN
 70
     0
  9
$PLINEGEN
 70
     0
  9
$PSLTSCALE
 70
     1
  9
$TREEDEPTH
 70
  3020
  9
$PICKSTYLE
 70
     0
  9
$CMLSTYLE
  2
STANDARD
  9
$CMLJUST
 70
     0
  9
$CMLSCALE
 40
1.0
  9
$PROXYGRAPHICS
 70
     1
  9
$MEASUREMENT
 70
     1
  0
ENDSEC
  0
SECTION
  2
CLASSES
  0
CLASS
  1
XRECORD
  2
AcDbXrecord
  3
AutoCAD 2000
 90
        0
280
     0
281
     0
  0
CLASS
  1
ACDBDICTIONARYWDFLT
  2
AcDbDictionaryWithDefault
  3
AutoCAD 2000
 90
        0
280
     0
281
     0
  0
CLASS
  1
ACDBPLACEHOLDER
  2
AcDbPlaceHolder
  3
AutoCAD 2000
 90
        0
280
     0
281
     0
  0
CLASS
  1
LAYOUT
  2
AcDbLayout
  3
AutoCAD 2000
 90
        0
280
     0
281
     0
  0
CLASS
  1
DICTIONARYVAR
  2
AcDbDictionaryVar
  3
AutoCAD 2000
 90
        0
280
     0
281
     0
  0
CLASS
  1
LONG_TRANSACTION
  2
AcDbLongTransaction
  3
AutoCAD 2000
 90
        0
280
     0
281
     0
  0
CLASS
  1
LWPOLYLINE
  2
AcDbPolyline
  3
AutoCAD 2000
 90
        0
280
     0
281
     1
  0
CLASS
  1
HATCH
  2
AcDbHatch
  3
AutoCAD 2000
 90
        0
280
     0
281
     1
  0
CLASS
  1
XRECORD
  2
AcDbXrecord
  3
AutoCAD 2000
 90
        0
280
     0
281
     0
  0
ENDSEC
  0
SECTION
  2
TABLES
  0
TABLE
  2
VPORT
  5
8
330
0
100
AcDbSymbolTable
 70
     2
  0
VPORT
  5
1DF4
330
8
100
AcDbSymbolTableRecord
100
AcDbViewportTableRecord
  2
*ACTIVE
 70
     0
 10
0.0
 20
0.0
 11
1.0
 21
1.0
 12
-25.99179769713873
 22
12.5029835589265
 13
0.0
 23
0.0
 14
7.0
 24
7.0
 15
7.0
 25
7.0
 16
0.0
 26
0.0
 36
1.0
 17
0.0
 27
0.0
 37
0.0
 40
83.63400577236166
 41
1.419235511713933
 42
50.0
 43
0.0
 44
0.0
 50
0.0
 51
0.0
 71
     0
 72
  2000
 73
     1
 74
     0
 75
     0
 76
     1
 77
     0
 78
     0
  0
ENDTAB
  0
TABLE
  2
LTYPE
  5
5
330
0
100
AcDbSymbolTable
 70
     3
  0
LTYPE
  5
14
330
5
100
AcDbSymbolTableRecord
100
AcDbLinetypeTableRecord
  2
BYBLOCK
 70
     0
  3

 72
    65
 73
     0
 40
0.0
  0
LTYPE
  5
15
330
5
100
AcDbSymbolTableRecord
100
AcDbLinetypeTableRecord
  2
BYLAYER
 70
     0
  3

 72
    65
 73
     0
 40
0.0
  0
LTYPE
  5
16
330
5
100
AcDbSymbolTableRecord
100
AcDbLinetypeTableRecord
  2
CONTINUOUS
 70
     0
  3
Solid line
 72
    65
 73
     0
 40
0.0
  0
LTYPE
  5
258
330
5
100
AcDbSymbolTableRecord
100
AcDbLinetypeTableRecord
  2
CENTER2
 70
     0
  3
___ _ ___ _ ___ _ ___ _ ___ _ ___ _ ___ _ ___ _
 72
    65
 73
     4
 40
1.125
 49
0.75
 74
     0
 49
-0.125
 74
     0
 49
0.125
 74
     0
 49
-0.125
 74
     0
  0
LTYPE
  5
25D
330
5
100
AcDbSymbolTableRecord
100
AcDbLinetypeTableRecord
  2
PHANTOM2
 70
     0
  3
___ _ _ ___ _ _ ___ _ _ ___ _ _ ___ _ _ ___ _ _
 72
    65
 73
     6
 40
1.25
 49
0.625
 74
     0
 49
-0.125
 74
     0
 49
0.125
 74
     0
 49
-0.125
 74
     0
 49
0.125
 74
     0
 49
-0.125
 74
     0
  0
ENDTAB
  0
TABLE
  2
LAYER
  5
2
330
0
100
AcDbSymbolTable
 70
    10
  0
LAYER
  5
F
330
2
100
AcDbSymbolTableRecord
100
AcDbLayerTableRecord
  2
0
 70
     0
 62
     7
  6
CONTINUOUS
  0
LAYER
  5
1AA
330
2
100
AcDbSymbolTableRecord
100
AcDbLayerTableRecord
  2
240
 70
     0
 62
     4
  6
CONTINUOUS
  0
LAYER
  5
1AB
330
2
100
AcDbSymbolTableRecord
100
AcDbLayerTableRecord
  2
241
 70
     0
 62
   211
  6
CONTINUOUS
  0
LAYER
  5
1AC
330
2
100
AcDbSymbolTableRecord
100
AcDbLayerTableRecord
  2
242
 70
     0
 62
     3
  6
CONTINUOUS
  0
LAYER
  5
1AF
330
2
100
AcDbSymbolTableRecord
100
AcDbLayerTableRecord
  2
245
 70
     0
 62
     2
  6
CENTER2
  0
LAYER
  5
21A
330
2
100
AcDbSymbolTableRecord
100
AcDbLayerTableRecord
  2
246
 70
     0
 62
     3
  6
PHANTOM2
  0
LAYER
  5
21B
330
2
100
AcDbSymbolTableRecord
100
AcDbLayerTableRecord
  2
247
 70
     0
 62
    60
  6
CONTINUOUS
  0
LAYER
  5
21E
330
2
100
AcDbSymbolTableRecord
100
AcDbLayerTableRecord
  2
250
 70
     0
 62
     3
  6
CONTINUOUS
  0
LAYER
  5
5C4
330
2
100
AcDbSymbolTableRecord
100
AcDbLayerTableRecord
  2
DEFPOINTS
 70
     0
 62
     7
  6
CONTINUOUS
  0
ENDTAB
  0
TABLE
  2
STYLE
  5
3
330
0
100
AcDbSymbolTable
 70
     2
  0
STYLE
  5
10
330
3
100
AcDbSymbolTableRecord
100
AcDbTextStyleTableRecord
  2
STANDARD
 70
     0
 40
0.0
 41
1.0
 50
0.0
 71
     0
 42
3.0
  3
romans.shx
  4
BIGFONT.SHX
  0
STYLE
  5
339
330
3
100
AcDbSymbolTableRecord
100
AcDbTextStyleTableRecord
  2
YOKO
 70
     0
 40
0.0
 41
1.0
 50
0.0
 71
     0
 42
3.0
  3
romans.shx
  4
extfont.shx
  0
ENDTAB
  0
TABLE
  2
VIEW
  5
6
330
0
100
AcDbSymbolTable
 70
     0
  0
ENDTAB
  0
TABLE
  2
UCS
  5
7
330
0
100
AcDbSymbolTable
 70
     0
  0
ENDTAB
  0
TABLE
  2
APPID
  5
9
330
0
100
AcDbSymbolTable
 70
     9
  0
APPID
  5
11
330
9
100
AcDbSymbolTableRecord
100
AcDbRegAppTableRecord
  2
ACAD
 70
     0
  0
APPID
  5
1B1
330
9
100
AcDbSymbolTableRecord
100
AcDbRegAppTableRecord
  2
GLOBAL
 70
     0
  0
APPID
  5
2A4
330
9
100
AcDbSymbolTableRecord
100
AcDbRegAppTableRecord
  2
DETAIL
 70
     0
  0
APPID
  5
5FD
330
9
100
AcDbSymbolTableRecord
100
AcDbRegAppTableRecord
  2
GRPNAME
 70
     0
  0
APPID
  5
5FE
330
9
100
AcDbSymbolTableRecord
100
AcDbRegAppTableRecord
  2
GPARA
 70
     0
  0
APPID
  5
7C3
330
9
100
AcDbSymbolTableRecord
100
AcDbRegAppTableRecord
  2
ITEMNAME
 70
     0
  0
APPID
  5
7C4
330
9
100
AcDbSymbolTableRecord
100
AcDbRegAppTableRecord
  2
HATCH_TYPE
 70
     0
  0
APPID
  5
7C5
330
9
100
AcDbSymbolTableRecord
100
AcDbRegAppTableRecord
  2
HATCH_DISPLAY
 70
     0
  0
APPID
  5
7C6
330
9
100
AcDbSymbolTableRecord
100
AcDbRegAppTableRecord
  2
HATCH_DISTANCE
 70
     0
  0
ENDTAB
  0
TABLE
  2
DIMSTYLE
  5
A
330
0
100
AcDbSymbolTable
 70
     2
  0
DIMSTYLE
105
48F
330
A
100
AcDbSymbolTableRecord
100
AcDbDimStyleTableRecord
  2
STANDARD
 70
     0
  3

  4

  5

  6

  7

 40
1.0
 41
2.0
 42
2.0
 43
3.75
 44
2.0
 45
0.0
 46
0.0
 47
0.0
 48
0.0
140
4.0
141
0.09
142
0.0
143
25.4
144
1.0
145
0.0
146
1.0
147
1.0
 71
     0
 72
     0
 73
     1
 74
     1
 75
     0
 76
     0
 77
     0
 78
     8
170
     0
171
     2
172
     0
173
     1
174
     0
175
     0
176
   256
177
   256
178
   256
270
     2
271
     3
272
     4
273
     2
274
     2
340
10
275
     0
280
     0
281
     0
282
     0
283
     1
284
     8
285
     0
286
     0
287
     3
288
     0
  0
DIMSTYLE
105
59A
102
{ACAD_REACTORS
330
15CD
330
15CE
330
15CF
330
1C97
330
1CAF
330
1CDC
330
1CE9
102
}
330
A
100
AcDbSymbolTableRecord
100
AcDbDimStyleTableRecord
  2
BIGT
 70
     0
  3

  4

  5
OPEN
  6

  7

 40
1.0
 41
2.229999999999999
 42
0.5
 43
2.5
 44
1.0
 45
0.0
 46
0.0
 47
0.0
 48
0.0
140
3.5
141
0.0
142
0.0
143
25.4
144
1.0
145
0.0
146
1.0
147
1.0
 71
     0
 72
     0
 73
     0
 74
     0
 75
     0
 76
     0
 77
     3
 78
     9
170
     0
171
     2
172
     1
173
     0
174
     0
175
     0
176
   256
177
   256
178
    40
270
     2
271
     3
272
     3
273
     2
274
     2
340
10
275
     0
280
     0
281
     0
282
     0
283
     1
284
     8
285
     0
286
     0
287
     2
288
     0
  0
ENDTAB
  0
TABLE
  2
BLOCK_RECORD
  5
1
330
0
100
AcDbSymbolTable
 70
     9
  0
BLOCK_RECORD
  5
1A
102
{ACAD_XDICTIONARY
360
1E18
102
}
330
1
100
AcDbSymbolTableRecord
100
AcDbBlockTableRecord
  2
*MODEL_SPACE
  0
BLOCK_RECORD
  5
17
102
{ACAD_XDICTIONARY
360
1E16
102
}
330
1
100
AcDbSymbolTableRecord
100
AcDbBlockTableRecord
  2
*PAPER_SPACE
  0
BLOCK_RECORD
  5
594
330
1
100
AcDbSymbolTableRecord
100
AcDbBlockTableRecord
  2
_OPEN
  0
BLOCK_RECORD
  5
15F5
330
1
100
AcDbSymbolTableRecord
100
AcDbBlockTableRecord
  2
*D1
  0
BLOCK_RECORD
  5
1601
330
1
100
AcDbSymbolTableRecord
100
AcDbBlockTableRecord
  2
*D2
  0
BLOCK_RECORD
  5
160D
330
1
100
AcDbSymbolTableRecord
100
AcDbBlockTableRecord
  2
*D3
  0
BLOCK_RECORD
  5
1C98
330
1
100
AcDbSymbolTableRecord
100
AcDbBlockTableRecord
  2
*D4
  0
BLOCK_RECORD
  5
1CB0
330
1
100
AcDbSymbolTableRecord
100
AcDbBlockTableRecord
  2
*D5
  0
BLOCK_RECORD
  5
1CDD
330
1
100
AcDbSymbolTableRecord
100
AcDbBlockTableRecord
  2
*D6
  0
BLOCK_RECORD
  5
1CEA
330
1
100
AcDbSymbolTableRecord
100
AcDbBlockTableRecord
  2
*D7
  0
BLOCK_RECORD
  5
1D1A
330
1
100
AcDbSymbolTableRecord
100
AcDbBlockTableRecord
  2
A$C7F5F28F3
  0
ENDTAB
  0
ENDSEC
  0
SECTION
  2
BLOCKS
  0
BLOCK
  5
1B
330
1A
100
AcDbEntity
  8
0
100
AcDbBlockBegin
  2
*MODEL_SPACE
 70
     0
 10
0.0
 20
0.0
 30
0.0
  3
*MODEL_SPACE
  1

  0
ENDBLK
  5
1C
330
1A
100
AcDbEntity
  8
0
100
AcDbBlockEnd
  0
BLOCK
  5
18
330
17
100
AcDbEntity
 67
     1
  8
0
100
AcDbBlockBegin
  2
*PAPER_SPACE
 70
     0
 10
0.0
 20
0.0
 30
0.0
  3
*PAPER_SPACE
  1

  0
ENDBLK
  5
19
330
17
100
AcDbEntity
 67
     1
  8
0
100
AcDbBlockEnd
  0
BLOCK
  5
598
330
594
100
AcDbEntity
  8
0
100
AcDbBlockBegin
  2
_OPEN
 70
     0
 10
0.0
 20
0.0
 30
0.0
  3
_OPEN
  1

  0
LINE
  5
595
330
594
100
AcDbEntity
  8
0
  6
BYBLOCK
 62
     0
100
AcDbLine
 10
-1.0
 20
0.1666666666666666
 30
0.0
 11
0.0
 21
0.0
 31
0.0
  0
LINE
  5
596
330
594
100
AcDbEntity
  8
0
  6
BYBLOCK
 62
     0
100
AcDbLine
 10
-1.0
 20
-0.1666666666666666
 30
0.0
 11
0.0
 21
0.0
 31
0.0
  0
LINE
  5
597
330
594
100
AcDbEntity
  8
0
  6
BYBLOCK
 62
     0
100
AcDbLine
 10
0.0
 20
0.0
 30
0.0
 11
-1.0
 21
0.0
 31
0.0
  0
ENDBLK
  5
599
330
594
100
AcDbEntity
  8
0
100
AcDbBlockEnd
  0
BLOCK
  5
15FF
330
15F5
100
AcDbEntity
  8
0
100
AcDbBlockBegin
  2
*D1
 70
     1
 10
0.0
 20
0.0
 30
0.0
  3
*D1
  1

  0
LINE
  5
1E1A
330
15F5
100
AcDbEntity
  8
250
  6
CONTINUOUS
100
AcDbLine
 10
0.5
 20
-4.0
 30
0.0
 11
14.99999999999997
 21
-4.000000000000004
 31
0.0
  0
LINE
  5
1E1B
330
15F5
100
AcDbEntity
  8
250
  6
CONTINUOUS
100
AcDbLine
 10
0.5
 20
4.0
 30
0.0
 11
14.99999999999997
 21
3.999999999999996
 31
0.0
  0
LINE
  5
1E1C
330
15F5
100
AcDbEntity
  8
250
  6
CONTINUOUS
100
AcDbLine
 10
13.99999999999997
 20
-1.770000000000004
 30
0.0
 11
13.99999999999997
 21
1.769999999999996
 31
0.0
  0
MTEXT
  5
1E1D
330
15F5
100
AcDbEntity
  8
250
  6
CONTINUOUS
 62
    40
100
AcDbMText
 10
11.70134870559908
 20
3.831170461371073
 30
0.0
 40
3.0
 41
0.0
 71
     5
 72
     1
  1
\A1;MAX.%%c8
 11
0.0000000000000001
 21
1.0
 31
0.0
  0
INSERT
  5
1E1E
330
15F5
100
AcDbEntity
  8
250
  6
CONTINUOUS
100
AcDbBlockReference
  2
_OPEN
 10
13.99999999999997
 20
-4.000000000000003
 30
0.0
 41
2.229999999999999
 42
2.229999999999999
 43
2.229999999999999
 50
270.0
  0
INSERT
  5
1E1F
330
15F5
100
AcDbEntity
  8
250
  6
CONTINUOUS
100
AcDbBlockReference
  2
_OPEN
 10
13.99999999999997
 20
3.999999999999996
 30
0.0
 41
2.229999999999999
 42
2.229999999999999
 43
2.229999999999999
 50
90.0
  0
POINT
  5
1E20
330
15F5
100
AcDbEntity
  8
DEFPOINTS
  6
CONTINUOUS
 62
     0
100
AcDbPoint
 10
0.0
 20
-4.0
 30
0.0
  0
POINT
  5
1E21
330
15F5
100
AcDbEntity
  8
DEFPOINTS
  6
CONTINUOUS
 62
     0
100
AcDbPoint
 10
0.0
 20
4.0
 30
0.0
  0
POINT
  5
1E22
330
15F5
100
AcDbEntity
  8
DEFPOINTS
  6
CONTINUOUS
 62
     0
100
AcDbPoint
 10
13.99999999999997
 20
3.999999999999996
 30
0.0
  0
ENDBLK
  5
1600
330
15F5
100
AcDbEntity
  8
0
100
AcDbBlockEnd
  0
BLOCK
  5
160B
330
1601
100
AcDbEntity
  8
0
100
AcDbBlockBegin
  2
*D2
 70
     1
 10
0.0
 20
0.0
 30
0.0
  3
*D2
  1

  0
LINE
  5
1649
330
1601
100
AcDbEntity
  8
250
  6
CONTINUOUS
100
AcDbLine
 10
-0.4485280000000671
 20
-12.50000000000002
 30
0.0
 11
21.99999999999996
 21
-12.50000000000003
 31
0.0
  0
LINE
  5
164A
330
1601
100
AcDbEntity
  8
250
  6
CONTINUOUS
100
AcDbLine
 10
-0.4485280000000671
 20
12.50000000000005
 30
0.0
 11
21.99999999999997
 21
12.50000000000005
 31
0.0
  0
LINE
  5
164B
330
1601
100
AcDbEntity
  8
250
  6
CONTINUOUS
100
AcDbLine
 10
20.99999999999996
 20
-10.27000000000003
 30
0.0
 11
20.99999999999997
 21
10.27000000000005
 31
0.0
  0
INSERT
  5
164C
330
1601
100
AcDbEntity
  8
250
  6
CONTINUOUS
100
AcDbBlockReference
  2
_OPEN
 10
20.99999999999996
 20
-12.50000000000003
 30
0.0
 41
2.229999999999999
 42
2.229999999999999
 43
2.229999999999999
 50
270.0
  0
INSERT
  5
164D
330
1601
100
AcDbEntity
  8
250
  6
CONTINUOUS
100
AcDbBlockReference
  2
_OPEN
 10
20.99999999999997
 20
12.50000000000005
 30
0.0
 41
2.229999999999999
 42
2.229999999999999
 43
2.229999999999999
 50
90.0
  0
MTEXT
  5
164E
330
1601
100
AcDbEntity
  8
250
  6
CONTINUOUS
 62
    40
100
AcDbMText
 10
18.49999999999996
 20
0.0000000000000115
 30
0.0
 40
3.0
 41
0.0
 71
     5
 72
     1
  1
\A1;{\H3;\U+2205}25
 11
0.0000000000000001
 21
1.0
 31
0.0
1001
ACAD
1000
MTEXTBEGIN
1070
    73
1070
     1
1070
    44
1040
1.0
1070
    74
1070
     0
1000
MTEXTEND
  0
POINT
  5
164F
330
1601
100
AcDbEntity
  8
DEFPOINTS
  6
CONTINUOUS
 62
     0
100
AcDbPoint
 10
-0.948528000000067
 20
-12.50000000000002
 30
0.0
  0
POINT
  5
1650
330
1601
100
AcDbEntity
  8
DEFPOINTS
  6
CONTINUOUS
 62
     0
100
AcDbPoint
 10
-0.948528000000067
 20
12.50000000000005
 30
0.0
  0
POINT
  5
1651
330
1601
100
AcDbEntity
  8
DEFPOINTS
  6
CONTINUOUS
 62
     0
100
AcDbPoint
 10
20.99999999999997
 20
12.50000000000005
 30
0.0
  0
ENDBLK
  5
160C
330
1601
100
AcDbEntity
  8
0
100
AcDbBlockEnd
  0
BLOCK
  5
1617
330
160D
100
AcDbEntity
  8
0
100
AcDbBlockBegin
  2
*D3
 70
     1
 10
0.0
 20
0.0
 30
0.0
  3
*D3
  1

  0
LINE
  5
1652
330
160D
100
AcDbEntity
  8
250
  6
CONTINUOUS
100
AcDbLine
 10
-35.0
 20
-4.5
 30
0.0
 11
-35.0
 21
-29.0
 31
0.0
  0
LINE
  5
1653
330
160D
100
AcDbEntity
  8
250
  6
CONTINUOUS
100
AcDbLine
 10
0.0
 20
-12.09289300000006
 30
0.0
 11
-0.0000000000000011
 21
-29.0
 31
0.0
  0
LINE
  5
1654
330
160D
100
AcDbEntity
  8
250
  6
CONTINUOUS
100
AcDbLine
 10
-32.77
 20
-28.0
 30
0.0
 11
-2.23
 21
-28.0
 31
0.0
  0
INSERT
  5
1655
330
160D
100
AcDbEntity
  8
250
  6
CONTINUOUS
100
AcDbBlockReference
  2
_OPEN
 10
-35.0
 20
-28.0
 30
0.0
 41
2.229999999999999
 42
2.229999999999999
 43
2.229999999999999
 50
180.0
  0
INSERT
  5
1656
330
160D
100
AcDbEntity
  8
250
  6
CONTINUOUS
100
AcDbBlockReference
  2
_OPEN
 10
-0.000000000000001
 20
-28.0
 30
0.0
 41
2.229999999999999
 42
2.229999999999999
 43
2.229999999999999
  0
MTEXT
  5
1657
330
160D
100
AcDbEntity
  8
250
  6
CONTINUOUS
 62
    40
100
AcDbMText
 10
-17.5
 20
-25.5
 30
0.0
 40
3.0
 41
0.0
 71
     5
 72
     1
  1
\A1;26～42
1001
ACAD
1000
MTEXTBEGIN
1070
    73
1070
     1
1070
    44
1040
1.0
1070
    74
1070
     0
1000
MTEXTEND
  0
POINT
  5
1658
330
160D
100
AcDbEntity
  8
DEFPOINTS
  6
CONTINUOUS
 62
     0
100
AcDbPoint
 10
-35.0
 20
-4.0
 30
0.0
  0
POINT
  5
1659
330
160D
100
AcDbEntity
  8
DEFPOINTS
  6
CONTINUOUS
 62
     0
100
AcDbPoint
 10
0.0
 20
-11.59289300000006
 30
0.0
  0
POINT
  5
165A
330
160D
100
AcDbEntity
  8
DEFPOINTS
  6
CONTINUOUS
 62
     0
100
AcDbPoint
 10
-0.000000000000001
 20
-28.0
 30
0.0
  0
ENDBLK
  5
1618
330
160D
100
AcDbEntity
  8
0
100
AcDbBlockEnd
  0
BLOCK
  5
1CA2
330
1C98
100
AcDbEntity
  8
0
100
AcDbBlockBegin
  2
*D4
 70
     1
 10
0.0
 20
0.0
 30
0.0
  3
*D4
  1

  0
LINE
  5
1D0F
330
1C98
100
AcDbEntity
  8
250
  6
CONTINUOUS
100
AcDbLine
 10
-47.0
 20
-10.0
 30
0.0
 11
-71.0
 21
-9.999999999999992
 31
0.0
  0
LINE
  5
1D10
330
1C98
100
AcDbEntity
  8
250
  6
CONTINUOUS
100
AcDbLine
 10
-47.00000000000001
 20
10.0
 30
0.0
 11
-71.0
 21
10.0
 31
0.0
  0
LINE
  5
1D11
330
1C98
100
AcDbEntity
  8
250
  6
CONTINUOUS
100
AcDbLine
 10
-70.0
 20
-7.769999999999992
 30
0.0
 11
-70.0
 21
7.770000000000006
 31
0.0
  0
INSERT
  5
1D12
330
1C98
100
AcDbEntity
  8
250
  6
CONTINUOUS
100
AcDbBlockReference
  2
_OPEN
 10
-70.0
 20
-9.999999999999992
 30
0.0
 41
2.229999999999999
 42
2.229999999999999
 43
2.229999999999999
 50
270.0
  0
INSERT
  5
1D13
330
1C98
100
AcDbEntity
  8
250
  6
CONTINUOUS
100
AcDbBlockReference
  2
_OPEN
 10
-70.0
 20
10.0
 30
0.0
 41
2.229999999999999
 42
2.229999999999999
 43
2.229999999999999
 50
90.0
  0
MTEXT
  5
1D14
330
1C98
100
AcDbEntity
  8
250
  6
CONTINUOUS
 62
    40
100
AcDbMText
 10
-72.5
 20
-0.0000000000000043
 30
0.0
 40
3.0
 41
0.0
 71
     5
 72
     1
  1
\A1;{\H3;\U+2205}20
 11
0.0000000000000001
 21
1.0
 31
0.0
1001
ACAD
1000
MTEXTBEGIN
1070
    73
1070
     1
1070
    44
1040
1.0
1070
    74
1070
     0
1000
MTEXTEND
  0
POINT
  5
1D15
330
1C98
100
AcDbEntity
  8
DEFPOINTS
  6
CONTINUOUS
 62
     0
100
AcDbPoint
 10
-46.5
 20
-10.0
 30
0.0
  0
POINT
  5
1D16
330
1C98
100
AcDbEntity
  8
DEFPOINTS
  6
CONTINUOUS
 62
     0
100
AcDbPoint
 10
-46.50000000000001
 20
10.0
 30
0.0
  0
POINT
  5
1D17
330
1C98
100
AcDbEntity
  8
DEFPOINTS
  6
CONTINUOUS
 62
     0
100
AcDbPoint
 10
-70.0
 20
10.0
 30
0.0
  0
ENDBLK
  5
1CA3
330
1C98
100
AcDbEntity
  8
0
100
AcDbBlockEnd
  0
BLOCK
  5
1CBA
330
1CB0
100
AcDbEntity
  8
0
100
AcDbBlockBegin
  2
*D5
 70
     1
 10
0.0
 20
0.0
 30
0.0
  3
*D5
  1

  0
LINE
  5
1CB1
330
1CB0
100
AcDbEntity
  8
250
  6
CONTINUOUS
100
AcDbLine
 10
-56.5
 20
8.699999999999999
 30
0.0
 11
-56.5
 21
36.0
 31
0.0
  0
LINE
  5
1CB2
330
1CB0
100
AcDbEntity
  8
250
  6
CONTINUOUS
100
AcDbLine
 10
0.0
 20
12.092893
 30
0.0
 11
0.0000000000000015
 21
36.0
 31
0.0
  0
LINE
  5
1CB3
330
1CB0
100
AcDbEntity
  8
250
  6
CONTINUOUS
100
AcDbLine
 10
-54.27
 20
35.0
 30
0.0
 11
-2.229999999999998
 21
35.0
 31
0.0
  0
INSERT
  5
1CB4
330
1CB0
100
AcDbEntity
  8
250
  6
CONTINUOUS
100
AcDbBlockReference
  2
_OPEN
 10
-56.5
 20
35.0
 30
0.0
 41
2.229999999999999
 42
2.229999999999999
 43
2.229999999999999
 50
180.0
  0
INSERT
  5
1CB5
330
1CB0
100
AcDbEntity
  8
250
  6
CONTINUOUS
100
AcDbBlockReference
  2
_OPEN
 10
0.0000000000000014
 20
35.0
 30
0.0
 41
2.229999999999999
 42
2.229999999999999
 43
2.229999999999999
  0
MTEXT
  5
1CB6
330
1CB0
100
AcDbEntity
  8
250
  6
CONTINUOUS
 62
    40
100
AcDbMText
 10
-28.25
 20
37.5
 30
0.0
 40
3.0
 41
0.0
 71
     5
 72
     1
  1
\A1;56.5
1001
ACAD
1000
MTEXTBEGIN
1070
    73
1070
     1
1070
    44
1040
1.0
1070
    74
1070
     0
1000
MTEXTEND
  0
POINT
  5
1CB7
330
1CB0
100
AcDbEntity
  8
DEFPOINTS
  6
CONTINUOUS
 62
     0
100
AcDbPoint
 10
-56.5
 20
8.199999999999999
 30
0.0
  0
POINT
  5
1CB8
330
1CB0
100
AcDbEntity
  8
DEFPOINTS
  6
CONTINUOUS
 62
     0
100
AcDbPoint
 10
0.0
 20
11.592893
 30
0.0
  0
POINT
  5
1CB9
330
1CB0
100
AcDbEntity
  8
DEFPOINTS
  6
CONTINUOUS
 62
     0
100
AcDbPoint
 10
0.0000000000000014
 20
35.0
 30
0.0
  0
ENDBLK
  5
1CBB
330
1CB0
100
AcDbEntity
  8
0
100
AcDbBlockEnd
  0
BLOCK
  5
1CE7
330
1CDD
100
AcDbEntity
  8
0
100
AcDbBlockBegin
  2
*D6
 70
     1
 10
0.0
 20
0.0
 30
0.0
  3
*D6
  1

  0
LINE
  5
1CDE
330
1CDD
100
AcDbEntity
  8
250
  6
CONTINUOUS
100
AcDbLine
 10
-15.5
 20
9.5
 30
0.0
 11
-15.49999999999999
 21
29.0
 31
0.0
  0
LINE
  5
1CDF
330
1CDD
100
AcDbEntity
  8
250
  6
CONTINUOUS
100
AcDbLine
 10
0.0
 20
12.092893
 30
0.0
 11
0.0000000000000011
 21
29.0
 31
0.0
  0
LINE
  5
1CE0
330
1CDD
100
AcDbEntity
  8
250
  6
CONTINUOUS
100
AcDbLine
 10
-13.26999999999999
 20
28.0
 30
0.0
 11
-2.229999999999999
 21
28.0
 31
0.0
  0
INSERT
  5
1CE1
330
1CDD
100
AcDbEntity
  8
250
  6
CONTINUOUS
100
AcDbBlockReference
  2
_OPEN
 10
-15.49999999999999
 20
28.0
 30
0.0
 41
2.229999999999999
 42
2.229999999999999
 43
2.229999999999999
 50
180.0
  0
INSERT
  5
1CE2
330
1CDD
100
AcDbEntity
  8
250
  6
CONTINUOUS
100
AcDbBlockReference
  2
_OPEN
 10
0.000000000000001
 20
28.0
 30
0.0
 41
2.229999999999999
 42
2.229999999999999
 43
2.229999999999999
  0
MTEXT
  5
1CE3
330
1CDD
100
AcDbEntity
  8
250
  6
CONTINUOUS
 62
    40
100
AcDbMText
 10
-7.749999999999998
 20
30.5
 30
0.0
 40
3.0
 41
0.0
 71
     5
 72
     1
  1
\A1;15.5
1001
ACAD
1000
MTEXTBEGIN
1070
    73
1070
     1
1070
    44
1040
1.0
1070
    74
1070
     0
1000
MTEXTEND
  0
POINT
  5
1CE4
330
1CDD
100
AcDbEntity
  8
DEFPOINTS
  6
CONTINUOUS
 62
     0
100
AcDbPoint
 10
-15.5
 20
9.0
 30
0.0
  0
POINT
  5
1CE5
330
1CDD
100
AcDbEntity
  8
DEFPOINTS
  6
CONTINUOUS
 62
     0
100
AcDbPoint
 10
0.0
 20
11.592893
 30
0.0
  0
POINT
  5
1CE6
330
1CDD
100
AcDbEntity
  8
DEFPOINTS
  6
CONTINUOUS
 62
     0
100
AcDbPoint
 10
0.000000000000001
 20
28.0
 30
0.0
  0
ENDBLK
  5
1CE8
330
1CDD
100
AcDbEntity
  8
0
100
AcDbBlockEnd
  0
BLOCK
  5
1CF4
330
1CEA
100
AcDbEntity
  8
0
100
AcDbBlockBegin
  2
*D7
 70
     1
 10
0.0
 20
0.0
 30
0.0
  3
*D7
  1

  0
LINE
  5
1CEB
330
1CEA
100
AcDbEntity
  8
250
  6
CONTINUOUS
100
AcDbLine
 10
-56.5
 20
8.699999999999999
 30
0.0
 11
-56.5
 21
29.0
 31
0.0
  0
LINE
  5
1CEC
330
1CEA
100
AcDbEntity
  8
250
  6
CONTINUOUS
100
AcDbLine
 10
-15.5
 20
9.5
 30
0.0
 11
-15.49999999999999
 21
29.0
 31
0.0
  0
LINE
  5
1CED
330
1CEA
100
AcDbEntity
  8
250
  6
CONTINUOUS
100
AcDbLine
 10
-54.27
 20
28.0
 30
0.0
 11
-17.72999999999999
 21
28.0
 31
0.0
  0
INSERT
  5
1CEE
330
1CEA
100
AcDbEntity
  8
250
  6
CONTINUOUS
100
AcDbBlockReference
  2
_OPEN
 10
-56.5
 20
28.0
 30
0.0
 41
2.229999999999999
 42
2.229999999999999
 43
2.229999999999999
 50
180.0
  0
INSERT
  5
1CEF
330
1CEA
100
AcDbEntity
  8
250
  6
CONTINUOUS
100
AcDbBlockReference
  2
_OPEN
 10
-15.49999999999999
 20
28.0
 30
0.0
 41
2.229999999999999
 42
2.229999999999999
 43
2.229999999999999
  0
MTEXT
  5
1CF0
330
1CEA
100
AcDbEntity
  8
250
  6
CONTINUOUS
 62
    40
100
AcDbMText
 10
-36.0
 20
30.5
 30
0.0
 40
3.0
 41
0.0
 71
     5
 72
     1
  1
\A1;41
1001
ACAD
1000
MTEXTBEGIN
1070
    73
1070
     1
1070
    44
1040
1.0
1070
    74
1070
     0
1000
MTEXTEND
  0
POINT
  5
1CF1
330
1CEA
100
AcDbEntity
  8
DEFPOINTS
  6
CONTINUOUS
 62
     0
100
AcDbPoint
 10
-56.5
 20
8.199999999999999
 30
0.0
  0
POINT
  5
1CF2
330
1CEA
100
AcDbEntity
  8
DEFPOINTS
  6
CONTINUOUS
 62
     0
100
AcDbPoint
 10
-15.5
 20
9.0
 30
0.0
  0
POINT
  5
1CF3
330
1CEA
100
AcDbEntity
  8
DEFPOINTS
  6
CONTINUOUS
 62
     0
100
AcDbPoint
 10
-15.49999999999999
 20
28.0
 30
0.0
  0
ENDBLK
  5
1CF5
330
1CEA
100
AcDbEntity
  8
0
100
AcDbBlockEnd
  0
BLOCK
  5
1DEA
330
1D1A
100
AcDbEntity
  8
0
100
AcDbBlockBegin
  2
A$C7F5F28F3
 70
     0
 10
0.0
 20
0.0
 30
0.0
  3
A$C7F5F28F3
  1

  0
LINE
  5
1D1B
330
1D1A
100
AcDbEntity
  8
245
100
AcDbLine
 10
-58.30625762368867
 20
0.0
 30
0.0
 11
1.762483772419045
 21
0.0
 31
0.0
  0
LINE
  5
1D1C
330
1D1A
100
AcDbEntity
  8
242
100
AcDbLine
 10
-21.49999999999999
 20
5.267826876426372
 30
0.0
 11
-56.5
 21
-5.267826876426376
 31
0.0
  0
LINE
  5
1D1D
330
1D1A
100
AcDbEntity
  8
242
100
AcDbLine
 10
-56.5
 20
5.267826876426376
 30
0.0
 11
-21.49999999999999
 21
-5.267826876426376
 31
0.0
  0
LINE
  5
1D1E
330
1D1A
100
AcDbEntity
  8
241
100
AcDbLine
 10
-21.49999999999999
 20
-5.267826876426376
 30
0.0
 11
-56.5
 21
-5.267826876426376
 31
0.0
  0
LINE
  5
1D1F
330
1D1A
100
AcDbEntity
  8
241
100
AcDbLine
 10
-21.49999999999999
 20
5.267826876426376
 30
0.0
 11
-56.5
 21
5.267826876426376
 31
0.0
  0
LINE
  5
1D20
330
1D1A
100
AcDbEntity
  8
240
100
AcDbLine
 10
-56.2
 20
-8.5
 30
0.0
 11
-48.0
 21
-8.500000000000001
 31
0.0
  0
LINE
  5
1D21
330
1D1A
100
AcDbEntity
  8
240
100
AcDbLine
 10
-56.2
 20
8.5
 30
0.0
 11
-48.0
 21
8.500000000000001
 31
0.0
  0
LINE
  5
1D22
330
1D1A
100
AcDbEntity
  8
240
100
AcDbLine
 10
-56.5
 20
-8.199999999999999
 30
0.0
 11
-56.5
 21
8.199999999999999
 31
0.0
  0
LINE
  5
1D23
330
1D1A
100
AcDbEntity
  8
240
100
AcDbLine
 10
-56.5
 20
-8.199999999999999
 30
0.0
 11
-56.2
 21
-8.5
 31
0.0
  0
LINE
  5
1D24
330
1D1A
100
AcDbEntity
  8
240
100
AcDbLine
 10
-56.5
 20
8.199999999999999
 30
0.0
 11
-56.2
 21
8.5
 31
0.0
  0
TEXT
  5
1D25
330
1D1A
100
AcDbEntity
  8
247
100
AcDbText
 10
-35.24195854163717
 20
-8.434210234403128
 30
0.0
 40
1.5
  1
SL20-NBS8-40
  7
YOKO
 11
-35.24195854163717
 21
-8.434210234403128
 31
0.0
100
AcDbText
 73
     1
  0
LINE
  5
1D26
330
1D1A
100
AcDbEntity
  8
240
100
AcDbLine
 10
-46.5
 20
-10.0
 30
0.0
 11
-16.5
 21
-10.0
 31
0.0
  0
LINE
  5
1D27
330
1D1A
100
AcDbEntity
  8
240
100
AcDbLine
 10
-46.50000000000001
 20
10.0
 30
0.0
 11
-16.5
 21
10.0
 31
0.0
  0
LINE
  5
1D28
330
1D1A
100
AcDbEntity
  8
246
100
AcDbLine
 10
-48.0
 20
-2.900000000000034
 30
0.0
 11
-48.0
 21
2.899999999999977
 31
0.0
  0
LINE
  5
1D29
330
1D1A
100
AcDbEntity
  8
246
100
AcDbLine
 10
-35.0
 20
4.0
 30
0.0
 11
-35.0
 21
-4.0
 31
0.0
  0
LINE
  5
1D2A
330
1D1A
100
AcDbEntity
  8
246
100
AcDbLine
 10
-37.30662400000005
 20
-1.443376
 30
0.0
 11
-35.0
 21
-3.75
 31
0.0
  0
HATCH
  5
1D2B
330
1D1A
100
AcDbEntity
  8
247
100
AcDbHatch
 10
0.0
 20
0.0
 30
0.0
210
0.0
220
0.0
230
1.0
  2
ANSI31
 70
     0
 71
     1
 91
        1
 92
       33
 93
       10
 72
     1
 10
-40.18607400991372
 20
-6.79528562559734
 11
-40.23822473623208
 21
-6.977164287706716
 72
     1
 10
-40.56167596914224
 20
-6.79528562559734
 11
-40.18607400991372
 21
-6.79528562559734
 72
     1
 10
-40.56167596914224
 20
-6.977164287706716
 11
-40.23822473623208
 21
-6.977164287706716
 72
     2
 10
-40.56167596914225
 20
-7.750141735216481
 40
0.7729774475097657
 50
90.0
 51
270.0
 73
     1
 72
     2
 10
-40.56167596914225
 20
-7.750141735216481
 40
0.9548561096191406
 50
90.0
 51
270.0
 73
     1
 72
     1
 10
-40.56167596914224
 20
-8.704998054731492
 11
-36.86956247426918
 21
-8.704998054731492
 72
     1
 10
-40.56167596914224
 20
-8.523119397302968
 11
-36.86956247426918
 21
-8.523119397302968
 72
     2
 10
-36.86956247426921
 20
-7.750141735216481
 40
0.9548561096191406
 50
270.0
 51
464.7707939660941
 73
     1
 72
     2
 10
-36.86956247426921
 20
-7.750141735216481
 40
0.7729774475097657
 50
270.0
 51
464.1274364964119
 73
     1
 72
     1
 10
-37.05823206045083
 20
-7.000537700792653
 11
-37.11300577260904
 21
-6.826836986681325
 97
       10
330
1D70
330
1D74
330
1D73
330
1D51
330
1D2C
330
1D58
330
1D59
330
1D36
330
1D37
330
1D91
 75
     0
 76
     1
 52
360.0
 41
0.045
 77
     0
 78
     1
 53
44.99999999999996
 43
-95.4265260706132
 44
-15.79249355330115
 45
-0.101027881362028
 46
0.101027881362028
 79
     0
 98
        1
 10
-95.4265260706132
 20
-15.79249355330115
  0
ARC
  5
1D2C
102
{ACAD_REACTORS
330
1D2B
102
}
330
1D1A
100
AcDbEntity
  8
247
100
AcDbCircle
 10
-40.56167596914225
 20
-7.750141735216481
 30
0.0
 40
0.9548561096191406
100
AcDbArc
 50
90.0
 51
270.0
  0
LINE
  5
1D2D
330
1D1A
100
AcDbEntity
  8
246
100
AcDbLine
 10
-44.70000000000005
 20
-4.200000000000045
 30
0.0
 11
-35.20000000000004
 21
-4.200000000000045
 31
0.0
  0
LINE
  5
1D2E
330
1D1A
100
AcDbEntity
  8
246
100
AcDbLine
 10
-44.40000000000003
 20
-4.5
 30
0.0
 11
-35.5
 21
-4.5
 31
0.0
  0
LINE
  5
1D2F
330
1D1A
100
AcDbEntity
  8
240
100
AcDbLine
 10
-46.5
 20
-10.0
 30
0.0
 11
-48.0
 21
-8.500000000000001
 31
0.0
  0
LINE
  5
1D30
330
1D1A
100
AcDbEntity
  8
246
100
AcDbLine
 10
-44.40000000000003
 20
-4.5
 30
0.0
 11
-45.0
 21
-3.900000000000034
 31
0.0
  0
LINE
  5
1D31
330
1D1A
100
AcDbEntity
  8
246
100
AcDbLine
 10
-47.0
 20
-3.900000000000034
 30
0.0
 11
-45.0
 21
-3.900000000000034
 31
0.0
  0
ARC
  5
1D32
330
1D1A
100
AcDbEntity
  8
246
100
AcDbCircle
 10
-47.0
 20
-2.900000000000034
 30
0.0
 40
1.0
100
AcDbArc
 50
180.0
 51
270.0
  0
HATCH
  5
1D33
330
1D1A
100
AcDbEntity
  8
247
100
AcDbHatch
 10
0.0
 20
0.0
 30
0.0
210
0.0
220
0.0
230
1.0
  2
ANSI31
 70
     0
 71
     1
 91
        1
 92
       33
 93
       15
 72
     1
 10
-37.14496225454263
 20
-7.027886791368825
 11
-37.19973596670083
 21
-6.854186077257497
 72
     2
 10
-36.86956247426921
 20
-7.750141735216481
 40
0.7729795932769776
 50
110.8721834020771
 51
132.5419489373867
 73
     1
 72
     2
 10
-37.58308328725749
 20
-7.186323375841482
 40
0.1909725040197372
 50
1.710121382062763
 51
163.9983983544485
 73
     1
 72
     1
 10
-38.01177667715005
 20
-7.988503856798512
 11
-37.76665796377115
 21
-7.133678264757497
 72
     2
 10
-37.82820200063639
 20
-8.04114210142742
 40
0.1909723699092865
 50
164.0002730571839
 51
344.0002730571839
 73
     1
 72
     1
 10
-37.64462732412271
 20
-8.093780346056325
 11
-37.52783578969888
 21
-7.686482830187184
 72
     1
 10
-37.67919992544106
 20
-7.686482830187184
 11
-37.52783578969888
 21
-7.686482830187184
 72
     1
 10
-37.67919992544106
 20
-7.686482830187184
 11
-37.62704919912271
 21
-7.504604168077809
 72
     1
 10
-37.62704919912271
 20
-7.504604168077809
 11
-37.09726785756997
 21
-7.504604168077809
 72
     1
 10
-37.36324686147622
 20
-8.43218006624828
 11
-37.09726785756997
 21
-7.504604168077809
 72
     1
 10
-37.46993784048012
 20
-8.325495953699453
 11
-37.36324686147622
 21
-8.43218006624828
 72
     2
 10
-37.80867380239421
 20
-7.841081066271168
 40
0.5911056518554688
 50
163.9997507017293
 51
304.9638732916317
 73
     1
 72
     2
 10
-36.84224771596842
 20
-7.872158641954763
 40
1.546847534179687
 50
155.2051773698404
 51
172.7948259620522
 73
     1
 72
     2
 10
-37.67829355337077
 20
-7.386384410997731
 40
0.5910996437072754
 50
53.44401219705756
 51
164.0001843876852
 73
     1
 72
     2
 10
-36.86956247426921
 20
-7.750141735216481
 40
0.954856538772583
 50
110.22964506332
 51
118.5716889237176
 73
     1
 97
       15
330
1D93
330
1D78
330
1D94
330
1D55
330
1D56
330
1D66
330
1D64
330
1D34
330
1D95
330
1D35
330
1D65
330
1D57
330
1D4E
330
1D67
330
1D92
 75
     0
 76
     1
 52
360.0
 41
0.045
 77
     0
 78
     1
 53
44.99999999999996
 43
-95.4265260706132
 44
-15.79249355330115
 45
-0.101027881362028
 46
0.101027881362028
 79
     0
 98
        1
 10
-95.4265260706132
 20
-15.79249355330115
  0
LINE
  5
1D34
102
{ACAD_REACTORS
330
1D33
102
}
330
1D1A
100
AcDbEntity
  8
247
100
AcDbLine
 10
-37.67919992544106
 20
-7.686482830187184
 30
0.0
 11
-37.62704919912271
 21
-7.504604168077809
 31
0.0
  0
LINE
  5
1D35
102
{ACAD_REACTORS
330
1D33
102
}
330
1D1A
100
AcDbEntity
  8
247
100
AcDbLine
 10
-37.36324686147622
 20
-8.43218006624828
 30
0.0
 11
-37.09726785756997
 21
-7.504604168077809
 31
0.0
  0
ARC
  5
1D36
102
{ACAD_REACTORS
330
1D2B
102
}
330
1D1A
100
AcDbEntity
  8
247
100
AcDbCircle
 10
-36.86956247426921
 20
-7.750141735216481
 30
0.0
 40
0.9548561096191406
100
AcDbArc
 50
270.0
 51
104.7707939660941
  0
ARC
  5
1D37
102
{ACAD_REACTORS
330
1D2B
102
}
330
1D1A
100
AcDbEntity
  8
247
100
AcDbCircle
 10
-36.86956247426921
 20
-7.750141735216481
 30
0.0
 40
0.7729774475097657
100
AcDbArc
 50
270.0
 51
104.1274364964119
  0
LINE
  5
1D38
330
1D1A
100
AcDbEntity
  8
247
100
AcDbLine
 10
-39.1607131395524
 20
-8.43218006624828
 30
0.0
 11
-38.74870523549965
 21
-6.995346660753591
 31
0.0
  0
POLYLINE
  5
1D39
330
1D1A
100
AcDbEntity
  8
247
100
AcDb2dPolyline
 66
     1
 10
0.0
 20
0.0
 30
0.0
 70
     1
1001
HATCH_DISTANCE
1040
1.0
1001
HATCH_DISPLAY
1070
     0
1001
HATCH_TYPE
1070
     7
  0
VERTEX
  5
1D3A
330
1D39
100
AcDbEntity
  8
247
100
AcDbVertex
100
AcDb2dVertex
 10
-38.75756296255046
 20
-6.79528562559734
 30
0.0
  0
VERTEX
  5
1D3B
330
1D39
100
AcDbEntity
  8
247
100
AcDbVertex
100
AcDb2dVertex
 10
-38.8149321947282
 20
-6.995346660753591
 30
0.0
  0
VERTEX
  5
1D3C
330
1D39
100
AcDbEntity
  8
247
100
AcDbVertex
100
AcDb2dVertex
 10
-38.74870523549968
 20
-6.995346660753591
 30
0.0
  0
VERTEX
  5
1D3D
330
1D39
100
AcDbEntity
  8
247
100
AcDbVertex
100
AcDb2dVertex
 10
-39.16071313955241
 20
-8.43218006624828
 30
0.0
  0
VERTEX
  5
1D3E
330
1D39
100
AcDbEntity
  8
247
100
AcDbVertex
100
AcDb2dVertex
 10
-38.75391687490397
 20
-8.43218006624828
 30
0.0
  0
VERTEX
  5
1D3F
330
1D39
100
AcDbEntity
  8
247
100
AcDbVertex
100
AcDb2dVertex
 10
-38.28454660512858
 20
-6.79528562559734
 30
0.0
  0
SEQEND
  5
1D40
330
1D39
100
AcDbEntity
  8
247
  0
POLYLINE
  5
1D41
330
1D1A
100
AcDbEntity
  8
247
100
AcDb2dPolyline
 66
     1
 10
0.0
 20
0.0
 30
0.0
 70
     1
  0
VERTEX
  5
1D42
330
1D41
100
AcDbEntity
  8
247
100
AcDbVertex
100
AcDb2dVertex
 10
-38.75756296255046
 20
-6.79528562559734
 30
0.0
  0
VERTEX
  5
1D43
330
1D41
100
AcDbEntity
  8
247
100
AcDbVertex
100
AcDb2dVertex
 10
-38.8149321947282
 20
-6.995346660753591
 30
0.0
  0
VERTEX
  5
1D44
330
1D41
100
AcDbEntity
  8
247
100
AcDbVertex
100
AcDb2dVertex
 10
-38.74870523549968
 20
-6.995346660753591
 30
0.0
  0
VERTEX
  5
1D45
330
1D41
100
AcDbEntity
  8
247
100
AcDbVertex
100
AcDb2dVertex
 10
-39.16071313955241
 20
-8.43218006624828
 30
0.0
  0
VERTEX
  5
1D46
330
1D41
100
AcDbEntity
  8
247
100
AcDbVertex
100
AcDb2dVertex
 10
-38.75391687490397
 20
-8.43218006624828
 30
0.0
  0
VERTEX
  5
1D47
330
1D41
100
AcDbEntity
  8
247
100
AcDbVertex
100
AcDb2dVertex
 10
-38.28454660512858
 20
-6.79528562559734
 30
0.0
  0
SEQEND
  5
1D48
330
1D41
100
AcDbEntity
  8
247
  0
HATCH
  5
1D49
330
1D1A
100
AcDbEntity
  8
247
100
AcDbHatch
 10
0.0
 20
0.0
 30
0.0
210
0.0
220
0.0
230
1.0
  2
ANSI31
 70
     0
 71
     0
 91
        1
 92
        7
 72
     0
 73
     1
 93
        6
 10
-38.28454660512857
 20
-6.795285625597339
 10
-38.75756296255044
 20
-6.795285625597339
 10
-38.81493219472817
 20
-6.995346660753589
 10
-38.74870523549965
 20
-6.995346660753589
 10
-39.1607131395524
 20
-8.432180066248278
 10
-38.75391687490396
 20
-8.432180066248278
 97
        0
 75
     0
 76
     1
 52
360.0
 41
0.045
 77
     0
 78
     1
 53
44.99999999999996
 43
-95.4265260706132
 44
-15.79249355330115
 45
-0.101027881362028
 46
0.101027881362028
 79
     0
 47
0.0134348504236232
 98
        1
 10
-38.70978862435103
 20
-7.570871599596589
  0
ARC
  5
1D4A
330
1D1A
100
AcDbEntity
  8
247
100
AcDbCircle
 10
-39.50286859609538
 20
-7.2499754144157
 30
0.0
 40
0.4546936511993409
100
AcDbArc
 50
287.6695775473979
 51
90.23615984267159
  0
ARC
  5
1D4B
330
1D1A
100
AcDbEntity
  8
247
100
AcDbCircle
 10
-39.70577921010905
 20
-7.231793041368825
 30
0.0
 40
0.2728103756904602
100
AcDbArc
 50
261.6626016879294
 51
66.33815509518976
  0
LINE
  5
1D4C
330
1D1A
100
AcDbEntity
  8
247
100
AcDbLine
 10
-39.71839460931603
 20
-7.769522094881278
 30
0.0
 11
-39.06754568475621
 21
-7.118673170321448
 31
0.0
  0
LINE
  5
1D4D
330
1D1A
100
AcDbEntity
  8
247
100
AcDbLine
 10
-39.64786289942495
 20
-7.901046147714236
 30
0.0
 11
-39.0514750938661
 21
-7.30465834215538
 31
0.0
  0
ARC
  5
1D4E
102
{ACAD_REACTORS
330
1D33
102
}
330
1D1A
100
AcDbEntity
  8
247
100
AcDbCircle
 10
-36.84224771596842
 20
-7.872158641954763
 30
0.0
 40
1.546847534179687
100
AcDbArc
 50
155.2051773698404
 51
172.7948259620522
  0
LINE
  5
1D4F
330
1D1A
100
AcDbEntity
  8
247
100
AcDbLine
 10
-38.75391687490396
 20
-8.43218006624828
 30
0.0
 11
-38.28454660512857
 21
-6.79528562559734
 31
0.0
  0
LINE
  5
1D50
330
1D1A
100
AcDbEntity
  8
247
100
AcDbLine
 10
-40.46623911001138
 20
-8.43218006624828
 30
0.0
 11
-40.04901956655454
 21
-6.977164287707261
 31
0.0
  0
ARC
  5
1D51
102
{ACAD_REACTORS
330
1D2B
102
}
330
1D1A
100
AcDbEntity
  8
247
100
AcDbCircle
 10
-40.56167596914225
 20
-7.750141735216481
 30
0.0
 40
0.7729774475097657
100
AcDbArc
 50
90.0
 51
270.0
  0
LINE
  5
1D52
330
1D1A
100
AcDbEntity
  8
247
100
AcDbLine
 10
-40.41925481140519
 20
-8.268326534246385
 30
0.0
 11
-39.64970712855174
 21
-7.498778851392899
 31
0.0
  0
LINE
  5
1D53
330
1D1A
100
AcDbEntity
  8
247
100
AcDbLine
 10
-40.25679206539284
 20
-7.701752262785873
 30
0.0
 11
-39.62014122406118
 21
-7.065101421454221
 31
0.0
  0
LINE
  5
1D54
330
1D1A
100
AcDbEntity
  8
247
100
AcDbLine
 10
-40.33802343839901
 20
-7.98503939851613
 30
0.0
 11
-39.7013699158431
 21
-7.34838587596024
 31
0.0
  0
LINE
  5
1D55
102
{ACAD_REACTORS
330
1D33
102
}
330
1D1A
100
AcDbEntity
  8
247
100
AcDbLine
 10
-38.01177667715005
 20
-7.988503856798512
 30
0.0
 11
-37.76665796377115
 21
-7.133678264757497
 31
0.0
  0
ARC
  5
1D56
102
{ACAD_REACTORS
330
1D33
102
}
330
1D1A
100
AcDbEntity
  8
247
100
AcDbCircle
 10
-37.82820200063639
 20
-8.04114210142742
 30
0.0
 40
0.1909723699092865
100
AcDbArc
 50
164.0002730571839
 51
344.0002730571839
  0
ARC
  5
1D57
102
{ACAD_REACTORS
330
1D33
102
}
330
1D1A
100
AcDbEntity
  8
247
100
AcDbCircle
 10
-37.80867380239421
 20
-7.841081066271168
 30
0.0
 40
0.5911056518554688
100
AcDbArc
 50
163.9997507017293
 51
304.9638732916317
  0
LINE
  5
1D58
102
{ACAD_REACTORS
330
1D2B
102
}
330
1D1A
100
AcDbEntity
  8
247
100
AcDbLine
 10
-40.56167596914224
 20
-8.704998054731492
 30
0.0
 11
-36.86956247426918
 21
-8.704998054731492
 31
0.0
  0
LINE
  5
1D59
102
{ACAD_REACTORS
330
1D2B
102
}
330
1D1A
100
AcDbEntity
  8
247
100
AcDbLine
 10
-40.56167596914224
 20
-8.523119397302968
 30
0.0
 11
-36.86956247426918
 21
-8.523119397302968
 31
0.0
  0
LINE
  5
1D5A
330
1D1A
100
AcDbEntity
  8
247
100
AcDbLine
 10
-39.1607131395524
 20
-8.43218006624828
 30
0.0
 11
-38.75391687490396
 21
-8.43218006624828
 31
0.0
  0
LINE
  5
1D5B
330
1D1A
100
AcDbEntity
  8
247
100
AcDbLine
 10
-39.53873899527953
 20
-8.398089531740993
 30
0.0
 11
-39.29087889893613
 21
-8.150229435397578
 31
0.0
  0
LINE
  5
1D5C
330
1D1A
100
AcDbEntity
  8
247
100
AcDbLine
 10
-39.7748852925109
 20
-8.432180066248315
 30
0.0
 11
-39.26069806209552
 21
-7.917992835832899
 31
0.0
  0
ARC
  5
1D5D
330
1D1A
100
AcDbEntity
  8
247
100
AcDbCircle
 10
-39.7114783678239
 20
-7.977490062853201
 30
0.0
 40
0.4546897888183594
100
AcDbArc
 50
270.0
 51
40.32984065416724
  0
LINE
  5
1D5E
330
1D1A
100
AcDbEntity
  8
247
100
AcDbLine
 10
-40.17899681795903
 20
-8.43218006624828
 30
0.0
 11
-39.94506032413603
 21
-8.198243572425313
 31
0.0
  0
LINE
  5
1D5F
330
1D1A
100
AcDbEntity
  8
247
100
AcDbLine
 10
-40.38105258068307
 20
-8.43218006624828
 30
0.0
 11
-39.86383313667291
 21
-7.914960622238107
 31
0.0
  0
LINE
  5
1D60
330
1D1A
100
AcDbEntity
  8
247
100
AcDbLine
 10
-39.80489693574159
 20
-7.709418347612176
 30
0.0
 11
-39.95394690667064
 21
-8.229235871877188
 31
0.0
  0
LINE
  5
1D61
330
1D1A
100
AcDbEntity
  8
247
100
AcDbLine
 10
-39.97694105523498
 20
-8.43218006624828
 30
0.0
 11
-39.30958689132035
 21
-7.764825902333677
 31
0.0
  0
LINE
  5
1D62
330
1D1A
100
AcDbEntity
  8
247
100
AcDbLine
 10
-40.46623911001138
 20
-8.43218006624828
 30
0.0
 11
-39.71147836782389
 21
-8.43218006624828
 31
0.0
  0
ARC
  5
1D63
330
1D1A
100
AcDbEntity
  8
247
100
AcDbCircle
 10
-39.91438898183757
 20
-7.959300823351247
 30
0.0
 40
0.2728181809186935
100
AcDbArc
 50
261.6628542111488
 51
66.33819215911005
  0
LINE
  5
1D64
102
{ACAD_REACTORS
330
1D33
102
}
330
1D1A
100
AcDbEntity
  8
247
100
AcDbLine
 10
-37.67919992544106
 20
-7.686482830187184
 30
0.0
 11
-37.52783578969888
 21
-7.686482830187184
 31
0.0
  0
LINE
  5
1D65
102
{ACAD_REACTORS
330
1D33
102
}
330
1D1A
100
AcDbEntity
  8
247
100
AcDbLine
 10
-37.46993784048012
 20
-8.325495953699453
 30
0.0
 11
-37.36324686147622
 21
-8.43218006624828
 31
0.0
  0
LINE
  5
1D66
102
{ACAD_REACTORS
330
1D33
102
}
330
1D1A
100
AcDbEntity
  8
247
100
AcDbLine
 10
-37.64462732412271
 20
-8.093780346056325
 30
0.0
 11
-37.52783578969888
 21
-7.686482830187184
 31
0.0
  0
ARC
  5
1D67
102
{ACAD_REACTORS
330
1D33
102
}
330
1D1A
100
AcDbEntity
  8
247
100
AcDbCircle
 10
-37.67829355337077
 20
-7.386384410997731
 30
0.0
 40
0.5910996437072754
100
AcDbArc
 50
53.44401219705756
 51
164.0001843876852
  0
LINE
  5
1D68
330
1D1A
100
AcDbEntity
  8
247
100
AcDbLine
 10
-38.81493219472817
 20
-6.995346660753591
 30
0.0
 11
-38.75756296255044
 21
-6.79528562559734
 31
0.0
  0
LINE
  5
1D69
330
1D1A
100
AcDbEntity
  8
247
100
AcDbLine
 10
-38.81493219472817
 20
-6.995346660753591
 30
0.0
 11
-38.74870523549965
 21
-6.995346660753591
 31
0.0
  0
LINE
  5
1D6A
330
1D1A
100
AcDbEntity
  8
247
100
AcDbLine
 10
-39.438793400085
 20
-7.287865122926154
 30
0.0
 11
-39.13443701754541
 21
-6.983508740386559
 31
0.0
  0
LINE
  5
1D6B
330
1D1A
100
AcDbEntity
  8
247
100
AcDbLine
 10
-39.46210508067031
 20
-7.109121040787419
 30
0.0
 11
-39.23531583054449
 21
-6.8823317906616
 31
0.0
  0
LINE
  5
1D6C
330
1D1A
100
AcDbEntity
  8
247
100
AcDbLine
 10
-39.55770505235925
 20
-7.00266524975235
 30
0.0
 11
-39.37012856457865
 21
-6.815088761971753
 31
0.0
  0
LINE
  5
1D6D
330
1D1A
100
AcDbEntity
  8
247
100
AcDbLine
 10
-39.5962893347682
 20
-6.981918136101807
 30
0.0
 11
-39.74533685367719
 21
-7.501720242517046
 31
0.0
  0
LINE
  5
1D6E
330
1D1A
100
AcDbEntity
  8
247
100
AcDbLine
 10
-38.75756296255044
 20
-6.79528562559734
 30
0.0
 11
-38.28454660512857
 21
-6.79528562559734
 31
0.0
  0
LINE
  5
1D6F
330
1D1A
100
AcDbEntity
  8
247
100
AcDbLine
 10
-40.13837137848585
 20
-6.97716428770675
 30
0.0
 11
-39.95649271637649
 21
-6.795285625597375
 31
0.0
  0
LINE
  5
1D70
102
{ACAD_REACTORS
330
1D2B
102
}
330
1D1A
100
AcDbEntity
  8
247
100
AcDbLine
 10
-40.18607400991372
 20
-6.79528562559734
 30
0.0
 11
-40.23822473623208
 21
-6.977164287706716
 31
0.0
  0
LINE
  5
1D71
330
1D1A
100
AcDbEntity
  8
247
100
AcDbLine
 10
-40.09147485830228
 20
-6.79528562559734
 30
0.0
 11
-40.14362558462096
 21
-6.977164287706716
 31
0.0
  0
LINE
  5
1D72
330
1D1A
100
AcDbEntity
  8
247
100
AcDbLine
 10
-40.14362558462096
 20
-6.977164287706716
 30
0.0
 11
-40.04901956655454
 21
-6.977164287707261
 31
0.0
  0
LINE
  5
1D73
102
{ACAD_REACTORS
330
1D2B
102
}
330
1D1A
100
AcDbEntity
  8
247
100
AcDbLine
 10
-40.56167596914224
 20
-6.977164287706716
 30
0.0
 11
-40.23822473623208
 21
-6.977164287706716
 31
0.0
  0
LINE
  5
1D74
102
{ACAD_REACTORS
330
1D2B
102
}
330
1D1A
100
AcDbEntity
  8
247
100
AcDbLine
 10
-40.56167596914224
 20
-6.79528562559734
 30
0.0
 11
-40.18607400991372
 21
-6.79528562559734
 31
0.0
  0
LINE
  5
1D75
330
1D1A
100
AcDbEntity
  8
247
100
AcDbLine
 10
-40.17556069238664
 20
-7.41846512705565
 30
0.0
 11
-39.55238119092838
 21
-6.795285625597409
 31
0.0
  0
LINE
  5
1D76
330
1D1A
100
AcDbEntity
  8
247
100
AcDbLine
 10
-40.09432931938046
 20
-7.135177991325394
 30
0.0
 11
-39.75443695365244
 21
-6.795285625597409
 31
0.0
  0
LINE
  5
1D77
330
1D1A
100
AcDbEntity
  8
247
100
AcDbLine
 10
-40.09147485830228
 20
-6.79528562559734
 30
0.0
 11
-39.50474273199155
 21
-6.795285625597409
 31
0.0
  0
ARC
  5
1D78
102
{ACAD_REACTORS
330
1D33
102
}
330
1D1A
100
AcDbEntity
  8
247
100
AcDbCircle
 10
-36.86956247426921
 20
-7.750141735216481
 30
0.0
 40
0.7729795932769776
100
AcDbArc
 50
110.8721834020771
 51
132.5419489373867
  0
POLYLINE
  5
1D79
330
1D1A
100
AcDbEntity
  8
247
100
AcDb2dPolyline
 66
     1
 10
0.0
 20
0.0
 30
0.0
 70
     1
1001
HATCH_DISTANCE
1040
1.0
1001
HATCH_DISPLAY
1070
     0
1001
HATCH_TYPE
1070
     7
  0
VERTEX
  5
1D7A
330
1D79
100
AcDbEntity
  8
247
100
AcDbVertex
100
AcDb2dVertex
 10
-37.05823206045085
 20
-7.000537700792653
 30
0.0
  0
VERTEX
  5
1D7B
330
1D79
100
AcDbEntity
  8
247
100
AcDbVertex
100
AcDb2dVertex
 10
-37.11300577260905
 20
-6.826836986681325
 30
0.0
  0
VERTEX
  5
1D7C
330
1D79
100
AcDbEntity
  8
247
100
AcDbVertex
100
AcDb2dVertex
 10
-37.11300577260905
 20
-6.826836986681325
 30
0.0
  0
VERTEX
  5
1D7D
330
1D79
100
AcDbEntity
  8
247
100
AcDbVertex
100
AcDb2dVertex
 10
-37.05823206045085
 20
-7.000537700792653
 30
0.0
  0
SEQEND
  5
1D7E
330
1D79
100
AcDbEntity
  8
247
  0
POLYLINE
  5
1D7F
330
1D1A
100
AcDbEntity
  8
247
100
AcDb2dPolyline
 66
     1
 10
0.0
 20
0.0
 30
0.0
 70
     1
  0
VERTEX
  5
1D80
330
1D7F
100
AcDbEntity
  8
247
100
AcDbVertex
100
AcDb2dVertex
 10
-37.05823206045085
 20
-7.000537700792653
 30
0.0
  0
VERTEX
  5
1D81
330
1D7F
100
AcDbEntity
  8
247
100
AcDbVertex
100
AcDb2dVertex
 10
-37.11300577260905
 20
-6.826836986681325
 30
0.0
  0
VERTEX
  5
1D82
330
1D7F
100
AcDbEntity
  8
247
100
AcDbVertex
100
AcDb2dVertex
 10
-37.11300577260905
 20
-6.826836986681325
 30
0.0
  0
VERTEX
  5
1D83
330
1D7F
100
AcDbEntity
  8
247
100
AcDbVertex
100
AcDb2dVertex
 10
-37.05823206045085
 20
-7.000537700792653
 30
0.0
  0
SEQEND
  5
1D84
330
1D7F
100
AcDbEntity
  8
247
  0
POLYLINE
  5
1D85
330
1D1A
100
AcDbEntity
  8
247
100
AcDb2dPolyline
 66
     1
 10
0.0
 20
0.0
 30
0.0
 70
     1
1001
HATCH_DISTANCE
1040
1.0
1001
HATCH_DISPLAY
1070
     0
1001
HATCH_TYPE
1070
     7
  0
VERTEX
  5
1D86
330
1D85
100
AcDbEntity
  8
247
100
AcDbVertex
100
AcDb2dVertex
 10
-37.05823206045085
 20
-7.000537700792653
 30
0.0
  0
VERTEX
  5
1D87
330
1D85
100
AcDbEntity
  8
247
100
AcDbVertex
100
AcDb2dVertex
 10
-37.11300577260905
 20
-6.826836986681325
 30
0.0
  0
VERTEX
  5
1D88
330
1D85
100
AcDbEntity
  8
247
100
AcDbVertex
100
AcDb2dVertex
 10
-37.11300577260905
 20
-6.826836986681325
 30
0.0
  0
VERTEX
  5
1D89
330
1D85
100
AcDbEntity
  8
247
100
AcDbVertex
100
AcDb2dVertex
 10
-37.05823206045085
 20
-7.000537700792653
 30
0.0
  0
SEQEND
  5
1D8A
330
1D85
100
AcDbEntity
  8
247
  0
POLYLINE
  5
1D8B
330
1D1A
100
AcDbEntity
  8
247
100
AcDb2dPolyline
 66
     1
 10
0.0
 20
0.0
 30
0.0
 70
     1
  0
VERTEX
  5
1D8C
330
1D8B
100
AcDbEntity
  8
247
100
AcDbVertex
100
AcDb2dVertex
 10
-37.05823206045085
 20
-7.000537700792653
 30
0.0
  0
VERTEX
  5
1D8D
330
1D8B
100
AcDbEntity
  8
247
100
AcDbVertex
100
AcDb2dVertex
 10
-37.11300577260905
 20
-6.826836986681325
 30
0.0
  0
VERTEX
  5
1D8E
330
1D8B
100
AcDbEntity
  8
247
100
AcDbVertex
100
AcDb2dVertex
 10
-37.11300577260905
 20
-6.826836986681325
 30
0.0
  0
VERTEX
  5
1D8F
330
1D8B
100
AcDbEntity
  8
247
100
AcDbVertex
100
AcDb2dVertex
 10
-37.05823206045085
 20
-7.000537700792653
 30
0.0
  0
SEQEND
  5
1D90
330
1D8B
100
AcDbEntity
  8
247
  0
LINE
  5
1D91
102
{ACAD_REACTORS
330
1D2B
102
}
330
1D1A
100
AcDbEntity
  8
247
100
AcDbLine
 10
-37.05823206045083
 20
-7.000537700792653
 30
0.0
 11
-37.11300577260904
 21
-6.826836986681325
 31
0.0
  0
ARC
  5
1D92
102
{ACAD_REACTORS
330
1D33
102
}
330
1D1A
100
AcDbEntity
  8
247
100
AcDbCircle
 10
-36.86956247426921
 20
-7.750141735216481
 30
0.0
 40
0.954856538772583
100
AcDbArc
 50
110.22964506332
 51
118.5716889237176
  0
LINE
  5
1D93
102
{ACAD_REACTORS
330
1D33
102
}
330
1D1A
100
AcDbEntity
  8
247
100
AcDbLine
 10
-37.14496225454263
 20
-7.027886791368825
 30
0.0
 11
-37.19973596670083
 21
-6.854186077257497
 31
0.0
  0
ARC
  5
1D94
102
{ACAD_REACTORS
330
1D33
102
}
330
1D1A
100
AcDbEntity
  8
247
100
AcDbCircle
 10
-37.58308328725749
 20
-7.186323375841482
 30
0.0
 40
0.1909725040197372
100
AcDbArc
 50
1.710121382062763
 51
163.9983983544485
  0
LINE
  5
1D95
102
{ACAD_REACTORS
330
1D33
102
}
330
1D1A
100
AcDbEntity
  8
247
100
AcDbLine
 10
-37.62704919912271
 20
-7.504604168077809
 30
0.0
 11
-37.09726785756997
 21
-7.504604168077809
 31
0.0
  0
LINE
  5
1D96
330
1D1A
100
AcDbEntity
  8
246
100
AcDbLine
 10
-35.5
 20
-4.5
 30
0.0
 11
-35.0
 21
-4.0
 31
0.0
  0
LINE
  5
1D97
330
1D1A
100
AcDbEntity
  8
246
100
AcDbLine
 10
-48.0
 20
2.0
 30
0.0
 11
-39.5
 21
2.0
 31
0.0
  0
LINE
  5
1D98
330
1D1A
100
AcDbEntity
  8
246
100
AcDbLine
 10
-44.40000000000003
 20
4.5
 30
0.0
 11
-35.5
 21
4.5
 31
0.0
  0
LINE
  5
1D99
330
1D1A
100
AcDbEntity
  8
246
100
AcDbLine
 10
-44.70000000000005
 20
4.199999999999988
 30
0.0
 11
-35.20000000000004
 21
4.199999999999988
 31
0.0
  0
LINE
  5
1D9A
330
1D1A
100
AcDbEntity
  8
246
100
AcDbLine
 10
-48.0
 20
-2.0
 30
0.0
 11
-39.5
 21
-2.0
 31
0.0
  0
LINE
  5
1D9B
330
1D1A
100
AcDbEntity
  8
246
100
AcDbLine
 10
-44.40000000000003
 20
4.5
 30
0.0
 11
-45.0
 21
3.899999999999977
 31
0.0
  0
ARC
  5
1D9C
330
1D1A
100
AcDbEntity
  8
246
100
AcDbCircle
 10
-47.0
 20
2.899999999999977
 30
0.0
 40
1.0
100
AcDbArc
 50
90.0
 51
180.0
  0
LINE
  5
1D9D
330
1D1A
100
AcDbEntity
  8
246
100
AcDbLine
 10
-47.0
 20
3.899999999999977
 30
0.0
 11
-45.0
 21
3.899999999999977
 31
0.0
  0
LINE
  5
1D9E
330
1D1A
100
AcDbEntity
  8
240
100
AcDbLine
 10
-46.50000000000001
 20
10.0
 30
0.0
 11
-48.0
 21
8.500000000000001
 31
0.0
  0
LINE
  5
1D9F
330
1D1A
100
AcDbEntity
  8
246
100
AcDbLine
 10
-37.30662400000005
 20
1.443375999999943
 30
0.0
 11
-35.0
 21
3.75
 31
0.0
  0
LINE
  5
1DA0
330
1D1A
100
AcDbEntity
  8
246
100
AcDbLine
 10
-39.5
 20
2.0
 30
0.0
 11
-39.5
 21
1.029999999999972
 31
0.0
  0
LINE
  5
1DA1
330
1D1A
100
AcDbEntity
  8
246
100
AcDbLine
 10
-39.5
 20
2.0
 30
0.0
 11
-39.17863200000005
 21
1.443375999999943
 31
0.0
  0
LINE
  5
1DA2
330
1D1A
100
AcDbEntity
  8
246
100
AcDbLine
 10
-37.30662400000005
 20
-1.443376
 30
0.0
 11
-39.17863200000005
 21
-1.443376
 31
0.0
  0
LINE
  5
1DA3
330
1D1A
100
AcDbEntity
  8
246
100
AcDbLine
 10
-37.30662400000005
 20
-0.7216880000000288
 30
0.0
 11
-39.17863200000005
 21
-0.7216880000000288
 31
0.0
  0
LINE
  5
1DA4
330
1D1A
100
AcDbEntity
  8
246
100
AcDbLine
 10
-37.30662400000005
 20
1.443375999999943
 30
0.0
 11
-39.17863200000005
 21
1.443375999999943
 31
0.0
  0
LINE
  5
1DA5
330
1D1A
100
AcDbEntity
  8
246
100
AcDbLine
 10
-37.30662400000005
 20
0.7216879999999719
 30
0.0
 11
-39.17863200000005
 21
0.7216879999999719
 31
0.0
  0
LINE
  5
1DA6
330
1D1A
100
AcDbEntity
  8
246
100
AcDbLine
 10
-39.17863200000005
 20
1.443375999999943
 30
0.0
 11
-39.17863200000005
 21
-1.443376
 31
0.0
  0
LINE
  5
1DA7
330
1D1A
100
AcDbEntity
  8
246
100
AcDbLine
 10
-39.5
 20
-2.0
 30
0.0
 11
-39.5
 21
-1.030000000000029
 31
0.0
  0
LINE
  5
1DA8
330
1D1A
100
AcDbEntity
  8
246
100
AcDbLine
 10
-39.5
 20
-2.0
 30
0.0
 11
-39.17863200000005
 21
-1.443376
 31
0.0
  0
LINE
  5
1DA9
330
1D1A
100
AcDbEntity
  8
246
100
AcDbLine
 10
-37.30662400000005
 20
1.443375999999943
 30
0.0
 11
-37.30662400000005
 21
-1.443376
 31
0.0
  0
LINE
  5
1DAA
330
1D1A
100
AcDbEntity
  8
246
100
AcDbLine
 10
-35.0
 20
4.0
 30
0.0
 11
-35.5
 21
4.5
 31
0.0
  0
LINE
  5
1DAB
330
1D1A
100
AcDbEntity
  8
241
100
AcDbLine
 10
-21.49999999999999
 20
-5.267826876426376
 30
0.0
 11
-21.49999999999999
 21
5.267826876426376
 31
0.0
  0
ARC
  5
1DAC
330
1D1A
100
AcDbEntity
  8
241
100
AcDbCircle
 10
-30.00000000000002
 20
0.0
 30
0.0
 40
10.00000000000002
100
AcDbArc
 50
328.2116517828545
 51
31.78833061705159
  0
LINE
  5
1DAD
330
1D1A
100
AcDbEntity
  8
241
100
AcDbLine
 10
-15.5
 20
9.0
 30
0.0
 11
-15.5
 21
-9.0
 31
0.0
  0
LINE
  5
1DAE
330
1D1A
100
AcDbEntity
  8
240
100
AcDbLine
 10
0.0
 20
0.0
 30
0.0
 11
0.0
 21
-11.59289300000006
 31
0.0
  0
LINE
  5
1DAF
330
1D1A
100
AcDbEntity
  8
246
100
AcDbLine
 10
-18.00000000000002
 20
-4.736499000000037
 30
0.0
 11
-18.0
 21
4.736498999999923
 31
0.0
  0
LINE
  5
1DB0
330
1D1A
100
AcDbEntity
  8
241
100
AcDbLine
 10
-13.5
 20
-7.5
 30
0.0
 11
-13.5
 21
0.0
 31
0.0
  0
LINE
  5
1DB1
330
1D1A
100
AcDbEntity
  8
241
100
AcDbLine
 10
-11.0
 20
-8.0
 30
0.0
 11
-11.0
 21
0.0
 31
0.0
  0
LINE
  5
1DB2
330
1D1A
100
AcDbEntity
  8
241
100
AcDbLine
 10
-10.70000000000004
 20
-9.800000000000011
 30
0.0
 11
-10.70000000000004
 21
0.0
 31
0.0
  0
LINE
  5
1DB3
330
1D1A
100
AcDbEntity
  8
241
100
AcDbLine
 10
-0.948528000000067
 20
12.13812699999999
 30
0.0
 11
-0.948528000000067
 21
-12.18543100000005
 31
0.0
  0
LINE
  5
1DB4
330
1D1A
100
AcDbEntity
  8
240
100
AcDbLine
 10
-11.0
 20
-8.0
 30
0.0
 11
-14.5
 21
-8.0
 31
0.0
  0
LINE
  5
1DB5
330
1D1A
100
AcDbEntity
  8
246
100
AcDbLine
 10
-3.600000000000022
 20
-6.25
 30
0.0
 11
-18.0
 21
-4.736499000000037
 31
0.0
  0
LINE
  5
1DB6
330
1D1A
100
AcDbEntity
  8
246
100
AcDbLine
 10
0.0
 20
-4.0
 30
0.0
 11
-18.0
 21
-4.0
 31
0.0
  0
LINE
  5
1DB7
330
1D1A
100
AcDbEntity
  8
242
100
AcDbLine
 10
-11.0
 20
-7.5
 30
0.0
 11
-13.5
 21
-7.5
 31
0.0
  0
LINE
  5
1DB8
330
1D1A
100
AcDbEntity
  8
242
100
AcDbLine
 10
-13.5
 20
-7.5
 30
0.0
 11
-14.0
 21
-8.0
 31
0.0
  0
ARC
  5
1DB9
330
1D1A
100
AcDbEntity
  8
240
100
AcDbCircle
 10
-14.5
 20
-9.0
 30
0.0
 40
1.0
100
AcDbArc
 50
89.99999999999998
 51
180.0
  0
ARC
  5
1DBA
330
1D1A
100
AcDbEntity
  8
240
100
AcDbCircle
 10
-16.5
 20
-9.0
 30
0.0
 40
1.0
100
AcDbArc
 50
270.0
 51
0.0
  0
ARC
  5
1DBB
330
1D1A
100
AcDbEntity
  8
240
100
AcDbCircle
 10
-10.10000000000002
 20
-11.90000000000003
 30
0.0
 40
0.6
100
AcDbArc
 50
180.0
 51
270.0
  0
LINE
  5
1DBC
330
1D1A
100
AcDbEntity
  8
240
100
AcDbLine
 10
-0.5242640000000165
 20
-12.32426400000002
 30
0.0
 11
-0.1464460000000258
 21
-11.94644700000003
 31
0.0
  0
LINE
  5
1DBD
330
1D1A
100
AcDbEntity
  8
240
100
AcDbLine
 10
-10.10000000000002
 20
-12.5
 30
0.0
 11
-0.948528000000067
 21
-12.5
 31
0.0
  0
ARC
  5
1DBE
330
1D1A
100
AcDbEntity
  8
240
100
AcDbCircle
 10
-0.948528000000067
 20
-11.90000000000003
 30
0.0
 40
0.6
100
AcDbArc
 50
270.0
 51
315.0000000000002
  0
LINE
  5
1DBF
330
1D1A
100
AcDbEntity
  8
241
100
AcDbLine
 10
-4.0
 20
-9.997093000000006
 30
0.0
 11
-10.70000000000004
 21
-9.997093000000006
 31
0.0
  0
LINE
  5
1DC0
330
1D1A
100
AcDbEntity
  8
241
100
AcDbLine
 10
-4.0
 20
-11.497093
 30
0.0
 11
-10.70000000000004
 21
-11.497093
 31
0.0
  0
LINE
  5
1DC1
330
1D1A
100
AcDbEntity
  8
240
100
AcDbLine
 10
-10.70000000000004
 20
-11.90000000000003
 30
0.0
 11
-10.70000000000004
 21
-9.800000000000011
 31
0.0
  0
LINE
  5
1DC2
330
1D1A
100
AcDbEntity
  8
240
100
AcDbLine
 10
-11.0
 20
-9.5
 30
0.0
 11
-10.70000000000004
 21
-9.800000000000011
 31
0.0
  0
LINE
  5
1DC3
330
1D1A
100
AcDbEntity
  8
240
100
AcDbLine
 10
-11.0
 20
-9.5
 30
0.0
 11
-11.0
 21
-8.0
 31
0.0
  0
LINE
  5
1DC4
330
1D1A
100
AcDbEntity
  8
241
100
AcDbLine
 10
-4.0
 20
-11.497093
 30
0.0
 11
-4.0
 21
-9.997093000000006
 31
0.0
  0
ARC
  5
1DC5
330
1D1A
100
AcDbEntity
  8
240
100
AcDbCircle
 10
-0.5
 20
-11.59289300000006
 30
0.0
 40
0.5
100
AcDbArc
 50
315.0000000000002
 51
0.0
  0
LINE
  5
1DC6
330
1D1A
100
AcDbEntity
  8
246
100
AcDbLine
 10
-3.600000000000022
 20
-5.25
 30
0.0
 11
-1.700000000000045
 21
-5.25
 31
0.0
  0
LINE
  5
1DC7
330
1D1A
100
AcDbEntity
  8
246
100
AcDbLine
 10
-3.600000000000022
 20
-5.25
 30
0.0
 11
-3.600000000000022
 21
-6.25
 31
0.0
  0
LINE
  5
1DC8
330
1D1A
100
AcDbEntity
  8
246
100
AcDbLine
 10
0.0
 20
-5.326239999999984
 30
0.0
 11
-1.600000000000022
 21
-6.25
 31
0.0
  0
LINE
  5
1DC9
330
1D1A
100
AcDbEntity
  8
246
100
AcDbLine
 10
-1.700000000000045
 20
-5.25
 30
0.0
 11
-1.700000000000045
 21
-6.25
 31
0.0
  0
LINE
  5
1DCA
330
1D1A
100
AcDbEntity
  8
246
100
AcDbLine
 10
-1.700000000000045
 20
-6.25
 30
0.0
 11
-1.600000000000022
 21
-6.25
 31
0.0
  0
LINE
  5
1DCB
330
1D1A
100
AcDbEntity
  8
240
100
AcDbLine
 10
-11.0
 20
8.000000000000003
 30
0.0
 11
-14.5
 21
8.0
 31
0.0
  0
LINE
  5
1DCC
330
1D1A
100
AcDbEntity
  8
246
100
AcDbLine
 10
-3.600000000000022
 20
6.25
 30
0.0
 11
-18.0
 21
4.73649899999998
 31
0.0
  0
LINE
  5
1DCD
330
1D1A
100
AcDbEntity
  8
246
100
AcDbLine
 10
0.0
 20
4.0
 30
0.0
 11
-18.0
 21
4.0
 31
0.0
  0
LINE
  5
1DCE
330
1D1A
100
AcDbEntity
  8
242
100
AcDbLine
 10
-11.0
 20
7.5
 30
0.0
 11
-13.5
 21
7.5
 31
0.0
  0
LINE
  5
1DCF
330
1D1A
100
AcDbEntity
  8
241
100
AcDbLine
 10
-13.5
 20
7.5
 30
0.0
 11
-13.5
 21
0.0
 31
0.0
  0
ARC
  5
1DD0
330
1D1A
100
AcDbEntity
  8
240
100
AcDbCircle
 10
-14.5
 20
9.0
 30
0.0
 40
1.0
100
AcDbArc
 50
180.0
 51
270.0
  0
ARC
  5
1DD1
330
1D1A
100
AcDbEntity
  8
240
100
AcDbCircle
 10
-16.5
 20
9.0
 30
0.0
 40
1.0
100
AcDbArc
 50
0.0
 51
90.0
  0
LINE
  5
1DD2
330
1D1A
100
AcDbEntity
  8
242
100
AcDbLine
 10
-13.5
 20
7.5
 30
0.0
 11
-14.0
 21
8.0
 31
0.0
  0
LINE
  5
1DD3
330
1D1A
100
AcDbEntity
  8
241
100
AcDbLine
 10
-10.70000000000004
 20
9.799999999999954
 30
0.0
 11
-10.70000000000004
 21
0.0
 31
0.0
  0
LINE
  5
1DD4
330
1D1A
100
AcDbEntity
  8
241
100
AcDbLine
 10
-11.0
 20
8.0
 30
0.0
 11
-11.0
 21
0.0
 31
0.0
  0
LINE
  5
1DD5
330
1D1A
100
AcDbEntity
  8
240
100
AcDbLine
 10
0.0
 20
0.0
 30
0.0
 11
0.0
 21
11.592893
 31
0.0
  0
LINE
  5
1DD6
330
1D1A
100
AcDbEntity
  8
241
100
AcDbLine
 10
-4.0
 20
1.5
 30
0.0
 11
-10.70000000000004
 21
1.5
 31
0.0
  0
LINE
  5
1DD7
330
1D1A
100
AcDbEntity
  8
241
100
AcDbLine
 10
-4.0
 20
-1.5
 30
0.0
 11
-10.70000000000004
 21
-1.5
 31
0.0
  0
LINE
  5
1DD8
330
1D1A
100
AcDbEntity
  8
241
100
AcDbLine
 10
-4.0
 20
1.5
 30
0.0
 11
-4.0
 21
0.0
 31
0.0
  0
LINE
  5
1DD9
330
1D1A
100
AcDbEntity
  8
241
100
AcDbLine
 10
-4.0
 20
-1.5
 30
0.0
 11
-4.0
 21
0.0
 31
0.0
  0
LINE
  5
1DDA
330
1D1A
100
AcDbEntity
  8
246
100
AcDbLine
 10
-3.600000000000022
 20
5.25
 30
0.0
 11
-1.700000000000045
 21
5.25
 31
0.0
  0
LINE
  5
1DDB
330
1D1A
100
AcDbEntity
  8
246
100
AcDbLine
 10
-3.600000000000022
 20
5.25
 30
0.0
 11
-3.600000000000022
 21
6.25
 31
0.0
  0
LINE
  5
1DDC
330
1D1A
100
AcDbEntity
  8
246
100
AcDbLine
 10
0.0
 20
5.326238999999986
 30
0.0
 11
-1.600000000000022
 21
6.25
 31
0.0
  0
LINE
  5
1DDD
330
1D1A
100
AcDbEntity
  8
246
100
AcDbLine
 10
-1.700000000000045
 20
6.25
 30
0.0
 11
-1.600000000000022
 21
6.25
 31
0.0
  0
LINE
  5
1DDE
330
1D1A
100
AcDbEntity
  8
246
100
AcDbLine
 10
-1.700000000000045
 20
5.25
 30
0.0
 11
-1.700000000000045
 21
6.25
 31
0.0
  0
LINE
  5
1DDF
330
1D1A
100
AcDbEntity
  8
241
100
AcDbLine
 10
-4.0
 20
11.497093
 30
0.0
 11
-10.70000000000004
 21
11.497093
 31
0.0
  0
LINE
  5
1DE0
330
1D1A
100
AcDbEntity
  8
241
100
AcDbLine
 10
-4.0
 20
9.997093000000006
 30
0.0
 11
-10.70000000000004
 21
9.997093000000006
 31
0.0
  0
LINE
  5
1DE1
330
1D1A
100
AcDbEntity
  8
240
100
AcDbLine
 10
-10.10000000000002
 20
12.5
 30
0.0
 11
-0.948528000000067
 21
12.5
 31
0.0
  0
LINE
  5
1DE2
330
1D1A
100
AcDbEntity
  8
240
100
AcDbLine
 10
-10.70000000000004
 20
9.799999999999954
 30
0.0
 11
-10.70000000000004
 21
11.89999999999997
 31
0.0
  0
LINE
  5
1DE3
330
1D1A
100
AcDbEntity
  8
240
100
AcDbLine
 10
-11.0
 20
9.5
 30
0.0
 11
-11.0
 21
8.0
 31
0.0
  0
LINE
  5
1DE4
330
1D1A
100
AcDbEntity
  8
240
100
AcDbLine
 10
-11.0
 20
9.5
 30
0.0
 11
-10.70000000000004
 21
9.799999999999954
 31
0.0
  0
ARC
  5
1DE5
330
1D1A
100
AcDbEntity
  8
240
100
AcDbCircle
 10
-10.10000000000002
 20
11.89999999999997
 30
0.0
 40
0.6
100
AcDbArc
 50
90.0
 51
180.0
  0
LINE
  5
1DE6
330
1D1A
100
AcDbEntity
  8
241
100
AcDbLine
 10
-4.0
 20
11.497093
 30
0.0
 11
-4.0
 21
9.997093000000006
 31
0.0
  0
ARC
  5
1DE7
330
1D1A
100
AcDbEntity
  8
240
100
AcDbCircle
 10
-0.948528000000067
 20
11.89999999999997
 30
0.0
 40
0.6
100
AcDbArc
 50
44.99999999999976
 51
90.0
  0
LINE
  5
1DE8
330
1D1A
100
AcDbEntity
  8
240
100
AcDbLine
 10
-0.1464460000000258
 20
11.94644699999997
 30
0.0
 11
-0.5242640000000165
 21
12.32426399999997
 31
0.0
  0
ARC
  5
1DE9
330
1D1A
100
AcDbEntity
  8
240
100
AcDbCircle
 10
-0.5
 20
11.592893
 30
0.0
 40
0.5
100
AcDbArc
 50
0.0
 51
44.99999999999976
  0
ENDBLK
  5
1DEB
330
1D1A
100
AcDbEntity
  8
0
100
AcDbBlockEnd
  0
ENDSEC
  0
SECTION
  2
ENTITIES
  0
TEXT
  5
15CC
330
1A
100
AcDbEntity
  8
241
100
AcDbText
 10
-53.5
 20
49.00000000000002
 30
0.0
 40
5.0
  1
SL20-NBS8-40
  7
YOKO
 11
-53.5
 21
49.00000000000002
 31
0.0
100
AcDbText
 73
     1
  0
DIMENSION
  5
15CD
330
1A
100
AcDbEntity
  8
250
  6
CONTINUOUS
100
AcDbDimension
  2
*D1
 10
13.99999999999997
 20
3.999999999999996
 30
0.0
 11
11.70134870559908
 21
3.831170461371073
 31
0.0
 70
   160
  1
MAX.%%c<>
  3
BIGT
100
AcDbAlignedDimension
 13
0.0
 23
-4.0
 33
0.0
 14
0.0
 24
4.0
 34
0.0
 50
90.0
100
AcDbRotatedDimension
1001
ACAD
1000
DSTYLE
1002
{
1070
   287
1070
     5
1070
    78
1070
     8
1070
   140
1040
3.0
1070
   279
1070
     2
1002
}
  0
DIMENSION
  5
15CE
330
1A
100
AcDbEntity
  8
250
  6
CONTINUOUS
100
AcDbDimension
  2
*D2
 10
20.99999999999997
 20
12.50000000000005
 30
0.0
 11
18.49999999999996
 21
0.0000000000000115
 31
0.0
 70
    32
  1
{\H3;\U+2205}<>
  3
BIGT
100
AcDbAlignedDimension
 13
-0.948528000000067
 23
-12.50000000000002
 33
0.0
 14
-0.948528000000067
 24
12.50000000000005
 34
0.0
 50
90.0
100
AcDbRotatedDimension
1001
ACAD
1000
DSTYLE
1002
{
1070
    78
1070
     8
1070
   140
1040
3.0
1002
}
  0
DIMENSION
  5
15CF
330
1A
100
AcDbEntity
  8
250
  6
CONTINUOUS
100
AcDbDimension
  2
*D3
 10
-0.000000000000001
 20
-28.0
 30
0.0
 11
-17.5
 21
-25.5
 31
0.0
 70
    32
  1
26～42
  3
BIGT
100
AcDbAlignedDimension
 13
-35.0
 23
-4.0
 33
0.0
 14
0.0
 24
-11.59289300000006
 34
0.0
100
AcDbRotatedDimension
1001
ACAD
1000
DSTYLE
1002
{
1070
    78
1070
     8
1070
   140
1040
3.0
1002
}
  0
DIMENSION
  5
1C97
330
1A
100
AcDbEntity
  8
250
  6
CONTINUOUS
100
AcDbDimension
  2
*D4
 10
-70.0
 20
10.0
 30
0.0
 11
-72.5
 21
-0.0000000000000043
 31
0.0
 70
    32
  1
{\H3;\U+2205}<>
  3
BIGT
100
AcDbAlignedDimension
 13
-46.5
 23
-10.0
 33
0.0
 14
-46.50000000000001
 24
10.0
 34
0.0
 50
90.0
100
AcDbRotatedDimension
1001
ACAD
1000
DSTYLE
1002
{
1070
    78
1070
     8
1070
   140
1040
3.0
1002
}
  0
DIMENSION
  5
1CAF
330
1A
100
AcDbEntity
  8
250
  6
CONTINUOUS
100
AcDbDimension
  2
*D5
 10
0.0000000000000014
 20
35.0
 30
0.0
 11
-28.25
 21
37.5
 31
0.0
 70
    32
  3
BIGT
100
AcDbAlignedDimension
 13
-56.5
 23
8.199999999999999
 33
0.0
 14
0.0
 24
11.592893
 34
0.0
100
AcDbRotatedDimension
1001
ACAD
1000
DSTYLE
1002
{
1070
    78
1070
     8
1070
   140
1040
3.0
1002
}
  0
DIMENSION
  5
1CDC
330
1A
100
AcDbEntity
  8
250
  6
CONTINUOUS
100
AcDbDimension
  2
*D6
 10
0.000000000000001
 20
28.0
 30
0.0
 11
-7.749999999999998
 21
30.5
 31
0.0
 70
    32
  3
BIGT
100
AcDbAlignedDimension
 13
-15.5
 23
9.0
 33
0.0
 14
0.0
 24
11.592893
 34
0.0
100
AcDbRotatedDimension
1001
ACAD
1000
DSTYLE
1002
{
1070
    78
1070
     8
1070
   140
1040
3.0
1002
}
  0
DIMENSION
  5
1CE9
330
1A
100
AcDbEntity
  8
250
  6
CONTINUOUS
100
AcDbDimension
  2
*D7
 10
-15.49999999999999
 20
28.0
 30
0.0
 11
-36.0
 21
30.5
 31
0.0
 70
    32
  3
BIGT
100
AcDbAlignedDimension
 13
-56.5
 23
8.199999999999999
 33
0.0
 14
-15.5
 24
9.0
 34
0.0
100
AcDbRotatedDimension
1001
ACAD
1000
DSTYLE
1002
{
1070
    78
1070
     8
1070
   140
1040
3.0
1002
}
  0
INSERT
  5
1DEC
330
1A
100
AcDbEntity
  8
240
100
AcDbBlockReference
  2
A$C7F5F28F3
 10
0.0
 20
0.0
 30
0.0
  0
VIEWPORT
  5
22
330
17
100
AcDbEntity
 67
     1
  8
0
100
AcDbViewport
 10
261.5176991150442
 20
148.5
 30
0.0
 40
523.0353982300885
 41
297.0
 68
     1
 69
     1
1001
ACAD
1000
MVIEW
1002
{
1070
    16
1010
0.0
1020
0.0
1030
0.0
1010
0.0
1020
0.0
1030
1.0
1040
0.0
1040
297.0
1040
261.5176991150442
1040
148.5
1040
50.0
1040
0.0
1040
0.0
1070
     0
1070
   100
1070
     1
1070
     1
1070
     0
1070
     0
1070
     0
1070
     0
1040
0.0
1040
0.0
1040
0.0
1040
1.0
1040
1.0
1040
10.0
1040
10.0
1070
     0
1002
{
1002
}
1002
}
  0
ENDSEC
  0
SECTION
  2
OBJECTS
  0
DICTIONARY
  5
C
330
0
100
AcDbDictionary
  3
ACAD_GROUP
350
D
  3
ACAD_LAYOUT
350
565
  3
ACAD_MLINESTYLE
350
E
  3
ACAD_PLOTSETTINGS
350
566
  3
ACAD_PLOTSTYLENAME
350
563
  3
ACDBHEADERROUNDTRIPXREC
350
1DF5
  3
ACDBVARIABLEDICTIONARY
350
1666
  3
DWGPROPS
350
182D
  3
GRADE_DWG
350
540
  0
DICTIONARY
  5
1E18
330
1A
100
AcDbDictionary
280
     1
  3
ACAD_LAYOUTSELFREF
360
1E19
  0
DICTIONARY
  5
1E16
330
17
100
AcDbDictionary
280
     1
  3
ACAD_LAYOUTSELFREF
360
1E17
  0
DICTIONARY
  5
D
102
{ACAD_REACTORS
330
C
102
}
330
C
100
AcDbDictionary
  3
DREC-1
350
5FC
  3
DREC-2
350
654
  3
DREC-3
350
673
  0
DICTIONARY
  5
565
102
{ACAD_REACTORS
330
C
102
}
330
C
100
AcDbDictionary
  0
DICTIONARY
  5
E
102
{ACAD_REACTORS
330
C
102
}
330
C
100
AcDbDictionary
  3
STANDARD
350
13
  0
DICTIONARY
  5
566
102
{ACAD_REACTORS
330
C
102
}
330
C
100
AcDbDictionary
  0
ACDBDICTIONARYWDFLT
  5
563
102
{ACAD_REACTORS
330
C
102
}
330
C
100
AcDbDictionary
281
     1
  3
Normal
350
564
100
AcDbDictionaryWithDefault
340
564
  0
DICTIONARY
  5
1DF5
102
{ACAD_REACTORS
330
C
102
}
330
C
100
AcDbDictionary
  3
CEPSNTYPE
350
1DFF
  3
DIMSTYLEDATA
350
1E03
  3
FINGERPRINTGUID
350
1E00
  3
HYPERLINKBASE
350
1DF8
  3
INSUNITS
350
1DFE
  3
LAYOUTDICT
350
1DFA
  3
LWETCUNION
350
1DFD
  3
PLOTSETDICT
350
1DFB
  3
PLOTSTYLNAMDICT
350
1DFC
  3
PSVPSCALE
350
1E02
  3
PUCSBASE
350
1E06
  3
PUCSORGBACK
350
1E0C
  3
PUCSORGBOTTOM
350
1E08
  3
PUCSORGFRONT
350
1E0B
  3
PUCSORGLEFT
350
1E09
  3
PUCSORGRIGHT
350
1E0A
  3
PUCSORGTOP
350
1E07
  3
PUCSORTHOREF
350
1E04
  3
PUCSORTHOVIEW
350
1E05
  3
STYLESHEET
350
1DF9
  3
TSTACKALIGN
350
1DF6
  3
TSTACKSIZE
350
1DF7
  3
UCSBASE
350
1E0F
  3
UCSORGBACK
350
1E15
  3
UCSORGBOTTOM
350
1E11
  3
UCSORGFRONT
350
1E14
  3
UCSORGLEFT
350
1E12
  3
UCSORGRIGHT
350
1E13
  3
UCSORGTOP
350
1E10
  3
UCSORTHOREF
350
1E0D
  3
UCSORTHOVIEW
350
1E0E
  3
VERSIONGUID
350
1E01
  0
DICTIONARY
  5
1666
102
{ACAD_REACTORS
330
C
102
}
330
C
100
AcDbDictionary
  3
DIMASSOC
350
1667
  0
XRECORD
  5
182D
102
{ACAD_REACTORS
330
C
102
}
330
C
100
AcDbXrecord
  1
DWGPROPS COOKIE
  2

  3

  4

  6

  7

  8
ymat
  9

300
=
301
=
302
=
303
=
304
=
305
=
306
=
307
=
308
=
309
=
 40
0.1018207291666667
 41
2452180.656863055
 42
2452409.084412789
  1

 90
        0
  0
DICTIONARY
  5
540
102
{ACAD_REACTORS
330
C
102
}
330
C
100
AcDbDictionary
  3
VERSION
350
560
  0
XRECORD
  5
1E19
102
{ACAD_REACTORS
330
1E18
102
}
330
1E18
100
AcDbXrecord
340
1A
  0
XRECORD
  5
1E17
102
{ACAD_REACTORS
330
1E16
102
}
330
1E16
100
AcDbXrecord
340
17
  0
GROUP
  5
5FC
102
{ACAD_REACTORS
330
D
102
}
330
D
100
AcDbGroup
300

 70
     0
 71
     1
1001
GRPNAME
1000
DREC-
1001
GPARA
1000
xsiz
1000
44.182
1000
ysiz
1000
40.677
1000
angl
1000
0
1000
ctyp
1000
0
1000
csiz
1000
5
1000
lfnt
1000
cont
1000
hcnt
1000
hoff
1000
vcnt
1000
voff
1000
opnt
1000
4
1000
dxpt
1000
0
1000
dypt
1000
0
  0
GROUP
  5
654
102
{ACAD_REACTORS
330
D
102
}
330
D
100
AcDbGroup
300

 70
     0
 71
     1
1001
GRPNAME
1000
DREC-
1001
GPARA
1000
xsiz
1000
54.592
1000
ysiz
1000
53.036
1000
angl
1000
0
1000
ctyp
1000
0
1000
csiz
1000
5
1000
lfnt
1000
cont
1000
hcnt
1000
hoff
1000
vcnt
1000
voff
1000
opnt
1000
4
1000
dxpt
1000
0
1000
dypt
1000
0
  0
GROUP
  5
673
102
{ACAD_REACTORS
330
D
102
}
330
D
100
AcDbGroup
300

 70
     0
 71
     1
1001
GRPNAME
1000
DREC-
1001
GPARA
1000
xsiz
1000
30.363
1000
ysiz
1000
36.175
1000
angl
1000
0
1000
ctyp
1000
0
1000
csiz
1000
5
1000
lfnt
1000
cont
1000
hcnt
1000
hoff
1000
vcnt
1000
voff
1000
opnt
1000
4
1000
dxpt
1000
0
1000
dypt
1000
0
  0
MLINESTYLE
  5
13
102
{ACAD_REACTORS
330
E
102
}
330
E
100
AcDbMlineStyle
  2
STANDARD
 70
     0
  3

 62
     0
 51
90.0
 52
90.0
 71
     2
 49
0.5
 62
   256
  6
BYLAYER
 49
-0.5
 62
   256
  6
BYLAYER
  0
ACDBPLACEHOLDER
  5
564
102
{ACAD_REACTORS
330
563
102
}
330
563
100
AcDbPlaceHolder
280
     0
  0
XRECORD
  5
1DFF
102
{ACAD_REACTORS
330
1DF5
102
}
330
1DF5
100
AcDbXrecord
 90
        0
  0
XRECORD
  5
1E03
102
{ACAD_REACTORS
330
1DF5
102
}
330
1DF5
100
AcDbXrecord
1000
DSTYLE
1002
{
1070
    79
 70
     2
1070
   179
 70
     3
1070
   289
 70
     2
1070
   341
340
594
1070
   342
340
594
1070
   371
 70
    -1
1070
   372
 70
    -1
1002
}
  0
XRECORD
  5
1E00
102
{ACAD_REACTORS
330
1DF5
102
}
330
1DF5
100
AcDbXrecord
  1
{51294030-9CB4-11D3-8E18-00A0C925D94D}
  0
XRECORD
  5
1DF8
102
{ACAD_REACTORS
330
1DF5
102
}
330
1DF5
100
AcDbXrecord
  1

  0
XRECORD
  5
1DFE
102
{ACAD_REACTORS
330
1DF5
102
}
330
1DF5
100
AcDbXrecord
 90
        0
  0
XRECORD
  5
1DFA
102
{ACAD_REACTORS
330
1DF5
102
}
330
1DF5
100
AcDbXrecord
340
565
  0
XRECORD
  5
1DFD
102
{ACAD_REACTORS
330
1DF5
102
}
330
1DF5
100
AcDbXrecord
 90
    10781
  0
XRECORD
  5
1DFB
102
{ACAD_REACTORS
330
1DF5
102
}
330
1DF5
100
AcDbXrecord
340
566
  0
XRECORD
  5
1DFC
102
{ACAD_REACTORS
330
1DF5
102
}
330
1DF5
100
AcDbXrecord
340
563
  0
XRECORD
  5
1E02
102
{ACAD_REACTORS
330
1DF5
102
}
330
1DF5
100
AcDbXrecord
 40
0.0
  0
XRECORD
  5
1E06
102
{ACAD_REACTORS
330
1DF5
102
}
330
1DF5
100
AcDbXrecord
340
0
  0
XRECORD
  5
1E0C
102
{ACAD_REACTORS
330
1DF5
102
}
330
1DF5
100
AcDbXrecord
 10
0.0
 20
0.0
 30
0.0
  0
XRECORD
  5
1E08
102
{ACAD_REACTORS
330
1DF5
102
}
330
1DF5
100
AcDbXrecord
 10
0.0
 20
0.0
 30
0.0
  0
XRECORD
  5
1E0B
102
{ACAD_REACTORS
330
1DF5
102
}
330
1DF5
100
AcDbXrecord
 10
0.0
 20
0.0
 30
0.0
  0
XRECORD
  5
1E09
102
{ACAD_REACTORS
330
1DF5
102
}
330
1DF5
100
AcDbXrecord
 10
0.0
 20
0.0
 30
0.0
  0
XRECORD
  5
1E0A
102
{ACAD_REACTORS
330
1DF5
102
}
330
1DF5
100
AcDbXrecord
 10
0.0
 20
0.0
 30
0.0
  0
XRECORD
  5
1E07
102
{ACAD_REACTORS
330
1DF5
102
}
330
1DF5
100
AcDbXrecord
 10
0.0
 20
0.0
 30
0.0
  0
XRECORD
  5
1E04
102
{ACAD_REACTORS
330
1DF5
102
}
330
1DF5
100
AcDbXrecord
340
0
  0
XRECORD
  5
1E05
102
{ACAD_REACTORS
330
1DF5
102
}
330
1DF5
100
AcDbXrecord
 70
     0
  0
XRECORD
  5
1DF9
102
{ACAD_REACTORS
330
1DF5
102
}
330
1DF5
100
AcDbXrecord
  1
big.ctb
  0
XRECORD
  5
1DF6
102
{ACAD_REACTORS
330
1DF5
102
}
330
1DF5
100
AcDbXrecord
 90
        1
  0
XRECORD
  5
1DF7
102
{ACAD_REACTORS
330
1DF5
102
}
330
1DF5
100
AcDbXrecord
 90
       70
  0
XRECORD
  5
1E0F
102
{ACAD_REACTORS
330
1DF5
102
}
330
1DF5
100
AcDbXrecord
340
0
  0
XRECORD
  5
1E15
102
{ACAD_REACTORS
330
1DF5
102
}
330
1DF5
100
AcDbXrecord
 10
0.0
 20
0.0
 30
0.0
  0
XRECORD
  5
1E11
102
{ACAD_REACTORS
330
1DF5
102
}
330
1DF5
100
AcDbXrecord
 10
0.0
 20
0.0
 30
0.0
  0
XRECORD
  5
1E14
102
{ACAD_REACTORS
330
1DF5
102
}
330
1DF5
100
AcDbXrecord
 10
0.0
 20
0.0
 30
0.0
  0
XRECORD
  5
1E12
102
{ACAD_REACTORS
330
1DF5
102
}
330
1DF5
100
AcDbXrecord
 10
0.0
 20
0.0
 30
0.0
  0
XRECORD
  5
1E13
102
{ACAD_REACTORS
330
1DF5
102
}
330
1DF5
100
AcDbXrecord
 10
0.0
 20
0.0
 30
0.0
  0
XRECORD
  5
1E10
102
{ACAD_REACTORS
330
1DF5
102
}
330
1DF5
100
AcDbXrecord
 10
0.0
 20
0.0
 30
0.0
  0
XRECORD
  5
1E0D
102
{ACAD_REACTORS
330
1DF5
102
}
330
1DF5
100
AcDbXrecord
340
0
  0
XRECORD
  5
1E0E
102
{ACAD_REACTORS
330
1DF5
102
}
330
1DF5
100
AcDbXrecord
 70
     0
  0
XRECORD
  5
1E01
102
{ACAD_REACTORS
330
1DF5
102
}
330
1DF5
100
AcDbXrecord
  1
{EDD58EEC-688C-11D7-AD80-0010B5C7BFCA}
  0
DICTIONARYVAR
  5
1667
102
{ACAD_REACTORS
330
1666
102
}
330
1666
100
DictionaryVariables
280
     0
  1
1
  0
XRECORD
  5
560
102
{ACAD_REACTORS
330
540
102
}
330
540
100
AcDbXrecord
  1
2.0.0
  0
ENDSEC
  0
EOF
