  0
SECTION
  2
HEADER
  9
$ACADVER
  1
AC1014
  9
$ACADMAINTVER
 70
     9
  9
$DWGCODEPAGE
  3
ANSI_932
  9
$INSBASE
 10
0.0
 20
0.0
 30
0.0
  9
$EXTMIN
 10
-137.0132436184367
 20
-36.00750675146412
 30
-0.0015258207003583
  9
$EXTMAX
 10
22.02163765325872
 20
54.00531044975537
 30
0.0000000349246037
  9
$LIMMIN
 10
0.0
 20
0.0
  9
$LIMMAX
 10
297.0
 20
210.0
  9
$ORTHOMODE
 70
     0
  9
$REGENMODE
 70
     1
  9
$FILLMODE
 70
     1
  9
$QTEXTMODE
 70
     0
  9
$MIRRTEXT
 70
     1
  9
$DRAGMODE
 70
     2
  9
$LTSCALE
 40
10.0
  9
$OSMODE
 70
   613
  9
$ATTMODE
 70
     1
  9
$TEXTSIZE
 40
3.0
  9
$TRACEWID
 40
1.0
  9
$TEXTSTYLE
  7
YOKO
  9
$CLAYER
  8
240
  9
$CELTYPE
  6
BYLAYER
  9
$CECOLOR
 62
   256
  9
$CELTSCALE
 40
1.0
  9
$DELOBJ
 70
     1
  9
$DISPSILH
 70
     0
  9
$DIMSCALE
 40
1.0
  9
$DIMASZ
 40
2.229999999999999
  9
$DIMEXO
 40
0.5
  9
$DIMDLI
 40
2.5
  9
$DIMRND
 40
0.0
  9
$DIMDLE
 40
0.0
  9
$DIMEXE
 40
1.0
  9
$DIMTP
 40
0.0
  9
$DIMTM
 40
0.0
  9
$DIMTXT
 40
3.0
  9
$DIMCEN
 40
0.0
  9
$DIMTSZ
 40
0.0
  9
$DIMTOL
 70
     0
  9
$DIMLIM
 70
     0
  9
$DIMTIH
 70
     0
  9
$DIMTOH
 70
     0
  9
$DIMSE1
 70
     0
  9
$DIMSE2
 70
     0
  9
$DIMTAD
 70
     3
  9
$DIMZIN
 70
     8
  9
$DIMBLK
  1
OPEN
  9
$DIMASO
 70
     1
  9
$DIMSHO
 70
     1
  9
$DIMPOST
  1

  9
$DIMAPOST
  1

  9
$DIMALT
 70
     0
  9
$DIMALTD
 70
     2
  9
$DIMALTF
 40
25.4
  9
$DIMLFAC
 40
1.0
  9
$DIMTOFL
 70
     1
  9
$DIMTVP
 40
0.0
  9
$DIMTIX
 70
     0
  9
$DIMSOXD
 70
     0
  9
$DIMSAH
 70
     0
  9
$DIMBLK1
  1

  9
$DIMBLK2
  1

  9
$DIMSTYLE
  2
BIGT
  9
$DIMCLRD
 70
   256
  9
$DIMCLRE
 70
   256
  9
$DIMCLRT
 70
    40
  9
$DIMTFAC
 40
1.0
  9
$DIMGAP
 40
1.0
  9
$DIMJUST
 70
     0
  9
$DIMSD1
 70
     0
  9
$DIMSD2
 70
     0
  9
$DIMTOLJ
 70
     1
  9
$DIMTZIN
 70
     8
  9
$DIMALTZ
 70
     0
  9
$DIMALTTZ
 70
     0
  9
$DIMFIT
 70
     2
  9
$DIMUPT
 70
     0
  9
$DIMUNIT
 70
     2
  9
$DIMDEC
 70
     3
  9
$DIMTDEC
 70
     3
  9
$DIMALTU
 70
     2
  9
$DIMALTTD
 70
     2
  9
$DIMTXSTY
  7
STANDARD
  9
$DIMAUNIT
 70
     0
  9
$LUNITS
 70
     2
  9
$LUPREC
 70
     3
  9
$SKETCHINC
 40
1.0
  9
$FILLETRAD
 40
1.0
  9
$AUNITS
 70
     0
  9
$AUPREC
 70
     3
  9
$MENU
  1
.
  9
$ELEVATION
 40
0.0
  9
$PELEVATION
 40
0.0
  9
$THICKNESS
 40
0.0
  9
$LIMCHECK
 70
     0
  9
$BLIPMODE
 70
     0
  9
$CHAMFERA
 40
0.3
  9
$CHAMFERB
 40
0.3
  9
$CHAMFERC
 40
0.0
  9
$CHAMFERD
 40
0.0
  9
$SKPOLY
 70
     0
  9
$TDCREATE
 40
2452181.425368009
  9
$TDUPDATE
 40
2452737.389849351
  9
$TDINDWG
 40
0.0660007986
  9
$TDUSRTIMER
 40
0.0660007986
  9
$USRTIMER
 70
     1
  9
$ANGBASE
 50
0.0
  9
$ANGDIR
 70
     0
  9
$PDMODE
 70
    35
  9
$PDSIZE
 40
2.0
  9
$PLINEWID
 40
0.0
  9
$COORDS
 70
     2
  9
$SPLFRAME
 70
     0
  9
$SPLINETYPE
 70
     6
  9
$SPLINESEGS
 70
     8
  9
$ATTDIA
 70
     0
  9
$ATTREQ
 70
     0
  9
$HANDLING
 70
-16383
  9
$HANDSEED
  5
1D14
  9
$SURFTAB1
 70
     6
  9
$SURFTAB2
 70
     6
  9
$SURFTYPE
 70
     6
  9
$SURFU
 70
     6
  9
$SURFV
 70
     6
  9
$UCSNAME
  2

  9
$UCSORG
 10
0.0
 20
0.0
 30
0.0
  9
$UCSXDIR
 10
1.0
 20
0.0
 30
0.0
  9
$UCSYDIR
 10
0.0
 20
1.0
 30
0.0
  9
$PUCSNAME
  2

  9
$PUCSORG
 10
0.0
 20
0.0
 30
0.0
  9
$PUCSXDIR
 10
1.0
 20
0.0
 30
0.0
  9
$PUCSYDIR
 10
0.0
 20
1.0
 30
0.0
  9
$USERI1
 70
     1
  9
$USERI2
 70
     0
  9
$USERI3
 70
     0
  9
$USERI4
 70
     0
  9
$USERI5
 70
     0
  9
$USERR1
 40
0.0
  9
$USERR2
 40
0.0
  9
$USERR3
 40
0.0
  9
$USERR4
 40
0.0
  9
$USERR5
 40
0.0
  9
$WORLDVIEW
 70
     1
  9
$SHADEDGE
 70
     3
  9
$SHADEDIF
 70
    70
  9
$TILEMODE
 70
     1
  9
$MAXACTVP
 70
    16
  9
$PINSBASE
 10
0.0
 20
0.0
 30
0.0
  9
$PLIMCHECK
 70
     0
  9
$PEXTMIN
 10
1.000000000000000E+20
 20
1.000000000000000E+20
 30
1.000000000000000E+20
  9
$PEXTMAX
 10
-1.000000000000000E+20
 20
-1.000000000000000E+20
 30
-1.000000000000000E+20
  9
$PLIMMIN
 10
0.0
 20
0.0
  9
$PLIMMAX
 10
420.0
 20
297.0
  9
$UNITMODE
 70
     0
  9
$VISRETAIN
 70
     0
  9
$PLINEGEN
 70
     0
  9
$PSLTSCALE
 70
     1
  9
$TREEDEPTH
 70
  3020
  9
$PICKSTYLE
 70
     0
  9
$CMLSTYLE
  2
STANDARD
  9
$CMLJUST
 70
     0
  9
$CMLSCALE
 40
1.0
  9
$PROXYGRAPHICS
 70
     1
  9
$MEASUREMENT
 70
     1
  0
ENDSEC
  0
SECTION
  2
CLASSES
  0
CLASS
  1
XRECORD
  2
AcDbXrecord
  3
AutoCAD 2000
 90
        0
280
     0
281
     0
  0
CLASS
  1
ACDBDICTIONARYWDFLT
  2
AcDbDictionaryWithDefault
  3
AutoCAD 2000
 90
        0
280
     0
281
     0
  0
CLASS
  1
ACDBPLACEHOLDER
  2
AcDbPlaceHolder
  3
AutoCAD 2000
 90
        0
280
     0
281
     0
  0
CLASS
  1
LAYOUT
  2
AcDbLayout
  3
AutoCAD 2000
 90
        0
280
     0
281
     0
  0
CLASS
  1
DICTIONARYVAR
  2
AcDbDictionaryVar
  3
AutoCAD 2000
 90
        0
280
     0
281
     0
  0
CLASS
  1
LONG_TRANSACTION
  2
AcDbLongTransaction
  3
AutoCAD 2000
 90
        0
280
     0
281
     0
  0
CLASS
  1
LWPOLYLINE
  2
AcDbPolyline
  3
AutoCAD 2000
 90
        0
280
     0
281
     1
  0
CLASS
  1
HATCH
  2
AcDbHatch
  3
AutoCAD 2000
 90
        0
280
     0
281
     1
  0
CLASS
  1
XRECORD
  2
AcDbXrecord
  3
AutoCAD 2000
 90
        0
280
     0
281
     0
  0
ENDSEC
  0
SECTION
  2
TABLES
  0
TABLE
  2
VPORT
  5
8
330
0
100
AcDbSymbolTable
 70
     2
  0
VPORT
  5
1CE5
330
8
100
AcDbSymbolTableRecord
100
AcDbViewportTableRecord
  2
*ACTIVE
 70
     0
 10
0.0
 20
0.0
 11
1.0
 21
1.0
 12
-57.495802982589
 22
8.998901849145624
 13
0.0
 23
0.0
 14
7.0
 24
7.0
 15
7.0
 25
7.0
 16
0.0
 26
0.0
 36
1.0
 17
0.0
 27
0.0
 37
0.0
 40
112.6401399190317
 41
1.419235511713933
 42
50.0
 43
0.0
 44
0.0
 50
0.0
 51
0.0
 71
     0
 72
  2000
 73
     1
 74
     0
 75
     0
 76
     1
 77
     0
 78
     0
  0
ENDTAB
  0
TABLE
  2
LTYPE
  5
5
330
0
100
AcDbSymbolTable
 70
     3
  0
LTYPE
  5
14
330
5
100
AcDbSymbolTableRecord
100
AcDbLinetypeTableRecord
  2
BYBLOCK
 70
     0
  3

 72
    65
 73
     0
 40
0.0
  0
LTYPE
  5
15
330
5
100
AcDbSymbolTableRecord
100
AcDbLinetypeTableRecord
  2
BYLAYER
 70
     0
  3

 72
    65
 73
     0
 40
0.0
  0
LTYPE
  5
16
330
5
100
AcDbSymbolTableRecord
100
AcDbLinetypeTableRecord
  2
CONTINUOUS
 70
     0
  3
Solid line
 72
    65
 73
     0
 40
0.0
  0
LTYPE
  5
258
330
5
100
AcDbSymbolTableRecord
100
AcDbLinetypeTableRecord
  2
CENTER2
 70
     0
  3
___ _ ___ _ ___ _ ___ _ ___ _ ___ _ ___ _ ___ _
 72
    65
 73
     4
 40
1.125
 49
0.75
 74
     0
 49
-0.125
 74
     0
 49
0.125
 74
     0
 49
-0.125
 74
     0
  0
LTYPE
  5
25D
330
5
100
AcDbSymbolTableRecord
100
AcDbLinetypeTableRecord
  2
PHANTOM2
 70
     0
  3
___ _ _ ___ _ _ ___ _ _ ___ _ _ ___ _ _ ___ _ _
 72
    65
 73
     6
 40
1.25
 49
0.625
 74
     0
 49
-0.125
 74
     0
 49
0.125
 74
     0
 49
-0.125
 74
     0
 49
0.125
 74
     0
 49
-0.125
 74
     0
  0
ENDTAB
  0
TABLE
  2
LAYER
  5
2
330
0
100
AcDbSymbolTable
 70
    12
  0
LAYER
  5
F
330
2
100
AcDbSymbolTableRecord
100
AcDbLayerTableRecord
  2
0
 70
     0
 62
     7
  6
CONTINUOUS
  0
LAYER
  5
1AA
330
2
100
AcDbSymbolTableRecord
100
AcDbLayerTableRecord
  2
240
 70
     0
 62
     4
  6
CONTINUOUS
  0
LAYER
  5
1AB
330
2
100
AcDbSymbolTableRecord
100
AcDbLayerTableRecord
  2
241
 70
     0
 62
   211
  6
CONTINUOUS
  0
LAYER
  5
1AC
330
2
100
AcDbSymbolTableRecord
100
AcDbLayerTableRecord
  2
242
 70
     0
 62
     3
  6
CONTINUOUS
  0
LAYER
  5
1AF
330
2
100
AcDbSymbolTableRecord
100
AcDbLayerTableRecord
  2
245
 70
     0
 62
     2
  6
CENTER2
  0
LAYER
  5
21A
330
2
100
AcDbSymbolTableRecord
100
AcDbLayerTableRecord
  2
246
 70
     0
 62
     3
  6
PHANTOM2
  0
LAYER
  5
21B
330
2
100
AcDbSymbolTableRecord
100
AcDbLayerTableRecord
  2
247
 70
     0
 62
    60
  6
CONTINUOUS
  0
LAYER
  5
21E
330
2
100
AcDbSymbolTableRecord
100
AcDbLayerTableRecord
  2
250
 70
     0
 62
     3
  6
CONTINUOUS
  0
LAYER
  5
5C4
330
2
100
AcDbSymbolTableRecord
100
AcDbLayerTableRecord
  2
DEFPOINTS
 70
     0
 62
     7
  6
CONTINUOUS
  0
ENDTAB
  0
TABLE
  2
STYLE
  5
3
330
0
100
AcDbSymbolTable
 70
     2
  0
STYLE
  5
10
330
3
100
AcDbSymbolTableRecord
100
AcDbTextStyleTableRecord
  2
STANDARD
 70
     0
 40
0.0
 41
1.0
 50
0.0
 71
     0
 42
3.0
  3
romans.shx
  4
BIGFONT.SHX
  0
STYLE
  5
339
330
3
100
AcDbSymbolTableRecord
100
AcDbTextStyleTableRecord
  2
YOKO
 70
     0
 40
0.0
 41
1.0
 50
0.0
 71
     0
 42
3.0
  3
romans.shx
  4
extfont.shx
  0
ENDTAB
  0
TABLE
  2
VIEW
  5
6
330
0
100
AcDbSymbolTable
 70
     0
  0
ENDTAB
  0
TABLE
  2
UCS
  5
7
330
0
100
AcDbSymbolTable
 70
     0
  0
ENDTAB
  0
TABLE
  2
APPID
  5
9
330
0
100
AcDbSymbolTable
 70
     9
  0
APPID
  5
11
330
9
100
AcDbSymbolTableRecord
100
AcDbRegAppTableRecord
  2
ACAD
 70
     0
  0
APPID
  5
1B1
330
9
100
AcDbSymbolTableRecord
100
AcDbRegAppTableRecord
  2
GLOBAL
 70
     0
  0
APPID
  5
2A4
330
9
100
AcDbSymbolTableRecord
100
AcDbRegAppTableRecord
  2
DETAIL
 70
     0
  0
APPID
  5
5FD
330
9
100
AcDbSymbolTableRecord
100
AcDbRegAppTableRecord
  2
GRPNAME
 70
     0
  0
APPID
  5
5FE
330
9
100
AcDbSymbolTableRecord
100
AcDbRegAppTableRecord
  2
GPARA
 70
     0
  0
APPID
  5
7CE
330
9
100
AcDbSymbolTableRecord
100
AcDbRegAppTableRecord
  2
ITEMNAME
 70
     0
  0
APPID
  5
7CF
330
9
100
AcDbSymbolTableRecord
100
AcDbRegAppTableRecord
  2
HATCH_TYPE
 70
     0
  0
APPID
  5
7D0
330
9
100
AcDbSymbolTableRecord
100
AcDbRegAppTableRecord
  2
HATCH_DISPLAY
 70
     0
  0
APPID
  5
7D1
330
9
100
AcDbSymbolTableRecord
100
AcDbRegAppTableRecord
  2
HATCH_DISTANCE
 70
     0
  0
ENDTAB
  0
TABLE
  2
DIMSTYLE
  5
A
330
0
100
AcDbSymbolTable
 70
     2
  0
DIMSTYLE
105
48F
330
A
100
AcDbSymbolTableRecord
100
AcDbDimStyleTableRecord
  2
STANDARD
 70
     0
  3

  4

  5

  6

  7

 40
1.0
 41
2.0
 42
2.0
 43
3.75
 44
2.0
 45
0.0
 46
0.0
 47
0.0
 48
0.0
140
4.0
141
0.09
142
0.0
143
25.4
144
1.0
145
0.0
146
1.0
147
1.0
 71
     0
 72
     0
 73
     1
 74
     1
 75
     0
 76
     0
 77
     0
 78
     8
170
     0
171
     2
172
     0
173
     1
174
     0
175
     0
176
   256
177
   256
178
   256
270
     2
271
     3
272
     4
273
     2
274
     2
340
10
275
     0
280
     0
281
     0
282
     0
283
     1
284
     8
285
     0
286
     0
287
     3
288
     0
  0
DIMSTYLE
105
59A
102
{ACAD_REACTORS
330
151E
330
151F
330
1520
330
18F3
330
1908
330
1915
330
193D
102
}
330
A
100
AcDbSymbolTableRecord
100
AcDbDimStyleTableRecord
  2
BIGT
 70
     0
  3

  4

  5
OPEN
  6

  7

 40
1.0
 41
2.229999999999999
 42
0.5
 43
2.5
 44
1.0
 45
0.0
 46
0.0
 47
0.0
 48
0.0
140
3.5
141
0.0
142
0.0
143
25.4
144
1.0
145
0.0
146
1.0
147
1.0
 71
     0
 72
     0
 73
     0
 74
     0
 75
     0
 76
     0
 77
     3
 78
     9
170
     0
171
     2
172
     1
173
     0
174
     0
175
     0
176
   256
177
   256
178
    40
270
     2
271
     3
272
     3
273
     2
274
     2
340
10
275
     0
280
     0
281
     0
282
     0
283
     1
284
     8
285
     0
286
     0
287
     2
288
     0
  0
ENDTAB
  0
TABLE
  2
BLOCK_RECORD
  5
1
330
0
100
AcDbSymbolTable
 70
    10
  0
BLOCK_RECORD
  5
1A
102
{ACAD_XDICTIONARY
360
1D09
102
}
330
1
100
AcDbSymbolTableRecord
100
AcDbBlockTableRecord
  2
*MODEL_SPACE
  0
BLOCK_RECORD
  5
17
102
{ACAD_XDICTIONARY
360
1D07
102
}
330
1
100
AcDbSymbolTableRecord
100
AcDbBlockTableRecord
  2
*PAPER_SPACE
  0
BLOCK_RECORD
  5
594
330
1
100
AcDbSymbolTableRecord
100
AcDbBlockTableRecord
  2
_OPEN
  0
BLOCK_RECORD
  5
1546
330
1
100
AcDbSymbolTableRecord
100
AcDbBlockTableRecord
  2
*D1
  0
BLOCK_RECORD
  5
1552
330
1
100
AcDbSymbolTableRecord
100
AcDbBlockTableRecord
  2
*D2
  0
BLOCK_RECORD
  5
155E
330
1
100
AcDbSymbolTableRecord
100
AcDbBlockTableRecord
  2
*D3
  0
BLOCK_RECORD
  5
18F4
330
1
100
AcDbSymbolTableRecord
100
AcDbBlockTableRecord
  2
*D4
  0
BLOCK_RECORD
  5
1909
330
1
100
AcDbSymbolTableRecord
100
AcDbBlockTableRecord
  2
*D5
  0
BLOCK_RECORD
  5
1916
330
1
100
AcDbSymbolTableRecord
100
AcDbBlockTableRecord
  2
*D6
  0
BLOCK_RECORD
  5
193E
330
1
100
AcDbSymbolTableRecord
100
AcDbBlockTableRecord
  2
*D7
  0
BLOCK_RECORD
  5
1C07
330
1
100
AcDbSymbolTableRecord
100
AcDbBlockTableRecord
  2
A$C4B584267
  0
ENDTAB
  0
ENDSEC
  0
SECTION
  2
BLOCKS
  0
BLOCK
  5
1B
330
1A
100
AcDbEntity
  8
0
100
AcDbBlockBegin
  2
*MODEL_SPACE
 70
     0
 10
0.0
 20
0.0
 30
0.0
  3
*MODEL_SPACE
  1

  0
ENDBLK
  5
1C
330
1A
100
AcDbEntity
  8
0
100
AcDbBlockEnd
  0
BLOCK
  5
18
330
17
100
AcDbEntity
 67
     1
  8
0
100
AcDbBlockBegin
  2
*PAPER_SPACE
 70
     0
 10
0.0
 20
0.0
 30
0.0
  3
*PAPER_SPACE
  1

  0
ENDBLK
  5
19
330
17
100
AcDbEntity
 67
     1
  8
0
100
AcDbBlockEnd
  0
BLOCK
  5
598
330
594
100
AcDbEntity
  8
0
100
AcDbBlockBegin
  2
_OPEN
 70
     0
 10
0.0
 20
0.0
 30
0.0
  3
_OPEN
  1

  0
LINE
  5
595
330
594
100
AcDbEntity
  8
0
  6
BYBLOCK
 62
     0
100
AcDbLine
 10
-1.0
 20
0.1666666666666666
 30
0.0
 11
0.0
 21
0.0
 31
0.0
  0
LINE
  5
596
330
594
100
AcDbEntity
  8
0
  6
BYBLOCK
 62
     0
100
AcDbLine
 10
-1.0
 20
-0.1666666666666666
 30
0.0
 11
0.0
 21
0.0
 31
0.0
  0
LINE
  5
597
330
594
100
AcDbEntity
  8
0
  6
BYBLOCK
 62
     0
100
AcDbLine
 10
0.0
 20
0.0
 30
0.0
 11
-1.0
 21
0.0
 31
0.0
  0
ENDBLK
  5
599
330
594
100
AcDbEntity
  8
0
100
AcDbBlockEnd
  0
BLOCK
  5
1550
330
1546
100
AcDbEntity
  8
0
100
AcDbBlockBegin
  2
*D1
 70
     1
 10
0.0
 20
0.0
 30
0.0
  3
*D1
  1

  0
LINE
  5
1D0B
330
1546
100
AcDbEntity
  8
250
  6
CONTINUOUS
100
AcDbLine
 10
0.5
 20
-6.499999999999943
 30
0.0
 11
14.99999999999999
 21
-6.499999999999947
 31
0.0
  0
LINE
  5
1D0C
330
1546
100
AcDbEntity
  8
250
  6
CONTINUOUS
100
AcDbLine
 10
0.5
 20
6.5
 30
0.0
 11
15.0
 21
6.499999999999995
 31
0.0
  0
LINE
  5
1D0D
330
1546
100
AcDbEntity
  8
250
  6
CONTINUOUS
100
AcDbLine
 10
13.99999999999999
 20
-4.269999999999947
 30
0.0
 11
14.0
 21
4.269999999999996
 31
0.0
  0
MTEXT
  5
1D0E
330
1546
100
AcDbEntity
  8
250
  6
CONTINUOUS
 62
    40
100
AcDbMText
 10
11.83780158699278
 20
2.875246188077539
 30
0.0
 40
3.0
 41
0.0
 71
     5
 72
     1
  1
\A1;MAX.%%c13
 11
0.0000000000000001
 21
1.0
 31
0.0
  0
INSERT
  5
1D0F
330
1546
100
AcDbEntity
  8
250
  6
CONTINUOUS
100
AcDbBlockReference
  2
_OPEN
 10
13.99999999999999
 20
-6.499999999999946
 30
0.0
 41
2.229999999999999
 42
2.229999999999999
 43
2.229999999999999
 50
270.0
  0
INSERT
  5
1D10
330
1546
100
AcDbEntity
  8
250
  6
CONTINUOUS
100
AcDbBlockReference
  2
_OPEN
 10
14.0
 20
6.499999999999996
 30
0.0
 41
2.229999999999999
 42
2.229999999999999
 43
2.229999999999999
 50
90.0
  0
POINT
  5
1D11
330
1546
100
AcDbEntity
  8
DEFPOINTS
  6
CONTINUOUS
 62
     0
100
AcDbPoint
 10
0.0
 20
-6.499999999999943
 30
0.0
  0
POINT
  5
1D12
330
1546
100
AcDbEntity
  8
DEFPOINTS
  6
CONTINUOUS
 62
     0
100
AcDbPoint
 10
0.0
 20
6.5
 30
0.0
  0
POINT
  5
1D13
330
1546
100
AcDbEntity
  8
DEFPOINTS
  6
CONTINUOUS
 62
     0
100
AcDbPoint
 10
14.0
 20
6.499999999999996
 30
0.0
  0
ENDBLK
  5
1551
330
1546
100
AcDbEntity
  8
0
100
AcDbBlockEnd
  0
BLOCK
  5
155C
330
1552
100
AcDbEntity
  8
0
100
AcDbBlockBegin
  2
*D2
 70
     1
 10
0.0
 20
0.0
 30
0.0
  3
*D2
  1

  0
LINE
  5
1923
330
1552
100
AcDbEntity
  8
250
  6
CONTINUOUS
100
AcDbLine
 10
-1.08137099999999
 20
-17.5
 30
0.0
 11
21.99999999999998
 21
-17.5
 31
0.0
  0
LINE
  5
1924
330
1552
100
AcDbEntity
  8
250
  6
CONTINUOUS
100
AcDbLine
 10
-1.08137099999999
 20
17.5
 30
0.0
 11
21.99999999999999
 21
17.49999999999999
 31
0.0
  0
LINE
  5
1925
330
1552
100
AcDbEntity
  8
250
  6
CONTINUOUS
100
AcDbLine
 10
20.99999999999999
 20
-15.27
 30
0.0
 11
20.99999999999999
 21
15.26999999999999
 31
0.0
  0
INSERT
  5
1926
330
1552
100
AcDbEntity
  8
250
  6
CONTINUOUS
100
AcDbBlockReference
  2
_OPEN
 10
20.99999999999999
 20
-17.5
 30
0.0
 41
2.229999999999999
 42
2.229999999999999
 43
2.229999999999999
 50
270.0
  0
INSERT
  5
1927
330
1552
100
AcDbEntity
  8
250
  6
CONTINUOUS
100
AcDbBlockReference
  2
_OPEN
 10
20.99999999999999
 20
17.49999999999999
 30
0.0
 41
2.229999999999999
 42
2.229999999999999
 43
2.229999999999999
 50
90.0
  0
MTEXT
  5
1928
330
1552
100
AcDbEntity
  8
250
  6
CONTINUOUS
 62
    40
100
AcDbMText
 10
18.49999999999999
 20
-0.000000000000001
 30
0.0
 40
3.0
 41
0.0
 71
     5
 72
     1
  1
\A1;{\H3;\U+2205}35
 11
0.0000000000000001
 21
1.0
 31
0.0
1001
ACAD
1000
MTEXTBEGIN
1070
    73
1070
     1
1070
    44
1040
1.0
1070
    74
1070
     0
1000
MTEXTEND
  0
POINT
  5
1929
330
1552
100
AcDbEntity
  8
DEFPOINTS
  6
CONTINUOUS
 62
     0
100
AcDbPoint
 10
-1.58137099999999
 20
-17.5
 30
0.0
  0
POINT
  5
192A
330
1552
100
AcDbEntity
  8
DEFPOINTS
  6
CONTINUOUS
 62
     0
100
AcDbPoint
 10
-1.58137099999999
 20
17.5
 30
0.0
  0
POINT
  5
192B
330
1552
100
AcDbEntity
  8
DEFPOINTS
  6
CONTINUOUS
 62
     0
100
AcDbPoint
 10
20.99999999999999
 20
17.49999999999999
 30
0.0
  0
ENDBLK
  5
155D
330
1552
100
AcDbEntity
  8
0
100
AcDbBlockEnd
  0
BLOCK
  5
1568
330
155E
100
AcDbEntity
  8
0
100
AcDbBlockBegin
  2
*D3
 70
     1
 10
0.0
 20
0.0
 30
0.0
  3
*D3
  1

  0
LINE
  5
15A3
330
155E
100
AcDbEntity
  8
250
  6
CONTINUOUS
100
AcDbLine
 10
-50.0
 20
-6.799999999999954
 30
0.0
 11
-50.0
 21
-36.0
 31
0.0
  0
LINE
  5
15A4
330
155E
100
AcDbEntity
  8
250
  6
CONTINUOUS
100
AcDbLine
 10
0.0000000000000568
 20
-16.46005099999996
 30
0.0
 11
0.0000000000000556
 21
-36.0
 31
0.0
  0
LINE
  5
15A5
330
155E
100
AcDbEntity
  8
250
  6
CONTINUOUS
100
AcDbLine
 10
-47.77
 20
-35.0
 30
0.0
 11
-2.229999999999944
 21
-35.0
 31
0.0
  0
INSERT
  5
15A6
330
155E
100
AcDbEntity
  8
250
  6
CONTINUOUS
100
AcDbBlockReference
  2
_OPEN
 10
-50.0
 20
-35.0
 30
0.0
 41
2.229999999999999
 42
2.229999999999999
 43
2.229999999999999
 50
180.0
  0
INSERT
  5
15A7
330
155E
100
AcDbEntity
  8
250
  6
CONTINUOUS
100
AcDbBlockReference
  2
_OPEN
 10
0.0000000000000557
 20
-35.0
 30
0.0
 41
2.229999999999999
 42
2.229999999999999
 43
2.229999999999999
  0
MTEXT
  5
15A8
330
155E
100
AcDbEntity
  8
250
  6
CONTINUOUS
 62
    40
100
AcDbMText
 10
-24.99999999999997
 20
-32.5
 30
0.0
 40
3.0
 41
0.0
 71
     5
 72
     1
  1
\A1;41～60
1001
ACAD
1000
MTEXTBEGIN
1070
    73
1070
     1
1070
    44
1040
1.0
1070
    74
1070
     0
1000
MTEXTEND
  0
POINT
  5
15A9
330
155E
100
AcDbEntity
  8
DEFPOINTS
  6
CONTINUOUS
 62
     0
100
AcDbPoint
 10
-50.0
 20
-6.299999999999954
 30
0.0
  0
POINT
  5
15AA
330
155E
100
AcDbEntity
  8
DEFPOINTS
  6
CONTINUOUS
 62
     0
100
AcDbPoint
 10
0.0000000000000568
 20
-15.96005099999996
 30
0.0
  0
POINT
  5
15AB
330
155E
100
AcDbEntity
  8
DEFPOINTS
  6
CONTINUOUS
 62
     0
100
AcDbPoint
 10
0.0000000000000557
 20
-35.0
 30
0.0
  0
ENDBLK
  5
1569
330
155E
100
AcDbEntity
  8
0
100
AcDbBlockEnd
  0
BLOCK
  5
18FE
330
18F4
100
AcDbEntity
  8
0
100
AcDbBlockBegin
  2
*D4
 70
     1
 10
0.0
 20
0.0
 30
0.0
  3
*D4
  1

  0
LINE
  5
1BDE
330
18F4
100
AcDbEntity
  8
250
  6
CONTINUOUS
100
AcDbLine
 10
-123.0
 20
8.699999999999999
 30
0.0
 11
-123.0
 21
36.0
 31
0.0
  0
LINE
  5
1BDF
330
18F4
100
AcDbEntity
  8
250
  6
CONTINUOUS
100
AcDbLine
 10
0.0000000000000682
 20
16.46004999999996
 30
0.0
 11
0.0000000000000694
 21
36.0
 31
0.0
  0
LINE
  5
1BE0
330
18F4
100
AcDbEntity
  8
250
  6
CONTINUOUS
100
AcDbLine
 10
-120.7699999999999
 20
35.0
 30
0.0
 11
-2.22999999999993
 21
35.0
 31
0.0
  0
INSERT
  5
1BE1
330
18F4
100
AcDbEntity
  8
250
  6
CONTINUOUS
100
AcDbBlockReference
  2
_OPEN
 10
-123.0
 20
35.0
 30
0.0
 41
2.229999999999999
 42
2.229999999999999
 43
2.229999999999999
 50
180.0
  0
INSERT
  5
1BE2
330
18F4
100
AcDbEntity
  8
250
  6
CONTINUOUS
100
AcDbBlockReference
  2
_OPEN
 10
0.0000000000000693
 20
35.0
 30
0.0
 41
2.229999999999999
 42
2.229999999999999
 43
2.229999999999999
  0
MTEXT
  5
1BE3
330
18F4
100
AcDbEntity
  8
250
  6
CONTINUOUS
 62
    40
100
AcDbMText
 10
-61.49999999999996
 20
37.5
 30
0.0
 40
3.0
 41
0.0
 71
     5
 72
     1
  1
\A1;123
1001
ACAD
1000
MTEXTBEGIN
1070
    73
1070
     1
1070
    44
1040
1.0
1070
    74
1070
     0
1000
MTEXTEND
  0
POINT
  5
1BE4
330
18F4
100
AcDbEntity
  8
DEFPOINTS
  6
CONTINUOUS
 62
     0
100
AcDbPoint
 10
-123.0
 20
8.199999999999999
 30
0.0
  0
POINT
  5
1BE5
330
18F4
100
AcDbEntity
  8
DEFPOINTS
  6
CONTINUOUS
 62
     0
100
AcDbPoint
 10
0.0000000000000682
 20
15.96004999999996
 30
0.0
  0
POINT
  5
1BE6
330
18F4
100
AcDbEntity
  8
DEFPOINTS
  6
CONTINUOUS
 62
     0
100
AcDbPoint
 10
0.0000000000000693
 20
35.0
 30
0.0
  0
ENDBLK
  5
18FF
330
18F4
100
AcDbEntity
  8
0
100
AcDbBlockEnd
  0
BLOCK
  5
1913
330
1909
100
AcDbEntity
  8
0
100
AcDbBlockBegin
  2
*D5
 70
     1
 10
0.0
 20
0.0
 30
0.0
  3
*D5
  1

  0
LINE
  5
190A
330
1909
100
AcDbEntity
  8
250
  6
CONTINUOUS
100
AcDbLine
 10
-43.0
 20
12.5
 30
0.0
 11
-43.0
 21
29.0
 31
0.0
  0
LINE
  5
190B
330
1909
100
AcDbEntity
  8
250
  6
CONTINUOUS
100
AcDbLine
 10
0.0000000000000682
 20
16.46004999999996
 30
0.0
 11
0.000000000000069
 21
29.0
 31
0.0
  0
LINE
  5
190C
330
1909
100
AcDbEntity
  8
250
  6
CONTINUOUS
100
AcDbLine
 10
-40.77
 20
28.0
 30
0.0
 11
-2.229999999999931
 21
28.0
 31
0.0
  0
INSERT
  5
190D
330
1909
100
AcDbEntity
  8
250
  6
CONTINUOUS
100
AcDbBlockReference
  2
_OPEN
 10
-43.0
 20
28.0
 30
0.0
 41
2.229999999999999
 42
2.229999999999999
 43
2.229999999999999
 50
180.0
  0
INSERT
  5
190E
330
1909
100
AcDbEntity
  8
250
  6
CONTINUOUS
100
AcDbBlockReference
  2
_OPEN
 10
0.0000000000000689
 20
28.0
 30
0.0
 41
2.229999999999999
 42
2.229999999999999
 43
2.229999999999999
  0
MTEXT
  5
190F
330
1909
100
AcDbEntity
  8
250
  6
CONTINUOUS
 62
    40
100
AcDbMText
 10
-21.49999999999996
 20
30.5
 30
0.0
 40
3.0
 41
0.0
 71
     5
 72
     1
  1
\A1;43
1001
ACAD
1000
MTEXTBEGIN
1070
    73
1070
     1
1070
    44
1040
1.0
1070
    74
1070
     0
1000
MTEXTEND
  0
POINT
  5
1910
330
1909
100
AcDbEntity
  8
DEFPOINTS
  6
CONTINUOUS
 62
     0
100
AcDbPoint
 10
-43.0
 20
11.99999999999999
 30
0.0
  0
POINT
  5
1911
330
1909
100
AcDbEntity
  8
DEFPOINTS
  6
CONTINUOUS
 62
     0
100
AcDbPoint
 10
0.0000000000000682
 20
15.96004999999996
 30
0.0
  0
POINT
  5
1912
330
1909
100
AcDbEntity
  8
DEFPOINTS
  6
CONTINUOUS
 62
     0
100
AcDbPoint
 10
0.0000000000000689
 20
28.0
 30
0.0
  0
ENDBLK
  5
1914
330
1909
100
AcDbEntity
  8
0
100
AcDbBlockEnd
  0
BLOCK
  5
1920
330
1916
100
AcDbEntity
  8
0
100
AcDbBlockBegin
  2
*D6
 70
     1
 10
0.0
 20
0.0
 30
0.0
  3
*D6
  1

  0
LINE
  5
1BE7
330
1916
100
AcDbEntity
  8
250
  6
CONTINUOUS
100
AcDbLine
 10
-123.0
 20
8.699999999999999
 30
0.0
 11
-123.0
 21
29.0
 31
0.0
  0
LINE
  5
1BE8
330
1916
100
AcDbEntity
  8
250
  6
CONTINUOUS
100
AcDbLine
 10
-43.0
 20
12.5
 30
0.0
 11
-43.0
 21
29.0
 31
0.0
  0
LINE
  5
1BE9
330
1916
100
AcDbEntity
  8
250
  6
CONTINUOUS
100
AcDbLine
 10
-120.7699999999999
 20
28.0
 30
0.0
 11
-45.22999999999999
 21
28.0
 31
0.0
  0
INSERT
  5
1BEA
330
1916
100
AcDbEntity
  8
250
  6
CONTINUOUS
100
AcDbBlockReference
  2
_OPEN
 10
-123.0
 20
28.0
 30
0.0
 41
2.229999999999999
 42
2.229999999999999
 43
2.229999999999999
 50
180.0
  0
INSERT
  5
1BEB
330
1916
100
AcDbEntity
  8
250
  6
CONTINUOUS
100
AcDbBlockReference
  2
_OPEN
 10
-43.0
 20
28.0
 30
0.0
 41
2.229999999999999
 42
2.229999999999999
 43
2.229999999999999
  0
MTEXT
  5
1BEC
330
1916
100
AcDbEntity
  8
250
  6
CONTINUOUS
 62
    40
100
AcDbMText
 10
-83.0
 20
30.5
 30
0.0
 40
3.0
 41
0.0
 71
     5
 72
     1
  1
\A1;80
1001
ACAD
1000
MTEXTBEGIN
1070
    73
1070
     1
1070
    44
1040
1.0
1070
    74
1070
     0
1000
MTEXTEND
  0
POINT
  5
1BED
330
1916
100
AcDbEntity
  8
DEFPOINTS
  6
CONTINUOUS
 62
     0
100
AcDbPoint
 10
-123.0
 20
8.199999999999999
 30
0.0
  0
POINT
  5
1BEE
330
1916
100
AcDbEntity
  8
DEFPOINTS
  6
CONTINUOUS
 62
     0
100
AcDbPoint
 10
-43.0
 20
11.99999999999999
 30
0.0
  0
POINT
  5
1BEF
330
1916
100
AcDbEntity
  8
DEFPOINTS
  6
CONTINUOUS
 62
     0
100
AcDbPoint
 10
-43.0
 20
28.0
 30
0.0
  0
ENDBLK
  5
1921
330
1916
100
AcDbEntity
  8
0
100
AcDbBlockEnd
  0
BLOCK
  5
1948
330
193E
100
AcDbEntity
  8
0
100
AcDbBlockBegin
  2
*D7
 70
     1
 10
0.0
 20
0.0
 30
0.0
  3
*D7
  1

  0
LINE
  5
1BFC
330
193E
100
AcDbEntity
  8
250
  6
CONTINUOUS
100
AcDbLine
 10
-114.0
 20
-9.99999999999993
 30
0.0
 11
-134.0
 21
-9.999999999999923
 31
0.0
  0
LINE
  5
1BFD
330
193E
100
AcDbEntity
  8
250
  6
CONTINUOUS
100
AcDbLine
 10
-114.0
 20
10.0
 30
0.0
 11
-134.0
 21
10.0
 31
0.0
  0
LINE
  5
1BFE
330
193E
100
AcDbEntity
  8
250
  6
CONTINUOUS
100
AcDbLine
 10
-133.0
 20
-7.769999999999924
 30
0.0
 11
-133.0
 21
7.770000000000005
 31
0.0
  0
INSERT
  5
1BFF
330
193E
100
AcDbEntity
  8
250
  6
CONTINUOUS
100
AcDbBlockReference
  2
_OPEN
 10
-133.0
 20
-9.999999999999923
 30
0.0
 41
2.229999999999999
 42
2.229999999999999
 43
2.229999999999999
 50
270.0
  0
INSERT
  5
1C00
330
193E
100
AcDbEntity
  8
250
  6
CONTINUOUS
100
AcDbBlockReference
  2
_OPEN
 10
-133.0
 20
10.0
 30
0.0
 41
2.229999999999999
 42
2.229999999999999
 43
2.229999999999999
 50
90.0
  0
MTEXT
  5
1C01
330
193E
100
AcDbEntity
  8
250
  6
CONTINUOUS
 62
    40
100
AcDbMText
 10
-135.4999999999999
 20
0.00000000000002
 30
0.0
 40
3.0
 41
0.0
 71
     5
 72
     1
  1
\A1;{\H3;\U+2205}20
 11
0.0000000000000001
 21
1.0
 31
0.0
1001
ACAD
1000
MTEXTBEGIN
1070
    73
1070
     1
1070
    44
1040
1.0
1070
    74
1070
     0
1000
MTEXTEND
  0
POINT
  5
1C02
330
193E
100
AcDbEntity
  8
DEFPOINTS
  6
CONTINUOUS
 62
     0
100
AcDbPoint
 10
-113.5
 20
-9.99999999999993
 30
0.0
  0
POINT
  5
1C03
330
193E
100
AcDbEntity
  8
DEFPOINTS
  6
CONTINUOUS
 62
     0
100
AcDbPoint
 10
-113.5
 20
10.0
 30
0.0
  0
POINT
  5
1C04
330
193E
100
AcDbEntity
  8
DEFPOINTS
  6
CONTINUOUS
 62
     0
100
AcDbPoint
 10
-133.0
 20
10.0
 30
0.0
  0
ENDBLK
  5
1949
330
193E
100
AcDbEntity
  8
0
100
AcDbBlockEnd
  0
BLOCK
  5
1CDB
330
1C07
100
AcDbEntity
  8
0
100
AcDbBlockBegin
  2
A$C4B584267
 70
     0
 10
0.0
 20
0.0
 30
0.0
  3
A$C4B584267
  1

  0
TEXT
  5
1C08
330
1C07
100
AcDbEntity
  8
247
100
AcDbText
 10
-41.17293963344661
 20
-11.59345309854239
 30
0.0
 40
1.5
  1
SL20-NBS13-80
  7
YOKO
 11
-41.17293963344661
 21
-11.59345309854239
 31
0.0
100
AcDbText
 73
     1
  0
LINE
  5
1C09
330
1C07
100
AcDbEntity
  8
245
100
AcDbLine
 10
2.656739425502337
 20
0.0
 30
0.0
 11
-125.2300531731561
 21
0.0
 31
0.0
  0
LINE
  5
1C0A
330
1C07
100
AcDbEntity
  8
240
100
AcDbLine
 10
-42.0
 20
12.99999999999999
 30
0.0
 11
-16.0
 21
13.0
 31
0.0
  0
LINE
  5
1C0B
330
1C07
100
AcDbEntity
  8
246
100
AcDbLine
 10
-31.0
 20
6.5
 30
0.0
 11
0.0
 21
6.5
 31
0.0
  0
LINE
  5
1C0C
330
1C07
100
AcDbEntity
  8
246
100
AcDbLine
 10
-5.600000000000022
 20
-10.24999999999994
 30
0.0
 11
-31.0
 21
-7.580352999999945
 31
0.0
  0
LINE
  5
1C0D
330
1C07
100
AcDbEntity
  8
246
100
AcDbLine
 10
-31.0
 20
-6.499999999999943
 30
0.0
 11
0.0
 21
-6.499999999999943
 31
0.0
  0
LINE
  5
1C0E
330
1C07
100
AcDbEntity
  8
240
100
AcDbLine
 10
-42.0
 20
-12.99999999999994
 30
0.0
 11
-16.0
 21
-12.99999999999994
 31
0.0
  0
LINE
  5
1C0F
330
1C07
100
AcDbEntity
  8
246
100
AcDbLine
 10
-5.600000000000022
 20
10.25
 30
0.0
 11
-31.0
 21
7.580352000000061
 31
0.0
  0
LINE
  5
1C10
330
1C07
100
AcDbEntity
  8
240
100
AcDbLine
 10
-43.0
 20
9.800000000000011
 30
0.0
 11
-43.0
 21
11.99999999999999
 31
0.0
  0
LINE
  5
1C11
330
1C07
100
AcDbEntity
  8
242
100
AcDbLine
 10
-47.99999999999999
 20
5.267826876426368
 30
0.0
 11
-123.0
 21
-5.267826876426373
 31
0.0
  0
LINE
  5
1C12
330
1C07
100
AcDbEntity
  8
242
100
AcDbLine
 10
-123.0
 20
5.267826876426369
 30
0.0
 11
-48.00000161816928
 21
-5.267829487452615
 31
0.0
  0
LINE
  5
1C13
330
1C07
100
AcDbEntity
  8
241
100
AcDbLine
 10
-47.99999999999999
 20
-5.267826876426373
 30
0.0
 11
-123.0
 21
-5.267826876426373
 31
0.0
  0
LINE
  5
1C14
330
1C07
100
AcDbEntity
  8
241
100
AcDbLine
 10
-48.0
 20
5.267826876426368
 30
0.0
 11
-123.0
 21
5.267826876426369
 31
0.0
  0
LINE
  5
1C15
330
1C07
100
AcDbEntity
  8
240
100
AcDbLine
 10
-113.5
 20
10.0
 30
0.0
 11
-44.49999999999993
 21
10.0
 31
0.0
  0
LINE
  5
1C16
330
1C07
100
AcDbEntity
  8
240
100
AcDbLine
 10
-113.5
 20
-9.99999999999993
 30
0.0
 11
-44.49999999999993
 21
-9.999999999999943
 31
0.0
  0
LINE
  5
1C17
330
1C07
100
AcDbEntity
  8
240
100
AcDbLine
 10
-122.7
 20
8.5
 30
0.0
 11
-115.0
 21
8.500000000000001
 31
0.0
  0
LINE
  5
1C18
330
1C07
100
AcDbEntity
  8
240
100
AcDbLine
 10
-122.7
 20
-8.5
 30
0.0
 11
-115.0
 21
-8.500000000000001
 31
0.0
  0
LINE
  5
1C19
330
1C07
100
AcDbEntity
  8
240
100
AcDbLine
 10
-123.0
 20
-8.199999999999999
 30
0.0
 11
-123.0
 21
8.199999999999999
 31
0.0
  0
LINE
  5
1C1A
330
1C07
100
AcDbEntity
  8
240
100
AcDbLine
 10
-123.0
 20
-8.199999999999999
 30
0.0
 11
-122.7
 21
-8.5
 31
0.0
  0
LINE
  5
1C1B
330
1C07
100
AcDbEntity
  8
240
100
AcDbLine
 10
-122.7
 20
8.5
 30
0.0
 11
-123.0
 21
8.199999999999999
 31
0.0
  0
LINE
  5
1C1C
330
1C07
100
AcDbEntity
  8
240
100
AcDbLine
 10
-113.5
 20
-9.99999999999993
 30
0.0
 11
-115.0
 21
-8.500000000000001
 31
0.0
  0
LINE
  5
1C1D
330
1C07
100
AcDbEntity
  8
240
100
AcDbLine
 10
-113.5
 20
10.0
 30
0.0
 11
-115.0
 21
8.500000000000001
 31
0.0
  0
LINE
  5
1C1E
330
1C07
100
AcDbEntity
  8
246
100
AcDbLine
 10
-64.25000000000001
 20
7.0
 30
0.0
 11
-50.69999999999993
 21
7.0
 31
0.0
  0
LINE
  5
1C1F
330
1C07
100
AcDbEntity
  8
246
100
AcDbLine
 10
-64.60000000000004
 20
6.649999999999977
 30
0.0
 11
-50.35000000000002
 21
6.649999999999977
 31
0.0
  0
LINE
  5
1C20
330
1C07
100
AcDbEntity
  8
246
100
AcDbLine
 10
-64.25000000000001
 20
-6.999999999999943
 30
0.0
 11
-50.69999999999993
 21
-6.999999999999943
 31
0.0
  0
LINE
  5
1C21
330
1C07
100
AcDbEntity
  8
246
100
AcDbLine
 10
-64.60000000000004
 20
-6.649999999999977
 30
0.0
 11
-50.35000000000002
 21
-6.649999999999977
 31
0.0
  0
LINE
  5
1C22
330
1C07
100
AcDbEntity
  8
246
100
AcDbLine
 10
-58.00000000000001
 20
3.0
 30
0.0
 11
-70.00000000000001
 21
3.0
 31
0.0
  0
LINE
  5
1C23
330
1C07
100
AcDbEntity
  8
246
100
AcDbLine
 10
-58.00000000000001
 20
-2.999999999999943
 30
0.0
 11
-70.00000000000001
 21
-2.999999999999943
 31
0.0
  0
LINE
  5
1C24
330
1C07
100
AcDbEntity
  8
246
100
AcDbLine
 10
-70.00000000000001
 20
-5.249999999999943
 30
0.0
 11
-70.00000000000001
 21
5.25
 31
0.0
  0
LINE
  5
1C25
330
1C07
100
AcDbEntity
  8
246
100
AcDbLine
 10
-69.00000000000002
 20
-6.249999999999943
 30
0.0
 11
-65.00000000000001
 21
-6.249999999999943
 31
0.0
  0
ARC
  5
1C26
330
1C07
100
AcDbEntity
  8
246
100
AcDbCircle
 10
-69.00000000000002
 20
-5.249999999999943
 30
0.0
 40
1.0
100
AcDbArc
 50
180.0
 51
270.0
  0
LINE
  5
1C27
330
1C07
100
AcDbEntity
  8
246
100
AcDbLine
 10
-65.00000000000001
 20
-6.249999999999943
 30
0.0
 11
-64.25000000000001
 21
-6.999999999999943
 31
0.0
  0
LINE
  5
1C28
330
1C07
100
AcDbEntity
  8
246
100
AcDbLine
 10
-69.00000000000002
 20
6.25
 30
0.0
 11
-65.00000000000001
 21
6.25
 31
0.0
  0
ARC
  5
1C29
330
1C07
100
AcDbEntity
  8
246
100
AcDbCircle
 10
-69.00000000000002
 20
5.25
 30
0.0
 40
1.0
100
AcDbArc
 50
90.0
 51
180.0
  0
LINE
  5
1C2A
330
1C07
100
AcDbEntity
  8
246
100
AcDbLine
 10
-65.00000000000001
 20
6.25
 30
0.0
 11
-64.25000000000001
 21
7.0
 31
0.0
  0
LINE
  5
1C2B
330
1C07
100
AcDbEntity
  8
241
100
AcDbLine
 10
-44.29999999999999
 20
-9.799999999999954
 30
0.0
 11
-44.29999999999999
 21
9.800000000000011
 31
0.0
  0
LINE
  5
1C2C
330
1C07
100
AcDbEntity
  8
241
100
AcDbLine
 10
-43.0
 20
-9.799999999999954
 30
0.0
 11
-43.0
 21
9.800000000000011
 31
0.0
  0
ARC
  5
1C2D
102
{ACAD_REACTORS
330
1C2F
102
}
330
1C07
100
AcDbEntity
  8
247
100
AcDbCircle
 10
-40.60027305575346
 20
-8.146895508983517
 30
0.0
 40
0.9548561096191406
100
AcDbArc
 50
90.0
 51
270.0
  0
ARC
  5
1C2E
102
{ACAD_REACTORS
330
1C2F
102
}
330
1C07
100
AcDbEntity
  8
247
100
AcDbCircle
 10
-36.90815956088042
 20
-8.146895508983517
 30
0.0
 40
0.9548561096191406
100
AcDbArc
 50
270.0
 51
104.7707939660941
  0
HATCH
  5
1C2F
330
1C07
100
AcDbEntity
  8
247
100
AcDbHatch
 10
0.0
 20
0.0
 30
0.0
210
0.0
220
0.0
230
1.0
  2
ANSI31
 70
     0
 71
     1
 91
        1
 92
       33
 93
       10
 72
     1
 10
-40.22467109652493
 20
-7.192039399364375
 11
-40.27682182284329
 21
-7.373918061473751
 72
     1
 10
-40.60027305575345
 20
-7.192039399364375
 11
-40.22467109652493
 21
-7.192039399364375
 72
     1
 10
-40.60027305575345
 20
-7.373918061473751
 11
-40.27682182284329
 21
-7.373918061473751
 72
     2
 10
-40.60027305575346
 20
-8.146895508983517
 40
0.7729774475097657
 50
90.0
 51
270.0
 73
     1
 72
     2
 10
-40.60027305575346
 20
-8.146895508983517
 40
0.9548561096191406
 50
90.0
 51
270.0
 73
     1
 72
     1
 10
-40.60027305575345
 20
-9.101751828498526
 11
-36.90815956088039
 21
-9.101751828498526
 72
     1
 10
-40.60027305575345
 20
-8.919873171070003
 11
-36.90815956088039
 21
-8.919873171070003
 72
     2
 10
-36.90815956088042
 20
-8.146895508983517
 40
0.9548561096191406
 50
270.0
 51
464.7707939660941
 73
     1
 72
     2
 10
-36.90815956088042
 20
-8.146895508983517
 40
0.7729774475097657
 50
270.0
 51
464.1274364964119
 73
     1
 72
     1
 10
-37.09682914706204
 20
-7.397291474559688
 11
-37.15160285922024
 21
-7.22359076044836
 97
       10
330
1C74
330
1C72
330
1C73
330
1C71
330
1C2D
330
1C34
330
1C5C
330
1C2E
330
1C80
330
1C88
 75
     0
 76
     1
 52
360.0
 41
0.045
 77
     0
 78
     1
 53
44.99999999999996
 43
-95.46512315722443
 44
-16.18924732706819
 45
-0.101027881362028
 46
0.101027881362028
 79
     0
 98
        1
 10
-95.46512315722443
 20
-16.18924732706819
  0
ARC
  5
1C30
330
1C07
100
AcDbEntity
  8
240
100
AcDbCircle
 10
-42.0
 20
-11.99999999999994
 30
0.0
 40
1.0
100
AcDbArc
 50
180.0
 51
270.0
  0
LINE
  5
1C31
330
1C07
100
AcDbEntity
  8
240
100
AcDbLine
 10
-44.49999999999993
 20
-9.999999999999943
 30
0.0
 11
-44.29999999999999
 21
-9.799999999999954
 31
0.0
  0
LINE
  5
1C32
330
1C07
100
AcDbEntity
  8
240
100
AcDbLine
 10
-43.0
 20
-11.99999999999994
 30
0.0
 11
-43.0
 21
-9.799999999999954
 31
0.0
  0
LINE
  5
1C33
330
1C07
100
AcDbEntity
  8
240
100
AcDbLine
 10
-44.29999999999999
 20
-9.799999999999954
 30
0.0
 11
-43.0
 21
-9.799999999999954
 31
0.0
  0
LINE
  5
1C34
102
{ACAD_REACTORS
330
1C2F
102
}
330
1C07
100
AcDbEntity
  8
247
100
AcDbLine
 10
-40.60027305575345
 20
-9.101751828498526
 30
0.0
 11
-36.90815956088039
 21
-9.101751828498526
 31
0.0
  0
ARC
  5
1C35
330
1C07
100
AcDbEntity
  8
241
100
AcDbCircle
 10
-56.50000000000034
 20
0.0000000000000009
 30
0.0
 40
10.00000000000029
100
AcDbArc
 50
328.2116517828554
 51
31.78833061705061
  0
LINE
  5
1C36
330
1C07
100
AcDbEntity
  8
241
100
AcDbLine
 10
-47.99999999999999
 20
-5.267826876426373
 30
0.0
 11
-48.0
 21
5.267826876426368
 31
0.0
  0
LINE
  5
1C37
330
1C07
100
AcDbEntity
  8
246
100
AcDbLine
 10
-53.69059900000002
 20
-2.309400999999979
 30
0.0
 11
-53.69059900000002
 21
2.309401000000036
 31
0.0
  0
LINE
  5
1C38
330
1C07
100
AcDbEntity
  8
246
100
AcDbLine
 10
-57.60128299999998
 20
-2.309400999999979
 30
0.0
 11
-57.60128299999998
 21
2.309401000000036
 31
0.0
  0
LINE
  5
1C39
330
1C07
100
AcDbEntity
  8
246
100
AcDbLine
 10
-50.0
 20
6.300000000000011
 30
0.0
 11
-50.0
 21
-6.299999999999954
 31
0.0
  0
LINE
  5
1C3A
330
1C07
100
AcDbEntity
  8
246
100
AcDbLine
 10
-50.69999999999993
 20
-6.999999999999943
 30
0.0
 11
-50.0
 21
-6.299999999999954
 31
0.0
  0
LINE
  5
1C3B
330
1C07
100
AcDbEntity
  8
246
100
AcDbLine
 10
-50.0
 20
-5.999999999999943
 30
0.0
 11
-53.69059900000002
 21
-2.309400999999979
 31
0.0
  0
LINE
  5
1C3C
330
1C07
100
AcDbEntity
  8
246
100
AcDbLine
 10
-57.60128299999998
 20
-2.309400999999979
 30
0.0
 11
-53.69059900000002
 21
-2.309400999999979
 31
0.0
  0
LINE
  5
1C3D
330
1C07
100
AcDbEntity
  8
246
100
AcDbLine
 10
-57.60128299999998
 20
-1.154700999999988
 30
0.0
 11
-53.69059900000002
 21
-1.154700999999988
 31
0.0
  0
LINE
  5
1C3E
330
1C07
100
AcDbEntity
  8
246
100
AcDbLine
 10
-57.60128299999998
 20
-2.309400999999979
 30
0.0
 11
-58.00000000000001
 21
-2.999999999999943
 31
0.0
  0
LINE
  5
1C3F
330
1C07
100
AcDbEntity
  8
246
100
AcDbLine
 10
-58.00000000000001
 20
-2.999999999999943
 30
0.0
 11
-58.00000000000001
 21
-1.772514999999941
 31
0.0
  0
LINE
  5
1C40
330
1C07
100
AcDbEntity
  8
246
100
AcDbLine
 10
-50.0
 20
6.300000000000011
 30
0.0
 11
-50.69999999999993
 21
7.0
 31
0.0
  0
LINE
  5
1C41
330
1C07
100
AcDbEntity
  8
246
100
AcDbLine
 10
-50.0
 20
6.0
 30
0.0
 11
-53.69059900000002
 21
2.309401000000036
 31
0.0
  0
LINE
  5
1C42
330
1C07
100
AcDbEntity
  8
246
100
AcDbLine
 10
-57.60128299999998
 20
1.154699999999991
 30
0.0
 11
-53.69059900000002
 21
1.154699999999991
 31
0.0
  0
LINE
  5
1C43
330
1C07
100
AcDbEntity
  8
246
100
AcDbLine
 10
-57.60128299999998
 20
2.309401000000036
 30
0.0
 11
-53.69059900000002
 21
2.309401000000036
 31
0.0
  0
LINE
  5
1C44
330
1C07
100
AcDbEntity
  8
246
100
AcDbLine
 10
-58.00000000000001
 20
3.0
 30
0.0
 11
-58.00000000000001
 21
1.772514999999998
 31
0.0
  0
LINE
  5
1C45
330
1C07
100
AcDbEntity
  8
246
100
AcDbLine
 10
-57.60128299999998
 20
2.309401000000036
 30
0.0
 11
-58.00000000000001
 21
3.0
 31
0.0
  0
LINE
  5
1C46
330
1C07
100
AcDbEntity
  8
240
100
AcDbLine
 10
-44.29999999999999
 20
9.800000000000011
 30
0.0
 11
-44.49999999999993
 21
10.0
 31
0.0
  0
LINE
  5
1C47
330
1C07
100
AcDbEntity
  8
240
100
AcDbLine
 10
-44.29999999999999
 20
9.800000000000011
 30
0.0
 11
-43.0
 21
9.800000000000011
 31
0.0
  0
LINE
  5
1C48
330
1C07
100
AcDbEntity
  8
246
100
AcDbLine
 10
-31.00000000000005
 20
7.580352000000004
 30
0.0
 11
-31.00000000000005
 21
-7.580353000000002
 31
0.0
  0
HATCH
  5
1C49
330
1C07
100
AcDbEntity
  8
247
100
AcDbHatch
 10
0.0
 20
0.0
 30
0.0
210
0.0
220
0.0
230
1.0
  2
ANSI31
 70
     0
 71
     0
 91
        1
 92
        7
 72
     0
 73
     1
 93
        6
 10
-38.32314369173977
 20
-7.192039399364373
 10
-38.79616004916164
 20
-7.192039399364373
 10
-38.85352928133937
 20
-7.392100434520624
 10
-38.78730232211086
 20
-7.392100434520624
 10
-39.1993102261636
 20
-8.828933840015315
 10
-38.79251396151516
 20
-8.828933840015315
 97
        0
 75
     0
 76
     1
 52
360.0
 41
0.045
 77
     0
 78
     1
 53
44.99999999999996
 43
-95.46512315722443
 44
-16.18924732706819
 45
-0.101027881362028
 46
0.101027881362028
 79
     0
 47
0.0134348504236232
 98
        1
 10
-38.74838571096224
 20
-7.967625373363626
  0
POLYLINE
  5
1C4A
330
1C07
100
AcDbEntity
  8
247
100
AcDb2dPolyline
 66
     1
 10
0.0
 20
0.0
 30
0.0
 70
     1
  0
VERTEX
  5
1C4B
330
1C4A
100
AcDbEntity
  8
247
100
AcDbVertex
100
AcDb2dVertex
 10
-38.79616004916167
 20
-7.192039399364375
 30
0.0
  0
VERTEX
  5
1C4C
330
1C4A
100
AcDbEntity
  8
247
100
AcDbVertex
100
AcDb2dVertex
 10
-38.8535292813394
 20
-7.392100434520625
 30
0.0
  0
VERTEX
  5
1C4D
330
1C4A
100
AcDbEntity
  8
247
100
AcDbVertex
100
AcDb2dVertex
 10
-38.78730232211088
 20
-7.392100434520625
 30
0.0
  0
VERTEX
  5
1C4E
330
1C4A
100
AcDbEntity
  8
247
100
AcDbVertex
100
AcDb2dVertex
 10
-39.19931022616362
 20
-8.828933840015315
 30
0.0
  0
VERTEX
  5
1C4F
330
1C4A
100
AcDbEntity
  8
247
100
AcDbVertex
100
AcDb2dVertex
 10
-38.79251396151518
 20
-8.828933840015315
 30
0.0
  0
VERTEX
  5
1C50
330
1C4A
100
AcDbEntity
  8
247
100
AcDbVertex
100
AcDb2dVertex
 10
-38.32314369173978
 20
-7.192039399364375
 30
0.0
  0
SEQEND
  5
1C51
330
1C4A
100
AcDbEntity
  8
247
  0
POLYLINE
  5
1C52
330
1C07
100
AcDbEntity
  8
247
100
AcDb2dPolyline
 66
     1
 10
0.0
 20
0.0
 30
0.0
 70
     1
1001
HATCH_DISTANCE
1040
1.0
1001
HATCH_DISPLAY
1070
     0
1001
HATCH_TYPE
1070
     7
  0
VERTEX
  5
1C53
330
1C52
100
AcDbEntity
  8
247
100
AcDbVertex
100
AcDb2dVertex
 10
-38.79616004916167
 20
-7.192039399364375
 30
0.0
  0
VERTEX
  5
1C54
330
1C52
100
AcDbEntity
  8
247
100
AcDbVertex
100
AcDb2dVertex
 10
-38.8535292813394
 20
-7.392100434520625
 30
0.0
  0
VERTEX
  5
1C55
330
1C52
100
AcDbEntity
  8
247
100
AcDbVertex
100
AcDb2dVertex
 10
-38.78730232211088
 20
-7.392100434520625
 30
0.0
  0
VERTEX
  5
1C56
330
1C52
100
AcDbEntity
  8
247
100
AcDbVertex
100
AcDb2dVertex
 10
-39.19931022616362
 20
-8.828933840015315
 30
0.0
  0
VERTEX
  5
1C57
330
1C52
100
AcDbEntity
  8
247
100
AcDbVertex
100
AcDb2dVertex
 10
-38.79251396151518
 20
-8.828933840015315
 30
0.0
  0
VERTEX
  5
1C58
330
1C52
100
AcDbEntity
  8
247
100
AcDbVertex
100
AcDb2dVertex
 10
-38.32314369173978
 20
-7.192039399364375
 30
0.0
  0
SEQEND
  5
1C59
330
1C52
100
AcDbEntity
  8
247
  0
LINE
  5
1C5A
330
1C07
100
AcDbEntity
  8
247
100
AcDbLine
 10
-39.1993102261636
 20
-8.828933840015315
 30
0.0
 11
-38.78730232211086
 21
-7.392100434520625
 31
0.0
  0
LINE
  5
1C5B
330
1C07
100
AcDbEntity
  8
247
100
AcDbLine
 10
-39.1993102261636
 20
-8.828933840015315
 30
0.0
 11
-38.79251396151516
 21
-8.828933840015315
 31
0.0
  0
LINE
  5
1C5C
102
{ACAD_REACTORS
330
1C2F
102
}
330
1C07
100
AcDbEntity
  8
247
100
AcDbLine
 10
-40.60027305575345
 20
-8.919873171070003
 30
0.0
 11
-36.90815956088039
 21
-8.919873171070003
 31
0.0
  0
ARC
  5
1C5D
330
1C07
100
AcDbEntity
  8
247
100
AcDbCircle
 10
-39.95298606844878
 20
-8.356054597118282
 30
0.0
 40
0.2728181809186935
100
AcDbArc
 50
261.6628542111488
 51
66.33819215911005
  0
LINE
  5
1C5E
330
1C07
100
AcDbEntity
  8
247
100
AcDbLine
 10
-39.8434940223528
 20
-8.106172121379211
 30
0.0
 11
-39.99254399328184
 21
-8.625989645644223
 31
0.0
  0
LINE
  5
1C5F
330
1C07
100
AcDbEntity
  8
247
100
AcDbLine
 10
-40.01553814184619
 20
-8.828933840015315
 30
0.0
 11
-39.34818397793155
 21
-8.161579676100712
 31
0.0
  0
LINE
  5
1C60
330
1C07
100
AcDbEntity
  8
247
100
AcDbLine
 10
-39.81348237912211
 20
-8.82893384001535
 30
0.0
 11
-39.29929514870673
 21
-8.314746609599934
 31
0.0
  0
LINE
  5
1C61
330
1C07
100
AcDbEntity
  8
247
100
AcDbLine
 10
-39.57733608189073
 20
-8.794843305508029
 30
0.0
 11
-39.32947598554733
 21
-8.546983209164613
 31
0.0
  0
ARC
  5
1C62
330
1C07
100
AcDbEntity
  8
247
100
AcDbCircle
 10
-39.7500754544351
 20
-8.374243836620236
 30
0.0
 40
0.4546897888183594
100
AcDbArc
 50
270.0
 51
40.32984065416719
  0
ARC
  5
1C63
330
1C07
100
AcDbEntity
  8
247
100
AcDbCircle
 10
-39.74437629672026
 20
-7.628546815135861
 30
0.0
 40
0.2728103756904602
100
AcDbArc
 50
261.6626016879294
 51
66.33815509518976
  0
LINE
  5
1C64
330
1C07
100
AcDbEntity
  8
247
100
AcDbLine
 10
-39.6348864213794
 20
-7.378671909868842
 30
0.0
 11
-39.78393394028839
 21
-7.898474016284081
 31
0.0
  0
LINE
  5
1C65
330
1C07
100
AcDbEntity
  8
247
100
AcDbLine
 10
-39.59630213897046
 20
-7.399419023519385
 30
0.0
 11
-39.40872565118985
 21
-7.211842535738788
 31
0.0
  0
LINE
  5
1C66
330
1C07
100
AcDbEntity
  8
247
100
AcDbLine
 10
-39.50070216728152
 20
-7.505874814554454
 30
0.0
 11
-39.27391291715569
 21
-7.279085564428635
 31
0.0
  0
LINE
  5
1C67
330
1C07
100
AcDbEntity
  8
247
100
AcDbLine
 10
-39.68645998603615
 20
-8.297799921481272
 30
0.0
 11
-39.0900721804773
 21
-7.701412115922416
 31
0.0
  0
LINE
  5
1C68
330
1C07
100
AcDbEntity
  8
247
100
AcDbLine
 10
-39.75699169592724
 20
-8.166275868648314
 30
0.0
 11
-39.10614277136741
 21
-7.515426944088481
 31
0.0
  0
ARC
  5
1C69
330
1C07
100
AcDbEntity
  8
247
100
AcDbCircle
 10
-39.54146568270658
 20
-7.646729188182737
 30
0.0
 40
0.4546936511993409
100
AcDbArc
 50
287.6695775473979
 51
90.23615984267159
  0
LINE
  5
1C6A
330
1C07
100
AcDbEntity
  8
247
100
AcDbLine
 10
-39.47739048669621
 20
-7.684618896693189
 30
0.0
 11
-39.17303410415661
 21
-7.380262514153594
 31
0.0
  0
LINE
  5
1C6B
330
1C07
100
AcDbEntity
  8
247
100
AcDbLine
 10
-40.18222267123216
 20
-7.373918061473751
 30
0.0
 11
-40.08761665316575
 21
-7.373918061474296
 31
0.0
  0
LINE
  5
1C6C
330
1C07
100
AcDbEntity
  8
247
100
AcDbLine
 10
-40.1300719449135
 20
-7.192039399364375
 30
0.0
 11
-40.18222267123216
 21
-7.373918061473751
 31
0.0
  0
LINE
  5
1C6D
330
1C07
100
AcDbEntity
  8
247
100
AcDbLine
 10
-40.1300719449135
 20
-7.192039399364375
 30
0.0
 11
-39.54333981860276
 21
-7.192039399364444
 31
0.0
  0
LINE
  5
1C6E
330
1C07
100
AcDbEntity
  8
247
100
AcDbLine
 10
-40.13292640599167
 20
-7.53193176509243
 30
0.0
 11
-39.79303404026365
 21
-7.192039399364444
 31
0.0
  0
LINE
  5
1C6F
330
1C07
100
AcDbEntity
  8
247
100
AcDbLine
 10
-40.21415777899784
 20
-7.815218900822687
 30
0.0
 11
-39.59097827753959
 21
-7.192039399364444
 31
0.0
  0
LINE
  5
1C70
330
1C07
100
AcDbEntity
  8
247
100
AcDbLine
 10
-40.17696846509706
 20
-7.373918061473784
 30
0.0
 11
-39.99508980298769
 21
-7.19203939936441
 31
0.0
  0
ARC
  5
1C71
102
{ACAD_REACTORS
330
1C2F
102
}
330
1C07
100
AcDbEntity
  8
247
100
AcDbCircle
 10
-40.60027305575346
 20
-8.146895508983517
 30
0.0
 40
0.7729774475097657
100
AcDbArc
 50
90.0
 51
270.0
  0
LINE
  5
1C72
102
{ACAD_REACTORS
330
1C2F
102
}
330
1C07
100
AcDbEntity
  8
247
100
AcDbLine
 10
-40.60027305575345
 20
-7.192039399364375
 30
0.0
 11
-40.22467109652493
 21
-7.192039399364375
 31
0.0
  0
LINE
  5
1C73
102
{ACAD_REACTORS
330
1C2F
102
}
330
1C07
100
AcDbEntity
  8
247
100
AcDbLine
 10
-40.60027305575345
 20
-7.373918061473751
 30
0.0
 11
-40.27682182284329
 21
-7.373918061473751
 31
0.0
  0
LINE
  5
1C74
102
{ACAD_REACTORS
330
1C2F
102
}
330
1C07
100
AcDbEntity
  8
247
100
AcDbLine
 10
-40.22467109652493
 20
-7.192039399364375
 30
0.0
 11
-40.27682182284329
 21
-7.373918061473751
 31
0.0
  0
LINE
  5
1C75
330
1C07
100
AcDbEntity
  8
247
100
AcDbLine
 10
-40.50483619662259
 20
-8.828933840015315
 30
0.0
 11
-40.08761665316575
 21
-7.373918061474296
 31
0.0
  0
LINE
  5
1C76
330
1C07
100
AcDbEntity
  8
247
100
AcDbLine
 10
-40.4578518980164
 20
-8.66508030801342
 30
0.0
 11
-39.68830421516294
 21
-7.895532625159935
 31
0.0
  0
LINE
  5
1C77
330
1C07
100
AcDbEntity
  8
247
100
AcDbLine
 10
-40.41964966729428
 20
-8.828933840015315
 30
0.0
 11
-39.90243022328411
 21
-8.311714396005141
 31
0.0
  0
LINE
  5
1C78
330
1C07
100
AcDbEntity
  8
247
100
AcDbLine
 10
-40.50483619662259
 20
-8.828933840015315
 30
0.0
 11
-39.75007545443509
 21
-8.828933840015315
 31
0.0
  0
LINE
  5
1C79
330
1C07
100
AcDbEntity
  8
247
100
AcDbLine
 10
-40.21759390457023
 20
-8.828933840015315
 30
0.0
 11
-39.98365741074724
 21
-8.594997346192348
 31
0.0
  0
LINE
  5
1C7A
330
1C07
100
AcDbEntity
  8
247
100
AcDbLine
 10
-40.37662052501022
 20
-8.381793172283165
 30
0.0
 11
-39.73996700245431
 21
-7.745139649727276
 31
0.0
  0
LINE
  5
1C7B
330
1C07
100
AcDbEntity
  8
247
100
AcDbLine
 10
-40.29538915200404
 20
-8.09850603655291
 30
0.0
 11
-39.65873831067239
 21
-7.461855195221255
 31
0.0
  0
ARC
  5
1C7C
102
{ACAD_REACTORS
330
1CA9
102
}
330
1C07
100
AcDbEntity
  8
247
100
AcDbCircle
 10
-37.8667990872476
 20
-8.437895875194454
 30
0.0
 40
0.1909723699092865
100
AcDbArc
 50
164.0002730571838
 51
344.0002730571838
  0
ARC
  5
1C7D
102
{ACAD_REACTORS
330
1CA9
102
}
330
1C07
100
AcDbEntity
  8
247
100
AcDbCircle
 10
-37.84727088900541
 20
-8.237834840038205
 30
0.0
 40
0.5911056518554688
100
AcDbArc
 50
163.9997507017293
 51
304.9638732916317
  0
LINE
  5
1C7E
330
1C07
100
AcDbEntity
  8
247
100
AcDbLine
 10
-38.79251396151516
 20
-8.828933840015315
 30
0.0
 11
-38.32314369173977
 21
-7.192039399364375
 31
0.0
  0
LINE
  5
1C7F
102
{ACAD_REACTORS
330
1CA9
102
}
330
1C07
100
AcDbEntity
  8
247
100
AcDbLine
 10
-37.40184394808743
 20
-8.828933840015315
 30
0.0
 11
-37.13586494418118
 21
-7.901357941844844
 31
0.0
  0
ARC
  5
1C80
102
{ACAD_REACTORS
330
1C2F
102
}
330
1C07
100
AcDbEntity
  8
247
100
AcDbCircle
 10
-36.90815956088042
 20
-8.146895508983517
 30
0.0
 40
0.7729774475097657
100
AcDbArc
 50
270.0
 51
104.1274364964119
  0
LINE
  5
1C81
102
{ACAD_REACTORS
330
1CA9
102
}
330
1C07
100
AcDbEntity
  8
247
100
AcDbLine
 10
-37.50853492709133
 20
-8.722249727466488
 30
0.0
 11
-37.40184394808743
 21
-8.828933840015315
 31
0.0
  0
LINE
  5
1C82
102
{ACAD_REACTORS
330
1CA9
102
}
330
1C07
100
AcDbEntity
  8
247
100
AcDbLine
 10
-38.05037376376125
 20
-8.385257630565549
 30
0.0
 11
-37.80525505038236
 21
-7.53043203852453
 31
0.0
  0
ARC
  5
1C83
102
{ACAD_REACTORS
330
1CA9
102
}
330
1C07
100
AcDbEntity
  8
247
100
AcDbCircle
 10
-37.71689063998198
 20
-7.783138184764768
 30
0.0
 40
0.5910996437072754
100
AcDbArc
 50
53.44401219705755
 51
164.0001843876853
  0
ARC
  5
1C84
102
{ACAD_REACTORS
330
1CA9
102
}
330
1C07
100
AcDbEntity
  8
247
100
AcDbCircle
 10
-36.88084480257963
 20
-8.268912415721798
 30
0.0
 40
1.546847534179687
100
AcDbArc
 50
155.2051773698404
 51
172.7948259620521
  0
LINE
  5
1C85
330
1C07
100
AcDbEntity
  8
247
100
AcDbLine
 10
-38.85352928133937
 20
-7.392100434520625
 30
0.0
 11
-38.78730232211086
 21
-7.392100434520625
 31
0.0
  0
LINE
  5
1C86
330
1C07
100
AcDbEntity
  8
247
100
AcDbLine
 10
-38.85352928133937
 20
-7.392100434520625
 30
0.0
 11
-38.79616004916164
 21
-7.192039399364375
 31
0.0
  0
LINE
  5
1C87
330
1C07
100
AcDbEntity
  8
247
100
AcDbLine
 10
-38.79616004916164
 20
-7.192039399364375
 30
0.0
 11
-38.32314369173977
 21
-7.192039399364375
 31
0.0
  0
LINE
  5
1C88
102
{ACAD_REACTORS
330
1C2F
102
}
330
1C07
100
AcDbEntity
  8
247
100
AcDbLine
 10
-37.09682914706204
 20
-7.397291474559688
 30
0.0
 11
-37.15160285922024
 21
-7.22359076044836
 31
0.0
  0
POLYLINE
  5
1C89
330
1C07
100
AcDbEntity
  8
247
100
AcDb2dPolyline
 66
     1
 10
0.0
 20
0.0
 30
0.0
 70
     1
  0
VERTEX
  5
1C8A
330
1C89
100
AcDbEntity
  8
247
100
AcDbVertex
100
AcDb2dVertex
 10
-37.09682914706205
 20
-7.397291474559688
 30
0.0
  0
VERTEX
  5
1C8B
330
1C89
100
AcDbEntity
  8
247
100
AcDbVertex
100
AcDb2dVertex
 10
-37.15160285922026
 20
-7.22359076044836
 30
0.0
  0
VERTEX
  5
1C8C
330
1C89
100
AcDbEntity
  8
247
100
AcDbVertex
100
AcDb2dVertex
 10
-37.15160285922026
 20
-7.22359076044836
 30
0.0
  0
VERTEX
  5
1C8D
330
1C89
100
AcDbEntity
  8
247
100
AcDbVertex
100
AcDb2dVertex
 10
-37.09682914706205
 20
-7.397291474559688
 30
0.0
  0
SEQEND
  5
1C8E
330
1C89
100
AcDbEntity
  8
247
  0
POLYLINE
  5
1C8F
330
1C07
100
AcDbEntity
  8
247
100
AcDb2dPolyline
 66
     1
 10
0.0
 20
0.0
 30
0.0
 70
     1
1001
HATCH_DISTANCE
1040
1.0
1001
HATCH_DISPLAY
1070
     0
1001
HATCH_TYPE
1070
     7
  0
VERTEX
  5
1C90
330
1C8F
100
AcDbEntity
  8
247
100
AcDbVertex
100
AcDb2dVertex
 10
-37.09682914706205
 20
-7.397291474559688
 30
0.0
  0
VERTEX
  5
1C91
330
1C8F
100
AcDbEntity
  8
247
100
AcDbVertex
100
AcDb2dVertex
 10
-37.15160285922026
 20
-7.22359076044836
 30
0.0
  0
VERTEX
  5
1C92
330
1C8F
100
AcDbEntity
  8
247
100
AcDbVertex
100
AcDb2dVertex
 10
-37.15160285922026
 20
-7.22359076044836
 30
0.0
  0
VERTEX
  5
1C93
330
1C8F
100
AcDbEntity
  8
247
100
AcDbVertex
100
AcDb2dVertex
 10
-37.09682914706205
 20
-7.397291474559688
 30
0.0
  0
SEQEND
  5
1C94
330
1C8F
100
AcDbEntity
  8
247
  0
POLYLINE
  5
1C95
330
1C07
100
AcDbEntity
  8
247
100
AcDb2dPolyline
 66
     1
 10
0.0
 20
0.0
 30
0.0
 70
     1
  0
VERTEX
  5
1C96
330
1C95
100
AcDbEntity
  8
247
100
AcDbVertex
100
AcDb2dVertex
 10
-37.09682914706205
 20
-7.397291474559688
 30
0.0
  0
VERTEX
  5
1C97
330
1C95
100
AcDbEntity
  8
247
100
AcDbVertex
100
AcDb2dVertex
 10
-37.15160285922026
 20
-7.22359076044836
 30
0.0
  0
VERTEX
  5
1C98
330
1C95
100
AcDbEntity
  8
247
100
AcDbVertex
100
AcDb2dVertex
 10
-37.15160285922026
 20
-7.22359076044836
 30
0.0
  0
VERTEX
  5
1C99
330
1C95
100
AcDbEntity
  8
247
100
AcDbVertex
100
AcDb2dVertex
 10
-37.09682914706205
 20
-7.397291474559688
 30
0.0
  0
SEQEND
  5
1C9A
330
1C95
100
AcDbEntity
  8
247
  0
POLYLINE
  5
1C9B
330
1C07
100
AcDbEntity
  8
247
100
AcDb2dPolyline
 66
     1
 10
0.0
 20
0.0
 30
0.0
 70
     1
1001
HATCH_DISTANCE
1040
1.0
1001
HATCH_DISPLAY
1070
     0
1001
HATCH_TYPE
1070
     7
  0
VERTEX
  5
1C9C
330
1C9B
100
AcDbEntity
  8
247
100
AcDbVertex
100
AcDb2dVertex
 10
-37.09682914706205
 20
-7.397291474559688
 30
0.0
  0
VERTEX
  5
1C9D
330
1C9B
100
AcDbEntity
  8
247
100
AcDbVertex
100
AcDb2dVertex
 10
-37.15160285922026
 20
-7.22359076044836
 30
0.0
  0
VERTEX
  5
1C9E
330
1C9B
100
AcDbEntity
  8
247
100
AcDbVertex
100
AcDb2dVertex
 10
-37.15160285922026
 20
-7.22359076044836
 30
0.0
  0
VERTEX
  5
1C9F
330
1C9B
100
AcDbEntity
  8
247
100
AcDbVertex
100
AcDb2dVertex
 10
-37.09682914706205
 20
-7.397291474559688
 30
0.0
  0
SEQEND
  5
1CA0
330
1C9B
100
AcDbEntity
  8
247
  0
LINE
  5
1CA1
102
{ACAD_REACTORS
330
1CA9
102
}
330
1C07
100
AcDbEntity
  8
247
100
AcDbLine
 10
-37.68322441073391
 20
-8.49053411982336
 30
0.0
 11
-37.56643287631009
 21
-8.083236603954221
 31
0.0
  0
LINE
  5
1CA2
102
{ACAD_REACTORS
330
1CA9
102
}
330
1C07
100
AcDbEntity
  8
247
100
AcDbLine
 10
-37.71779701205227
 20
-8.083236603954221
 30
0.0
 11
-37.56643287631009
 21
-8.083236603954221
 31
0.0
  0
LINE
  5
1CA3
102
{ACAD_REACTORS
330
1CA9
102
}
330
1C07
100
AcDbEntity
  8
247
100
AcDbLine
 10
-37.66564628573391
 20
-7.901357941844844
 30
0.0
 11
-37.13586494418118
 21
-7.901357941844844
 31
0.0
  0
LINE
  5
1CA4
102
{ACAD_REACTORS
330
1CA9
102
}
330
1C07
100
AcDbEntity
  8
247
100
AcDbLine
 10
-37.71779701205227
 20
-8.083236603954221
 30
0.0
 11
-37.66564628573391
 21
-7.901357941844844
 31
0.0
  0
ARC
  5
1CA5
102
{ACAD_REACTORS
330
1CA9
102
}
330
1C07
100
AcDbEntity
  8
247
100
AcDbCircle
 10
-37.6216803738687
 20
-7.583077149608516
 30
0.0
 40
0.1909725040197372
100
AcDbArc
 50
1.710121382062765
 51
163.9983983544485
  0
LINE
  5
1CA6
102
{ACAD_REACTORS
330
1CA9
102
}
330
1C07
100
AcDbEntity
  8
247
100
AcDbLine
 10
-37.18355934115384
 20
-7.42464056513586
 30
0.0
 11
-37.23833305331203
 21
-7.250939851024532
 31
0.0
  0
ARC
  5
1CA7
102
{ACAD_REACTORS
330
1CA9
102
}
330
1C07
100
AcDbEntity
  8
247
100
AcDbCircle
 10
-36.90815956088042
 20
-8.146895508983517
 30
0.0
 40
0.954856538772583
100
AcDbArc
 50
110.22964506332
 51
118.5716889237176
  0
ARC
  5
1CA8
102
{ACAD_REACTORS
330
1CA9
102
}
330
1C07
100
AcDbEntity
  8
247
100
AcDbCircle
 10
-36.90815956088042
 20
-8.146895508983517
 30
0.0
 40
0.7729795932769776
100
AcDbArc
 50
110.8721834020771
 51
132.5419489373868
  0
HATCH
  5
1CA9
330
1C07
100
AcDbEntity
  8
247
100
AcDbHatch
 10
0.0
 20
0.0
 30
0.0
210
0.0
220
0.0
230
1.0
  2
ANSI31
 70
     0
 71
     1
 91
        1
 92
       33
 93
       15
 72
     1
 10
-37.18355934115384
 20
-7.42464056513586
 11
-37.23833305331203
 21
-7.250939851024532
 72
     2
 10
-36.90815956088042
 20
-8.146895508983517
 40
0.7729795932769776
 50
110.8721834020771
 51
132.5419489373868
 73
     1
 72
     2
 10
-37.6216803738687
 20
-7.583077149608516
 40
0.1909725040197372
 50
1.710121382062765
 51
163.9983983544485
 73
     1
 72
     1
 10
-38.05037376376125
 20
-8.385257630565549
 11
-37.80525505038236
 21
-7.53043203852453
 72
     2
 10
-37.8667990872476
 20
-8.437895875194454
 40
0.1909723699092865
 50
164.0002730571838
 51
344.0002730571838
 73
     1
 72
     1
 10
-37.68322441073391
 20
-8.49053411982336
 11
-37.56643287631009
 21
-8.083236603954221
 72
     1
 10
-37.71779701205227
 20
-8.083236603954221
 11
-37.56643287631009
 21
-8.083236603954221
 72
     1
 10
-37.71779701205227
 20
-8.083236603954221
 11
-37.66564628573391
 21
-7.901357941844844
 72
     1
 10
-37.66564628573391
 20
-7.901357941844844
 11
-37.13586494418118
 21
-7.901357941844844
 72
     1
 10
-37.40184394808743
 20
-8.828933840015315
 11
-37.13586494418118
 21
-7.901357941844844
 72
     1
 10
-37.50853492709133
 20
-8.722249727466488
 11
-37.40184394808743
 21
-8.828933840015315
 72
     2
 10
-37.84727088900541
 20
-8.237834840038205
 40
0.5911056518554688
 50
163.9997507017293
 51
304.9638732916317
 73
     1
 72
     2
 10
-36.88084480257963
 20
-8.268912415721798
 40
1.546847534179687
 50
155.2051773698404
 51
172.7948259620521
 73
     1
 72
     2
 10
-37.71689063998198
 20
-7.783138184764768
 40
0.5910996437072754
 50
53.44401219705755
 51
164.0001843876853
 73
     1
 72
     2
 10
-36.90815956088042
 20
-8.146895508983517
 40
0.954856538772583
 50
110.22964506332
 51
118.5716889237176
 73
     1
 97
       15
330
1CA6
330
1CA8
330
1CA5
330
1C82
330
1C7C
330
1CA1
330
1CA2
330
1CA4
330
1CA3
330
1C7F
330
1C81
330
1C7D
330
1C84
330
1C83
330
1CA7
 75
     0
 76
     1
 52
360.0
 41
0.045
 77
     0
 78
     1
 53
44.99999999999996
 43
-95.46512315722443
 44
-16.18924732706819
 45
-0.101027881362028
 46
0.101027881362028
 79
     0
 98
        1
 10
-95.46512315722443
 20
-16.18924732706819
  0
ARC
  5
1CAA
330
1C07
100
AcDbEntity
  8
240
100
AcDbCircle
 10
-42.0
 20
11.99999999999999
 30
0.0
 40
1.0
100
AcDbArc
 50
90.0
 51
180.0
  0
LINE
  5
1CAB
330
1C07
100
AcDbEntity
  8
241
100
AcDbLine
 10
-16.0
 20
13.0
 30
0.0
 11
-16.0
 21
0.0
 31
0.0
  0
LINE
  5
1CAC
330
1C07
100
AcDbEntity
  8
240
100
AcDbLine
 10
0.0
 20
15.96004999999996
 30
0.0
 11
0.0
 21
-15.96005099999996
 31
0.0
  0
LINE
  5
1CAD
330
1C07
100
AcDbEntity
  8
241
100
AcDbLine
 10
-1.58137099999999
 20
17.00094600000005
 30
0.0
 11
-1.58137099999999
 21
-17.15231799999997
 31
0.0
  0
LINE
  5
1CAE
330
1C07
100
AcDbEntity
  8
241
100
AcDbLine
 10
-15.5
 20
15.0
 30
0.0
 11
-15.5
 21
0.0
 31
0.0
  0
LINE
  5
1CAF
330
1C07
100
AcDbEntity
  8
246
100
AcDbLine
 10
-3.0
 20
10.25
 30
0.0
 11
0.0
 21
8.517948999999987
 31
0.0
  0
LINE
  5
1CB0
330
1C07
100
AcDbEntity
  8
246
100
AcDbLine
 10
-5.600000000000022
 20
10.25
 30
0.0
 11
-5.600000000000022
 21
8.75
 31
0.0
  0
LINE
  5
1CB1
330
1C07
100
AcDbEntity
  8
246
100
AcDbLine
 10
-3.199999999999931
 20
8.75
 30
0.0
 11
-3.199999999999931
 21
10.25
 31
0.0
  0
LINE
  5
1CB2
330
1C07
100
AcDbEntity
  8
241
100
AcDbLine
 10
-18.5
 20
12.5
 30
0.0
 11
-18.5
 21
0.0
 31
0.0
  0
LINE
  5
1CB3
330
1C07
100
AcDbEntity
  8
241
100
AcDbLine
 10
-15.5
 20
-14.99999999999994
 30
0.0
 11
-15.5
 21
0.0
 31
0.0
  0
LINE
  5
1CB4
330
1C07
100
AcDbEntity
  8
241
100
AcDbLine
 10
-18.5
 20
-12.49999999999994
 30
0.0
 11
-18.5
 21
0.0
 31
0.0
  0
LINE
  5
1CB5
330
1C07
100
AcDbEntity
  8
241
100
AcDbLine
 10
-16.0
 20
-12.99999999999994
 30
0.0
 11
-16.0
 21
0.0
 31
0.0
  0
LINE
  5
1CB6
330
1C07
100
AcDbEntity
  8
246
100
AcDbLine
 10
-3.199999999999931
 20
-8.749999999999943
 30
0.0
 11
-3.199999999999931
 21
-10.24999999999994
 31
0.0
  0
LINE
  5
1CB7
330
1C07
100
AcDbEntity
  8
246
100
AcDbLine
 10
-3.0
 20
-10.24999999999994
 30
0.0
 11
0.0
 21
-8.517948999999987
 31
0.0
  0
LINE
  5
1CB8
330
1C07
100
AcDbEntity
  8
246
100
AcDbLine
 10
-5.600000000000022
 20
-10.24999999999994
 30
0.0
 11
-5.600000000000022
 21
-8.749999999999943
 31
0.0
  0
LINE
  5
1CB9
330
1C07
100
AcDbEntity
  8
240
100
AcDbLine
 10
-14.69999999999993
 20
-17.49999999999994
 30
0.0
 11
-1.58137099999999
 21
-17.49999999999994
 31
0.0
  0
LINE
  5
1CBA
330
1C07
100
AcDbEntity
  8
241
100
AcDbLine
 10
-6.5
 20
-14.05614499999995
 30
0.0
 11
-15.5
 21
-14.05614499999995
 31
0.0
  0
LINE
  5
1CBB
330
1C07
100
AcDbEntity
  8
241
100
AcDbLine
 10
-6.5
 20
-16.05614499999995
 30
0.0
 11
-15.5
 21
-16.05614499999995
 31
0.0
  0
LINE
  5
1CBC
330
1C07
100
AcDbEntity
  8
240
100
AcDbLine
 10
-16.0
 20
-14.49999999999994
 30
0.0
 11
-16.0
 21
-12.99999999999994
 31
0.0
  0
ARC
  5
1CBD
330
1C07
100
AcDbEntity
  8
240
100
AcDbCircle
 10
-14.69999999999993
 20
-16.69999999999999
 30
0.0
 40
0.8
100
AcDbArc
 50
180.0
 51
270.0
  0
LINE
  5
1CBE
330
1C07
100
AcDbEntity
  8
240
100
AcDbLine
 10
-16.0
 20
-14.49999999999994
 30
0.0
 11
-15.5
 21
-14.99999999999994
 31
0.0
  0
LINE
  5
1CBF
330
1C07
100
AcDbEntity
  8
240
100
AcDbLine
 10
-15.5
 20
-16.69999999999999
 30
0.0
 11
-15.5
 21
-14.99999999999994
 31
0.0
  0
LINE
  5
1CC0
330
1C07
100
AcDbEntity
  8
242
100
AcDbLine
 10
-16.0
 20
-12.49999999999994
 30
0.0
 11
-18.5
 21
-12.49999999999994
 31
0.0
  0
LINE
  5
1CC1
330
1C07
100
AcDbEntity
  8
242
100
AcDbLine
 10
-18.5
 20
-12.49999999999994
 30
0.0
 11
-19.0
 21
-12.99999999999994
 31
0.0
  0
LINE
  5
1CC2
330
1C07
100
AcDbEntity
  8
241
100
AcDbLine
 10
-6.5
 20
-16.05614499999995
 30
0.0
 11
-6.5
 21
-14.05614499999995
 31
0.0
  0
ARC
  5
1CC3
330
1C07
100
AcDbEntity
  8
240
100
AcDbCircle
 10
-0.6999999999999318
 20
-15.96005099999996
 30
0.0
 40
0.7
100
AcDbArc
 50
315.0
 51
0.0
  0
LINE
  5
1CC4
330
1C07
100
AcDbEntity
  8
240
100
AcDbLine
 10
-1.015686000000073
 20
-17.26568599999995
 30
0.0
 11
-0.2050249999999778
 21
-16.45502499999997
 31
0.0
  0
ARC
  5
1CC5
330
1C07
100
AcDbEntity
  8
240
100
AcDbCircle
 10
-1.58137099999999
 20
-16.69999999999999
 30
0.0
 40
0.8
100
AcDbArc
 50
270.0
 51
315.0
  0
LINE
  5
1CC6
330
1C07
100
AcDbEntity
  8
246
100
AcDbLine
 10
-3.199999999999931
 20
-10.24999999999994
 30
0.0
 11
-3.0
 21
-10.24999999999994
 31
0.0
  0
LINE
  5
1CC7
330
1C07
100
AcDbEntity
  8
241
100
AcDbLine
 10
-6.5
 20
2.0
 30
0.0
 11
-15.5
 21
2.0
 31
0.0
  0
LINE
  5
1CC8
330
1C07
100
AcDbEntity
  8
241
100
AcDbLine
 10
-6.5
 20
-1.999999999999943
 30
0.0
 11
-15.5
 21
-1.999999999999943
 31
0.0
  0
LINE
  5
1CC9
330
1C07
100
AcDbEntity
  8
241
100
AcDbLine
 10
-6.5
 20
2.0
 30
0.0
 11
-6.5
 21
0.0
 31
0.0
  0
LINE
  5
1CCA
330
1C07
100
AcDbEntity
  8
246
100
AcDbLine
 10
-5.600000000000022
 20
-8.749999999999943
 30
0.0
 11
-3.199999999999931
 21
-8.749999999999943
 31
0.0
  0
LINE
  5
1CCB
330
1C07
100
AcDbEntity
  8
241
100
AcDbLine
 10
-6.5
 20
-1.999999999999943
 30
0.0
 11
-6.5
 21
0.0
 31
0.0
  0
LINE
  5
1CCC
330
1C07
100
AcDbEntity
  8
246
100
AcDbLine
 10
-5.600000000000022
 20
8.75
 30
0.0
 11
-3.199999999999931
 21
8.75
 31
0.0
  0
LINE
  5
1CCD
330
1C07
100
AcDbEntity
  8
240
100
AcDbLine
 10
-14.69999999999993
 20
17.5
 30
0.0
 11
-1.58137099999999
 21
17.5
 31
0.0
  0
LINE
  5
1CCE
330
1C07
100
AcDbEntity
  8
241
100
AcDbLine
 10
-6.5
 20
16.05614500000001
 30
0.0
 11
-15.5
 21
16.05614500000001
 31
0.0
  0
LINE
  5
1CCF
330
1C07
100
AcDbEntity
  8
241
100
AcDbLine
 10
-6.5
 20
14.05614500000001
 30
0.0
 11
-15.5
 21
14.05614500000001
 31
0.0
  0
LINE
  5
1CD0
330
1C07
100
AcDbEntity
  8
240
100
AcDbLine
 10
-16.0
 20
14.5
 30
0.0
 11
-15.5
 21
15.0
 31
0.0
  0
LINE
  5
1CD1
330
1C07
100
AcDbEntity
  8
242
100
AcDbLine
 10
-16.0
 20
12.5
 30
0.0
 11
-18.5
 21
12.5
 31
0.0
  0
LINE
  5
1CD2
330
1C07
100
AcDbEntity
  8
242
100
AcDbLine
 10
-18.5
 20
12.5
 30
0.0
 11
-19.0
 21
13.0
 31
0.0
  0
LINE
  5
1CD3
330
1C07
100
AcDbEntity
  8
240
100
AcDbLine
 10
-16.0
 20
14.5
 30
0.0
 11
-16.0
 21
13.0
 31
0.0
  0
ARC
  5
1CD4
330
1C07
100
AcDbEntity
  8
240
100
AcDbCircle
 10
-14.69999999999993
 20
16.69999999999999
 30
0.0
 40
0.8
100
AcDbArc
 50
90.0
 51
180.0
  0
LINE
  5
1CD5
330
1C07
100
AcDbEntity
  8
240
100
AcDbLine
 10
-15.5
 20
16.69999999999999
 30
0.0
 11
-15.5
 21
15.0
 31
0.0
  0
LINE
  5
1CD6
330
1C07
100
AcDbEntity
  8
241
100
AcDbLine
 10
-6.5
 20
16.05614500000001
 30
0.0
 11
-6.5
 21
14.05614500000001
 31
0.0
  0
LINE
  5
1CD7
330
1C07
100
AcDbEntity
  8
246
100
AcDbLine
 10
-3.199999999999931
 20
10.25
 30
0.0
 11
-3.0
 21
10.25
 31
0.0
  0
ARC
  5
1CD8
330
1C07
100
AcDbEntity
  8
240
100
AcDbCircle
 10
-0.6999999999999318
 20
15.96004999999996
 30
0.0
 40
0.7
100
AcDbArc
 50
0.0
 51
44.99999999999992
  0
LINE
  5
1CD9
330
1C07
100
AcDbEntity
  8
240
100
AcDbLine
 10
-0.2050249999999778
 20
16.45502499999997
 30
0.0
 11
-1.015686000000073
 21
17.26568500000001
 31
0.0
  0
ARC
  5
1CDA
330
1C07
100
AcDbEntity
  8
240
100
AcDbCircle
 10
-1.58137099999999
 20
16.69999999999999
 30
0.0
 40
0.8
100
AcDbArc
 50
44.99999999999992
 51
90.0
  0
ENDBLK
  5
1CDC
330
1C07
100
AcDbEntity
  8
0
100
AcDbBlockEnd
  0
ENDSEC
  0
SECTION
  2
ENTITIES
  0
TEXT
  5
151D
330
1A
100
AcDbEntity
  8
241
100
AcDbText
 10
-120.0
 20
49.0
 30
0.0
 40
5.0
  1
SL20-NBS13-80
  7
YOKO
 11
-120.0
 21
49.0
 31
0.0
100
AcDbText
 73
     1
  0
DIMENSION
  5
151E
330
1A
100
AcDbEntity
  8
250
  6
CONTINUOUS
100
AcDbDimension
  2
*D1
 10
14.0
 20
6.499999999999996
 30
0.0
 11
11.83780158699278
 21
2.875246188077539
 31
0.0
 70
   160
  1
MAX.%%c<>
  3
BIGT
100
AcDbAlignedDimension
 13
0.0
 23
-6.499999999999943
 33
0.0
 14
0.0
 24
6.5
 34
0.0
 50
90.0
100
AcDbRotatedDimension
1001
ACAD
1000
DSTYLE
1002
{
1070
   287
1070
     5
1070
    78
1070
     8
1070
   140
1040
3.0
1070
   279
1070
     2
1002
}
  0
DIMENSION
  5
151F
330
1A
100
AcDbEntity
  8
250
  6
CONTINUOUS
100
AcDbDimension
  2
*D2
 10
20.99999999999999
 20
17.49999999999999
 30
0.0
 11
18.49999999999999
 21
-0.000000000000001
 31
0.0
 70
    32
  1
{\H3;\U+2205}<>
  3
BIGT
100
AcDbAlignedDimension
 13
-1.58137099999999
 23
-17.5
 33
0.0
 14
-1.58137099999999
 24
17.5
 34
0.0
 50
90.0
100
AcDbRotatedDimension
1001
ACAD
1000
DSTYLE
1002
{
1070
    78
1070
     8
1070
   140
1040
3.0
1002
}
  0
DIMENSION
  5
1520
330
1A
100
AcDbEntity
  8
250
  6
CONTINUOUS
100
AcDbDimension
  2
*D3
 10
0.0000000000000557
 20
-35.0
 30
0.0
 11
-24.99999999999997
 21
-32.5
 31
0.0
 70
    32
  1
41～60
  3
BIGT
100
AcDbAlignedDimension
 13
-50.0
 23
-6.299999999999954
 33
0.0
 14
0.0000000000000568
 24
-15.96005099999996
 34
0.0
100
AcDbRotatedDimension
1001
ACAD
1000
DSTYLE
1002
{
1070
    78
1070
     8
1070
   140
1040
3.0
1002
}
  0
DIMENSION
  5
18F3
330
1A
100
AcDbEntity
  8
250
  6
CONTINUOUS
100
AcDbDimension
  2
*D4
 10
0.0000000000000693
 20
35.0
 30
0.0
 11
-61.49999999999996
 21
37.5
 31
0.0
 70
    32
  3
BIGT
100
AcDbAlignedDimension
 13
-123.0
 23
8.199999999999999
 33
0.0
 14
0.0000000000000682
 24
15.96004999999996
 34
0.0
100
AcDbRotatedDimension
1001
ACAD
1000
DSTYLE
1002
{
1070
    78
1070
     8
1070
   140
1040
3.0
1002
}
  0
DIMENSION
  5
1908
330
1A
100
AcDbEntity
  8
250
  6
CONTINUOUS
100
AcDbDimension
  2
*D5
 10
0.0000000000000689
 20
28.0
 30
0.0
 11
-21.49999999999996
 21
30.5
 31
0.0
 70
    32
  3
BIGT
100
AcDbAlignedDimension
 13
-43.0
 23
11.99999999999999
 33
0.0
 14
0.0000000000000682
 24
15.96004999999996
 34
0.0
100
AcDbRotatedDimension
1001
ACAD
1000
DSTYLE
1002
{
1070
    78
1070
     8
1070
   140
1040
3.0
1002
}
  0
DIMENSION
  5
1915
330
1A
100
AcDbEntity
  8
250
  6
CONTINUOUS
100
AcDbDimension
  2
*D6
 10
-43.0
 20
28.0
 30
0.0
 11
-83.0
 21
30.5
 31
0.0
 70
    32
  3
BIGT
100
AcDbAlignedDimension
 13
-123.0
 23
8.199999999999999
 33
0.0
 14
-43.0
 24
11.99999999999999
 34
0.0
100
AcDbRotatedDimension
1001
ACAD
1000
DSTYLE
1002
{
1070
    78
1070
     8
1070
   140
1040
3.0
1002
}
  0
DIMENSION
  5
193D
330
1A
100
AcDbEntity
  8
250
  6
CONTINUOUS
100
AcDbDimension
  2
*D7
 10
-133.0
 20
10.0
 30
0.0
 11
-135.4999999999999
 21
0.00000000000002
 31
0.0
 70
    32
  1
{\H3;\U+2205}<>
  3
BIGT
100
AcDbAlignedDimension
 13
-113.5
 23
-9.99999999999993
 33
0.0
 14
-113.5
 24
10.0
 34
0.0
 50
90.0
100
AcDbRotatedDimension
1001
ACAD
1000
DSTYLE
1002
{
1070
    78
1070
     8
1070
   140
1040
3.0
1002
}
  0
INSERT
  5
1CDD
330
1A
100
AcDbEntity
  8
240
100
AcDbBlockReference
  2
A$C4B584267
 10
0.0
 20
0.0
 30
0.0
  0
VIEWPORT
  5
22
330
17
100
AcDbEntity
 67
     1
  8
0
100
AcDbViewport
 10
261.5176991150442
 20
148.5
 30
0.0
 40
523.0353982300885
 41
297.0
 68
     1
 69
     1
1001
ACAD
1000
MVIEW
1002
{
1070
    16
1010
0.0
1020
0.0
1030
0.0
1010
0.0
1020
0.0
1030
1.0
1040
0.0
1040
297.0
1040
261.5176991150442
1040
148.5
1040
50.0
1040
0.0
1040
0.0
1070
     0
1070
   100
1070
     1
1070
     1
1070
     0
1070
     0
1070
     0
1070
     0
1040
0.0
1040
0.0
1040
0.0
1040
1.0
1040
1.0
1040
10.0
1040
10.0
1070
     0
1002
{
1002
}
1002
}
  0
ENDSEC
  0
SECTION
  2
OBJECTS
  0
DICTIONARY
  5
C
330
0
100
AcDbDictionary
  3
ACAD_GROUP
350
D
  3
ACAD_LAYOUT
350
565
  3
ACAD_MLINESTYLE
350
E
  3
ACAD_PLOTSETTINGS
350
566
  3
ACAD_PLOTSTYLENAME
350
563
  3
ACDBHEADERROUNDTRIPXREC
350
1CE6
  3
ACDBVARIABLEDICTIONARY
350
1774
  3
DWGPROPS
350
1772
  3
GRADE_DWG
350
540
  0
DICTIONARY
  5
1D09
330
1A
100
AcDbDictionary
280
     1
  3
ACAD_LAYOUTSELFREF
360
1D0A
  0
DICTIONARY
  5
1D07
330
17
100
AcDbDictionary
280
     1
  3
ACAD_LAYOUTSELFREF
360
1D08
  0
DICTIONARY
  5
D
102
{ACAD_REACTORS
330
C
102
}
330
C
100
AcDbDictionary
  3
DREC-1
350
5FC
  3
DREC-2
350
654
  3
DREC-3
350
673
  0
DICTIONARY
  5
565
102
{ACAD_REACTORS
330
C
102
}
330
C
100
AcDbDictionary
  0
DICTIONARY
  5
E
102
{ACAD_REACTORS
330
C
102
}
330
C
100
AcDbDictionary
  3
STANDARD
350
13
  0
DICTIONARY
  5
566
102
{ACAD_REACTORS
330
C
102
}
330
C
100
AcDbDictionary
  0
ACDBDICTIONARYWDFLT
  5
563
102
{ACAD_REACTORS
330
C
102
}
330
C
100
AcDbDictionary
281
     1
  3
Normal
350
564
100
AcDbDictionaryWithDefault
340
564
  0
DICTIONARY
  5
1CE6
102
{ACAD_REACTORS
330
C
102
}
330
C
100
AcDbDictionary
  3
CEPSNTYPE
350
1CF0
  3
DIMSTYLEDATA
350
1CF4
  3
FINGERPRINTGUID
350
1CF1
  3
HYPERLINKBASE
350
1CE9
  3
INSUNITS
350
1CEF
  3
LAYOUTDICT
350
1CEB
  3
LWETCUNION
350
1CEE
  3
PLOTSETDICT
350
1CEC
  3
PLOTSTYLNAMDICT
350
1CED
  3
PSVPSCALE
350
1CF3
  3
PUCSBASE
350
1CF7
  3
PUCSORGBACK
350
1CFD
  3
PUCSORGBOTTOM
350
1CF9
  3
PUCSORGFRONT
350
1CFC
  3
PUCSORGLEFT
350
1CFA
  3
PUCSORGRIGHT
350
1CFB
  3
PUCSORGTOP
350
1CF8
  3
PUCSORTHOREF
350
1CF5
  3
PUCSORTHOVIEW
350
1CF6
  3
STYLESHEET
350
1CEA
  3
TSTACKALIGN
350
1CE7
  3
TSTACKSIZE
350
1CE8
  3
UCSBASE
350
1D00
  3
UCSORGBACK
350
1D06
  3
UCSORGBOTTOM
350
1D02
  3
UCSORGFRONT
350
1D05
  3
UCSORGLEFT
350
1D03
  3
UCSORGRIGHT
350
1D04
  3
UCSORGTOP
350
1D01
  3
UCSORTHOREF
350
1CFE
  3
UCSORTHOVIEW
350
1CFF
  3
VERSIONGUID
350
1CF2
  0
DICTIONARY
  5
1774
102
{ACAD_REACTORS
330
C
102
}
330
C
100
AcDbDictionary
  3
DIMASSOC
350
1775
  0
XRECORD
  5
1772
102
{ACAD_REACTORS
330
C
102
}
330
C
100
AcDbXrecord
  1
DWGPROPS COOKIE
  2

  3

  4

  6

  7

  8
ymat
  9

300
=
301
=
302
=
303
=
304
=
305
=
306
=
307
=
308
=
309
=
 40
0.0550179166666667
 41
2452181.425368009
 42
2452409.113563726
  1

 90
        0
  0
DICTIONARY
  5
540
102
{ACAD_REACTORS
330
C
102
}
330
C
100
AcDbDictionary
  3
VERSION
350
560
  0
XRECORD
  5
1D0A
102
{ACAD_REACTORS
330
1D09
102
}
330
1D09
100
AcDbXrecord
340
1A
  0
XRECORD
  5
1D08
102
{ACAD_REACTORS
330
1D07
102
}
330
1D07
100
AcDbXrecord
340
17
  0
GROUP
  5
5FC
102
{ACAD_REACTORS
330
D
102
}
330
D
100
AcDbGroup
300

 70
     0
 71
     1
1001
GRPNAME
1000
DREC-
1001
GPARA
1000
xsiz
1000
44.182
1000
ysiz
1000
40.677
1000
angl
1000
0
1000
ctyp
1000
0
1000
csiz
1000
5
1000
lfnt
1000
cont
1000
hcnt
1000
hoff
1000
vcnt
1000
voff
1000
opnt
1000
4
1000
dxpt
1000
0
1000
dypt
1000
0
  0
GROUP
  5
654
102
{ACAD_REACTORS
330
D
102
}
330
D
100
AcDbGroup
300

 70
     0
 71
     1
1001
GRPNAME
1000
DREC-
1001
GPARA
1000
xsiz
1000
54.592
1000
ysiz
1000
53.036
1000
angl
1000
0
1000
ctyp
1000
0
1000
csiz
1000
5
1000
lfnt
1000
cont
1000
hcnt
1000
hoff
1000
vcnt
1000
voff
1000
opnt
1000
4
1000
dxpt
1000
0
1000
dypt
1000
0
  0
GROUP
  5
673
102
{ACAD_REACTORS
330
D
102
}
330
D
100
AcDbGroup
300

 70
     0
 71
     1
1001
GRPNAME
1000
DREC-
1001
GPARA
1000
xsiz
1000
30.363
1000
ysiz
1000
36.175
1000
angl
1000
0
1000
ctyp
1000
0
1000
csiz
1000
5
1000
lfnt
1000
cont
1000
hcnt
1000
hoff
1000
vcnt
1000
voff
1000
opnt
1000
4
1000
dxpt
1000
0
1000
dypt
1000
0
  0
MLINESTYLE
  5
13
102
{ACAD_REACTORS
330
E
102
}
330
E
100
AcDbMlineStyle
  2
STANDARD
 70
     0
  3

 62
     0
 51
90.0
 52
90.0
 71
     2
 49
0.5
 62
   256
  6
BYLAYER
 49
-0.5
 62
   256
  6
BYLAYER
  0
ACDBPLACEHOLDER
  5
564
102
{ACAD_REACTORS
330
563
102
}
330
563
100
AcDbPlaceHolder
280
     0
  0
XRECORD
  5
1CF0
102
{ACAD_REACTORS
330
1CE6
102
}
330
1CE6
100
AcDbXrecord
 90
        0
  0
XRECORD
  5
1CF4
102
{ACAD_REACTORS
330
1CE6
102
}
330
1CE6
100
AcDbXrecord
1000
DSTYLE
1002
{
1070
    79
 70
     2
1070
   179
 70
     3
1070
   289
 70
     2
1070
   341
340
594
1070
   342
340
594
1070
   371
 70
    -1
1070
   372
 70
    -1
1002
}
  0
XRECORD
  5
1CF1
102
{ACAD_REACTORS
330
1CE6
102
}
330
1CE6
100
AcDbXrecord
  1
{51294030-9CB4-11D3-8E18-00A0C925D94D}
  0
XRECORD
  5
1CE9
102
{ACAD_REACTORS
330
1CE6
102
}
330
1CE6
100
AcDbXrecord
  1

  0
XRECORD
  5
1CEF
102
{ACAD_REACTORS
330
1CE6
102
}
330
1CE6
100
AcDbXrecord
 90
        0
  0
XRECORD
  5
1CEB
102
{ACAD_REACTORS
330
1CE6
102
}
330
1CE6
100
AcDbXrecord
340
565
  0
XRECORD
  5
1CEE
102
{ACAD_REACTORS
330
1CE6
102
}
330
1CE6
100
AcDbXrecord
 90
    10781
  0
XRECORD
  5
1CEC
102
{ACAD_REACTORS
330
1CE6
102
}
330
1CE6
100
AcDbXrecord
340
566
  0
XRECORD
  5
1CED
102
{ACAD_REACTORS
330
1CE6
102
}
330
1CE6
100
AcDbXrecord
340
563
  0
XRECORD
  5
1CF3
102
{ACAD_REACTORS
330
1CE6
102
}
330
1CE6
100
AcDbXrecord
 40
0.0
  0
XRECORD
  5
1CF7
102
{ACAD_REACTORS
330
1CE6
102
}
330
1CE6
100
AcDbXrecord
340
0
  0
XRECORD
  5
1CFD
102
{ACAD_REACTORS
330
1CE6
102
}
330
1CE6
100
AcDbXrecord
 10
0.0
 20
0.0
 30
0.0
  0
XRECORD
  5
1CF9
102
{ACAD_REACTORS
330
1CE6
102
}
330
1CE6
100
AcDbXrecord
 10
0.0
 20
0.0
 30
0.0
  0
XRECORD
  5
1CFC
102
{ACAD_REACTORS
330
1CE6
102
}
330
1CE6
100
AcDbXrecord
 10
0.0
 20
0.0
 30
0.0
  0
XRECORD
  5
1CFA
102
{ACAD_REACTORS
330
1CE6
102
}
330
1CE6
100
AcDbXrecord
 10
0.0
 20
0.0
 30
0.0
  0
XRECORD
  5
1CFB
102
{ACAD_REACTORS
330
1CE6
102
}
330
1CE6
100
AcDbXrecord
 10
0.0
 20
0.0
 30
0.0
  0
XRECORD
  5
1CF8
102
{ACAD_REACTORS
330
1CE6
102
}
330
1CE6
100
AcDbXrecord
 10
0.0
 20
0.0
 30
0.0
  0
XRECORD
  5
1CF5
102
{ACAD_REACTORS
330
1CE6
102
}
330
1CE6
100
AcDbXrecord
340
0
  0
XRECORD
  5
1CF6
102
{ACAD_REACTORS
330
1CE6
102
}
330
1CE6
100
AcDbXrecord
 70
     0
  0
XRECORD
  5
1CEA
102
{ACAD_REACTORS
330
1CE6
102
}
330
1CE6
100
AcDbXrecord
  1
big.ctb
  0
XRECORD
  5
1CE7
102
{ACAD_REACTORS
330
1CE6
102
}
330
1CE6
100
AcDbXrecord
 90
        1
  0
XRECORD
  5
1CE8
102
{ACAD_REACTORS
330
1CE6
102
}
330
1CE6
100
AcDbXrecord
 90
       70
  0
XRECORD
  5
1D00
102
{ACAD_REACTORS
330
1CE6
102
}
330
1CE6
100
AcDbXrecord
340
0
  0
XRECORD
  5
1D06
102
{ACAD_REACTORS
330
1CE6
102
}
330
1CE6
100
AcDbXrecord
 10
0.0
 20
0.0
 30
0.0
  0
XRECORD
  5
1D02
102
{ACAD_REACTORS
330
1CE6
102
}
330
1CE6
100
AcDbXrecord
 10
0.0
 20
0.0
 30
0.0
  0
XRECORD
  5
1D05
102
{ACAD_REACTORS
330
1CE6
102
}
330
1CE6
100
AcDbXrecord
 10
0.0
 20
0.0
 30
0.0
  0
XRECORD
  5
1D03
102
{ACAD_REACTORS
330
1CE6
102
}
330
1CE6
100
AcDbXrecord
 10
0.0
 20
0.0
 30
0.0
  0
XRECORD
  5
1D04
102
{ACAD_REACTORS
330
1CE6
102
}
330
1CE6
100
AcDbXrecord
 10
0.0
 20
0.0
 30
0.0
  0
XRECORD
  5
1D01
102
{ACAD_REACTORS
330
1CE6
102
}
330
1CE6
100
AcDbXrecord
 10
0.0
 20
0.0
 30
0.0
  0
XRECORD
  5
1CFE
102
{ACAD_REACTORS
330
1CE6
102
}
330
1CE6
100
AcDbXrecord
340
0
  0
XRECORD
  5
1CFF
102
{ACAD_REACTORS
330
1CE6
102
}
330
1CE6
100
AcDbXrecord
 70
     0
  0
XRECORD
  5
1CF2
102
{ACAD_REACTORS
330
1CE6
102
}
330
1CE6
100
AcDbXrecord
  1
{EDD58EF1-688C-11D7-AD80-0010B5C7BFCA}
  0
DICTIONARYVAR
  5
1775
102
{ACAD_REACTORS
330
1774
102
}
330
1774
100
DictionaryVariables
280
     0
  1
1
  0
XRECORD
  5
560
102
{ACAD_REACTORS
330
540
102
}
330
540
100
AcDbXrecord
  1
2.0.0
  0
ENDSEC
  0
EOF
