  0
SECTION
  2
HEADER
  9
$ACADVER
  1
AC1014
  9
$ACADMAINTVER
 70
     9
  9
$DWGCODEPAGE
  3
ANSI_932
  9
$INSBASE
 10
0.0
 20
0.0
 30
0.0
  9
$EXTMIN
 10
-74.01132115769588
 20
-36.00750675146412
 30
-0.0015258207003583
  9
$EXTMAX
 10
22.0277257634184
 20
54.00531044975537
 30
0.0000000349246037
  9
$LIMMIN
 10
0.0
 20
0.0
  9
$LIMMAX
 10
297.0
 20
210.0
  9
$ORTHOMODE
 70
     0
  9
$REGENMODE
 70
     1
  9
$FILLMODE
 70
     1
  9
$QTEXTMODE
 70
     0
  9
$MIRRTEXT
 70
     1
  9
$DRAGMODE
 70
     2
  9
$LTSCALE
 40
10.0
  9
$OSMODE
 70
   613
  9
$ATTMODE
 70
     1
  9
$TEXTSIZE
 40
3.0
  9
$TRACEWID
 40
1.0
  9
$TEXTSTYLE
  7
YOKO
  9
$CLAYER
  8
240
  9
$CELTYPE
  6
BYLAYER
  9
$CECOLOR
 62
   256
  9
$CELTSCALE
 40
1.0
  9
$DELOBJ
 70
     1
  9
$DISPSILH
 70
     0
  9
$DIMSCALE
 40
1.0
  9
$DIMASZ
 40
2.229999999999999
  9
$DIMEXO
 40
0.5
  9
$DIMDLI
 40
2.5
  9
$DIMRND
 40
0.0
  9
$DIMDLE
 40
0.0
  9
$DIMEXE
 40
1.0
  9
$DIMTP
 40
0.0
  9
$DIMTM
 40
0.0
  9
$DIMTXT
 40
3.0
  9
$DIMCEN
 40
0.0
  9
$DIMTSZ
 40
0.0
  9
$DIMTOL
 70
     0
  9
$DIMLIM
 70
     0
  9
$DIMTIH
 70
     0
  9
$DIMTOH
 70
     0
  9
$DIMSE1
 70
     0
  9
$DIMSE2
 70
     0
  9
$DIMTAD
 70
     3
  9
$DIMZIN
 70
     8
  9
$DIMBLK
  1
OPEN
  9
$DIMASO
 70
     1
  9
$DIMSHO
 70
     1
  9
$DIMPOST
  1

  9
$DIMAPOST
  1

  9
$DIMALT
 70
     0
  9
$DIMALTD
 70
     2
  9
$DIMALTF
 40
25.4
  9
$DIMLFAC
 40
1.0
  9
$DIMTOFL
 70
     1
  9
$DIMTVP
 40
0.0
  9
$DIMTIX
 70
     0
  9
$DIMSOXD
 70
     0
  9
$DIMSAH
 70
     0
  9
$DIMBLK1
  1

  9
$DIMBLK2
  1

  9
$DIMSTYLE
  2
BIGT
  9
$DIMCLRD
 70
   256
  9
$DIMCLRE
 70
   256
  9
$DIMCLRT
 70
    40
  9
$DIMTFAC
 40
1.0
  9
$DIMGAP
 40
1.0
  9
$DIMJUST
 70
     0
  9
$DIMSD1
 70
     0
  9
$DIMSD2
 70
     0
  9
$DIMTOLJ
 70
     1
  9
$DIMTZIN
 70
     8
  9
$DIMALTZ
 70
     0
  9
$DIMALTTZ
 70
     0
  9
$DIMFIT
 70
     2
  9
$DIMUPT
 70
     0
  9
$DIMUNIT
 70
     2
  9
$DIMDEC
 70
     3
  9
$DIMTDEC
 70
     3
  9
$DIMALTU
 70
     2
  9
$DIMALTTD
 70
     2
  9
$DIMTXSTY
  7
STANDARD
  9
$DIMAUNIT
 70
     0
  9
$LUNITS
 70
     2
  9
$LUPREC
 70
     3
  9
$SKETCHINC
 40
1.0
  9
$FILLETRAD
 40
0.5
  9
$AUNITS
 70
     0
  9
$AUPREC
 70
     3
  9
$MENU
  1
.
  9
$ELEVATION
 40
0.0
  9
$PELEVATION
 40
0.0
  9
$THICKNESS
 40
0.0
  9
$LIMCHECK
 70
     0
  9
$BLIPMODE
 70
     0
  9
$CHAMFERA
 40
0.5
  9
$CHAMFERB
 40
0.5
  9
$CHAMFERC
 40
0.0
  9
$CHAMFERD
 40
0.0
  9
$SKPOLY
 70
     0
  9
$TDCREATE
 40
2452180.683445092
  9
$TDUPDATE
 40
2452737.389020544
  9
$TDINDWG
 40
0.0935400463
  9
$TDUSRTIMER
 40
0.0935400463
  9
$USRTIMER
 70
     1
  9
$ANGBASE
 50
0.0
  9
$ANGDIR
 70
     0
  9
$PDMODE
 70
    35
  9
$PDSIZE
 40
2.0
  9
$PLINEWID
 40
0.0
  9
$COORDS
 70
     2
  9
$SPLFRAME
 70
     0
  9
$SPLINETYPE
 70
     6
  9
$SPLINESEGS
 70
     8
  9
$ATTDIA
 70
     0
  9
$ATTREQ
 70
     0
  9
$HANDLING
 70
-16383
  9
$HANDSEED
  5
1D8D
  9
$SURFTAB1
 70
     6
  9
$SURFTAB2
 70
     6
  9
$SURFTYPE
 70
     6
  9
$SURFU
 70
     6
  9
$SURFV
 70
     6
  9
$UCSNAME
  2

  9
$UCSORG
 10
0.0
 20
0.0
 30
0.0
  9
$UCSXDIR
 10
1.0
 20
0.0
 30
0.0
  9
$UCSYDIR
 10
0.0
 20
1.0
 30
0.0
  9
$PUCSNAME
  2

  9
$PUCSORG
 10
0.0
 20
0.0
 30
0.0
  9
$PUCSXDIR
 10
1.0
 20
0.0
 30
0.0
  9
$PUCSYDIR
 10
0.0
 20
1.0
 30
0.0
  9
$USERI1
 70
     1
  9
$USERI2
 70
     0
  9
$USERI3
 70
     0
  9
$USERI4
 70
     0
  9
$USERI5
 70
     0
  9
$USERR1
 40
0.0
  9
$USERR2
 40
0.0
  9
$USERR3
 40
0.0
  9
$USERR4
 40
0.0
  9
$USERR5
 40
0.0
  9
$WORLDVIEW
 70
     1
  9
$SHADEDGE
 70
     3
  9
$SHADEDIF
 70
    70
  9
$TILEMODE
 70
     1
  9
$MAXACTVP
 70
    16
  9
$PINSBASE
 10
0.0
 20
0.0
 30
0.0
  9
$PLIMCHECK
 70
     0
  9
$PEXTMIN
 10
1.000000000000000E+20
 20
1.000000000000000E+20
 30
1.000000000000000E+20
  9
$PEXTMAX
 10
-1.000000000000000E+20
 20
-1.000000000000000E+20
 30
-1.000000000000000E+20
  9
$PLIMMIN
 10
0.0
 20
0.0
  9
$PLIMMAX
 10
420.0
 20
297.0
  9
$UNITMODE
 70
     0
  9
$VISRETAIN
 70
     0
  9
$PLINEGEN
 70
     0
  9
$PSLTSCALE
 70
     1
  9
$TREEDEPTH
 70
  3020
  9
$PICKSTYLE
 70
     0
  9
$CMLSTYLE
  2
STANDARD
  9
$CMLJUST
 70
     0
  9
$CMLSCALE
 40
1.0
  9
$PROXYGRAPHICS
 70
     1
  9
$MEASUREMENT
 70
     1
  0
ENDSEC
  0
SECTION
  2
CLASSES
  0
CLASS
  1
XRECORD
  2
AcDbXrecord
  3
AutoCAD 2000
 90
        0
280
     0
281
     0
  0
CLASS
  1
ACDBDICTIONARYWDFLT
  2
AcDbDictionaryWithDefault
  3
AutoCAD 2000
 90
        0
280
     0
281
     0
  0
CLASS
  1
ACDBPLACEHOLDER
  2
AcDbPlaceHolder
  3
AutoCAD 2000
 90
        0
280
     0
281
     0
  0
CLASS
  1
LAYOUT
  2
AcDbLayout
  3
AutoCAD 2000
 90
        0
280
     0
281
     0
  0
CLASS
  1
DICTIONARYVAR
  2
AcDbDictionaryVar
  3
AutoCAD 2000
 90
        0
280
     0
281
     0
  0
CLASS
  1
LONG_TRANSACTION
  2
AcDbLongTransaction
  3
AutoCAD 2000
 90
        0
280
     0
281
     0
  0
CLASS
  1
LWPOLYLINE
  2
AcDbPolyline
  3
AutoCAD 2000
 90
        0
280
     0
281
     1
  0
CLASS
  1
HATCH
  2
AcDbHatch
  3
AutoCAD 2000
 90
        0
280
     0
281
     1
  0
CLASS
  1
XRECORD
  2
AcDbXrecord
  3
AutoCAD 2000
 90
        0
280
     0
281
     0
  0
ENDSEC
  0
SECTION
  2
TABLES
  0
TABLE
  2
VPORT
  5
8
330
0
100
AcDbSymbolTable
 70
     2
  0
VPORT
  5
1D5E
330
8
100
AcDbSymbolTableRecord
100
AcDbViewportTableRecord
  2
*ACTIVE
 70
     0
 10
0.0
 20
0.0
 11
1.0
 21
1.0
 12
-25.99179769713872
 22
8.998901849145624
 13
0.0
 23
0.0
 14
7.0
 24
7.0
 15
7.0
 25
7.0
 16
0.0
 26
0.0
 36
1.0
 17
0.0
 27
0.0
 37
0.0
 40
90.67793654014476
 41
1.419235511713933
 42
50.0
 43
0.0
 44
0.0
 50
0.0
 51
0.0
 71
     0
 72
  2000
 73
     1
 74
     0
 75
     0
 76
     1
 77
     0
 78
     0
  0
ENDTAB
  0
TABLE
  2
LTYPE
  5
5
330
0
100
AcDbSymbolTable
 70
     3
  0
LTYPE
  5
14
330
5
100
AcDbSymbolTableRecord
100
AcDbLinetypeTableRecord
  2
BYBLOCK
 70
     0
  3

 72
    65
 73
     0
 40
0.0
  0
LTYPE
  5
15
330
5
100
AcDbSymbolTableRecord
100
AcDbLinetypeTableRecord
  2
BYLAYER
 70
     0
  3

 72
    65
 73
     0
 40
0.0
  0
LTYPE
  5
16
330
5
100
AcDbSymbolTableRecord
100
AcDbLinetypeTableRecord
  2
CONTINUOUS
 70
     0
  3
Solid line
 72
    65
 73
     0
 40
0.0
  0
LTYPE
  5
258
330
5
100
AcDbSymbolTableRecord
100
AcDbLinetypeTableRecord
  2
CENTER2
 70
     0
  3
___ _ ___ _ ___ _ ___ _ ___ _ ___ _ ___ _ ___ _
 72
    65
 73
     4
 40
1.125
 49
0.75
 74
     0
 49
-0.125
 74
     0
 49
0.125
 74
     0
 49
-0.125
 74
     0
  0
LTYPE
  5
25D
330
5
100
AcDbSymbolTableRecord
100
AcDbLinetypeTableRecord
  2
PHANTOM2
 70
     0
  3
___ _ _ ___ _ _ ___ _ _ ___ _ _ ___ _ _ ___ _ _
 72
    65
 73
     6
 40
1.25
 49
0.625
 74
     0
 49
-0.125
 74
     0
 49
0.125
 74
     0
 49
-0.125
 74
     0
 49
0.125
 74
     0
 49
-0.125
 74
     0
  0
ENDTAB
  0
TABLE
  2
LAYER
  5
2
330
0
100
AcDbSymbolTable
 70
    10
  0
LAYER
  5
F
330
2
100
AcDbSymbolTableRecord
100
AcDbLayerTableRecord
  2
0
 70
     0
 62
     7
  6
CONTINUOUS
  0
LAYER
  5
1AA
330
2
100
AcDbSymbolTableRecord
100
AcDbLayerTableRecord
  2
240
 70
     0
 62
     4
  6
CONTINUOUS
  0
LAYER
  5
1AB
330
2
100
AcDbSymbolTableRecord
100
AcDbLayerTableRecord
  2
241
 70
     0
 62
   211
  6
CONTINUOUS
  0
LAYER
  5
1AC
330
2
100
AcDbSymbolTableRecord
100
AcDbLayerTableRecord
  2
242
 70
     0
 62
     3
  6
CONTINUOUS
  0
LAYER
  5
1AF
330
2
100
AcDbSymbolTableRecord
100
AcDbLayerTableRecord
  2
245
 70
     0
 62
     2
  6
CENTER2
  0
LAYER
  5
21A
330
2
100
AcDbSymbolTableRecord
100
AcDbLayerTableRecord
  2
246
 70
     0
 62
     3
  6
PHANTOM2
  0
LAYER
  5
21B
330
2
100
AcDbSymbolTableRecord
100
AcDbLayerTableRecord
  2
247
 70
     0
 62
    60
  6
CONTINUOUS
  0
LAYER
  5
21E
330
2
100
AcDbSymbolTableRecord
100
AcDbLayerTableRecord
  2
250
 70
     0
 62
     3
  6
CONTINUOUS
  0
LAYER
  5
5C4
330
2
100
AcDbSymbolTableRecord
100
AcDbLayerTableRecord
  2
DEFPOINTS
 70
     0
 62
     7
  6
CONTINUOUS
  0
ENDTAB
  0
TABLE
  2
STYLE
  5
3
330
0
100
AcDbSymbolTable
 70
     2
  0
STYLE
  5
10
330
3
100
AcDbSymbolTableRecord
100
AcDbTextStyleTableRecord
  2
STANDARD
 70
     0
 40
0.0
 41
1.0
 50
0.0
 71
     0
 42
3.0
  3
romans.shx
  4
BIGFONT.SHX
  0
STYLE
  5
339
330
3
100
AcDbSymbolTableRecord
100
AcDbTextStyleTableRecord
  2
YOKO
 70
     0
 40
0.0
 41
1.0
 50
0.0
 71
     0
 42
3.0
  3
romans.shx
  4
extfont.shx
  0
ENDTAB
  0
TABLE
  2
VIEW
  5
6
330
0
100
AcDbSymbolTable
 70
     0
  0
ENDTAB
  0
TABLE
  2
UCS
  5
7
330
0
100
AcDbSymbolTable
 70
     0
  0
ENDTAB
  0
TABLE
  2
APPID
  5
9
330
0
100
AcDbSymbolTable
 70
     9
  0
APPID
  5
11
330
9
100
AcDbSymbolTableRecord
100
AcDbRegAppTableRecord
  2
ACAD
 70
     0
  0
APPID
  5
1B1
330
9
100
AcDbSymbolTableRecord
100
AcDbRegAppTableRecord
  2
GLOBAL
 70
     0
  0
APPID
  5
2A4
330
9
100
AcDbSymbolTableRecord
100
AcDbRegAppTableRecord
  2
DETAIL
 70
     0
  0
APPID
  5
5FD
330
9
100
AcDbSymbolTableRecord
100
AcDbRegAppTableRecord
  2
GRPNAME
 70
     0
  0
APPID
  5
5FE
330
9
100
AcDbSymbolTableRecord
100
AcDbRegAppTableRecord
  2
GPARA
 70
     0
  0
APPID
  5
9C6
330
9
100
AcDbSymbolTableRecord
100
AcDbRegAppTableRecord
  2
ITEMNAME
 70
     0
  0
APPID
  5
9C7
330
9
100
AcDbSymbolTableRecord
100
AcDbRegAppTableRecord
  2
HATCH_TYPE
 70
     0
  0
APPID
  5
9C8
330
9
100
AcDbSymbolTableRecord
100
AcDbRegAppTableRecord
  2
HATCH_DISPLAY
 70
     0
  0
APPID
  5
9C9
330
9
100
AcDbSymbolTableRecord
100
AcDbRegAppTableRecord
  2
HATCH_DISTANCE
 70
     0
  0
ENDTAB
  0
TABLE
  2
DIMSTYLE
  5
A
330
0
100
AcDbSymbolTable
 70
     2
  0
DIMSTYLE
105
48F
330
A
100
AcDbSymbolTableRecord
100
AcDbDimStyleTableRecord
  2
STANDARD
 70
     0
  3

  4

  5

  6

  7

 40
1.0
 41
2.0
 42
2.0
 43
3.75
 44
2.0
 45
0.0
 46
0.0
 47
0.0
 48
0.0
140
4.0
141
0.09
142
0.0
143
25.4
144
1.0
145
0.0
146
1.0
147
1.0
 71
     0
 72
     0
 73
     1
 74
     1
 75
     0
 76
     0
 77
     0
 78
     8
170
     0
171
     2
172
     0
173
     1
174
     0
175
     0
176
   256
177
   256
178
   256
270
     2
271
     3
272
     4
273
     2
274
     2
340
10
275
     0
280
     0
281
     0
282
     0
283
     1
284
     8
285
     0
286
     0
287
     3
288
     0
  0
DIMSTYLE
105
59A
102
{ACAD_REACTORS
330
13C3
330
13C4
330
13C5
330
1C35
330
1C4D
330
1C5D
330
1C6A
102
}
330
A
100
AcDbSymbolTableRecord
100
AcDbDimStyleTableRecord
  2
BIGT
 70
     0
  3

  4

  5
OPEN
  6

  7

 40
1.0
 41
2.229999999999999
 42
0.5
 43
2.5
 44
1.0
 45
0.0
 46
0.0
 47
0.0
 48
0.0
140
3.5
141
0.0
142
0.0
143
25.4
144
1.0
145
0.0
146
1.0
147
1.0
 71
     0
 72
     0
 73
     0
 74
     0
 75
     0
 76
     0
 77
     3
 78
     9
170
     0
171
     2
172
     1
173
     0
174
     0
175
     0
176
   256
177
   256
178
    40
270
     2
271
     3
272
     3
273
     2
274
     2
340
10
275
     0
280
     0
281
     0
282
     0
283
     1
284
     8
285
     0
286
     0
287
     2
288
     0
  0
ENDTAB
  0
TABLE
  2
BLOCK_RECORD
  5
1
330
0
100
AcDbSymbolTable
 70
     9
  0
BLOCK_RECORD
  5
1A
102
{ACAD_XDICTIONARY
360
1D82
102
}
330
1
100
AcDbSymbolTableRecord
100
AcDbBlockTableRecord
  2
*MODEL_SPACE
  0
BLOCK_RECORD
  5
17
102
{ACAD_XDICTIONARY
360
1D80
102
}
330
1
100
AcDbSymbolTableRecord
100
AcDbBlockTableRecord
  2
*PAPER_SPACE
  0
BLOCK_RECORD
  5
594
330
1
100
AcDbSymbolTableRecord
100
AcDbBlockTableRecord
  2
_OPEN
  0
BLOCK_RECORD
  5
13F6
330
1
100
AcDbSymbolTableRecord
100
AcDbBlockTableRecord
  2
*D1
  0
BLOCK_RECORD
  5
1402
330
1
100
AcDbSymbolTableRecord
100
AcDbBlockTableRecord
  2
*D2
  0
BLOCK_RECORD
  5
140E
330
1
100
AcDbSymbolTableRecord
100
AcDbBlockTableRecord
  2
*D3
  0
BLOCK_RECORD
  5
1C36
330
1
100
AcDbSymbolTableRecord
100
AcDbBlockTableRecord
  2
*D4
  0
BLOCK_RECORD
  5
1C4E
330
1
100
AcDbSymbolTableRecord
100
AcDbBlockTableRecord
  2
*D5
  0
BLOCK_RECORD
  5
1C5E
330
1
100
AcDbSymbolTableRecord
100
AcDbBlockTableRecord
  2
*D6
  0
BLOCK_RECORD
  5
1C6B
330
1
100
AcDbSymbolTableRecord
100
AcDbBlockTableRecord
  2
*D7
  0
BLOCK_RECORD
  5
1C7D
330
1
100
AcDbSymbolTableRecord
100
AcDbBlockTableRecord
  2
A$C60FC438B
  0
ENDTAB
  0
ENDSEC
  0
SECTION
  2
BLOCKS
  0
BLOCK
  5
1B
330
1A
100
AcDbEntity
  8
0
100
AcDbBlockBegin
  2
*MODEL_SPACE
 70
     0
 10
0.0
 20
0.0
 30
0.0
  3
*MODEL_SPACE
  1

  0
ENDBLK
  5
1C
330
1A
100
AcDbEntity
  8
0
100
AcDbBlockEnd
  0
BLOCK
  5
18
330
17
100
AcDbEntity
 67
     1
  8
0
100
AcDbBlockBegin
  2
*PAPER_SPACE
 70
     0
 10
0.0
 20
0.0
 30
0.0
  3
*PAPER_SPACE
  1

  0
ENDBLK
  5
19
330
17
100
AcDbEntity
 67
     1
  8
0
100
AcDbBlockEnd
  0
BLOCK
  5
598
330
594
100
AcDbEntity
  8
0
100
AcDbBlockBegin
  2
_OPEN
 70
     0
 10
0.0
 20
0.0
 30
0.0
  3
_OPEN
  1

  0
LINE
  5
595
330
594
100
AcDbEntity
  8
0
  6
BYBLOCK
 62
     0
100
AcDbLine
 10
-1.0
 20
0.1666666666666666
 30
0.0
 11
0.0
 21
0.0
 31
0.0
  0
LINE
  5
596
330
594
100
AcDbEntity
  8
0
  6
BYBLOCK
 62
     0
100
AcDbLine
 10
-1.0
 20
-0.1666666666666666
 30
0.0
 11
0.0
 21
0.0
 31
0.0
  0
LINE
  5
597
330
594
100
AcDbEntity
  8
0
  6
BYBLOCK
 62
     0
100
AcDbLine
 10
0.0
 20
0.0
 30
0.0
 11
-1.0
 21
0.0
 31
0.0
  0
ENDBLK
  5
599
330
594
100
AcDbEntity
  8
0
100
AcDbBlockEnd
  0
BLOCK
  5
1400
330
13F6
100
AcDbEntity
  8
0
100
AcDbBlockBegin
  2
*D1
 70
     1
 10
0.0
 20
0.0
 30
0.0
  3
*D1
  1

  0
LINE
  5
17CD
330
13F6
100
AcDbEntity
  8
250
  6
CONTINUOUS
100
AcDbLine
 10
-0.6899499999999535
 20
-14.99999999999994
 30
0.0
 11
21.99999999999999
 21
-14.99999999999995
 31
0.0
  0
LINE
  5
17CE
330
13F6
100
AcDbEntity
  8
250
  6
CONTINUOUS
100
AcDbLine
 10
-0.6899499999999535
 20
15.0
 30
0.0
 11
22.0
 21
14.99999999999999
 31
0.0
  0
LINE
  5
17CF
330
13F6
100
AcDbEntity
  8
250
  6
CONTINUOUS
100
AcDbLine
 10
20.99999999999999
 20
-12.76999999999995
 30
0.0
 11
21.0
 21
12.76999999999999
 31
0.0
  0
INSERT
  5
17D0
330
13F6
100
AcDbEntity
  8
250
  6
CONTINUOUS
100
AcDbBlockReference
  2
_OPEN
 10
20.99999999999999
 20
-14.99999999999995
 30
0.0
 41
2.229999999999999
 42
2.229999999999999
 43
2.229999999999999
 50
270.0
  0
INSERT
  5
17D1
330
13F6
100
AcDbEntity
  8
250
  6
CONTINUOUS
100
AcDbBlockReference
  2
_OPEN
 10
21.0
 20
14.99999999999999
 30
0.0
 41
2.229999999999999
 42
2.229999999999999
 43
2.229999999999999
 50
90.0
  0
MTEXT
  5
17D2
330
13F6
100
AcDbEntity
  8
250
  6
CONTINUOUS
 62
    40
100
AcDbMText
 10
18.49999999999999
 20
0.0000000000000257
 30
0.0
 40
3.0
 41
0.0
 71
     5
 72
     1
  1
\A1;{\H3;\U+2205}30
 11
0.0000000000000001
 21
1.0
 31
0.0
1001
ACAD
1000
MTEXTBEGIN
1070
    73
1070
     1
1070
    44
1040
1.0
1070
    74
1070
     0
1000
MTEXTEND
  0
POINT
  5
17D3
330
13F6
100
AcDbEntity
  8
DEFPOINTS
  6
CONTINUOUS
 62
     0
100
AcDbPoint
 10
-1.189949999999953
 20
-14.99999999999994
 30
0.0
  0
POINT
  5
17D4
330
13F6
100
AcDbEntity
  8
DEFPOINTS
  6
CONTINUOUS
 62
     0
100
AcDbPoint
 10
-1.189949999999953
 20
15.0
 30
0.0
  0
POINT
  5
17D5
330
13F6
100
AcDbEntity
  8
DEFPOINTS
  6
CONTINUOUS
 62
     0
100
AcDbPoint
 10
21.0
 20
14.99999999999999
 30
0.0
  0
ENDBLK
  5
1401
330
13F6
100
AcDbEntity
  8
0
100
AcDbBlockEnd
  0
BLOCK
  5
140C
330
1402
100
AcDbEntity
  8
0
100
AcDbBlockBegin
  2
*D2
 70
     1
 10
0.0
 20
0.0
 30
0.0
  3
*D2
  1

  0
LINE
  5
1447
330
1402
100
AcDbEntity
  8
250
  6
CONTINUOUS
100
AcDbLine
 10
-40.0
 20
-5.5
 30
0.0
 11
-40.0
 21
-36.0
 31
0.0
  0
LINE
  5
1448
330
1402
100
AcDbEntity
  8
250
  6
CONTINUOUS
100
AcDbLine
 10
0.0
 20
-14.35147199999994
 30
0.0
 11
-0.0000000000000014
 21
-36.0
 31
0.0
  0
LINE
  5
1449
330
1402
100
AcDbEntity
  8
250
  6
CONTINUOUS
100
AcDbLine
 10
-37.77
 20
-35.0
 30
0.0
 11
-2.230000000000001
 21
-35.0
 31
0.0
  0
INSERT
  5
144A
330
1402
100
AcDbEntity
  8
250
  6
CONTINUOUS
100
AcDbBlockReference
  2
_OPEN
 10
-40.0
 20
-35.0
 30
0.0
 41
2.229999999999999
 42
2.229999999999999
 43
2.229999999999999
 50
180.0
  0
INSERT
  5
144B
330
1402
100
AcDbEntity
  8
250
  6
CONTINUOUS
100
AcDbBlockReference
  2
_OPEN
 10
-0.0000000000000013
 20
-35.0
 30
0.0
 41
2.229999999999999
 42
2.229999999999999
 43
2.229999999999999
  0
MTEXT
  5
144C
330
1402
100
AcDbEntity
  8
250
  6
CONTINUOUS
 62
    40
100
AcDbMText
 10
-20.0
 20
-32.5
 30
0.0
 40
3.0
 41
0.0
 71
     5
 72
     1
  1
\A1;35～45
1001
ACAD
1000
MTEXTBEGIN
1070
    73
1070
     1
1070
    44
1040
1.0
1070
    74
1070
     0
1000
MTEXTEND
  0
POINT
  5
144D
330
1402
100
AcDbEntity
  8
DEFPOINTS
  6
CONTINUOUS
 62
     0
100
AcDbPoint
 10
-40.0
 20
-5.0
 30
0.0
  0
POINT
  5
144E
330
1402
100
AcDbEntity
  8
DEFPOINTS
  6
CONTINUOUS
 62
     0
100
AcDbPoint
 10
0.0
 20
-13.85147199999994
 30
0.0
  0
POINT
  5
144F
330
1402
100
AcDbEntity
  8
DEFPOINTS
  6
CONTINUOUS
 62
     0
100
AcDbPoint
 10
-0.0000000000000013
 20
-35.0
 30
0.0
  0
ENDBLK
  5
140D
330
1402
100
AcDbEntity
  8
0
100
AcDbBlockEnd
  0
BLOCK
  5
1418
330
140E
100
AcDbEntity
  8
0
100
AcDbBlockBegin
  2
*D3
 70
     1
 10
0.0
 20
0.0
 30
0.0
  3
*D3
  1

  0
LINE
  5
1D84
330
140E
100
AcDbEntity
  8
250
  6
CONTINUOUS
100
AcDbLine
 10
0.5
 20
-5.0
 30
0.0
 11
15.0
 21
-5.000000000000004
 31
0.0
  0
LINE
  5
1D85
330
140E
100
AcDbEntity
  8
250
  6
CONTINUOUS
100
AcDbLine
 10
0.5
 20
5.0
 30
0.0
 11
15.0
 21
4.999999999999995
 31
0.0
  0
LINE
  5
1D86
330
140E
100
AcDbEntity
  8
250
  6
CONTINUOUS
100
AcDbLine
 10
14.0
 20
-2.770000000000004
 30
0.0
 11
14.0
 21
2.769999999999996
 31
0.0
  0
MTEXT
  5
1D87
330
140E
100
AcDbEntity
  8
250
  6
CONTINUOUS
 62
    40
100
AcDbMText
 10
11.27464379319485
 20
0.730192865609638
 30
0.0
 40
3.0
 41
0.0
 71
     5
 72
     1
  1
\A1;MAX.%%c10
 11
0.0000000000000001
 21
1.0
 31
0.0
  0
INSERT
  5
1D88
330
140E
100
AcDbEntity
  8
250
  6
CONTINUOUS
100
AcDbBlockReference
  2
_OPEN
 10
14.0
 20
-5.000000000000004
 30
0.0
 41
2.229999999999999
 42
2.229999999999999
 43
2.229999999999999
 50
270.0
  0
INSERT
  5
1D89
330
140E
100
AcDbEntity
  8
250
  6
CONTINUOUS
100
AcDbBlockReference
  2
_OPEN
 10
14.0
 20
4.999999999999995
 30
0.0
 41
2.229999999999999
 42
2.229999999999999
 43
2.229999999999999
 50
90.0
  0
POINT
  5
1D8A
330
140E
100
AcDbEntity
  8
DEFPOINTS
  6
CONTINUOUS
 62
     0
100
AcDbPoint
 10
0.0
 20
-5.0
 30
0.0
  0
POINT
  5
1D8B
330
140E
100
AcDbEntity
  8
DEFPOINTS
  6
CONTINUOUS
 62
     0
100
AcDbPoint
 10
0.0
 20
5.0
 30
0.0
  0
POINT
  5
1D8C
330
140E
100
AcDbEntity
  8
DEFPOINTS
  6
CONTINUOUS
 62
     0
100
AcDbPoint
 10
14.0
 20
4.999999999999995
 30
0.0
  0
ENDBLK
  5
1419
330
140E
100
AcDbEntity
  8
0
100
AcDbBlockEnd
  0
BLOCK
  5
1C40
330
1C36
100
AcDbEntity
  8
0
100
AcDbBlockBegin
  2
*D4
 70
     1
 10
0.0
 20
0.0
 30
0.0
  3
*D4
  1

  0
LINE
  5
1C42
330
1C36
100
AcDbEntity
  8
250
  6
CONTINUOUS
100
AcDbLine
 10
-49.00000000000003
 20
-9.999999999999987
 30
0.0
 11
-71.0
 21
-9.99999999999998
 31
0.0
  0
LINE
  5
1C43
330
1C36
100
AcDbEntity
  8
250
  6
CONTINUOUS
100
AcDbLine
 10
-49.00000000000002
 20
9.999999999999994
 30
0.0
 11
-71.0
 21
10.0
 31
0.0
  0
LINE
  5
1C44
330
1C36
100
AcDbEntity
  8
250
  6
CONTINUOUS
100
AcDbLine
 10
-70.0
 20
-7.76999999999998
 30
0.0
 11
-70.0
 21
7.770000000000001
 31
0.0
  0
INSERT
  5
1C45
330
1C36
100
AcDbEntity
  8
250
  6
CONTINUOUS
100
AcDbBlockReference
  2
_OPEN
 10
-70.0
 20
-9.99999999999998
 30
0.0
 41
2.229999999999999
 42
2.229999999999999
 43
2.229999999999999
 50
270.0
  0
INSERT
  5
1C46
330
1C36
100
AcDbEntity
  8
250
  6
CONTINUOUS
100
AcDbBlockReference
  2
_OPEN
 10
-70.0
 20
10.0
 30
0.0
 41
2.229999999999999
 42
2.229999999999999
 43
2.229999999999999
 50
90.0
  0
MTEXT
  5
1C47
330
1C36
100
AcDbEntity
  8
250
  6
CONTINUOUS
 62
    40
100
AcDbMText
 10
-72.5
 20
-0.0000000000000007
 30
0.0
 40
3.0
 41
0.0
 71
     5
 72
     1
  1
\A1;{\H3;\U+2205}20
 11
0.0000000000000001
 21
1.0
 31
0.0
1001
ACAD
1000
MTEXTBEGIN
1070
    73
1070
     1
1070
    44
1040
1.0
1070
    74
1070
     0
1000
MTEXTEND
  0
POINT
  5
1C48
330
1C36
100
AcDbEntity
  8
DEFPOINTS
  6
CONTINUOUS
 62
     0
100
AcDbPoint
 10
-48.50000000000004
 20
-9.999999999999987
 30
0.0
  0
POINT
  5
1C49
330
1C36
100
AcDbEntity
  8
DEFPOINTS
  6
CONTINUOUS
 62
     0
100
AcDbPoint
 10
-48.50000000000002
 20
9.999999999999994
 30
0.0
  0
POINT
  5
1C4A
330
1C36
100
AcDbEntity
  8
DEFPOINTS
  6
CONTINUOUS
 62
     0
100
AcDbPoint
 10
-70.0
 20
10.0
 30
0.0
  0
ENDBLK
  5
1C41
330
1C36
100
AcDbEntity
  8
0
100
AcDbBlockEnd
  0
BLOCK
  5
1C58
330
1C4E
100
AcDbEntity
  8
0
100
AcDbBlockBegin
  2
*D5
 70
     1
 10
0.0
 20
0.0
 30
0.0
  3
*D5
  1

  0
LINE
  5
1C4F
330
1C4E
100
AcDbEntity
  8
250
  6
CONTINUOUS
100
AcDbLine
 10
-58.0
 20
8.5
 30
0.0
 11
-58.0
 21
36.0
 31
0.0
  0
LINE
  5
1C50
330
1C4E
100
AcDbEntity
  8
250
  6
CONTINUOUS
100
AcDbLine
 10
0.0
 20
14.35147200000005
 30
0.0
 11
0.0000000000000014
 21
36.0
 31
0.0
  0
LINE
  5
1C51
330
1C4E
100
AcDbEntity
  8
250
  6
CONTINUOUS
100
AcDbLine
 10
-55.77000000000001
 20
35.0
 30
0.0
 11
-2.229999999999998
 21
35.0
 31
0.0
  0
INSERT
  5
1C52
330
1C4E
100
AcDbEntity
  8
250
  6
CONTINUOUS
100
AcDbBlockReference
  2
_OPEN
 10
-58.0
 20
35.0
 30
0.0
 41
2.229999999999999
 42
2.229999999999999
 43
2.229999999999999
 50
180.0
  0
INSERT
  5
1C53
330
1C4E
100
AcDbEntity
  8
250
  6
CONTINUOUS
100
AcDbBlockReference
  2
_OPEN
 10
0.0000000000000013
 20
35.0
 30
0.0
 41
2.229999999999999
 42
2.229999999999999
 43
2.229999999999999
  0
MTEXT
  5
1C54
330
1C4E
100
AcDbEntity
  8
250
  6
CONTINUOUS
 62
    40
100
AcDbMText
 10
-29.0
 20
37.5
 30
0.0
 40
3.0
 41
0.0
 71
     5
 72
     1
  1
\A1;58
1001
ACAD
1000
MTEXTBEGIN
1070
    73
1070
     1
1070
    44
1040
1.0
1070
    74
1070
     0
1000
MTEXTEND
  0
POINT
  5
1C55
330
1C4E
100
AcDbEntity
  8
DEFPOINTS
  6
CONTINUOUS
 62
     0
100
AcDbPoint
 10
-58.0
 20
8.0
 30
0.0
  0
POINT
  5
1C56
330
1C4E
100
AcDbEntity
  8
DEFPOINTS
  6
CONTINUOUS
 62
     0
100
AcDbPoint
 10
0.0
 20
13.85147200000005
 30
0.0
  0
POINT
  5
1C57
330
1C4E
100
AcDbEntity
  8
DEFPOINTS
  6
CONTINUOUS
 62
     0
100
AcDbPoint
 10
0.0000000000000013
 20
35.0
 30
0.0
  0
ENDBLK
  5
1C59
330
1C4E
100
AcDbEntity
  8
0
100
AcDbBlockEnd
  0
BLOCK
  5
1C68
330
1C5E
100
AcDbEntity
  8
0
100
AcDbBlockBegin
  2
*D6
 70
     1
 10
0.0
 20
0.0
 30
0.0
  3
*D6
  1

  0
LINE
  5
1C5F
330
1C5E
100
AcDbEntity
  8
250
  6
CONTINUOUS
100
AcDbLine
 10
-18.00000000000001
 20
10.5
 30
0.0
 11
-18.00000000000001
 21
29.0
 31
0.0
  0
LINE
  5
1C60
330
1C5E
100
AcDbEntity
  8
250
  6
CONTINUOUS
100
AcDbLine
 10
0.0
 20
14.35147200000005
 30
0.0
 11
0.0000000000000009
 21
29.0
 31
0.0
  0
LINE
  5
1C61
330
1C5E
100
AcDbEntity
  8
250
  6
CONTINUOUS
100
AcDbLine
 10
-15.77000000000001
 20
28.0
 30
0.0
 11
-2.229999999999999
 21
28.0
 31
0.0
  0
INSERT
  5
1C62
330
1C5E
100
AcDbEntity
  8
250
  6
CONTINUOUS
100
AcDbBlockReference
  2
_OPEN
 10
-18.00000000000001
 20
28.0
 30
0.0
 41
2.229999999999999
 42
2.229999999999999
 43
2.229999999999999
 50
180.0
  0
INSERT
  5
1C63
330
1C5E
100
AcDbEntity
  8
250
  6
CONTINUOUS
100
AcDbBlockReference
  2
_OPEN
 10
0.0000000000000009
 20
28.0
 30
0.0
 41
2.229999999999999
 42
2.229999999999999
 43
2.229999999999999
  0
MTEXT
  5
1C64
330
1C5E
100
AcDbEntity
  8
250
  6
CONTINUOUS
 62
    40
100
AcDbMText
 10
-9.000000000000005
 20
30.5
 30
0.0
 40
3.0
 41
0.0
 71
     5
 72
     1
  1
\A1;18
1001
ACAD
1000
MTEXTBEGIN
1070
    73
1070
     1
1070
    44
1040
1.0
1070
    74
1070
     0
1000
MTEXTEND
  0
POINT
  5
1C65
330
1C5E
100
AcDbEntity
  8
DEFPOINTS
  6
CONTINUOUS
 62
     0
100
AcDbPoint
 10
-18.00000000000001
 20
10.0
 30
0.0
  0
POINT
  5
1C66
330
1C5E
100
AcDbEntity
  8
DEFPOINTS
  6
CONTINUOUS
 62
     0
100
AcDbPoint
 10
0.0
 20
13.85147200000005
 30
0.0
  0
POINT
  5
1C67
330
1C5E
100
AcDbEntity
  8
DEFPOINTS
  6
CONTINUOUS
 62
     0
100
AcDbPoint
 10
0.0000000000000009
 20
28.0
 30
0.0
  0
ENDBLK
  5
1C69
330
1C5E
100
AcDbEntity
  8
0
100
AcDbBlockEnd
  0
BLOCK
  5
1C75
330
1C6B
100
AcDbEntity
  8
0
100
AcDbBlockBegin
  2
*D7
 70
     1
 10
0.0
 20
0.0
 30
0.0
  3
*D7
  1

  0
LINE
  5
1C6C
330
1C6B
100
AcDbEntity
  8
250
  6
CONTINUOUS
100
AcDbLine
 10
-58.0
 20
8.5
 30
0.0
 11
-58.0
 21
29.0
 31
0.0
  0
LINE
  5
1C6D
330
1C6B
100
AcDbEntity
  8
250
  6
CONTINUOUS
100
AcDbLine
 10
-18.00000000000001
 20
10.5
 30
0.0
 11
-18.00000000000001
 21
29.0
 31
0.0
  0
LINE
  5
1C6E
330
1C6B
100
AcDbEntity
  8
250
  6
CONTINUOUS
100
AcDbLine
 10
-55.77000000000001
 20
28.0
 30
0.0
 11
-20.23000000000001
 21
28.0
 31
0.0
  0
INSERT
  5
1C6F
330
1C6B
100
AcDbEntity
  8
250
  6
CONTINUOUS
100
AcDbBlockReference
  2
_OPEN
 10
-58.0
 20
28.0
 30
0.0
 41
2.229999999999999
 42
2.229999999999999
 43
2.229999999999999
 50
180.0
  0
INSERT
  5
1C70
330
1C6B
100
AcDbEntity
  8
250
  6
CONTINUOUS
100
AcDbBlockReference
  2
_OPEN
 10
-18.00000000000001
 20
28.0
 30
0.0
 41
2.229999999999999
 42
2.229999999999999
 43
2.229999999999999
  0
MTEXT
  5
1C71
330
1C6B
100
AcDbEntity
  8
250
  6
CONTINUOUS
 62
    40
100
AcDbMText
 10
-38.00000000000001
 20
30.5
 30
0.0
 40
3.0
 41
0.0
 71
     5
 72
     1
  1
\A1;40
1001
ACAD
1000
MTEXTBEGIN
1070
    73
1070
     1
1070
    44
1040
1.0
1070
    74
1070
     0
1000
MTEXTEND
  0
POINT
  5
1C72
330
1C6B
100
AcDbEntity
  8
DEFPOINTS
  6
CONTINUOUS
 62
     0
100
AcDbPoint
 10
-58.0
 20
8.0
 30
0.0
  0
POINT
  5
1C73
330
1C6B
100
AcDbEntity
  8
DEFPOINTS
  6
CONTINUOUS
 62
     0
100
AcDbPoint
 10
-18.00000000000001
 20
10.0
 30
0.0
  0
POINT
  5
1C74
330
1C6B
100
AcDbEntity
  8
DEFPOINTS
  6
CONTINUOUS
 62
     0
100
AcDbPoint
 10
-18.00000000000001
 20
28.0
 30
0.0
  0
ENDBLK
  5
1C76
330
1C6B
100
AcDbEntity
  8
0
100
AcDbBlockEnd
  0
BLOCK
  5
1D54
330
1C7D
100
AcDbEntity
  8
0
100
AcDbBlockBegin
  2
A$C60FC438B
 70
     0
 10
0.0
 20
0.0
 30
0.0
  3
A$C60FC438B
  1

  0
LINE
  5
1C7E
330
1C7D
100
AcDbEntity
  8
245
100
AcDbLine
 10
1.910872413295351
 20
0.0
 30
0.0
 11
-59.25325015929155
 21
0.0
 31
0.0
  0
LINE
  5
1C7F
330
1C7D
100
AcDbEntity
  8
240
100
AcDbLine
 10
-17.50000000000001
 20
-10.5
 30
0.0
 11
-12.5
 21
-10.5
 31
0.0
  0
LINE
  5
1C80
330
1C7D
100
AcDbEntity
  8
240
100
AcDbLine
 10
-17.50000000000001
 20
10.5
 30
0.0
 11
-12.5
 21
10.5
 31
0.0
  0
LINE
  5
1C81
330
1C7D
100
AcDbEntity
  8
246
100
AcDbLine
 10
-27.0
 20
5.866415000000074
 30
0.0
 11
-4.600000000000022
 21
8.25
 31
0.0
  0
LINE
  5
1C82
330
1C7D
100
AcDbEntity
  8
246
100
AcDbLine
 10
-27.0
 20
5.0
 30
0.0
 11
0.0
 21
5.0
 31
0.0
  0
LINE
  5
1C83
330
1C7D
100
AcDbEntity
  8
246
100
AcDbLine
 10
-4.600000000000022
 20
-8.25
 30
0.0
 11
-27.0
 21
-5.895665000000008
 31
0.0
  0
LINE
  5
1C84
330
1C7D
100
AcDbEntity
  8
246
100
AcDbLine
 10
-27.0
 20
-5.0
 30
0.0
 11
0.0
 21
-5.0
 31
0.0
  0
ARC
  5
1C85
330
1C7D
100
AcDbEntity
  8
240
100
AcDbCircle
 10
-17.50000000000001
 20
10.0
 30
0.0
 40
0.5
100
AcDbArc
 50
90.0
 51
180.0
  0
LINE
  5
1C86
330
1C7D
100
AcDbEntity
  8
242
100
AcDbLine
 10
-23.0
 20
5.200000000000046
 30
0.0
 11
-58.0
 21
-5.19999999999993
 31
0.0
  0
LINE
  5
1C87
330
1C7D
100
AcDbEntity
  8
242
100
AcDbLine
 10
-58.0
 20
5.200000000000044
 30
0.0
 11
-23.00000159733424
 21
-5.200002538327009
 31
0.0
  0
LINE
  5
1C88
330
1C7D
100
AcDbEntity
  8
241
100
AcDbLine
 10
-23.0
 20
-5.199999999999932
 30
0.0
 11
-58.0
 21
-5.19999999999993
 31
0.0
  0
LINE
  5
1C89
330
1C7D
100
AcDbEntity
  8
241
100
AcDbLine
 10
-23.0
 20
5.200000000000045
 30
0.0
 11
-58.0
 21
5.200000000000044
 31
0.0
  0
LINE
  5
1C8A
330
1C7D
100
AcDbEntity
  8
240
100
AcDbLine
 10
-48.50000000000004
 20
-9.999999999999987
 30
0.0
 11
-19.50000000000004
 21
-10.0
 31
0.0
  0
LINE
  5
1C8B
330
1C7D
100
AcDbEntity
  8
240
100
AcDbLine
 10
-48.50000000000002
 20
9.999999999999994
 30
0.0
 11
-19.50000000000004
 21
10.0
 31
0.0
  0
LINE
  5
1C8C
330
1C7D
100
AcDbEntity
  8
246
100
AcDbLine
 10
-51.25
 20
5.5
 30
0.0
 11
-40.49999999999999
 21
5.5
 31
0.0
  0
LINE
  5
1C8D
330
1C7D
100
AcDbEntity
  8
246
100
AcDbLine
 10
-51.60000000000002
 20
5.200000000000045
 30
0.0
 11
-40.14999999999997
 21
5.200000000000045
 31
0.0
  0
LINE
  5
1C8E
330
1C7D
100
AcDbEntity
  8
246
100
AcDbLine
 10
-45.55662499999994
 20
-1.732050999999955
 30
0.0
 11
-46.0
 21
-2.5
 31
0.0
  0
LINE
  5
1C8F
330
1C7D
100
AcDbEntity
  8
246
100
AcDbLine
 10
-51.25
 20
-5.5
 30
0.0
 11
-40.49999999999999
 21
-5.5
 31
0.0
  0
LINE
  5
1C90
330
1C7D
100
AcDbEntity
  8
246
100
AcDbLine
 10
-51.60000000000002
 20
-5.199999999999931
 30
0.0
 11
-40.14999999999997
 21
-5.199999999999931
 31
0.0
  0
LINE
  5
1C91
330
1C7D
100
AcDbEntity
  8
246
100
AcDbLine
 10
-45.55662499999994
 20
1.732051000000069
 30
0.0
 11
-46.0
 21
2.5
 31
0.0
  0
LINE
  5
1C92
330
1C7D
100
AcDbEntity
  8
240
100
AcDbLine
 10
-48.50000000000004
 20
-9.999999999999987
 30
0.0
 11
-50.00000000000003
 21
-8.5
 31
0.0
  0
LINE
  5
1C93
330
1C7D
100
AcDbEntity
  8
240
100
AcDbLine
 10
-58.0
 20
-8.0
 30
0.0
 11
-58.0
 21
8.0
 31
0.0
  0
LINE
  5
1C94
330
1C7D
100
AcDbEntity
  8
246
100
AcDbLine
 10
-56.0
 20
3.75
 30
0.0
 11
-56.0
 21
-3.75
 31
0.0
  0
LINE
  5
1C95
330
1C7D
100
AcDbEntity
  8
240
100
AcDbLine
 10
-57.5
 20
-8.5
 30
0.0
 11
-50.00000000000003
 21
-8.5
 31
0.0
  0
LINE
  5
1C96
330
1C7D
100
AcDbEntity
  8
246
100
AcDbLine
 10
-55.0
 20
-4.75
 30
0.0
 11
-52.0
 21
-4.75
 31
0.0
  0
LINE
  5
1C97
330
1C7D
100
AcDbEntity
  8
246
100
AcDbLine
 10
-56.0
 20
-2.5
 30
0.0
 11
-46.0
 21
-2.5
 31
0.0
  0
ARC
  5
1C98
330
1C7D
100
AcDbEntity
  8
246
100
AcDbCircle
 10
-55.0
 20
-3.75
 30
0.0
 40
1.0
100
AcDbArc
 50
180.0
 51
270.0
  0
LINE
  5
1C99
330
1C7D
100
AcDbEntity
  8
240
100
AcDbLine
 10
-58.0
 20
-8.0
 30
0.0
 11
-57.5
 21
-8.5
 31
0.0
  0
LINE
  5
1C9A
330
1C7D
100
AcDbEntity
  8
246
100
AcDbLine
 10
-52.0
 20
-4.75
 30
0.0
 11
-51.25
 21
-5.5
 31
0.0
  0
LINE
  5
1C9B
330
1C7D
100
AcDbEntity
  8
246
100
AcDbLine
 10
-46.0
 20
-1.332132999999998
 30
0.0
 11
-46.0
 21
-2.5
 31
0.0
  0
LINE
  5
1C9C
330
1C7D
100
AcDbEntity
  8
240
100
AcDbLine
 10
-57.5
 20
8.5
 30
0.0
 11
-50.00000000000001
 21
8.5
 31
0.0
  0
LINE
  5
1C9D
330
1C7D
100
AcDbEntity
  8
246
100
AcDbLine
 10
-55.0
 20
4.75
 30
0.0
 11
-52.0
 21
4.75
 31
0.0
  0
LINE
  5
1C9E
330
1C7D
100
AcDbEntity
  8
246
100
AcDbLine
 10
-56.0
 20
2.5
 30
0.0
 11
-46.0
 21
2.5
 31
0.0
  0
ARC
  5
1C9F
330
1C7D
100
AcDbEntity
  8
246
100
AcDbCircle
 10
-55.0
 20
3.75
 30
0.0
 40
1.0
100
AcDbArc
 50
90.0
 51
180.0
  0
LINE
  5
1CA0
330
1C7D
100
AcDbEntity
  8
240
100
AcDbLine
 10
-57.5
 20
8.5
 30
0.0
 11
-58.0
 21
8.0
 31
0.0
  0
LINE
  5
1CA1
330
1C7D
100
AcDbEntity
  8
246
100
AcDbLine
 10
-52.0
 20
4.75
 30
0.0
 11
-51.25
 21
5.5
 31
0.0
  0
LINE
  5
1CA2
330
1C7D
100
AcDbEntity
  8
246
100
AcDbLine
 10
-46.0
 20
1.332132999999998
 30
0.0
 11
-46.0
 21
2.5
 31
0.0
  0
LINE
  5
1CA3
330
1C7D
100
AcDbEntity
  8
240
100
AcDbLine
 10
-48.50000000000002
 20
9.999999999999994
 30
0.0
 11
-50.00000000000001
 21
8.5
 31
0.0
  0
LINE
  5
1CA4
330
1C7D
100
AcDbEntity
  8
241
100
AcDbLine
 10
-19.3
 20
-9.799999999999954
 30
0.0
 11
-19.3
 21
9.800000000000068
 31
0.0
  0
LINE
  5
1CA5
330
1C7D
100
AcDbEntity
  8
241
100
AcDbLine
 10
-18.0
 20
-9.799999999999954
 30
0.0
 11
-18.0
 21
9.800000000000068
 31
0.0
  0
LINE
  5
1CA6
330
1C7D
100
AcDbEntity
  8
240
100
AcDbLine
 10
-19.3
 20
-9.799999999999954
 30
0.0
 11
-18.0
 21
-9.799999999999954
 31
0.0
  0
LINE
  5
1CA7
330
1C7D
100
AcDbEntity
  8
240
100
AcDbLine
 10
-19.50000000000004
 20
-10.0
 30
0.0
 11
-19.3
 21
-9.799999999999954
 31
0.0
  0
LINE
  5
1CA8
330
1C7D
100
AcDbEntity
  8
240
100
AcDbLine
 10
-18.00000000000001
 20
-10.0
 30
0.0
 11
-18.00000000000001
 21
-9.799999999999954
 31
0.0
  0
ARC
  5
1CA9
330
1C7D
100
AcDbEntity
  8
240
100
AcDbCircle
 10
-17.50000000000001
 20
-10.0
 30
0.0
 40
0.5
100
AcDbArc
 50
180.0
 51
270.0
  0
LINE
  5
1CAA
330
1C7D
100
AcDbEntity
  8
240
100
AcDbLine
 10
-18.0
 20
-9.5
 30
0.0
 11
-18.0
 21
-9.799999999999954
 31
0.0
  0
TEXT
  5
1CAB
330
1C7D
100
AcDbEntity
  8
247
100
AcDbText
 10
-39.6586644262515
 20
-8.834157711151476
 30
0.0
 40
1.5
  1
SL20-NBS10-40
  7
YOKO
 11
-39.6586644262515
 21
-8.834157711151476
 31
0.0
100
AcDbText
 73
     1
  0
LINE
  5
1CAC
330
1C7D
100
AcDbEntity
  8
246
100
AcDbLine
 10
-43.01794900000004
 20
-1.732050999999955
 30
0.0
 11
-43.01794900000004
 21
1.732051000000069
 31
0.0
  0
LINE
  5
1CAD
330
1C7D
100
AcDbEntity
  8
246
100
AcDbLine
 10
-45.55662499999994
 20
-1.732050999999955
 30
0.0
 11
-45.55662499999994
 21
1.732051000000069
 31
0.0
  0
LINE
  5
1CAE
330
1C7D
100
AcDbEntity
  8
246
100
AcDbLine
 10
-40.0
 20
5.0
 30
0.0
 11
-40.0
 21
-5.0
 31
0.0
  0
LINE
  5
1CAF
330
1C7D
100
AcDbEntity
  8
246
100
AcDbLine
 10
-43.01794900000004
 20
-1.732050999999955
 30
0.0
 11
-40.0
 21
-4.75
 31
0.0
  0
HATCH
  5
1CB0
330
1C7D
100
AcDbEntity
  8
247
100
AcDbHatch
 10
0.0
 20
0.0
 30
0.0
210
0.0
220
0.0
230
1.0
  2
ANSI31
 70
     0
 71
     1
 91
        1
 92
       33
 93
       15
 72
     1
 10
-41.42765193845447
 20
-7.310779658901729
 11
-41.48242565061265
 21
-7.137078944790402
 72
     2
 10
-41.15225215818105
 20
-8.033034602749387
 40
0.7729795932769776
 50
110.8721834020771
 51
132.5419489373868
 73
     1
 72
     2
 10
-41.86577297116932
 20
-7.469216243374387
 40
0.1909725040197372
 50
1.710121382062761
 51
163.9983983544485
 73
     1
 72
     1
 10
-42.29446636106188
 20
-8.271396724331419
 11
-42.04934764768299
 21
-7.416571132290401
 72
     2
 10
-42.11089168454822
 20
-8.324034968960324
 40
0.1909723699092865
 50
164.0002730571839
 51
344.0002730571838
 73
     1
 72
     1
 10
-41.92731700803454
 20
-8.37667321358923
 11
-41.81052547361072
 21
-7.96937569772009
 72
     1
 10
-41.9618896093529
 20
-7.96937569772009
 11
-41.81052547361072
 21
-7.96937569772009
 72
     1
 10
-41.9618896093529
 20
-7.96937569772009
 11
-41.90973888303454
 21
-7.787497035610714
 72
     1
 10
-41.90973888303454
 20
-7.787497035610714
 11
-41.37995754148181
 21
-7.787497035610714
 72
     1
 10
-41.64593654538806
 20
-8.715072933781184
 11
-41.37995754148181
 21
-7.787497035610714
 72
     1
 10
-41.75262752439196
 20
-8.608388821232358
 11
-41.64593654538806
 21
-8.715072933781184
 72
     2
 10
-42.09136348630604
 20
-8.123973933804075
 40
0.5911056518554688
 50
163.9997507017293
 51
304.9638732916317
 73
     1
 72
     2
 10
-41.12493739988026
 20
-8.155051509487668
 40
1.546847534179687
 50
155.2051773698404
 51
172.7948259620522
 73
     1
 72
     2
 10
-41.96098323728261
 20
-7.669277278530637
 40
0.5910996437072754
 50
53.44401219705755
 51
164.0001843876852
 73
     1
 72
     2
 10
-41.15225215818105
 20
-8.033034602749387
 40
0.954856538772583
 50
110.22964506332
 51
118.5716889237176
 73
     1
 97
       15
330
1D0E
330
1D10
330
1D0D
330
1CB3
330
1CB2
330
1D09
330
1D0A
330
1D0C
330
1D0B
330
1D14
330
1D11
330
1CB7
330
1CBB
330
1CB4
330
1D0F
 75
     0
 76
     1
 52
360.0
 41
0.045
 77
     0
 78
     1
 53
44.99999999999996
 43
-99.70921575452505
 44
-16.07538642083406
 45
-0.101027881362028
 46
0.101027881362028
 79
     0
 98
        1
 10
-99.70921575452505
 20
-16.07538642083406
  0
HATCH
  5
1CB1
330
1C7D
100
AcDbEntity
  8
247
100
AcDbHatch
 10
0.0
 20
0.0
 30
0.0
210
0.0
220
0.0
230
1.0
  2
ANSI31
 70
     0
 71
     1
 91
        1
 92
       33
 93
       10
 72
     1
 10
-44.46876369382556
 20
-7.078178493130245
 11
-44.52091442014391
 21
-7.26005715523962
 72
     1
 10
-44.84436565305407
 20
-7.078178493130245
 11
-44.46876369382556
 21
-7.078178493130245
 72
     1
 10
-44.84436565305407
 20
-7.26005715523962
 11
-44.52091442014391
 21
-7.26005715523962
 72
     2
 10
-44.84436565305409
 20
-8.033034602749387
 40
0.7729774475097657
 50
90.0
 51
270.0
 73
     1
 72
     2
 10
-44.84436565305409
 20
-8.033034602749387
 40
0.9548561096191406
 50
90.0
 51
270.0
 73
     1
 72
     1
 10
-44.84436565305407
 20
-8.987890922264396
 11
-41.15225215818102
 21
-8.987890922264396
 72
     1
 10
-44.84436565305407
 20
-8.806012264835873
 11
-41.15225215818102
 21
-8.806012264835873
 72
     2
 10
-41.15225215818105
 20
-8.033034602749387
 40
0.9548561096191406
 50
270.0
 51
464.7707939660941
 73
     1
 72
     2
 10
-41.15225215818105
 20
-8.033034602749387
 40
0.7729774475097657
 50
270.0
 51
464.1274364964119
 73
     1
 72
     1
 10
-41.34092174436267
 20
-7.283430568325558
 11
-41.39569545652087
 21
-7.109729854214229
 97
       10
330
1CC7
330
1CBD
330
1CBE
330
1CD4
330
1CD5
330
1CB6
330
1CB5
330
1D13
330
1D12
330
1CF0
 75
     0
 76
     1
 52
360.0
 41
0.045
 77
     0
 78
     1
 53
44.99999999999996
 43
-99.70921575452505
 44
-16.07538642083406
 45
-0.101027881362028
 46
0.101027881362028
 79
     0
 98
        1
 10
-99.70921575452505
 20
-16.07538642083406
  0
ARC
  5
1CB2
102
{ACAD_REACTORS
330
1CB0
102
}
330
1C7D
100
AcDbEntity
  8
247
100
AcDbCircle
 10
-42.11089168454822
 20
-8.324034968960324
 30
0.0
 40
0.1909723699092865
100
AcDbArc
 50
164.0002730571839
 51
344.0002730571838
  0
LINE
  5
1CB3
102
{ACAD_REACTORS
330
1CB0
102
}
330
1C7D
100
AcDbEntity
  8
247
100
AcDbLine
 10
-42.29446636106188
 20
-8.271396724331419
 30
0.0
 11
-42.04934764768299
 21
-7.416571132290401
 31
0.0
  0
ARC
  5
1CB4
102
{ACAD_REACTORS
330
1CB0
102
}
330
1C7D
100
AcDbEntity
  8
247
100
AcDbCircle
 10
-41.96098323728261
 20
-7.669277278530637
 30
0.0
 40
0.5910996437072754
100
AcDbArc
 50
53.44401219705755
 51
164.0001843876852
  0
LINE
  5
1CB5
102
{ACAD_REACTORS
330
1CB1
102
}
330
1C7D
100
AcDbEntity
  8
247
100
AcDbLine
 10
-44.84436565305407
 20
-8.806012264835873
 30
0.0
 11
-41.15225215818102
 21
-8.806012264835873
 31
0.0
  0
LINE
  5
1CB6
102
{ACAD_REACTORS
330
1CB1
102
}
330
1C7D
100
AcDbEntity
  8
247
100
AcDbLine
 10
-44.84436565305407
 20
-8.987890922264396
 30
0.0
 11
-41.15225215818102
 21
-8.987890922264396
 31
0.0
  0
ARC
  5
1CB7
102
{ACAD_REACTORS
330
1CB0
102
}
330
1C7D
100
AcDbEntity
  8
247
100
AcDbCircle
 10
-42.09136348630604
 20
-8.123973933804075
 30
0.0
 40
0.5911056518554688
100
AcDbArc
 50
163.9997507017293
 51
304.9638732916317
  0
LINE
  5
1CB8
330
1C7D
100
AcDbEntity
  8
247
100
AcDbLine
 10
-44.70194449531702
 20
-8.55121940177929
 30
0.0
 11
-43.93239681246357
 21
-7.781671718925805
 31
0.0
  0
ARC
  5
1CB9
330
1C7D
100
AcDbEntity
  8
247
100
AcDbCircle
 10
-44.19707866574941
 20
-8.242193690884151
 30
0.0
 40
0.2728181809186935
100
AcDbArc
 50
261.6628542111488
 51
66.33819215911005
  0
LINE
  5
1CBA
330
1C7D
100
AcDbEntity
  8
247
100
AcDbLine
 10
-44.08758661965342
 20
-7.992311215145081
 30
0.0
 11
-44.23663659058247
 21
-8.512128739410092
 31
0.0
  0
ARC
  5
1CBB
102
{ACAD_REACTORS
330
1CB0
102
}
330
1C7D
100
AcDbEntity
  8
247
100
AcDbCircle
 10
-41.12493739988026
 20
-8.155051509487668
 30
0.0
 40
1.546847534179687
100
AcDbArc
 50
155.2051773698404
 51
172.7948259620522
  0
LINE
  5
1CBC
330
1C7D
100
AcDbEntity
  8
247
100
AcDbLine
 10
-44.62071312231085
 20
-8.267932266049035
 30
0.0
 11
-43.98405959975494
 21
-7.631278743493146
 31
0.0
  0
LINE
  5
1CBD
102
{ACAD_REACTORS
330
1CB1
102
}
330
1C7D
100
AcDbEntity
  8
247
100
AcDbLine
 10
-44.84436565305407
 20
-7.078178493130245
 30
0.0
 11
-44.46876369382556
 21
-7.078178493130245
 31
0.0
  0
LINE
  5
1CBE
102
{ACAD_REACTORS
330
1CB1
102
}
330
1C7D
100
AcDbEntity
  8
247
100
AcDbLine
 10
-44.84436565305407
 20
-7.26005715523962
 30
0.0
 11
-44.52091442014391
 21
-7.26005715523962
 31
0.0
  0
LINE
  5
1CBF
330
1C7D
100
AcDbEntity
  8
247
100
AcDbLine
 10
-43.09762187864
 20
-7.278239528286495
 30
0.0
 11
-43.03139491941148
 21
-7.278239528286495
 31
0.0
  0
LINE
  5
1CC0
330
1C7D
100
AcDbEntity
  8
247
100
AcDbLine
 10
-43.09762187864
 20
-7.278239528286495
 30
0.0
 11
-43.04025264646226
 21
-7.078178493130245
 31
0.0
  0
LINE
  5
1CC1
330
1C7D
100
AcDbEntity
  8
247
100
AcDbLine
 10
-44.53948174930467
 20
-7.98464513031878
 30
0.0
 11
-43.90283090797302
 21
-7.347994288987125
 31
0.0
  0
LINE
  5
1CC2
330
1C7D
100
AcDbEntity
  8
247
100
AcDbLine
 10
-44.37416454221412
 20
-7.078178493130245
 30
0.0
 11
-43.78743241590338
 21
-7.078178493130313
 31
0.0
  0
LINE
  5
1CC3
330
1C7D
100
AcDbEntity
  8
247
100
AcDbLine
 10
-44.37701900329229
 20
-7.418070858858299
 30
0.0
 11
-44.03712663756428
 21
-7.078178493130313
 31
0.0
  0
LINE
  5
1CC4
330
1C7D
100
AcDbEntity
  8
247
100
AcDbLine
 10
-44.45825037629847
 20
-7.701357994588557
 30
0.0
 11
-43.83507087484022
 21
-7.078178493130313
 31
0.0
  0
LINE
  5
1CC5
330
1C7D
100
AcDbEntity
  8
247
100
AcDbLine
 10
-44.42631526853279
 20
-7.26005715523962
 30
0.0
 11
-44.33170925046638
 21
-7.260057155240166
 31
0.0
  0
LINE
  5
1CC6
330
1C7D
100
AcDbEntity
  8
247
100
AcDbLine
 10
-44.37416454221412
 20
-7.078178493130245
 30
0.0
 11
-44.42631526853279
 21
-7.26005715523962
 31
0.0
  0
LINE
  5
1CC7
102
{ACAD_REACTORS
330
1CB1
102
}
330
1C7D
100
AcDbEntity
  8
247
100
AcDbLine
 10
-44.46876369382556
 20
-7.078178493130245
 30
0.0
 11
-44.52091442014391
 21
-7.26005715523962
 31
0.0
  0
LINE
  5
1CC8
330
1C7D
100
AcDbEntity
  8
247
100
AcDbLine
 10
-44.42106106239768
 20
-7.260057155239654
 30
0.0
 11
-44.23918240028831
 21
-7.07817849313028
 31
0.0
  0
ARC
  5
1CC9
330
1C7D
100
AcDbEntity
  8
247
100
AcDbCircle
 10
-43.98846889402089
 20
-7.51468590890173
 30
0.0
 40
0.2728103756904602
100
AcDbArc
 50
261.6626016879294
 51
66.33815509518976
  0
LINE
  5
1CCA
330
1C7D
100
AcDbEntity
  8
247
100
AcDbLine
 10
-43.87897901868003
 20
-7.264811003634711
 30
0.0
 11
-44.02802653758902
 21
-7.784613110049951
 31
0.0
  0
LINE
  5
1CCB
330
1C7D
100
AcDbEntity
  8
247
100
AcDbLine
 10
-43.84039473627108
 20
-7.285558117285255
 30
0.0
 11
-43.65281824849048
 21
-7.097981629504658
 31
0.0
  0
LINE
  5
1CCC
330
1C7D
100
AcDbEntity
  8
247
100
AcDbLine
 10
-43.74479476458215
 20
-7.392013908320324
 30
0.0
 11
-43.51800551445633
 21
-7.165224658194505
 31
0.0
  0
LINE
  5
1CCD
330
1C7D
100
AcDbEntity
  8
247
100
AcDbLine
 10
-43.93055258333678
 20
-8.183939015247142
 30
0.0
 11
-43.33416477777793
 21
-7.587551209688285
 31
0.0
  0
LINE
  5
1CCE
330
1C7D
100
AcDbEntity
  8
247
100
AcDbLine
 10
-44.00108429322787
 20
-8.052414962414184
 30
0.0
 11
-43.35023536866804
 21
-7.401566037854352
 31
0.0
  0
ARC
  5
1CCF
330
1C7D
100
AcDbEntity
  8
247
100
AcDbCircle
 10
-43.78555828000721
 20
-7.532868281948607
 30
0.0
 40
0.4546936511993409
100
AcDbArc
 50
287.6695775473979
 51
90.23615984267159
  0
LINE
  5
1CD0
330
1C7D
100
AcDbEntity
  8
247
100
AcDbLine
 10
-43.72148308399683
 20
-7.570757990459059
 30
0.0
 11
-43.41712670145724
 21
-7.266401607919464
 31
0.0
  0
LINE
  5
1CD1
330
1C7D
100
AcDbEntity
  8
247
100
AcDbLine
 10
-43.04025264646226
 20
-7.078178493130245
 30
0.0
 11
-42.56723628904039
 21
-7.078178493130245
 31
0.0
  0
LINE
  5
1CD2
330
1C7D
100
AcDbEntity
  8
247
100
AcDbLine
 10
-44.74892879392322
 20
-8.715072933781184
 30
0.0
 11
-43.99416805173571
 21
-8.715072933781184
 31
0.0
  0
LINE
  5
1CD3
330
1C7D
100
AcDbEntity
  8
247
100
AcDbLine
 10
-43.44340282346423
 20
-8.715072933781184
 30
0.0
 11
-43.03660655881579
 21
-8.715072933781184
 31
0.0
  0
ARC
  5
1CD4
102
{ACAD_REACTORS
330
1CB1
102
}
330
1C7D
100
AcDbEntity
  8
247
100
AcDbCircle
 10
-44.84436565305409
 20
-8.033034602749387
 30
0.0
 40
0.7729774475097657
100
AcDbArc
 50
90.0
 51
270.0
  0
ARC
  5
1CD5
102
{ACAD_REACTORS
330
1CB1
102
}
330
1C7D
100
AcDbEntity
  8
247
100
AcDbCircle
 10
-44.84436565305409
 20
-8.033034602749387
 30
0.0
 40
0.9548561096191406
100
AcDbArc
 50
90.0
 51
270.0
  0
LINE
  5
1CD6
330
1C7D
100
AcDbEntity
  8
247
100
AcDbLine
 10
-44.74892879392322
 20
-8.715072933781184
 30
0.0
 11
-44.33170925046638
 21
-7.260057155240166
 31
0.0
  0
LINE
  5
1CD7
330
1C7D
100
AcDbEntity
  8
247
100
AcDbLine
 10
-44.66374226459491
 20
-8.715072933781184
 30
0.0
 11
-44.14652282058474
 21
-8.197853489771011
 31
0.0
  0
LINE
  5
1CD8
330
1C7D
100
AcDbEntity
  8
247
100
AcDbLine
 10
-43.03660655881579
 20
-8.715072933781184
 30
0.0
 11
-42.56723628904039
 21
-7.078178493130245
 31
0.0
  0
LINE
  5
1CD9
330
1C7D
100
AcDbEntity
  8
247
100
AcDbLine
 10
-44.25963073914682
 20
-8.715072933781184
 30
0.0
 11
-43.59227657523218
 21
-8.047718769866582
 31
0.0
  0
LINE
  5
1CDA
330
1C7D
100
AcDbEntity
  8
247
100
AcDbLine
 10
-44.46168650187086
 20
-8.715072933781184
 30
0.0
 11
-44.22775000804787
 21
-8.481136439958218
 31
0.0
  0
LINE
  5
1CDB
330
1C7D
100
AcDbEntity
  8
247
100
AcDbLine
 10
-44.05757497642273
 20
-8.71507293378122
 30
0.0
 11
-43.54338774600736
 21
-8.200885703365804
 31
0.0
  0
LINE
  5
1CDC
330
1C7D
100
AcDbEntity
  8
247
100
AcDbLine
 10
-43.82142867919136
 20
-8.680982399273899
 30
0.0
 11
-43.57356858284796
 21
-8.433122302930483
 31
0.0
  0
ARC
  5
1CDD
330
1C7D
100
AcDbEntity
  8
247
100
AcDbCircle
 10
-43.99416805173573
 20
-8.260382930386105
 30
0.0
 40
0.4546897888183594
100
AcDbArc
 50
270.0
 51
40.32984065416728
  0
HATCH
  5
1CDE
330
1C7D
100
AcDbEntity
  8
247
100
AcDbHatch
 10
0.0
 20
0.0
 30
0.0
210
0.0
220
0.0
230
1.0
  2
ANSI31
 70
     0
 71
     0
 91
        1
 92
        7
 72
     0
 73
     1
 93
        6
 10
-42.56723628904039
 20
-7.078178493130243
 10
-43.04025264646226
 20
-7.078178493130243
 10
-43.09762187864
 20
-7.278239528286493
 10
-43.03139491941148
 20
-7.278239528286493
 10
-43.44340282346423
 20
-8.715072933781184
 10
-43.03660655881579
 20
-8.715072933781184
 97
        0
 75
     0
 76
     1
 52
360.0
 41
0.045
 77
     0
 78
     1
 53
44.99999999999996
 43
-99.70921575452505
 44
-16.07538642083406
 45
-0.101027881362028
 46
0.101027881362028
 79
     0
 47
0.0134348504236232
 98
        1
 10
-42.99247830826287
 20
-7.853764467129495
  0
POLYLINE
  5
1CDF
330
1C7D
100
AcDbEntity
  8
247
100
AcDb2dPolyline
 66
     1
 10
0.0
 20
0.0
 30
0.0
 70
     1
  0
VERTEX
  5
1CE0
330
1CDF
100
AcDbEntity
  8
247
100
AcDbVertex
100
AcDb2dVertex
 10
-43.0402526464623
 20
-7.078178493130245
 30
0.0
  0
VERTEX
  5
1CE1
330
1CDF
100
AcDbEntity
  8
247
100
AcDbVertex
100
AcDb2dVertex
 10
-43.09762187864003
 20
-7.278239528286495
 30
0.0
  0
VERTEX
  5
1CE2
330
1CDF
100
AcDbEntity
  8
247
100
AcDbVertex
100
AcDb2dVertex
 10
-43.03139491941151
 20
-7.278239528286495
 30
0.0
  0
VERTEX
  5
1CE3
330
1CDF
100
AcDbEntity
  8
247
100
AcDbVertex
100
AcDb2dVertex
 10
-43.44340282346425
 20
-8.715072933781184
 30
0.0
  0
VERTEX
  5
1CE4
330
1CDF
100
AcDbEntity
  8
247
100
AcDbVertex
100
AcDb2dVertex
 10
-43.03660655881581
 20
-8.715072933781184
 30
0.0
  0
VERTEX
  5
1CE5
330
1CDF
100
AcDbEntity
  8
247
100
AcDbVertex
100
AcDb2dVertex
 10
-42.56723628904041
 20
-7.078178493130245
 30
0.0
  0
SEQEND
  5
1CE6
330
1CDF
100
AcDbEntity
  8
247
  0
POLYLINE
  5
1CE7
330
1C7D
100
AcDbEntity
  8
247
100
AcDb2dPolyline
 66
     1
 10
0.0
 20
0.0
 30
0.0
 70
     1
1001
HATCH_DISTANCE
1040
1.0
1001
HATCH_DISPLAY
1070
     0
1001
HATCH_TYPE
1070
     7
  0
VERTEX
  5
1CE8
330
1CE7
100
AcDbEntity
  8
247
100
AcDbVertex
100
AcDb2dVertex
 10
-43.0402526464623
 20
-7.078178493130245
 30
0.0
  0
VERTEX
  5
1CE9
330
1CE7
100
AcDbEntity
  8
247
100
AcDbVertex
100
AcDb2dVertex
 10
-43.09762187864003
 20
-7.278239528286495
 30
0.0
  0
VERTEX
  5
1CEA
330
1CE7
100
AcDbEntity
  8
247
100
AcDbVertex
100
AcDb2dVertex
 10
-43.03139491941151
 20
-7.278239528286495
 30
0.0
  0
VERTEX
  5
1CEB
330
1CE7
100
AcDbEntity
  8
247
100
AcDbVertex
100
AcDb2dVertex
 10
-43.44340282346425
 20
-8.715072933781184
 30
0.0
  0
VERTEX
  5
1CEC
330
1CE7
100
AcDbEntity
  8
247
100
AcDbVertex
100
AcDb2dVertex
 10
-43.03660655881581
 20
-8.715072933781184
 30
0.0
  0
VERTEX
  5
1CED
330
1CE7
100
AcDbEntity
  8
247
100
AcDbVertex
100
AcDb2dVertex
 10
-42.56723628904041
 20
-7.078178493130245
 30
0.0
  0
SEQEND
  5
1CEE
330
1CE7
100
AcDbEntity
  8
247
  0
LINE
  5
1CEF
330
1C7D
100
AcDbEntity
  8
247
100
AcDbLine
 10
-43.44340282346423
 20
-8.715072933781184
 30
0.0
 11
-43.03139491941148
 21
-7.278239528286495
 31
0.0
  0
LINE
  5
1CF0
102
{ACAD_REACTORS
330
1CB1
102
}
330
1C7D
100
AcDbEntity
  8
247
100
AcDbLine
 10
-41.34092174436267
 20
-7.283430568325558
 30
0.0
 11
-41.39569545652087
 21
-7.109729854214229
 31
0.0
  0
POLYLINE
  5
1CF1
330
1C7D
100
AcDbEntity
  8
247
100
AcDb2dPolyline
 66
     1
 10
0.0
 20
0.0
 30
0.0
 70
     1
  0
VERTEX
  5
1CF2
330
1CF1
100
AcDbEntity
  8
247
100
AcDbVertex
100
AcDb2dVertex
 10
-41.34092174436267
 20
-7.283430568325558
 30
0.0
  0
VERTEX
  5
1CF3
330
1CF1
100
AcDbEntity
  8
247
100
AcDbVertex
100
AcDb2dVertex
 10
-41.39569545652089
 20
-7.109729854214229
 30
0.0
  0
VERTEX
  5
1CF4
330
1CF1
100
AcDbEntity
  8
247
100
AcDbVertex
100
AcDb2dVertex
 10
-41.39569545652089
 20
-7.109729854214229
 30
0.0
  0
VERTEX
  5
1CF5
330
1CF1
100
AcDbEntity
  8
247
100
AcDbVertex
100
AcDb2dVertex
 10
-41.34092174436267
 20
-7.283430568325558
 30
0.0
  0
SEQEND
  5
1CF6
330
1CF1
100
AcDbEntity
  8
247
  0
POLYLINE
  5
1CF7
330
1C7D
100
AcDbEntity
  8
247
100
AcDb2dPolyline
 66
     1
 10
0.0
 20
0.0
 30
0.0
 70
     1
1001
HATCH_DISTANCE
1040
1.0
1001
HATCH_DISPLAY
1070
     0
1001
HATCH_TYPE
1070
     7
  0
VERTEX
  5
1CF8
330
1CF7
100
AcDbEntity
  8
247
100
AcDbVertex
100
AcDb2dVertex
 10
-41.34092174436267
 20
-7.283430568325558
 30
0.0
  0
VERTEX
  5
1CF9
330
1CF7
100
AcDbEntity
  8
247
100
AcDbVertex
100
AcDb2dVertex
 10
-41.39569545652089
 20
-7.109729854214229
 30
0.0
  0
VERTEX
  5
1CFA
330
1CF7
100
AcDbEntity
  8
247
100
AcDbVertex
100
AcDb2dVertex
 10
-41.39569545652089
 20
-7.109729854214229
 30
0.0
  0
VERTEX
  5
1CFB
330
1CF7
100
AcDbEntity
  8
247
100
AcDbVertex
100
AcDb2dVertex
 10
-41.34092174436267
 20
-7.283430568325558
 30
0.0
  0
SEQEND
  5
1CFC
330
1CF7
100
AcDbEntity
  8
247
  0
POLYLINE
  5
1CFD
330
1C7D
100
AcDbEntity
  8
247
100
AcDb2dPolyline
 66
     1
 10
0.0
 20
0.0
 30
0.0
 70
     1
  0
VERTEX
  5
1CFE
330
1CFD
100
AcDbEntity
  8
247
100
AcDbVertex
100
AcDb2dVertex
 10
-41.34092174436267
 20
-7.283430568325558
 30
0.0
  0
VERTEX
  5
1CFF
330
1CFD
100
AcDbEntity
  8
247
100
AcDbVertex
100
AcDb2dVertex
 10
-41.39569545652089
 20
-7.109729854214229
 30
0.0
  0
VERTEX
  5
1D00
330
1CFD
100
AcDbEntity
  8
247
100
AcDbVertex
100
AcDb2dVertex
 10
-41.39569545652089
 20
-7.109729854214229
 30
0.0
  0
VERTEX
  5
1D01
330
1CFD
100
AcDbEntity
  8
247
100
AcDbVertex
100
AcDb2dVertex
 10
-41.34092174436267
 20
-7.283430568325558
 30
0.0
  0
SEQEND
  5
1D02
330
1CFD
100
AcDbEntity
  8
247
  0
POLYLINE
  5
1D03
330
1C7D
100
AcDbEntity
  8
247
100
AcDb2dPolyline
 66
     1
 10
0.0
 20
0.0
 30
0.0
 70
     1
1001
HATCH_DISTANCE
1040
1.0
1001
HATCH_DISPLAY
1070
     0
1001
HATCH_TYPE
1070
     7
  0
VERTEX
  5
1D04
330
1D03
100
AcDbEntity
  8
247
100
AcDbVertex
100
AcDb2dVertex
 10
-41.34092174436267
 20
-7.283430568325558
 30
0.0
  0
VERTEX
  5
1D05
330
1D03
100
AcDbEntity
  8
247
100
AcDbVertex
100
AcDb2dVertex
 10
-41.39569545652089
 20
-7.109729854214229
 30
0.0
  0
VERTEX
  5
1D06
330
1D03
100
AcDbEntity
  8
247
100
AcDbVertex
100
AcDb2dVertex
 10
-41.39569545652089
 20
-7.109729854214229
 30
0.0
  0
VERTEX
  5
1D07
330
1D03
100
AcDbEntity
  8
247
100
AcDbVertex
100
AcDb2dVertex
 10
-41.34092174436267
 20
-7.283430568325558
 30
0.0
  0
SEQEND
  5
1D08
330
1D03
100
AcDbEntity
  8
247
  0
LINE
  5
1D09
102
{ACAD_REACTORS
330
1CB0
102
}
330
1C7D
100
AcDbEntity
  8
247
100
AcDbLine
 10
-41.92731700803454
 20
-8.37667321358923
 30
0.0
 11
-41.81052547361072
 21
-7.96937569772009
 31
0.0
  0
LINE
  5
1D0A
102
{ACAD_REACTORS
330
1CB0
102
}
330
1C7D
100
AcDbEntity
  8
247
100
AcDbLine
 10
-41.9618896093529
 20
-7.96937569772009
 30
0.0
 11
-41.81052547361072
 21
-7.96937569772009
 31
0.0
  0
LINE
  5
1D0B
102
{ACAD_REACTORS
330
1CB0
102
}
330
1C7D
100
AcDbEntity
  8
247
100
AcDbLine
 10
-41.90973888303454
 20
-7.787497035610714
 30
0.0
 11
-41.37995754148181
 21
-7.787497035610714
 31
0.0
  0
LINE
  5
1D0C
102
{ACAD_REACTORS
330
1CB0
102
}
330
1C7D
100
AcDbEntity
  8
247
100
AcDbLine
 10
-41.9618896093529
 20
-7.96937569772009
 30
0.0
 11
-41.90973888303454
 21
-7.787497035610714
 31
0.0
  0
ARC
  5
1D0D
102
{ACAD_REACTORS
330
1CB0
102
}
330
1C7D
100
AcDbEntity
  8
247
100
AcDbCircle
 10
-41.86577297116932
 20
-7.469216243374387
 30
0.0
 40
0.1909725040197372
100
AcDbArc
 50
1.710121382062761
 51
163.9983983544485
  0
LINE
  5
1D0E
102
{ACAD_REACTORS
330
1CB0
102
}
330
1C7D
100
AcDbEntity
  8
247
100
AcDbLine
 10
-41.42765193845447
 20
-7.310779658901729
 30
0.0
 11
-41.48242565061265
 21
-7.137078944790402
 31
0.0
  0
ARC
  5
1D0F
102
{ACAD_REACTORS
330
1CB0
102
}
330
1C7D
100
AcDbEntity
  8
247
100
AcDbCircle
 10
-41.15225215818105
 20
-8.033034602749387
 30
0.0
 40
0.954856538772583
100
AcDbArc
 50
110.22964506332
 51
118.5716889237176
  0
ARC
  5
1D10
102
{ACAD_REACTORS
330
1CB0
102
}
330
1C7D
100
AcDbEntity
  8
247
100
AcDbCircle
 10
-41.15225215818105
 20
-8.033034602749387
 30
0.0
 40
0.7729795932769776
100
AcDbArc
 50
110.8721834020771
 51
132.5419489373868
  0
LINE
  5
1D11
102
{ACAD_REACTORS
330
1CB0
102
}
330
1C7D
100
AcDbEntity
  8
247
100
AcDbLine
 10
-41.75262752439196
 20
-8.608388821232358
 30
0.0
 11
-41.64593654538806
 21
-8.715072933781184
 31
0.0
  0
ARC
  5
1D12
102
{ACAD_REACTORS
330
1CB1
102
}
330
1C7D
100
AcDbEntity
  8
247
100
AcDbCircle
 10
-41.15225215818105
 20
-8.033034602749387
 30
0.0
 40
0.7729774475097657
100
AcDbArc
 50
270.0
 51
104.1274364964119
  0
ARC
  5
1D13
102
{ACAD_REACTORS
330
1CB1
102
}
330
1C7D
100
AcDbEntity
  8
247
100
AcDbCircle
 10
-41.15225215818105
 20
-8.033034602749387
 30
0.0
 40
0.9548561096191406
100
AcDbArc
 50
270.0
 51
104.7707939660941
  0
LINE
  5
1D14
102
{ACAD_REACTORS
330
1CB0
102
}
330
1C7D
100
AcDbEntity
  8
247
100
AcDbLine
 10
-41.64593654538806
 20
-8.715072933781184
 30
0.0
 11
-41.37995754148181
 21
-7.787497035610714
 31
0.0
  0
LINE
  5
1D15
330
1C7D
100
AcDbEntity
  8
246
100
AcDbLine
 10
-40.49999999999999
 20
-5.5
 30
0.0
 11
-40.0
 21
-5.0
 31
0.0
  0
LINE
  5
1D16
330
1C7D
100
AcDbEntity
  8
246
100
AcDbLine
 10
-43.01794900000004
 20
-0.8660259999999198
 30
0.0
 11
-45.55662499999994
 21
-0.8660259999999198
 31
0.0
  0
LINE
  5
1D17
330
1C7D
100
AcDbEntity
  8
246
100
AcDbLine
 10
-43.01794900000004
 20
-1.732050999999955
 30
0.0
 11
-45.55662499999994
 21
-1.732050999999955
 31
0.0
  0
LINE
  5
1D18
330
1C7D
100
AcDbEntity
  8
246
100
AcDbLine
 10
-40.0
 20
5.0
 30
0.0
 11
-40.49999999999999
 21
5.5
 31
0.0
  0
LINE
  5
1D19
330
1C7D
100
AcDbEntity
  8
246
100
AcDbLine
 10
-43.01794900000004
 20
1.732051000000069
 30
0.0
 11
-40.0
 21
4.75
 31
0.0
  0
LINE
  5
1D1A
330
1C7D
100
AcDbEntity
  8
246
100
AcDbLine
 10
-43.01794900000004
 20
0.866025000000036
 30
0.0
 11
-45.55662499999994
 21
0.866025000000036
 31
0.0
  0
LINE
  5
1D1B
330
1C7D
100
AcDbEntity
  8
246
100
AcDbLine
 10
-43.01794900000004
 20
1.732051000000069
 30
0.0
 11
-45.55662499999994
 21
1.732051000000069
 31
0.0
  0
LINE
  5
1D1C
330
1C7D
100
AcDbEntity
  8
241
100
AcDbLine
 10
-23.0
 20
-5.199999999999932
 30
0.0
 11
-23.0
 21
5.200000000000045
 31
0.0
  0
ARC
  5
1D1D
330
1C7D
100
AcDbEntity
  8
241
100
AcDbCircle
 10
-31.26333333333334
 20
0.000000000000056
 30
0.0
 40
9.763333333333337
100
AcDbArc
 50
327.8183497022018
 51
32.18163269770426
  0
LINE
  5
1D1E
330
1C7D
100
AcDbEntity
  8
246
100
AcDbLine
 10
-27.00000000000002
 20
5.866415000000188
 30
0.0
 11
-27.00000000000057
 21
-5.895664999999951
 31
0.0
  0
LINE
  5
1D1F
330
1C7D
100
AcDbEntity
  8
240
100
AcDbLine
 10
-19.3
 20
9.800000000000068
 30
0.0
 11
-18.0
 21
9.800000000000068
 31
0.0
  0
LINE
  5
1D20
330
1C7D
100
AcDbEntity
  8
240
100
AcDbLine
 10
-19.50000000000004
 20
10.0
 30
0.0
 11
-19.3
 21
9.800000000000068
 31
0.0
  0
LINE
  5
1D21
330
1C7D
100
AcDbEntity
  8
240
100
AcDbLine
 10
-18.0
 20
9.800000000000068
 30
0.0
 11
-18.00000000000001
 21
10.0
 31
0.0
  0
LINE
  5
1D22
330
1C7D
100
AcDbEntity
  8
240
100
AcDbLine
 10
-18.0
 20
9.800000000000068
 30
0.0
 11
-18.0
 21
9.5
 31
0.0
  0
LINE
  5
1D23
330
1C7D
100
AcDbEntity
  8
242
100
AcDbLine
 10
-15.0
 20
10.0
 30
0.0
 11
-15.5
 21
10.5
 31
0.0
  0
LINE
  5
1D24
330
1C7D
100
AcDbEntity
  8
240
100
AcDbLine
 10
0.0
 20
13.85147200000005
 30
0.0
 11
0.0
 21
0.0
 31
0.0
  0
LINE
  5
1D25
330
1C7D
100
AcDbEntity
  8
241
100
AcDbLine
 10
-12.14999999999997
 20
0.0
 30
0.0
 11
-12.14999999999997
 21
11.60000000000002
 31
0.0
  0
LINE
  5
1D26
330
1C7D
100
AcDbEntity
  8
241
100
AcDbLine
 10
-12.5
 20
0.0
 30
0.0
 11
-12.5
 21
10.5
 31
0.0
  0
LINE
  5
1D27
330
1C7D
100
AcDbEntity
  8
241
100
AcDbLine
 10
-1.189949999999953
 20
14.50331100000005
 30
0.0
 11
-1.189949999999953
 21
-14.70198699999991
 31
0.0
  0
LINE
  5
1D28
330
1C7D
100
AcDbEntity
  8
240
100
AcDbLine
 10
0.0
 20
-13.85147199999994
 30
0.0
 11
0.0
 21
0.0
 31
0.0
  0
LINE
  5
1D29
330
1C7D
100
AcDbEntity
  8
241
100
AcDbLine
 10
-15.0
 20
-10.0
 30
0.0
 11
-15.0
 21
0.0
 31
0.0
  0
LINE
  5
1D2A
330
1C7D
100
AcDbEntity
  8
241
100
AcDbLine
 10
-12.14999999999997
 20
0.0
 30
0.0
 11
-12.14999999999997
 21
-11.59999999999991
 31
0.0
  0
LINE
  5
1D2B
330
1C7D
100
AcDbEntity
  8
241
100
AcDbLine
 10
-12.5
 20
0.0
 30
0.0
 11
-12.5
 21
-10.5
 31
0.0
  0
ARC
  5
1D2C
330
1C7D
100
AcDbEntity
  8
240
100
AcDbCircle
 10
-1.189949999999953
 20
-14.29999999999995
 30
0.0
 40
0.7
100
AcDbArc
 50
270.0
 51
314.9999999999993
  0
LINE
  5
1D2D
330
1C7D
100
AcDbEntity
  8
240
100
AcDbLine
 10
-11.45000000000004
 20
-15.0
 30
0.0
 11
-1.189949999999953
 21
-15.0
 31
0.0
  0
LINE
  5
1D2E
330
1C7D
100
AcDbEntity
  8
241
100
AcDbLine
 10
-4.5
 20
-12.17526599999996
 30
0.0
 11
-12.14999999999997
 21
-12.17526599999996
 31
0.0
  0
LINE
  5
1D2F
330
1C7D
100
AcDbEntity
  8
241
100
AcDbLine
 10
-4.5
 20
-13.67526599999996
 30
0.0
 11
-12.14999999999997
 21
-13.67526599999996
 31
0.0
  0
LINE
  5
1D30
330
1C7D
100
AcDbEntity
  8
240
100
AcDbLine
 10
-12.14999999999997
 20
-14.29999999999995
 30
0.0
 11
-12.14999999999997
 21
-11.59999999999991
 31
0.0
  0
ARC
  5
1D31
330
1C7D
100
AcDbEntity
  8
240
100
AcDbCircle
 10
-11.45000000000004
 20
-14.29999999999995
 30
0.0
 40
0.7
100
AcDbArc
 50
180.0
 51
270.0
  0
LINE
  5
1D32
330
1C7D
100
AcDbEntity
  8
242
100
AcDbLine
 10
-12.5
 20
-10.0
 30
0.0
 11
-15.0
 21
-10.0
 31
0.0
  0
LINE
  5
1D33
330
1C7D
100
AcDbEntity
  8
240
100
AcDbLine
 10
-12.5
 20
-10.5
 30
0.0
 11
-12.5
 21
-11.25
 31
0.0
  0
LINE
  5
1D34
330
1C7D
100
AcDbEntity
  8
240
100
AcDbLine
 10
-12.5
 20
-11.25
 30
0.0
 11
-12.14999999999997
 21
-11.59999999999991
 31
0.0
  0
LINE
  5
1D35
330
1C7D
100
AcDbEntity
  8
242
100
AcDbLine
 10
-15.0
 20
-10.0
 30
0.0
 11
-15.5
 21
-10.5
 31
0.0
  0
LINE
  5
1D36
330
1C7D
100
AcDbEntity
  8
241
100
AcDbLine
 10
-4.5
 20
-12.17526599999996
 30
0.0
 11
-4.5
 21
-13.67526599999996
 31
0.0
  0
ARC
  5
1D37
330
1C7D
100
AcDbEntity
  8
240
100
AcDbCircle
 10
-0.6000000000000228
 20
-13.85147199999994
 30
0.0
 40
0.6
100
AcDbArc
 50
314.9999999999993
 51
0.0
  0
LINE
  5
1D38
330
1C7D
100
AcDbEntity
  8
240
100
AcDbLine
 10
-0.6949749999999995
 20
-14.79497499999991
 30
0.0
 11
-0.1757359999999153
 21
-14.27573599999993
 31
0.0
  0
LINE
  5
1D39
330
1C7D
100
AcDbEntity
  8
246
100
AcDbLine
 10
0.0
 20
6.922094000000129
 30
0.0
 11
-2.299999999999954
 21
8.25
 31
0.0
  0
LINE
  5
1D3A
330
1C7D
100
AcDbEntity
  8
246
100
AcDbLine
 10
0.0
 20
-6.922094000000015
 30
0.0
 11
-2.299999999999954
 21
-8.25
 31
0.0
  0
LINE
  5
1D3B
330
1C7D
100
AcDbEntity
  8
241
100
AcDbLine
 10
-4.5
 20
1.5
 30
0.0
 11
-4.5
 21
0.0
 31
0.0
  0
LINE
  5
1D3C
330
1C7D
100
AcDbEntity
  8
241
100
AcDbLine
 10
-15.0
 20
10.0
 30
0.0
 11
-15.0
 21
0.0
 31
0.0
  0
LINE
  5
1D3D
330
1C7D
100
AcDbEntity
  8
241
100
AcDbLine
 10
-4.5
 20
-1.5
 30
0.0
 11
-12.14999999999997
 21
-1.5
 31
0.0
  0
LINE
  5
1D3E
330
1C7D
100
AcDbEntity
  8
246
100
AcDbLine
 10
-4.600000000000022
 20
-7.0
 30
0.0
 11
-2.5
 21
-7.0
 31
0.0
  0
LINE
  5
1D3F
330
1C7D
100
AcDbEntity
  8
246
100
AcDbLine
 10
-4.600000000000022
 20
-7.0
 30
0.0
 11
-4.600000000000022
 21
-8.25
 31
0.0
  0
LINE
  5
1D40
330
1C7D
100
AcDbEntity
  8
246
100
AcDbLine
 10
-2.5
 20
-8.25
 30
0.0
 11
-2.5
 21
-7.0
 31
0.0
  0
LINE
  5
1D41
330
1C7D
100
AcDbEntity
  8
246
100
AcDbLine
 10
-2.5
 20
-8.25
 30
0.0
 11
-2.299999999999954
 21
-8.25
 31
0.0
  0
LINE
  5
1D42
330
1C7D
100
AcDbEntity
  8
241
100
AcDbLine
 10
-4.5
 20
-1.5
 30
0.0
 11
-4.5
 21
0.0
 31
0.0
  0
LINE
  5
1D43
330
1C7D
100
AcDbEntity
  8
241
100
AcDbLine
 10
-4.5
 20
1.5
 30
0.0
 11
-12.14999999999997
 21
1.5
 31
0.0
  0
LINE
  5
1D44
330
1C7D
100
AcDbEntity
  8
242
100
AcDbLine
 10
-12.5
 20
10.0
 30
0.0
 11
-15.0
 21
10.0
 31
0.0
  0
LINE
  5
1D45
330
1C7D
100
AcDbEntity
  8
246
100
AcDbLine
 10
-4.600000000000022
 20
7.0
 30
0.0
 11
-2.5
 21
7.0
 31
0.0
  0
LINE
  5
1D46
330
1C7D
100
AcDbEntity
  8
246
100
AcDbLine
 10
-4.600000000000022
 20
7.0
 30
0.0
 11
-4.600000000000022
 21
8.25
 31
0.0
  0
LINE
  5
1D47
330
1C7D
100
AcDbEntity
  8
246
100
AcDbLine
 10
-2.5
 20
8.25
 30
0.0
 11
-2.5
 21
7.0
 31
0.0
  0
LINE
  5
1D48
330
1C7D
100
AcDbEntity
  8
246
100
AcDbLine
 10
-2.5
 20
8.25
 30
0.0
 11
-2.299999999999954
 21
8.25
 31
0.0
  0
ARC
  5
1D49
330
1C7D
100
AcDbEntity
  8
240
100
AcDbCircle
 10
-1.189949999999953
 20
14.30000000000006
 30
0.0
 40
0.7
100
AcDbArc
 50
45.00000000000063
 51
90.0
  0
LINE
  5
1D4A
330
1C7D
100
AcDbEntity
  8
240
100
AcDbLine
 10
-11.45000000000004
 20
15.0
 30
0.0
 11
-1.189949999999953
 21
15.0
 31
0.0
  0
LINE
  5
1D4B
330
1C7D
100
AcDbEntity
  8
241
100
AcDbLine
 10
-4.5
 20
13.67526600000007
 30
0.0
 11
-12.14999999999997
 21
13.67526600000007
 31
0.0
  0
LINE
  5
1D4C
330
1C7D
100
AcDbEntity
  8
241
100
AcDbLine
 10
-4.5
 20
12.17526600000008
 30
0.0
 11
-12.14999999999997
 21
12.17526600000008
 31
0.0
  0
ARC
  5
1D4D
330
1C7D
100
AcDbEntity
  8
240
100
AcDbCircle
 10
-11.45000000000004
 20
14.30000000000006
 30
0.0
 40
0.7
100
AcDbArc
 50
90.0
 51
180.0
  0
LINE
  5
1D4E
330
1C7D
100
AcDbEntity
  8
240
100
AcDbLine
 10
-12.14999999999997
 20
14.30000000000006
 30
0.0
 11
-12.14999999999997
 21
11.60000000000002
 31
0.0
  0
LINE
  5
1D4F
330
1C7D
100
AcDbEntity
  8
240
100
AcDbLine
 10
-12.5
 20
11.25
 30
0.0
 11
-12.14999999999997
 21
11.60000000000002
 31
0.0
  0
LINE
  5
1D50
330
1C7D
100
AcDbEntity
  8
240
100
AcDbLine
 10
-12.5
 20
10.5
 30
0.0
 11
-12.5
 21
11.25
 31
0.0
  0
LINE
  5
1D51
330
1C7D
100
AcDbEntity
  8
241
100
AcDbLine
 10
-4.5
 20
12.17526600000008
 30
0.0
 11
-4.5
 21
13.67526600000007
 31
0.0
  0
ARC
  5
1D52
330
1C7D
100
AcDbEntity
  8
240
100
AcDbCircle
 10
-0.6000000000000228
 20
13.85147200000005
 30
0.0
 40
0.6
100
AcDbArc
 50
0.0
 51
45.00000000000063
  0
LINE
  5
1D53
330
1C7D
100
AcDbEntity
  8
240
100
AcDbLine
 10
-0.1757359999999153
 20
14.27573600000005
 30
0.0
 11
-0.6949749999999995
 21
14.79497500000002
 31
0.0
  0
ENDBLK
  5
1D55
330
1C7D
100
AcDbEntity
  8
0
100
AcDbBlockEnd
  0
ENDSEC
  0
SECTION
  2
ENTITIES
  0
TEXT
  5
13C1
330
1A
100
AcDbEntity
  8
241
100
AcDbText
 10
-55.0
 20
48.99999999999998
 30
0.0
 40
5.0
  1
SL20-NBS10-40
  7
YOKO
 11
-55.0
 21
48.99999999999998
 31
0.0
100
AcDbText
 73
     1
  0
DIMENSION
  5
13C3
330
1A
100
AcDbEntity
  8
250
  6
CONTINUOUS
100
AcDbDimension
  2
*D1
 10
21.0
 20
14.99999999999999
 30
0.0
 11
18.49999999999999
 21
0.0000000000000257
 31
0.0
 70
    32
  1
{\H3;\U+2205}<>
  3
BIGT
100
AcDbAlignedDimension
 13
-1.189949999999953
 23
-14.99999999999994
 33
0.0
 14
-1.189949999999953
 24
15.0
 34
0.0
 50
90.0
100
AcDbRotatedDimension
1001
ACAD
1000
DSTYLE
1002
{
1070
    78
1070
     8
1070
   140
1040
3.0
1002
}
  0
DIMENSION
  5
13C4
330
1A
100
AcDbEntity
  8
250
  6
CONTINUOUS
100
AcDbDimension
  2
*D2
 10
-0.0000000000000013
 20
-35.0
 30
0.0
 11
-20.0
 21
-32.5
 31
0.0
 70
    32
  1
35～45
  3
BIGT
100
AcDbAlignedDimension
 13
-40.0
 23
-5.0
 33
0.0
 14
0.0
 24
-13.85147199999994
 34
0.0
100
AcDbRotatedDimension
1001
ACAD
1000
DSTYLE
1002
{
1070
    78
1070
     8
1070
   140
1040
3.0
1002
}
  0
DIMENSION
  5
13C5
330
1A
100
AcDbEntity
  8
250
  6
CONTINUOUS
100
AcDbDimension
  2
*D3
 10
14.0
 20
4.999999999999995
 30
0.0
 11
11.27464379319485
 21
0.730192865609638
 31
0.0
 70
   160
  1
MAX.%%c<>
  3
BIGT
100
AcDbAlignedDimension
 13
0.0
 23
-5.0
 33
0.0
 14
0.0
 24
5.0
 34
0.0
 50
90.0
100
AcDbRotatedDimension
1001
ACAD
1000
DSTYLE
1002
{
1070
   287
1070
     5
1070
    78
1070
     8
1070
   140
1040
3.0
1070
   145
1040
1.0
1070
   279
1070
     2
1070
   289
1070
     3
1002
}
  0
DIMENSION
  5
1C35
330
1A
100
AcDbEntity
  8
250
  6
CONTINUOUS
100
AcDbDimension
  2
*D4
 10
-70.0
 20
10.0
 30
0.0
 11
-72.5
 21
-0.0000000000000007
 31
0.0
 70
    32
  1
{\H3;\U+2205}<>
  3
BIGT
100
AcDbAlignedDimension
 13
-48.50000000000004
 23
-9.999999999999987
 33
0.0
 14
-48.50000000000002
 24
9.999999999999994
 34
0.0
 50
90.0
100
AcDbRotatedDimension
1001
ACAD
1000
DSTYLE
1002
{
1070
    78
1070
     8
1070
   140
1040
3.0
1002
}
  0
DIMENSION
  5
1C4D
330
1A
100
AcDbEntity
  8
250
  6
CONTINUOUS
100
AcDbDimension
  2
*D5
 10
0.0000000000000013
 20
35.0
 30
0.0
 11
-29.0
 21
37.5
 31
0.0
 70
    32
  3
BIGT
100
AcDbAlignedDimension
 13
-58.0
 23
8.0
 33
0.0
 14
0.0
 24
13.85147200000005
 34
0.0
100
AcDbRotatedDimension
1001
ACAD
1000
DSTYLE
1002
{
1070
    78
1070
     8
1070
   140
1040
3.0
1002
}
  0
DIMENSION
  5
1C5D
330
1A
100
AcDbEntity
  8
250
  6
CONTINUOUS
100
AcDbDimension
  2
*D6
 10
0.0000000000000009
 20
28.0
 30
0.0
 11
-9.000000000000005
 21
30.5
 31
0.0
 70
    32
  3
BIGT
100
AcDbAlignedDimension
 13
-18.00000000000001
 23
10.0
 33
0.0
 14
0.0
 24
13.85147200000005
 34
0.0
100
AcDbRotatedDimension
1001
ACAD
1000
DSTYLE
1002
{
1070
    78
1070
     8
1070
   140
1040
3.0
1002
}
  0
DIMENSION
  5
1C6A
330
1A
100
AcDbEntity
  8
250
  6
CONTINUOUS
100
AcDbDimension
  2
*D7
 10
-18.00000000000001
 20
28.0
 30
0.0
 11
-38.00000000000001
 21
30.5
 31
0.0
 70
    32
  3
BIGT
100
AcDbAlignedDimension
 13
-58.0
 23
8.0
 33
0.0
 14
-18.00000000000001
 24
10.0
 34
0.0
100
AcDbRotatedDimension
1001
ACAD
1000
DSTYLE
1002
{
1070
    78
1070
     8
1070
   140
1040
3.0
1002
}
  0
INSERT
  5
1D56
330
1A
100
AcDbEntity
  8
240
100
AcDbBlockReference
  2
A$C60FC438B
 10
0.0
 20
0.0
 30
0.0
  0
VIEWPORT
  5
22
330
17
100
AcDbEntity
 67
     1
  8
0
100
AcDbViewport
 10
261.5176991150442
 20
148.5
 30
0.0
 40
523.0353982300885
 41
297.0
 68
     1
 69
     1
1001
ACAD
1000
MVIEW
1002
{
1070
    16
1010
0.0
1020
0.0
1030
0.0
1010
0.0
1020
0.0
1030
1.0
1040
0.0
1040
297.0
1040
261.5176991150442
1040
148.5
1040
50.0
1040
0.0
1040
0.0
1070
     0
1070
   100
1070
     1
1070
     1
1070
     0
1070
     0
1070
     0
1070
     0
1040
0.0
1040
0.0
1040
0.0
1040
1.0
1040
1.0
1040
10.0
1040
10.0
1070
     0
1002
{
1002
}
1002
}
  0
ENDSEC
  0
SECTION
  2
OBJECTS
  0
DICTIONARY
  5
C
330
0
100
AcDbDictionary
  3
ACAD_GROUP
350
D
  3
ACAD_LAYOUT
350
565
  3
ACAD_MLINESTYLE
350
E
  3
ACAD_PLOTSETTINGS
350
566
  3
ACAD_PLOTSTYLENAME
350
563
  3
ACDBHEADERROUNDTRIPXREC
350
1D5F
  3
ACDBVARIABLEDICTIONARY
350
145B
  3
DWGPROPS
350
1622
  3
GRADE_DWG
350
540
  0
DICTIONARY
  5
1D82
330
1A
100
AcDbDictionary
280
     1
  3
ACAD_LAYOUTSELFREF
360
1D83
  0
DICTIONARY
  5
1D80
330
17
100
AcDbDictionary
280
     1
  3
ACAD_LAYOUTSELFREF
360
1D81
  0
DICTIONARY
  5
D
102
{ACAD_REACTORS
330
C
102
}
330
C
100
AcDbDictionary
  3
DREC-1
350
5FC
  3
DREC-2
350
654
  3
DREC-3
350
673
  0
DICTIONARY
  5
565
102
{ACAD_REACTORS
330
C
102
}
330
C
100
AcDbDictionary
  0
DICTIONARY
  5
E
102
{ACAD_REACTORS
330
C
102
}
330
C
100
AcDbDictionary
  3
STANDARD
350
13
  0
DICTIONARY
  5
566
102
{ACAD_REACTORS
330
C
102
}
330
C
100
AcDbDictionary
  0
ACDBDICTIONARYWDFLT
  5
563
102
{ACAD_REACTORS
330
C
102
}
330
C
100
AcDbDictionary
281
     1
  3
Normal
350
564
100
AcDbDictionaryWithDefault
340
564
  0
DICTIONARY
  5
1D5F
102
{ACAD_REACTORS
330
C
102
}
330
C
100
AcDbDictionary
  3
CEPSNTYPE
350
1D69
  3
DIMSTYLEDATA
350
1D6D
  3
FINGERPRINTGUID
350
1D6A
  3
HYPERLINKBASE
350
1D62
  3
INSUNITS
350
1D68
  3
LAYOUTDICT
350
1D64
  3
LWETCUNION
350
1D67
  3
PLOTSETDICT
350
1D65
  3
PLOTSTYLNAMDICT
350
1D66
  3
PSVPSCALE
350
1D6C
  3
PUCSBASE
350
1D70
  3
PUCSORGBACK
350
1D76
  3
PUCSORGBOTTOM
350
1D72
  3
PUCSORGFRONT
350
1D75
  3
PUCSORGLEFT
350
1D73
  3
PUCSORGRIGHT
350
1D74
  3
PUCSORGTOP
350
1D71
  3
PUCSORTHOREF
350
1D6E
  3
PUCSORTHOVIEW
350
1D6F
  3
STYLESHEET
350
1D63
  3
TSTACKALIGN
350
1D60
  3
TSTACKSIZE
350
1D61
  3
UCSBASE
350
1D79
  3
UCSORGBACK
350
1D7F
  3
UCSORGBOTTOM
350
1D7B
  3
UCSORGFRONT
350
1D7E
  3
UCSORGLEFT
350
1D7C
  3
UCSORGRIGHT
350
1D7D
  3
UCSORGTOP
350
1D7A
  3
UCSORTHOREF
350
1D77
  3
UCSORTHOVIEW
350
1D78
  3
VERSIONGUID
350
1D6B
  0
DICTIONARY
  5
145B
102
{ACAD_REACTORS
330
C
102
}
330
C
100
AcDbDictionary
  3
DIMASSOC
350
145C
  3
SORTENTS
350
177E
  0
XRECORD
  5
1622
102
{ACAD_REACTORS
330
C
102
}
330
C
100
AcDbXrecord
  1
DWGPROPS COOKIE
  2

  3

  4

  6

  7

  8
ymat
  9

300
=
301
=
302
=
303
=
304
=
305
=
306
=
307
=
308
=
309
=
 40
0.0710792824074074
 41
2452180.683445092
 42
2452409.086919479
  1

 90
        0
  0
DICTIONARY
  5
540
102
{ACAD_REACTORS
330
C
102
}
330
C
100
AcDbDictionary
  3
VERSION
350
560
  0
XRECORD
  5
1D83
102
{ACAD_REACTORS
330
1D82
102
}
330
1D82
100
AcDbXrecord
340
1A
  0
XRECORD
  5
1D81
102
{ACAD_REACTORS
330
1D80
102
}
330
1D80
100
AcDbXrecord
340
17
  0
GROUP
  5
5FC
102
{ACAD_REACTORS
330
D
102
}
330
D
100
AcDbGroup
300

 70
     0
 71
     1
1001
GRPNAME
1000
DREC-
1001
GPARA
1000
xsiz
1000
44.182
1000
ysiz
1000
40.677
1000
angl
1000
0
1000
ctyp
1000
0
1000
csiz
1000
5
1000
lfnt
1000
cont
1000
hcnt
1000
hoff
1000
vcnt
1000
voff
1000
opnt
1000
4
1000
dxpt
1000
0
1000
dypt
1000
0
  0
GROUP
  5
654
102
{ACAD_REACTORS
330
D
102
}
330
D
100
AcDbGroup
300

 70
     0
 71
     1
1001
GRPNAME
1000
DREC-
1001
GPARA
1000
xsiz
1000
54.592
1000
ysiz
1000
53.036
1000
angl
1000
0
1000
ctyp
1000
0
1000
csiz
1000
5
1000
lfnt
1000
cont
1000
hcnt
1000
hoff
1000
vcnt
1000
voff
1000
opnt
1000
4
1000
dxpt
1000
0
1000
dypt
1000
0
  0
GROUP
  5
673
102
{ACAD_REACTORS
330
D
102
}
330
D
100
AcDbGroup
300

 70
     0
 71
     1
1001
GRPNAME
1000
DREC-
1001
GPARA
1000
xsiz
1000
30.363
1000
ysiz
1000
36.175
1000
angl
1000
0
1000
ctyp
1000
0
1000
csiz
1000
5
1000
lfnt
1000
cont
1000
hcnt
1000
hoff
1000
vcnt
1000
voff
1000
opnt
1000
4
1000
dxpt
1000
0
1000
dypt
1000
0
  0
MLINESTYLE
  5
13
102
{ACAD_REACTORS
330
E
102
}
330
E
100
AcDbMlineStyle
  2
STANDARD
 70
     0
  3

 62
     0
 51
90.0
 52
90.0
 71
     2
 49
0.5
 62
   256
  6
BYLAYER
 49
-0.5
 62
   256
  6
BYLAYER
  0
ACDBPLACEHOLDER
  5
564
102
{ACAD_REACTORS
330
563
102
}
330
563
100
AcDbPlaceHolder
280
     0
  0
XRECORD
  5
1D69
102
{ACAD_REACTORS
330
1D5F
102
}
330
1D5F
100
AcDbXrecord
 90
        0
  0
XRECORD
  5
1D6D
102
{ACAD_REACTORS
330
1D5F
102
}
330
1D5F
100
AcDbXrecord
1000
DSTYLE
1002
{
1070
    79
 70
     2
1070
   179
 70
     3
1070
   289
 70
     2
1070
   341
340
594
1070
   342
340
594
1070
   371
 70
    -1
1070
   372
 70
    -1
1002
}
  0
XRECORD
  5
1D6A
102
{ACAD_REACTORS
330
1D5F
102
}
330
1D5F
100
AcDbXrecord
  1
{51294030-9CB4-11D3-8E18-00A0C925D94D}
  0
XRECORD
  5
1D62
102
{ACAD_REACTORS
330
1D5F
102
}
330
1D5F
100
AcDbXrecord
  1

  0
XRECORD
  5
1D68
102
{ACAD_REACTORS
330
1D5F
102
}
330
1D5F
100
AcDbXrecord
 90
        0
  0
XRECORD
  5
1D64
102
{ACAD_REACTORS
330
1D5F
102
}
330
1D5F
100
AcDbXrecord
340
565
  0
XRECORD
  5
1D67
102
{ACAD_REACTORS
330
1D5F
102
}
330
1D5F
100
AcDbXrecord
 90
    10781
  0
XRECORD
  5
1D65
102
{ACAD_REACTORS
330
1D5F
102
}
330
1D5F
100
AcDbXrecord
340
566
  0
XRECORD
  5
1D66
102
{ACAD_REACTORS
330
1D5F
102
}
330
1D5F
100
AcDbXrecord
340
563
  0
XRECORD
  5
1D6C
102
{ACAD_REACTORS
330
1D5F
102
}
330
1D5F
100
AcDbXrecord
 40
0.0
  0
XRECORD
  5
1D70
102
{ACAD_REACTORS
330
1D5F
102
}
330
1D5F
100
AcDbXrecord
340
0
  0
XRECORD
  5
1D76
102
{ACAD_REACTORS
330
1D5F
102
}
330
1D5F
100
AcDbXrecord
 10
0.0
 20
0.0
 30
0.0
  0
XRECORD
  5
1D72
102
{ACAD_REACTORS
330
1D5F
102
}
330
1D5F
100
AcDbXrecord
 10
0.0
 20
0.0
 30
0.0
  0
XRECORD
  5
1D75
102
{ACAD_REACTORS
330
1D5F
102
}
330
1D5F
100
AcDbXrecord
 10
0.0
 20
0.0
 30
0.0
  0
XRECORD
  5
1D73
102
{ACAD_REACTORS
330
1D5F
102
}
330
1D5F
100
AcDbXrecord
 10
0.0
 20
0.0
 30
0.0
  0
XRECORD
  5
1D74
102
{ACAD_REACTORS
330
1D5F
102
}
330
1D5F
100
AcDbXrecord
 10
0.0
 20
0.0
 30
0.0
  0
XRECORD
  5
1D71
102
{ACAD_REACTORS
330
1D5F
102
}
330
1D5F
100
AcDbXrecord
 10
0.0
 20
0.0
 30
0.0
  0
XRECORD
  5
1D6E
102
{ACAD_REACTORS
330
1D5F
102
}
330
1D5F
100
AcDbXrecord
340
0
  0
XRECORD
  5
1D6F
102
{ACAD_REACTORS
330
1D5F
102
}
330
1D5F
100
AcDbXrecord
 70
     0
  0
XRECORD
  5
1D63
102
{ACAD_REACTORS
330
1D5F
102
}
330
1D5F
100
AcDbXrecord
  1
big.ctb
  0
XRECORD
  5
1D60
102
{ACAD_REACTORS
330
1D5F
102
}
330
1D5F
100
AcDbXrecord
 90
        1
  0
XRECORD
  5
1D61
102
{ACAD_REACTORS
330
1D5F
102
}
330
1D5F
100
AcDbXrecord
 90
       70
  0
XRECORD
  5
1D79
102
{ACAD_REACTORS
330
1D5F
102
}
330
1D5F
100
AcDbXrecord
340
0
  0
XRECORD
  5
1D7F
102
{ACAD_REACTORS
330
1D5F
102
}
330
1D5F
100
AcDbXrecord
 10
0.0
 20
0.0
 30
0.0
  0
XRECORD
  5
1D7B
102
{ACAD_REACTORS
330
1D5F
102
}
330
1D5F
100
AcDbXrecord
 10
0.0
 20
0.0
 30
0.0
  0
XRECORD
  5
1D7E
102
{ACAD_REACTORS
330
1D5F
102
}
330
1D5F
100
AcDbXrecord
 10
0.0
 20
0.0
 30
0.0
  0
XRECORD
  5
1D7C
102
{ACAD_REACTORS
330
1D5F
102
}
330
1D5F
100
AcDbXrecord
 10
0.0
 20
0.0
 30
0.0
  0
XRECORD
  5
1D7D
102
{ACAD_REACTORS
330
1D5F
102
}
330
1D5F
100
AcDbXrecord
 10
0.0
 20
0.0
 30
0.0
  0
XRECORD
  5
1D7A
102
{ACAD_REACTORS
330
1D5F
102
}
330
1D5F
100
AcDbXrecord
 10
0.0
 20
0.0
 30
0.0
  0
XRECORD
  5
1D77
102
{ACAD_REACTORS
330
1D5F
102
}
330
1D5F
100
AcDbXrecord
340
0
  0
XRECORD
  5
1D78
102
{ACAD_REACTORS
330
1D5F
102
}
330
1D5F
100
AcDbXrecord
 70
     0
  0
XRECORD
  5
1D6B
102
{ACAD_REACTORS
330
1D5F
102
}
330
1D5F
100
AcDbXrecord
  1
{EDD58EEE-688C-11D7-AD80-0010B5C7BFCA}
  0
DICTIONARYVAR
  5
145C
102
{ACAD_REACTORS
330
145B
102
}
330
145B
100
DictionaryVariables
280
     0
  1
1
  0
DICTIONARYVAR
  5
177E
102
{ACAD_REACTORS
330
145B
102
}
330
145B
100
DictionaryVariables
280
     0
  1
96
  0
XRECORD
  5
560
102
{ACAD_REACTORS
330
540
102
}
330
540
100
AcDbXrecord
  1
2.0.0
  0
ENDSEC
  0
EOF
