  0
SECTION
  2
HEADER
  9
$ACADVER
  1
AC1014
  9
$ACADMAINTVER
 70
     9
  9
$DWGCODEPAGE
  3
ANSI_932
  9
$INSBASE
 10
0.0
 20
0.0
 30
0.0
  9
$EXTMIN
 10
-88.01174837119379
 20
-36.00750675146412
 30
-0.0015258207003583
  9
$EXTMAX
 10
22.02014217784187
 20
54.00531044975537
 30
0.0000000349246037
  9
$LIMMIN
 10
0.0
 20
0.0
  9
$LIMMAX
 10
297.0
 20
210.0
  9
$ORTHOMODE
 70
     0
  9
$REGENMODE
 70
     1
  9
$FILLMODE
 70
     1
  9
$QTEXTMODE
 70
     0
  9
$MIRRTEXT
 70
     1
  9
$DRAGMODE
 70
     2
  9
$LTSCALE
 40
10.0
  9
$OSMODE
 70
   613
  9
$ATTMODE
 70
     1
  9
$TEXTSIZE
 40
3.0
  9
$TRACEWID
 40
1.0
  9
$TEXTSTYLE
  7
YOKO
  9
$CLAYER
  8
240
  9
$CELTYPE
  6
BYLAYER
  9
$CECOLOR
 62
   256
  9
$CELTSCALE
 40
1.0
  9
$DELOBJ
 70
     1
  9
$DISPSILH
 70
     0
  9
$DIMSCALE
 40
1.0
  9
$DIMASZ
 40
2.229999999999999
  9
$DIMEXO
 40
0.5
  9
$DIMDLI
 40
2.5
  9
$DIMRND
 40
0.0
  9
$DIMDLE
 40
0.0
  9
$DIMEXE
 40
1.0
  9
$DIMTP
 40
0.0
  9
$DIMTM
 40
0.0
  9
$DIMTXT
 40
3.0
  9
$DIMCEN
 40
0.0
  9
$DIMTSZ
 40
0.0
  9
$DIMTOL
 70
     0
  9
$DIMLIM
 70
     0
  9
$DIMTIH
 70
     0
  9
$DIMTOH
 70
     0
  9
$DIMSE1
 70
     0
  9
$DIMSE2
 70
     0
  9
$DIMTAD
 70
     3
  9
$DIMZIN
 70
     8
  9
$DIMBLK
  1
OPEN
  9
$DIMASO
 70
     1
  9
$DIMSHO
 70
     1
  9
$DIMPOST
  1

  9
$DIMAPOST
  1

  9
$DIMALT
 70
     0
  9
$DIMALTD
 70
     2
  9
$DIMALTF
 40
25.4
  9
$DIMLFAC
 40
1.0
  9
$DIMTOFL
 70
     1
  9
$DIMTVP
 40
0.0
  9
$DIMTIX
 70
     0
  9
$DIMSOXD
 70
     0
  9
$DIMSAH
 70
     0
  9
$DIMBLK1
  1

  9
$DIMBLK2
  1

  9
$DIMSTYLE
  2
BIGT
  9
$DIMCLRD
 70
   256
  9
$DIMCLRE
 70
   256
  9
$DIMCLRT
 70
    40
  9
$DIMTFAC
 40
1.0
  9
$DIMGAP
 40
1.0
  9
$DIMJUST
 70
     0
  9
$DIMSD1
 70
     0
  9
$DIMSD2
 70
     0
  9
$DIMTOLJ
 70
     1
  9
$DIMTZIN
 70
     8
  9
$DIMALTZ
 70
     0
  9
$DIMALTTZ
 70
     0
  9
$DIMFIT
 70
     2
  9
$DIMUPT
 70
     0
  9
$DIMUNIT
 70
     2
  9
$DIMDEC
 70
     3
  9
$DIMTDEC
 70
     3
  9
$DIMALTU
 70
     2
  9
$DIMALTTD
 70
     2
  9
$DIMTXSTY
  7
STANDARD
  9
$DIMAUNIT
 70
     0
  9
$LUNITS
 70
     2
  9
$LUPREC
 70
     3
  9
$SKETCHINC
 40
1.0
  9
$FILLETRAD
 40
1.0
  9
$AUNITS
 70
     0
  9
$AUPREC
 70
     3
  9
$MENU
  1
.
  9
$ELEVATION
 40
0.0
  9
$PELEVATION
 40
0.0
  9
$THICKNESS
 40
0.0
  9
$LIMCHECK
 70
     0
  9
$BLIPMODE
 70
     0
  9
$CHAMFERA
 40
0.3
  9
$CHAMFERB
 40
0.3
  9
$CHAMFERC
 40
0.0
  9
$CHAMFERD
 40
0.0
  9
$SKPOLY
 70
     0
  9
$TDCREATE
 40
2452180.683445092
  9
$TDUPDATE
 40
2452737.385895359
  9
$TDINDWG
 40
0.0839326736
  9
$TDUSRTIMER
 40
0.0839326736
  9
$USRTIMER
 70
     1
  9
$ANGBASE
 50
0.0
  9
$ANGDIR
 70
     0
  9
$PDMODE
 70
    35
  9
$PDSIZE
 40
2.0
  9
$PLINEWID
 40
0.0
  9
$COORDS
 70
     2
  9
$SPLFRAME
 70
     0
  9
$SPLINETYPE
 70
     6
  9
$SPLINESEGS
 70
     8
  9
$ATTDIA
 70
     0
  9
$ATTREQ
 70
     0
  9
$HANDLING
 70
-16383
  9
$HANDSEED
  5
1A8C
  9
$SURFTAB1
 70
     6
  9
$SURFTAB2
 70
     6
  9
$SURFTYPE
 70
     6
  9
$SURFU
 70
     6
  9
$SURFV
 70
     6
  9
$UCSNAME
  2

  9
$UCSORG
 10
0.0
 20
0.0
 30
0.0
  9
$UCSXDIR
 10
1.0
 20
0.0
 30
0.0
  9
$UCSYDIR
 10
0.0
 20
1.0
 30
0.0
  9
$PUCSNAME
  2

  9
$PUCSORG
 10
0.0
 20
0.0
 30
0.0
  9
$PUCSXDIR
 10
1.0
 20
0.0
 30
0.0
  9
$PUCSYDIR
 10
0.0
 20
1.0
 30
0.0
  9
$USERI1
 70
     1
  9
$USERI2
 70
     0
  9
$USERI3
 70
     0
  9
$USERI4
 70
     0
  9
$USERI5
 70
     0
  9
$USERR1
 40
0.0
  9
$USERR2
 40
0.0
  9
$USERR3
 40
0.0
  9
$USERR4
 40
0.0
  9
$USERR5
 40
0.0
  9
$WORLDVIEW
 70
     1
  9
$SHADEDGE
 70
     3
  9
$SHADEDIF
 70
    70
  9
$TILEMODE
 70
     1
  9
$MAXACTVP
 70
    16
  9
$PINSBASE
 10
0.0
 20
0.0
 30
0.0
  9
$PLIMCHECK
 70
     0
  9
$PEXTMIN
 10
1.000000000000000E+20
 20
1.000000000000000E+20
 30
1.000000000000000E+20
  9
$PEXTMAX
 10
-1.000000000000000E+20
 20
-1.000000000000000E+20
 30
-1.000000000000000E+20
  9
$PLIMMIN
 10
0.0
 20
0.0
  9
$PLIMMAX
 10
420.0
 20
297.0
  9
$UNITMODE
 70
     0
  9
$VISRETAIN
 70
     0
  9
$PLINEGEN
 70
     0
  9
$PSLTSCALE
 70
     1
  9
$TREEDEPTH
 70
  3020
  9
$PICKSTYLE
 70
     0
  9
$CMLSTYLE
  2
STANDARD
  9
$CMLJUST
 70
     0
  9
$CMLSCALE
 40
1.0
  9
$PROXYGRAPHICS
 70
     1
  9
$MEASUREMENT
 70
     1
  0
ENDSEC
  0
SECTION
  2
CLASSES
  0
CLASS
  1
XRECORD
  2
AcDbXrecord
  3
AutoCAD 2000
 90
        0
280
     0
281
     0
  0
CLASS
  1
ACDBDICTIONARYWDFLT
  2
AcDbDictionaryWithDefault
  3
AutoCAD 2000
 90
        0
280
     0
281
     0
  0
CLASS
  1
ACDBPLACEHOLDER
  2
AcDbPlaceHolder
  3
AutoCAD 2000
 90
        0
280
     0
281
     0
  0
CLASS
  1
LAYOUT
  2
AcDbLayout
  3
AutoCAD 2000
 90
        0
280
     0
281
     0
  0
CLASS
  1
DICTIONARYVAR
  2
AcDbDictionaryVar
  3
AutoCAD 2000
 90
        0
280
     0
281
     0
  0
CLASS
  1
LONG_TRANSACTION
  2
AcDbLongTransaction
  3
AutoCAD 2000
 90
        0
280
     0
281
     0
  0
CLASS
  1
LWPOLYLINE
  2
AcDbPolyline
  3
AutoCAD 2000
 90
        0
280
     0
281
     1
  0
CLASS
  1
HATCH
  2
AcDbHatch
  3
AutoCAD 2000
 90
        0
280
     0
281
     1
  0
CLASS
  1
XRECORD
  2
AcDbXrecord
  3
AutoCAD 2000
 90
        0
280
     0
281
     0
  0
ENDSEC
  0
SECTION
  2
TABLES
  0
TABLE
  2
VPORT
  5
8
330
0
100
AcDbSymbolTable
 70
     2
  0
VPORT
  5
1A5D
330
8
100
AcDbSymbolTableRecord
100
AcDbViewportTableRecord
  2
*ACTIVE
 70
     0
 10
0.0
 20
0.0
 11
1.0
 21
1.0
 12
-32.99580309667595
 22
8.998901849145624
 13
0.0
 23
0.0
 14
7.0
 24
7.0
 15
7.0
 25
7.0
 16
0.0
 26
0.0
 36
1.0
 17
0.0
 27
0.0
 37
0.0
 40
90.67793654014476
 41
1.419235511713933
 42
50.0
 43
0.0
 44
0.0
 50
0.0
 51
0.0
 71
     0
 72
  2000
 73
     1
 74
     0
 75
     0
 76
     1
 77
     0
 78
     0
  0
ENDTAB
  0
TABLE
  2
LTYPE
  5
5
330
0
100
AcDbSymbolTable
 70
     3
  0
LTYPE
  5
14
330
5
100
AcDbSymbolTableRecord
100
AcDbLinetypeTableRecord
  2
BYBLOCK
 70
     0
  3

 72
    65
 73
     0
 40
0.0
  0
LTYPE
  5
15
330
5
100
AcDbSymbolTableRecord
100
AcDbLinetypeTableRecord
  2
BYLAYER
 70
     0
  3

 72
    65
 73
     0
 40
0.0
  0
LTYPE
  5
16
330
5
100
AcDbSymbolTableRecord
100
AcDbLinetypeTableRecord
  2
CONTINUOUS
 70
     0
  3
Solid line
 72
    65
 73
     0
 40
0.0
  0
LTYPE
  5
258
330
5
100
AcDbSymbolTableRecord
100
AcDbLinetypeTableRecord
  2
CENTER2
 70
     0
  3
___ _ ___ _ ___ _ ___ _ ___ _ ___ _ ___ _ ___ _
 72
    65
 73
     4
 40
1.125
 49
0.75
 74
     0
 49
-0.125
 74
     0
 49
0.125
 74
     0
 49
-0.125
 74
     0
  0
LTYPE
  5
25D
330
5
100
AcDbSymbolTableRecord
100
AcDbLinetypeTableRecord
  2
PHANTOM2
 70
     0
  3
___ _ _ ___ _ _ ___ _ _ ___ _ _ ___ _ _ ___ _ _
 72
    65
 73
     6
 40
1.25
 49
0.625
 74
     0
 49
-0.125
 74
     0
 49
0.125
 74
     0
 49
-0.125
 74
     0
 49
0.125
 74
     0
 49
-0.125
 74
     0
  0
ENDTAB
  0
TABLE
  2
LAYER
  5
2
330
0
100
AcDbSymbolTable
 70
    10
  0
LAYER
  5
F
330
2
100
AcDbSymbolTableRecord
100
AcDbLayerTableRecord
  2
0
 70
     0
 62
     7
  6
CONTINUOUS
  0
LAYER
  5
1AA
330
2
100
AcDbSymbolTableRecord
100
AcDbLayerTableRecord
  2
240
 70
     0
 62
     4
  6
CONTINUOUS
  0
LAYER
  5
1AB
330
2
100
AcDbSymbolTableRecord
100
AcDbLayerTableRecord
  2
241
 70
     0
 62
   211
  6
CONTINUOUS
  0
LAYER
  5
1AC
330
2
100
AcDbSymbolTableRecord
100
AcDbLayerTableRecord
  2
242
 70
     0
 62
     3
  6
CONTINUOUS
  0
LAYER
  5
1AF
330
2
100
AcDbSymbolTableRecord
100
AcDbLayerTableRecord
  2
245
 70
     0
 62
     2
  6
CENTER2
  0
LAYER
  5
21A
330
2
100
AcDbSymbolTableRecord
100
AcDbLayerTableRecord
  2
246
 70
     0
 62
     3
  6
PHANTOM2
  0
LAYER
  5
21B
330
2
100
AcDbSymbolTableRecord
100
AcDbLayerTableRecord
  2
247
 70
     0
 62
    60
  6
CONTINUOUS
  0
LAYER
  5
21E
330
2
100
AcDbSymbolTableRecord
100
AcDbLayerTableRecord
  2
250
 70
     0
 62
     3
  6
CONTINUOUS
  0
LAYER
  5
5C4
330
2
100
AcDbSymbolTableRecord
100
AcDbLayerTableRecord
  2
DEFPOINTS
 70
     0
 62
     7
  6
CONTINUOUS
  0
ENDTAB
  0
TABLE
  2
STYLE
  5
3
330
0
100
AcDbSymbolTable
 70
     2
  0
STYLE
  5
10
330
3
100
AcDbSymbolTableRecord
100
AcDbTextStyleTableRecord
  2
STANDARD
 70
     0
 40
0.0
 41
1.0
 50
0.0
 71
     0
 42
3.0
  3
romans.shx
  4
BIGFONT.SHX
  0
STYLE
  5
339
330
3
100
AcDbSymbolTableRecord
100
AcDbTextStyleTableRecord
  2
YOKO
 70
     0
 40
0.0
 41
1.0
 50
0.0
 71
     0
 42
3.0
  3
romans.shx
  4
extfont.shx
  0
ENDTAB
  0
TABLE
  2
VIEW
  5
6
330
0
100
AcDbSymbolTable
 70
     0
  0
ENDTAB
  0
TABLE
  2
UCS
  5
7
330
0
100
AcDbSymbolTable
 70
     0
  0
ENDTAB
  0
TABLE
  2
APPID
  5
9
330
0
100
AcDbSymbolTable
 70
     9
  0
APPID
  5
11
330
9
100
AcDbSymbolTableRecord
100
AcDbRegAppTableRecord
  2
ACAD
 70
     0
  0
APPID
  5
1B1
330
9
100
AcDbSymbolTableRecord
100
AcDbRegAppTableRecord
  2
GLOBAL
 70
     0
  0
APPID
  5
2A4
330
9
100
AcDbSymbolTableRecord
100
AcDbRegAppTableRecord
  2
DETAIL
 70
     0
  0
APPID
  5
5FD
330
9
100
AcDbSymbolTableRecord
100
AcDbRegAppTableRecord
  2
GRPNAME
 70
     0
  0
APPID
  5
5FE
330
9
100
AcDbSymbolTableRecord
100
AcDbRegAppTableRecord
  2
GPARA
 70
     0
  0
APPID
  5
9C6
330
9
100
AcDbSymbolTableRecord
100
AcDbRegAppTableRecord
  2
ITEMNAME
 70
     0
  0
APPID
  5
9C7
330
9
100
AcDbSymbolTableRecord
100
AcDbRegAppTableRecord
  2
HATCH_TYPE
 70
     0
  0
APPID
  5
9C8
330
9
100
AcDbSymbolTableRecord
100
AcDbRegAppTableRecord
  2
HATCH_DISPLAY
 70
     0
  0
APPID
  5
9C9
330
9
100
AcDbSymbolTableRecord
100
AcDbRegAppTableRecord
  2
HATCH_DISTANCE
 70
     0
  0
ENDTAB
  0
TABLE
  2
DIMSTYLE
  5
A
330
0
100
AcDbSymbolTable
 70
     2
  0
DIMSTYLE
105
48F
330
A
100
AcDbSymbolTableRecord
100
AcDbDimStyleTableRecord
  2
STANDARD
 70
     0
  3

  4

  5

  6

  7

 40
1.0
 41
2.0
 42
2.0
 43
3.75
 44
2.0
 45
0.0
 46
0.0
 47
0.0
 48
0.0
140
4.0
141
0.09
142
0.0
143
25.4
144
1.0
145
0.0
146
1.0
147
1.0
 71
     0
 72
     0
 73
     1
 74
     1
 75
     0
 76
     0
 77
     0
 78
     8
170
     0
171
     2
172
     0
173
     1
174
     0
175
     0
176
   256
177
   256
178
   256
270
     2
271
     3
272
     4
273
     2
274
     2
340
10
275
     0
280
     0
281
     0
282
     0
283
     1
284
     8
285
     0
286
     0
287
     3
288
     0
  0
DIMSTYLE
105
59A
102
{ACAD_REACTORS
330
13C3
330
13C4
330
13C5
330
1857
330
1867
330
1874
330
1A41
102
}
330
A
100
AcDbSymbolTableRecord
100
AcDbDimStyleTableRecord
  2
BIGT
 70
     0
  3

  4

  5
OPEN
  6

  7

 40
1.0
 41
2.229999999999999
 42
0.5
 43
2.5
 44
1.0
 45
0.0
 46
0.0
 47
0.0
 48
0.0
140
3.5
141
0.0
142
0.0
143
25.4
144
1.0
145
0.0
146
1.0
147
1.0
 71
     0
 72
     0
 73
     0
 74
     0
 75
     0
 76
     0
 77
     3
 78
     9
170
     0
171
     2
172
     1
173
     0
174
     0
175
     0
176
   256
177
   256
178
    40
270
     2
271
     3
272
     3
273
     2
274
     2
340
10
275
     0
280
     0
281
     0
282
     0
283
     1
284
     8
285
     0
286
     0
287
     2
288
     0
  0
ENDTAB
  0
TABLE
  2
BLOCK_RECORD
  5
1
330
0
100
AcDbSymbolTable
 70
     9
  0
BLOCK_RECORD
  5
1A
102
{ACAD_XDICTIONARY
360
1A81
102
}
330
1
100
AcDbSymbolTableRecord
100
AcDbBlockTableRecord
  2
*MODEL_SPACE
  0
BLOCK_RECORD
  5
17
102
{ACAD_XDICTIONARY
360
1A7F
102
}
330
1
100
AcDbSymbolTableRecord
100
AcDbBlockTableRecord
  2
*PAPER_SPACE
  0
BLOCK_RECORD
  5
594
330
1
100
AcDbSymbolTableRecord
100
AcDbBlockTableRecord
  2
_OPEN
  0
BLOCK_RECORD
  5
13F6
330
1
100
AcDbSymbolTableRecord
100
AcDbBlockTableRecord
  2
*D1
  0
BLOCK_RECORD
  5
1402
330
1
100
AcDbSymbolTableRecord
100
AcDbBlockTableRecord
  2
*D2
  0
BLOCK_RECORD
  5
140E
330
1
100
AcDbSymbolTableRecord
100
AcDbBlockTableRecord
  2
*D3
  0
BLOCK_RECORD
  5
1858
330
1
100
AcDbSymbolTableRecord
100
AcDbBlockTableRecord
  2
*D4
  0
BLOCK_RECORD
  5
1868
330
1
100
AcDbSymbolTableRecord
100
AcDbBlockTableRecord
  2
*D5
  0
BLOCK_RECORD
  5
1875
330
1
100
AcDbSymbolTableRecord
100
AcDbBlockTableRecord
  2
*D6
  0
BLOCK_RECORD
  5
1960
330
1
100
AcDbSymbolTableRecord
100
AcDbBlockTableRecord
  2
A$C533B2494
  0
BLOCK_RECORD
  5
1A42
330
1
100
AcDbSymbolTableRecord
100
AcDbBlockTableRecord
  2
*D8
  0
ENDTAB
  0
ENDSEC
  0
SECTION
  2
BLOCKS
  0
BLOCK
  5
1B
330
1A
100
AcDbEntity
  8
0
100
AcDbBlockBegin
  2
*MODEL_SPACE
 70
     0
 10
0.0
 20
0.0
 30
0.0
  3
*MODEL_SPACE
  1

  0
ENDBLK
  5
1C
330
1A
100
AcDbEntity
  8
0
100
AcDbBlockEnd
  0
BLOCK
  5
18
330
17
100
AcDbEntity
 67
     1
  8
0
100
AcDbBlockBegin
  2
*PAPER_SPACE
 70
     0
 10
0.0
 20
0.0
 30
0.0
  3
*PAPER_SPACE
  1

  0
ENDBLK
  5
19
330
17
100
AcDbEntity
 67
     1
  8
0
100
AcDbBlockEnd
  0
BLOCK
  5
598
330
594
100
AcDbEntity
  8
0
100
AcDbBlockBegin
  2
_OPEN
 70
     0
 10
0.0
 20
0.0
 30
0.0
  3
_OPEN
  1

  0
LINE
  5
595
330
594
100
AcDbEntity
  8
0
  6
BYBLOCK
 62
     0
100
AcDbLine
 10
-1.0
 20
0.1666666666666666
 30
0.0
 11
0.0
 21
0.0
 31
0.0
  0
LINE
  5
596
330
594
100
AcDbEntity
  8
0
  6
BYBLOCK
 62
     0
100
AcDbLine
 10
-1.0
 20
-0.1666666666666666
 30
0.0
 11
0.0
 21
0.0
 31
0.0
  0
LINE
  5
597
330
594
100
AcDbEntity
  8
0
  6
BYBLOCK
 62
     0
100
AcDbLine
 10
0.0
 20
0.0
 30
0.0
 11
-1.0
 21
0.0
 31
0.0
  0
ENDBLK
  5
599
330
594
100
AcDbEntity
  8
0
100
AcDbBlockEnd
  0
BLOCK
  5
1400
330
13F6
100
AcDbEntity
  8
0
100
AcDbBlockBegin
  2
*D1
 70
     1
 10
0.0
 20
0.0
 30
0.0
  3
*D1
  1

  0
LINE
  5
17CD
330
13F6
100
AcDbEntity
  8
250
  6
CONTINUOUS
100
AcDbLine
 10
-0.6899499999999535
 20
-14.99999999999994
 30
0.0
 11
21.99999999999999
 21
-14.99999999999995
 31
0.0
  0
LINE
  5
17CE
330
13F6
100
AcDbEntity
  8
250
  6
CONTINUOUS
100
AcDbLine
 10
-0.6899499999999535
 20
15.0
 30
0.0
 11
22.0
 21
14.99999999999999
 31
0.0
  0
LINE
  5
17CF
330
13F6
100
AcDbEntity
  8
250
  6
CONTINUOUS
100
AcDbLine
 10
20.99999999999999
 20
-12.76999999999995
 30
0.0
 11
21.0
 21
12.76999999999999
 31
0.0
  0
INSERT
  5
17D0
330
13F6
100
AcDbEntity
  8
250
  6
CONTINUOUS
100
AcDbBlockReference
  2
_OPEN
 10
20.99999999999999
 20
-14.99999999999995
 30
0.0
 41
2.229999999999999
 42
2.229999999999999
 43
2.229999999999999
 50
270.0
  0
INSERT
  5
17D1
330
13F6
100
AcDbEntity
  8
250
  6
CONTINUOUS
100
AcDbBlockReference
  2
_OPEN
 10
21.0
 20
14.99999999999999
 30
0.0
 41
2.229999999999999
 42
2.229999999999999
 43
2.229999999999999
 50
90.0
  0
MTEXT
  5
17D2
330
13F6
100
AcDbEntity
  8
250
  6
CONTINUOUS
 62
    40
100
AcDbMText
 10
18.49999999999999
 20
0.0000000000000257
 30
0.0
 40
3.0
 41
0.0
 71
     5
 72
     1
  1
\A1;{\H3;\U+2205}30
 11
0.0000000000000001
 21
1.0
 31
0.0
1001
ACAD
1000
MTEXTBEGIN
1070
    73
1070
     1
1070
    44
1040
1.0
1070
    74
1070
     0
1000
MTEXTEND
  0
POINT
  5
17D3
330
13F6
100
AcDbEntity
  8
DEFPOINTS
  6
CONTINUOUS
 62
     0
100
AcDbPoint
 10
-1.189949999999953
 20
-14.99999999999994
 30
0.0
  0
POINT
  5
17D4
330
13F6
100
AcDbEntity
  8
DEFPOINTS
  6
CONTINUOUS
 62
     0
100
AcDbPoint
 10
-1.189949999999953
 20
15.0
 30
0.0
  0
POINT
  5
17D5
330
13F6
100
AcDbEntity
  8
DEFPOINTS
  6
CONTINUOUS
 62
     0
100
AcDbPoint
 10
21.0
 20
14.99999999999999
 30
0.0
  0
ENDBLK
  5
1401
330
13F6
100
AcDbEntity
  8
0
100
AcDbBlockEnd
  0
BLOCK
  5
140C
330
1402
100
AcDbEntity
  8
0
100
AcDbBlockBegin
  2
*D2
 70
     1
 10
0.0
 20
0.0
 30
0.0
  3
*D2
  1

  0
LINE
  5
1447
330
1402
100
AcDbEntity
  8
250
  6
CONTINUOUS
100
AcDbLine
 10
-40.0
 20
-5.5
 30
0.0
 11
-40.0
 21
-36.0
 31
0.0
  0
LINE
  5
1448
330
1402
100
AcDbEntity
  8
250
  6
CONTINUOUS
100
AcDbLine
 10
0.0
 20
-14.35147199999994
 30
0.0
 11
-0.0000000000000014
 21
-36.0
 31
0.0
  0
LINE
  5
1449
330
1402
100
AcDbEntity
  8
250
  6
CONTINUOUS
100
AcDbLine
 10
-37.77
 20
-35.0
 30
0.0
 11
-2.230000000000001
 21
-35.0
 31
0.0
  0
INSERT
  5
144A
330
1402
100
AcDbEntity
  8
250
  6
CONTINUOUS
100
AcDbBlockReference
  2
_OPEN
 10
-40.0
 20
-35.0
 30
0.0
 41
2.229999999999999
 42
2.229999999999999
 43
2.229999999999999
 50
180.0
  0
INSERT
  5
144B
330
1402
100
AcDbEntity
  8
250
  6
CONTINUOUS
100
AcDbBlockReference
  2
_OPEN
 10
-0.0000000000000013
 20
-35.0
 30
0.0
 41
2.229999999999999
 42
2.229999999999999
 43
2.229999999999999
  0
MTEXT
  5
144C
330
1402
100
AcDbEntity
  8
250
  6
CONTINUOUS
 62
    40
100
AcDbMText
 10
-20.0
 20
-32.5
 30
0.0
 40
3.0
 41
0.0
 71
     5
 72
     1
  1
\A1;35～45
1001
ACAD
1000
MTEXTBEGIN
1070
    73
1070
     1
1070
    44
1040
1.0
1070
    74
1070
     0
1000
MTEXTEND
  0
POINT
  5
144D
330
1402
100
AcDbEntity
  8
DEFPOINTS
  6
CONTINUOUS
 62
     0
100
AcDbPoint
 10
-40.0
 20
-5.0
 30
0.0
  0
POINT
  5
144E
330
1402
100
AcDbEntity
  8
DEFPOINTS
  6
CONTINUOUS
 62
     0
100
AcDbPoint
 10
0.0
 20
-13.85147199999994
 30
0.0
  0
POINT
  5
144F
330
1402
100
AcDbEntity
  8
DEFPOINTS
  6
CONTINUOUS
 62
     0
100
AcDbPoint
 10
-0.0000000000000013
 20
-35.0
 30
0.0
  0
ENDBLK
  5
140D
330
1402
100
AcDbEntity
  8
0
100
AcDbBlockEnd
  0
BLOCK
  5
1418
330
140E
100
AcDbEntity
  8
0
100
AcDbBlockBegin
  2
*D3
 70
     1
 10
0.0
 20
0.0
 30
0.0
  3
*D3
  1

  0
LINE
  5
1A83
330
140E
100
AcDbEntity
  8
250
  6
CONTINUOUS
100
AcDbLine
 10
0.5
 20
-5.0
 30
0.0
 11
15.0
 21
-5.000000000000004
 31
0.0
  0
LINE
  5
1A84
330
140E
100
AcDbEntity
  8
250
  6
CONTINUOUS
100
AcDbLine
 10
0.5
 20
5.0
 30
0.0
 11
15.0
 21
4.999999999999995
 31
0.0
  0
LINE
  5
1A85
330
140E
100
AcDbEntity
  8
250
  6
CONTINUOUS
100
AcDbLine
 10
14.0
 20
-2.770000000000004
 30
0.0
 11
14.0
 21
2.769999999999996
 31
0.0
  0
MTEXT
  5
1A86
330
140E
100
AcDbEntity
  8
250
  6
CONTINUOUS
 62
    40
100
AcDbMText
 10
11.27464379319485
 20
0.730192865609638
 30
0.0
 40
3.0
 41
0.0
 71
     5
 72
     1
  1
\A1;MAX.%%c10
 11
0.0000000000000001
 21
1.0
 31
0.0
  0
INSERT
  5
1A87
330
140E
100
AcDbEntity
  8
250
  6
CONTINUOUS
100
AcDbBlockReference
  2
_OPEN
 10
14.0
 20
-5.000000000000004
 30
0.0
 41
2.229999999999999
 42
2.229999999999999
 43
2.229999999999999
 50
270.0
  0
INSERT
  5
1A88
330
140E
100
AcDbEntity
  8
250
  6
CONTINUOUS
100
AcDbBlockReference
  2
_OPEN
 10
14.0
 20
4.999999999999995
 30
0.0
 41
2.229999999999999
 42
2.229999999999999
 43
2.229999999999999
 50
90.0
  0
POINT
  5
1A89
330
140E
100
AcDbEntity
  8
DEFPOINTS
  6
CONTINUOUS
 62
     0
100
AcDbPoint
 10
0.0
 20
-5.0
 30
0.0
  0
POINT
  5
1A8A
330
140E
100
AcDbEntity
  8
DEFPOINTS
  6
CONTINUOUS
 62
     0
100
AcDbPoint
 10
0.0
 20
5.0
 30
0.0
  0
POINT
  5
1A8B
330
140E
100
AcDbEntity
  8
DEFPOINTS
  6
CONTINUOUS
 62
     0
100
AcDbPoint
 10
14.0
 20
4.999999999999995
 30
0.0
  0
ENDBLK
  5
1419
330
140E
100
AcDbEntity
  8
0
100
AcDbBlockEnd
  0
BLOCK
  5
1862
330
1858
100
AcDbEntity
  8
0
100
AcDbBlockBegin
  2
*D4
 70
     1
 10
0.0
 20
0.0
 30
0.0
  3
*D4
  1

  0
LINE
  5
1859
330
1858
100
AcDbEntity
  8
250
  6
CONTINUOUS
100
AcDbLine
 10
-77.0
 20
7.199999999999998
 30
0.0
 11
-77.0
 21
36.0
 31
0.0
  0
LINE
  5
185A
330
1858
100
AcDbEntity
  8
250
  6
CONTINUOUS
100
AcDbLine
 10
0.0
 20
14.35147200000005
 30
0.0
 11
0.0000000000000014
 21
36.0
 31
0.0
  0
LINE
  5
185B
330
1858
100
AcDbEntity
  8
250
  6
CONTINUOUS
100
AcDbLine
 10
-74.77
 20
35.0
 30
0.0
 11
-2.229999999999998
 21
35.0
 31
0.0
  0
INSERT
  5
185C
330
1858
100
AcDbEntity
  8
250
  6
CONTINUOUS
100
AcDbBlockReference
  2
_OPEN
 10
-77.0
 20
35.0
 30
0.0
 41
2.229999999999999
 42
2.229999999999999
 43
2.229999999999999
 50
180.0
  0
INSERT
  5
185D
330
1858
100
AcDbEntity
  8
250
  6
CONTINUOUS
100
AcDbBlockReference
  2
_OPEN
 10
0.0000000000000013
 20
35.0
 30
0.0
 41
2.229999999999999
 42
2.229999999999999
 43
2.229999999999999
  0
MTEXT
  5
185E
330
1858
100
AcDbEntity
  8
250
  6
CONTINUOUS
 62
    40
100
AcDbMText
 10
-38.5
 20
37.5
 30
0.0
 40
3.0
 41
0.0
 71
     5
 72
     1
  1
\A1;77
1001
ACAD
1000
MTEXTBEGIN
1070
    73
1070
     1
1070
    44
1040
1.0
1070
    74
1070
     0
1000
MTEXTEND
  0
POINT
  5
185F
330
1858
100
AcDbEntity
  8
DEFPOINTS
  6
CONTINUOUS
 62
     0
100
AcDbPoint
 10
-77.0
 20
6.699999999999998
 30
0.0
  0
POINT
  5
1860
330
1858
100
AcDbEntity
  8
DEFPOINTS
  6
CONTINUOUS
 62
     0
100
AcDbPoint
 10
0.0
 20
13.85147200000005
 30
0.0
  0
POINT
  5
1861
330
1858
100
AcDbEntity
  8
DEFPOINTS
  6
CONTINUOUS
 62
     0
100
AcDbPoint
 10
0.0000000000000013
 20
35.0
 30
0.0
  0
ENDBLK
  5
1863
330
1858
100
AcDbEntity
  8
0
100
AcDbBlockEnd
  0
BLOCK
  5
1872
330
1868
100
AcDbEntity
  8
0
100
AcDbBlockBegin
  2
*D5
 70
     1
 10
0.0
 20
0.0
 30
0.0
  3
*D5
  1

  0
LINE
  5
1869
330
1868
100
AcDbEntity
  8
250
  6
CONTINUOUS
100
AcDbLine
 10
-37.0
 20
10.0
 30
0.0
 11
-37.0
 21
29.0
 31
0.0
  0
LINE
  5
186A
330
1868
100
AcDbEntity
  8
250
  6
CONTINUOUS
100
AcDbLine
 10
0.0
 20
14.35147200000005
 30
0.0
 11
0.0000000000000009
 21
29.0
 31
0.0
  0
LINE
  5
186B
330
1868
100
AcDbEntity
  8
250
  6
CONTINUOUS
100
AcDbLine
 10
-34.77
 20
28.0
 30
0.0
 11
-2.229999999999999
 21
28.0
 31
0.0
  0
INSERT
  5
186C
330
1868
100
AcDbEntity
  8
250
  6
CONTINUOUS
100
AcDbBlockReference
  2
_OPEN
 10
-37.0
 20
28.0
 30
0.0
 41
2.229999999999999
 42
2.229999999999999
 43
2.229999999999999
 50
180.0
  0
INSERT
  5
186D
330
1868
100
AcDbEntity
  8
250
  6
CONTINUOUS
100
AcDbBlockReference
  2
_OPEN
 10
0.0000000000000009
 20
28.0
 30
0.0
 41
2.229999999999999
 42
2.229999999999999
 43
2.229999999999999
  0
MTEXT
  5
186E
330
1868
100
AcDbEntity
  8
250
  6
CONTINUOUS
 62
    40
100
AcDbMText
 10
-18.5
 20
30.5
 30
0.0
 40
3.0
 41
0.0
 71
     5
 72
     1
  1
\A1;37
1001
ACAD
1000
MTEXTBEGIN
1070
    73
1070
     1
1070
    44
1040
1.0
1070
    74
1070
     0
1000
MTEXTEND
  0
POINT
  5
186F
330
1868
100
AcDbEntity
  8
DEFPOINTS
  6
CONTINUOUS
 62
     0
100
AcDbPoint
 10
-37.0
 20
9.5
 30
0.0
  0
POINT
  5
1870
330
1868
100
AcDbEntity
  8
DEFPOINTS
  6
CONTINUOUS
 62
     0
100
AcDbPoint
 10
0.0
 20
13.85147200000005
 30
0.0
  0
POINT
  5
1871
330
1868
100
AcDbEntity
  8
DEFPOINTS
  6
CONTINUOUS
 62
     0
100
AcDbPoint
 10
0.0000000000000009
 20
28.0
 30
0.0
  0
ENDBLK
  5
1873
330
1868
100
AcDbEntity
  8
0
100
AcDbBlockEnd
  0
BLOCK
  5
187F
330
1875
100
AcDbEntity
  8
0
100
AcDbBlockBegin
  2
*D6
 70
     1
 10
0.0
 20
0.0
 30
0.0
  3
*D6
  1

  0
LINE
  5
1876
330
1875
100
AcDbEntity
  8
250
  6
CONTINUOUS
100
AcDbLine
 10
-77.0
 20
7.199999999999998
 30
0.0
 11
-77.0
 21
29.0
 31
0.0
  0
LINE
  5
1877
330
1875
100
AcDbEntity
  8
250
  6
CONTINUOUS
100
AcDbLine
 10
-37.0
 20
10.0
 30
0.0
 11
-37.0
 21
29.0
 31
0.0
  0
LINE
  5
1878
330
1875
100
AcDbEntity
  8
250
  6
CONTINUOUS
100
AcDbLine
 10
-74.77
 20
28.0
 30
0.0
 11
-39.23
 21
28.0
 31
0.0
  0
INSERT
  5
1879
330
1875
100
AcDbEntity
  8
250
  6
CONTINUOUS
100
AcDbBlockReference
  2
_OPEN
 10
-77.0
 20
28.0
 30
0.0
 41
2.229999999999999
 42
2.229999999999999
 43
2.229999999999999
 50
180.0
  0
INSERT
  5
187A
330
1875
100
AcDbEntity
  8
250
  6
CONTINUOUS
100
AcDbBlockReference
  2
_OPEN
 10
-37.0
 20
28.0
 30
0.0
 41
2.229999999999999
 42
2.229999999999999
 43
2.229999999999999
  0
MTEXT
  5
187B
330
1875
100
AcDbEntity
  8
250
  6
CONTINUOUS
 62
    40
100
AcDbMText
 10
-57.0
 20
30.5
 30
0.0
 40
3.0
 41
0.0
 71
     5
 72
     1
  1
\A1;40
1001
ACAD
1000
MTEXTBEGIN
1070
    73
1070
     1
1070
    44
1040
1.0
1070
    74
1070
     0
1000
MTEXTEND
  0
POINT
  5
187C
330
1875
100
AcDbEntity
  8
DEFPOINTS
  6
CONTINUOUS
 62
     0
100
AcDbPoint
 10
-77.0
 20
6.699999999999998
 30
0.0
  0
POINT
  5
187D
330
1875
100
AcDbEntity
  8
DEFPOINTS
  6
CONTINUOUS
 62
     0
100
AcDbPoint
 10
-37.0
 20
9.5
 30
0.0
  0
POINT
  5
187E
330
1875
100
AcDbEntity
  8
DEFPOINTS
  6
CONTINUOUS
 62
     0
100
AcDbPoint
 10
-37.0
 20
28.0
 30
0.0
  0
ENDBLK
  5
1880
330
1875
100
AcDbEntity
  8
0
100
AcDbBlockEnd
  0
BLOCK
  5
1A35
330
1960
100
AcDbEntity
  8
0
100
AcDbBlockBegin
  2
A$C533B2494
 70
     0
 10
0.0
 20
0.0
 30
0.0
  3
A$C533B2494
  1

  0
LINE
  5
1961
330
1960
100
AcDbEntity
  8
245
100
AcDbLine
 10
-79.07876889731205
 20
0.0
 30
0.0
 11
1.910872413295351
 21
0.0
 31
0.0
  0
LINE
  5
1962
330
1960
100
AcDbEntity
  8
242
100
AcDbLine
 10
-42.00000000000001
 20
3.87298334620741
 30
0.0
 11
-77.00000000000001
 21
-3.872983346207417
 31
0.0
  0
LINE
  5
1963
330
1960
100
AcDbEntity
  8
242
100
AcDbLine
 10
-77.00000000000001
 20
3.872983346207417
 30
0.0
 11
-42.00000118970177
 21
-3.872985496464346
 31
0.0
  0
LINE
  5
1964
330
1960
100
AcDbEntity
  8
241
100
AcDbLine
 10
-42.00000000000001
 20
-3.872983346207417
 30
0.0
 11
-77.00000000000001
 21
-3.872983346207417
 31
0.0
  0
LINE
  5
1965
330
1960
100
AcDbEntity
  8
241
100
AcDbLine
 10
-42.00000000000001
 20
3.872983346207417
 30
0.0
 11
-77.00000000000001
 21
3.872983346207417
 31
0.0
  0
LINE
  5
1966
330
1960
100
AcDbEntity
  8
240
100
AcDbLine
 10
-69.0
 20
-7.999999999999978
 30
0.0
 11
-39.20000000000004
 21
-8.0
 31
0.0
  0
LINE
  5
1967
330
1960
100
AcDbEntity
  8
240
100
AcDbLine
 10
-69.0
 20
7.99999999999999
 30
0.0
 11
-39.20000000000004
 21
8.0
 31
0.0
  0
LINE
  5
1968
330
1960
100
AcDbEntity
  8
240
100
AcDbLine
 10
-77.0
 20
-6.7
 30
0.0
 11
-77.0
 21
6.7
 31
0.0
  0
LINE
  5
1969
330
1960
100
AcDbEntity
  8
240
100
AcDbLine
 10
-76.7
 20
-7.0
 30
0.0
 11
-69.99999999999999
 21
-7.0
 31
0.0
  0
LINE
  5
196A
330
1960
100
AcDbEntity
  8
240
100
AcDbLine
 10
-77.0
 20
-6.7
 30
0.0
 11
-76.7
 21
-7.0
 31
0.0
  0
LINE
  5
196B
330
1960
100
AcDbEntity
  8
240
100
AcDbLine
 10
-69.0
 20
-7.999999999999978
 30
0.0
 11
-69.99999999999999
 21
-7.0
 31
0.0
  0
LINE
  5
196C
330
1960
100
AcDbEntity
  8
240
100
AcDbLine
 10
-76.7
 20
7.0
 30
0.0
 11
-69.99999999999999
 21
7.0
 31
0.0
  0
LINE
  5
196D
330
1960
100
AcDbEntity
  8
240
100
AcDbLine
 10
-76.7
 20
7.0
 30
0.0
 11
-77.0
 21
6.7
 31
0.0
  0
LINE
  5
196E
330
1960
100
AcDbEntity
  8
240
100
AcDbLine
 10
-69.0
 20
7.99999999999999
 30
0.0
 11
-69.99999999999999
 21
7.0
 31
0.0
  0
ARC
  5
196F
330
1960
100
AcDbEntity
  8
240
100
AcDbCircle
 10
-36.0
 20
9.5
 30
0.0
 40
1.0
100
AcDbArc
 50
90.0
 51
180.0
  0
LINE
  5
1970
330
1960
100
AcDbEntity
  8
241
100
AcDbLine
 10
-1.189949999999953
 20
14.50331100000005
 30
0.0
 11
-1.189949999999953
 21
-14.70198699999991
 31
0.0
  0
LINE
  5
1971
330
1960
100
AcDbEntity
  8
241
100
AcDbLine
 10
-12.5
 20
0.0
 30
0.0
 11
-12.5
 21
10.5
 31
0.0
  0
LINE
  5
1972
330
1960
100
AcDbEntity
  8
241
100
AcDbLine
 10
-12.14999999999997
 20
0.0
 30
0.0
 11
-12.14999999999997
 21
11.60000000000002
 31
0.0
  0
LINE
  5
1973
330
1960
100
AcDbEntity
  8
240
100
AcDbLine
 10
0.0
 20
13.85147200000005
 30
0.0
 11
0.0
 21
0.0
 31
0.0
  0
LINE
  5
1974
330
1960
100
AcDbEntity
  8
242
100
AcDbLine
 10
-15.0
 20
10.0
 30
0.0
 11
-15.5
 21
10.5
 31
0.0
  0
TEXT
  5
1975
330
1960
100
AcDbEntity
  8
247
100
AcDbText
 10
-35.6586644262515
 20
-9.334157711151476
 30
0.0
 40
1.5
  1
SL16-NBS10-40
  7
YOKO
 11
-35.6586644262515
 21
-9.334157711151476
 31
0.0
100
AcDbText
 73
     1
  0
LINE
  5
1976
330
1960
100
AcDbEntity
  8
240
100
AcDbLine
 10
-36.0
 20
-10.5
 30
0.0
 11
-12.5
 21
-10.5
 31
0.0
  0
LINE
  5
1977
330
1960
100
AcDbEntity
  8
240
100
AcDbLine
 10
-37.0
 20
-9.5
 30
0.0
 11
-37.0
 21
-7.799999999999954
 31
0.0
  0
ARC
  5
1978
330
1960
100
AcDbEntity
  8
240
100
AcDbCircle
 10
-36.0
 20
-9.5
 30
0.0
 40
1.0
100
AcDbArc
 50
180.0
 51
270.0
  0
LINE
  5
1979
330
1960
100
AcDbEntity
  8
246
100
AcDbLine
 10
-45.55662499999994
 20
1.732051000000069
 30
0.0
 11
-46.0
 21
2.5
 31
0.0
  0
LINE
  5
197A
330
1960
100
AcDbEntity
  8
246
100
AcDbLine
 10
-51.60000000000002
 20
-5.199999999999931
 30
0.0
 11
-40.14999999999997
 21
-5.199999999999931
 31
0.0
  0
LINE
  5
197B
330
1960
100
AcDbEntity
  8
246
100
AcDbLine
 10
-51.25
 20
-5.5
 30
0.0
 11
-40.49999999999999
 21
-5.5
 31
0.0
  0
LINE
  5
197C
330
1960
100
AcDbEntity
  8
246
100
AcDbLine
 10
-45.55662499999994
 20
-1.732050999999955
 30
0.0
 11
-46.0
 21
-2.5
 31
0.0
  0
LINE
  5
197D
330
1960
100
AcDbEntity
  8
246
100
AcDbLine
 10
-51.60000000000002
 20
5.200000000000045
 30
0.0
 11
-40.14999999999997
 21
5.200000000000045
 31
0.0
  0
LINE
  5
197E
330
1960
100
AcDbEntity
  8
246
100
AcDbLine
 10
-51.25
 20
5.5
 30
0.0
 11
-40.49999999999999
 21
5.5
 31
0.0
  0
LINE
  5
197F
330
1960
100
AcDbEntity
  8
246
100
AcDbLine
 10
-56.0
 20
3.75
 30
0.0
 11
-56.0
 21
-3.75
 31
0.0
  0
LINE
  5
1980
330
1960
100
AcDbEntity
  8
246
100
AcDbLine
 10
-56.0
 20
-2.5
 30
0.0
 11
-46.0
 21
-2.5
 31
0.0
  0
LINE
  5
1981
330
1960
100
AcDbEntity
  8
246
100
AcDbLine
 10
-55.0
 20
-4.75
 30
0.0
 11
-52.0
 21
-4.75
 31
0.0
  0
ARC
  5
1982
330
1960
100
AcDbEntity
  8
246
100
AcDbCircle
 10
-55.0
 20
-3.75
 30
0.0
 40
1.0
100
AcDbArc
 50
180.0
 51
270.0
  0
LINE
  5
1983
330
1960
100
AcDbEntity
  8
246
100
AcDbLine
 10
-52.0
 20
-4.75
 30
0.0
 11
-51.25
 21
-5.5
 31
0.0
  0
LINE
  5
1984
330
1960
100
AcDbEntity
  8
246
100
AcDbLine
 10
-46.0
 20
-1.332132999999998
 30
0.0
 11
-46.0
 21
-2.5
 31
0.0
  0
LINE
  5
1985
330
1960
100
AcDbEntity
  8
246
100
AcDbLine
 10
-56.0
 20
2.5
 30
0.0
 11
-46.0
 21
2.5
 31
0.0
  0
LINE
  5
1986
330
1960
100
AcDbEntity
  8
246
100
AcDbLine
 10
-55.0
 20
4.75
 30
0.0
 11
-52.0
 21
4.75
 31
0.0
  0
ARC
  5
1987
330
1960
100
AcDbEntity
  8
246
100
AcDbCircle
 10
-55.0
 20
3.75
 30
0.0
 40
1.0
100
AcDbArc
 50
90.0
 51
180.0
  0
LINE
  5
1988
330
1960
100
AcDbEntity
  8
246
100
AcDbLine
 10
-52.0
 20
4.75
 30
0.0
 11
-51.25
 21
5.5
 31
0.0
  0
LINE
  5
1989
330
1960
100
AcDbEntity
  8
246
100
AcDbLine
 10
-46.0
 20
1.332132999999998
 30
0.0
 11
-46.0
 21
2.5
 31
0.0
  0
LINE
  5
198A
330
1960
100
AcDbEntity
  8
241
100
AcDbLine
 10
-42.00000000000001
 20
-3.872983346207417
 30
0.0
 11
-42.00000000000001
 21
3.872983346207417
 31
0.0
  0
ARC
  5
198B
330
1960
100
AcDbEntity
  8
241
100
AcDbCircle
 10
-49.00000000000026
 20
0.0000000000000004
 30
0.0
 40
8.000000000000209
100
AcDbArc
 50
331.044958028047
 51
28.95502437185903
  0
LINE
  5
198C
330
1960
100
AcDbEntity
  8
241
100
AcDbLine
 10
-37.0
 20
-7.799999999999954
 30
0.0
 11
-37.0
 21
8.0
 31
0.0
  0
LINE
  5
198D
330
1960
100
AcDbEntity
  8
241
100
AcDbLine
 10
-39.0
 20
-7.799999999999954
 30
0.0
 11
-39.0
 21
7.800000000000068
 31
0.0
  0
LINE
  5
198E
330
1960
100
AcDbEntity
  8
246
100
AcDbLine
 10
-40.0
 20
5.0
 30
0.0
 11
-40.0
 21
-5.0
 31
0.0
  0
LINE
  5
198F
330
1960
100
AcDbEntity
  8
246
100
AcDbLine
 10
-45.55662499999994
 20
-1.732050999999955
 30
0.0
 11
-45.55662499999994
 21
1.732051000000069
 31
0.0
  0
LINE
  5
1990
330
1960
100
AcDbEntity
  8
246
100
AcDbLine
 10
-43.01794900000004
 20
-1.732050999999955
 30
0.0
 11
-43.01794900000004
 21
1.732051000000069
 31
0.0
  0
LINE
  5
1991
330
1960
100
AcDbEntity
  8
246
100
AcDbLine
 10
-43.01794900000004
 20
-1.732050999999955
 30
0.0
 11
-40.0
 21
-4.75
 31
0.0
  0
LINE
  5
1992
330
1960
100
AcDbEntity
  8
240
100
AcDbLine
 10
-39.20000000000004
 20
-8.0
 30
0.0
 11
-39.0
 21
-7.799999999999954
 31
0.0
  0
LINE
  5
1993
330
1960
100
AcDbEntity
  8
240
100
AcDbLine
 10
-39.0
 20
-7.799999999999954
 30
0.0
 11
-37.0
 21
-7.799999999999954
 31
0.0
  0
LINE
  5
1994
330
1960
100
AcDbEntity
  8
246
100
AcDbLine
 10
-40.49999999999999
 20
-5.5
 30
0.0
 11
-40.0
 21
-5.0
 31
0.0
  0
LINE
  5
1995
330
1960
100
AcDbEntity
  8
246
100
AcDbLine
 10
-43.01794900000004
 20
-1.732050999999955
 30
0.0
 11
-45.55662499999994
 21
-1.732050999999955
 31
0.0
  0
LINE
  5
1996
330
1960
100
AcDbEntity
  8
246
100
AcDbLine
 10
-43.01794900000004
 20
-0.8660259999999198
 30
0.0
 11
-45.55662499999994
 21
-0.8660259999999198
 31
0.0
  0
HATCH
  5
1997
330
1960
100
AcDbEntity
  8
247
100
AcDbHatch
 10
0.0
 20
0.0
 30
0.0
210
0.0
220
0.0
230
1.0
  2
ANSI31
 70
     0
 71
     1
 91
        1
 92
       33
 93
       10
 72
     1
 10
-33.97345434352494
 20
-4.980452055454022
 11
-34.02560506984331
 21
-5.162330717563397
 72
     1
 10
-34.34905630275347
 20
-4.980452055454022
 11
-33.97345434352494
 21
-4.980452055454022
 72
     1
 10
-34.34905630275347
 20
-5.162330717563397
 11
-34.02560506984331
 21
-5.162330717563397
 72
     2
 10
-34.34905630275348
 20
-5.935308165073163
 40
0.7729774475097657
 50
90.0
 51
270.0
 73
     1
 72
     2
 10
-34.34905630275348
 20
-5.935308165073163
 40
0.9548561096191406
 50
90.0
 51
270.0
 73
     1
 72
     1
 10
-34.34905630275347
 20
-6.890164484588173
 11
-30.65694280788041
 21
-6.890164484588173
 72
     1
 10
-34.34905630275347
 20
-6.70828582715965
 11
-30.65694280788041
 21
-6.70828582715965
 72
     2
 10
-30.65694280788044
 20
-5.935308165073163
 40
0.9548561096191406
 50
270.0
 51
464.7707939660941
 73
     1
 72
     2
 10
-30.65694280788044
 20
-5.935308165073163
 40
0.7729774475097657
 50
270.0
 51
464.1274364964119
 73
     1
 72
     1
 10
-30.84561239406205
 20
-5.185704130649335
 11
-30.90038610622027
 21
-5.012003416538006
 97
       10
330
19BC
330
19C0
330
19BF
330
19C2
330
19B8
330
19AB
330
19AC
330
19FA
330
19FB
330
19F0
 75
     0
 76
     1
 52
360.0
 41
0.045
 77
     0
 78
     1
 53
44.99999999999996
 43
-89.21390640422442
 44
-13.97765998315783
 45
-0.101027881362028
 46
0.101027881362028
 79
     0
 98
        1
 10
-89.21390640422442
 20
-13.97765998315783
  0
LINE
  5
1998
330
1960
100
AcDbEntity
  8
247
100
AcDbLine
 10
-32.94809347316362
 20
-6.617346496104961
 30
0.0
 11
-32.54129720851519
 21
-6.617346496104961
 31
0.0
  0
LINE
  5
1999
330
1960
100
AcDbEntity
  8
247
100
AcDbLine
 10
-32.94809347316362
 20
-6.617346496104961
 30
0.0
 11
-32.53608556911088
 21
-5.180513090610272
 31
0.0
  0
POLYLINE
  5
199A
330
1960
100
AcDbEntity
  8
247
100
AcDb2dPolyline
 66
     1
 10
0.0
 20
0.0
 30
0.0
 70
     1
1001
HATCH_DISTANCE
1040
1.0
1001
HATCH_DISPLAY
1070
     0
1001
HATCH_TYPE
1070
     7
  0
VERTEX
  5
199B
330
199A
100
AcDbEntity
  8
247
100
AcDbVertex
100
AcDb2dVertex
 10
-32.54494329616169
 20
-4.980452055454022
 30
0.0
  0
VERTEX
  5
199C
330
199A
100
AcDbEntity
  8
247
100
AcDbVertex
100
AcDb2dVertex
 10
-32.60231252833942
 20
-5.180513090610272
 30
0.0
  0
VERTEX
  5
199D
330
199A
100
AcDbEntity
  8
247
100
AcDbVertex
100
AcDb2dVertex
 10
-32.53608556911091
 20
-5.180513090610272
 30
0.0
  0
VERTEX
  5
199E
330
199A
100
AcDbEntity
  8
247
100
AcDbVertex
100
AcDb2dVertex
 10
-32.94809347316363
 20
-6.617346496104961
 30
0.0
  0
VERTEX
  5
199F
330
199A
100
AcDbEntity
  8
247
100
AcDbVertex
100
AcDb2dVertex
 10
-32.5412972085152
 20
-6.617346496104961
 30
0.0
  0
VERTEX
  5
19A0
330
199A
100
AcDbEntity
  8
247
100
AcDbVertex
100
AcDb2dVertex
 10
-32.0719269387398
 20
-4.980452055454022
 30
0.0
  0
SEQEND
  5
19A1
330
199A
100
AcDbEntity
  8
247
  0
POLYLINE
  5
19A2
330
1960
100
AcDbEntity
  8
247
100
AcDb2dPolyline
 66
     1
 10
0.0
 20
0.0
 30
0.0
 70
     1
  0
VERTEX
  5
19A3
330
19A2
100
AcDbEntity
  8
247
100
AcDbVertex
100
AcDb2dVertex
 10
-32.54494329616169
 20
-4.980452055454022
 30
0.0
  0
VERTEX
  5
19A4
330
19A2
100
AcDbEntity
  8
247
100
AcDbVertex
100
AcDb2dVertex
 10
-32.60231252833942
 20
-5.180513090610272
 30
0.0
  0
VERTEX
  5
19A5
330
19A2
100
AcDbEntity
  8
247
100
AcDbVertex
100
AcDb2dVertex
 10
-32.53608556911091
 20
-5.180513090610272
 30
0.0
  0
VERTEX
  5
19A6
330
19A2
100
AcDbEntity
  8
247
100
AcDbVertex
100
AcDb2dVertex
 10
-32.94809347316363
 20
-6.617346496104961
 30
0.0
  0
VERTEX
  5
19A7
330
19A2
100
AcDbEntity
  8
247
100
AcDbVertex
100
AcDb2dVertex
 10
-32.5412972085152
 20
-6.617346496104961
 30
0.0
  0
VERTEX
  5
19A8
330
19A2
100
AcDbEntity
  8
247
100
AcDbVertex
100
AcDb2dVertex
 10
-32.0719269387398
 20
-4.980452055454022
 30
0.0
  0
SEQEND
  5
19A9
330
19A2
100
AcDbEntity
  8
247
  0
HATCH
  5
19AA
330
1960
100
AcDbEntity
  8
247
100
AcDbHatch
 10
0.0
 20
0.0
 30
0.0
210
0.0
220
0.0
230
1.0
  2
ANSI31
 70
     0
 71
     0
 91
        1
 92
        7
 72
     0
 73
     1
 93
        6
 10
-32.07192693873979
 20
-4.98045205545402
 10
-32.54494329616166
 20
-4.98045205545402
 10
-32.60231252833939
 20
-5.18051309061027
 10
-32.53608556911088
 20
-5.18051309061027
 10
-32.94809347316362
 20
-6.61734649610496
 10
-32.54129720851519
 20
-6.61734649610496
 97
        0
 75
     0
 76
     1
 52
360.0
 41
0.045
 77
     0
 78
     1
 53
44.99999999999996
 43
-89.21390640422442
 44
-13.97765998315783
 45
-0.101027881362028
 46
0.101027881362028
 79
     0
 47
0.0134348504236232
 98
        1
 10
-32.49716895796225
 20
-5.756038029453271
  0
LINE
  5
19AB
102
{ACAD_REACTORS
330
1997
102
}
330
1960
100
AcDbEntity
  8
247
100
AcDbLine
 10
-34.34905630275347
 20
-6.890164484588173
 30
0.0
 11
-30.65694280788041
 21
-6.890164484588173
 31
0.0
  0
LINE
  5
19AC
102
{ACAD_REACTORS
330
1997
102
}
330
1960
100
AcDbEntity
  8
247
100
AcDbLine
 10
-34.34905630275347
 20
-6.70828582715965
 30
0.0
 11
-30.65694280788041
 21
-6.70828582715965
 31
0.0
  0
LINE
  5
19AD
330
1960
100
AcDbEntity
  8
247
100
AcDbLine
 10
-33.22617373369622
 20
-5.473031552782836
 30
0.0
 11
-32.92181735115663
 21
-5.168675170243241
 31
0.0
  0
ARC
  5
19AE
330
1960
100
AcDbEntity
  8
247
100
AcDbCircle
 10
-33.49885870143512
 20
-6.162656492709882
 30
0.0
 40
0.4546897888183594
100
AcDbArc
 50
270.0
 51
40.32984065416727
  0
ARC
  5
19AF
330
1960
100
AcDbEntity
  8
247
100
AcDbCircle
 10
-33.2902489297066
 20
-5.435141844272382
 30
0.0
 40
0.4546936511993409
100
AcDbArc
 50
287.6695775473979
 51
90.23615984267163
  0
LINE
  5
19B0
330
1960
100
AcDbEntity
  8
247
100
AcDbLine
 10
-33.50577494292726
 20
-5.954688524737959
 30
0.0
 11
-32.85492601836743
 21
-5.30383960017813
 31
0.0
  0
LINE
  5
19B1
330
1960
100
AcDbEntity
  8
247
100
AcDbLine
 10
-33.43524323303617
 20
-6.086212577570917
 30
0.0
 11
-32.83885542747732
 21
-5.489824772012061
 31
0.0
  0
LINE
  5
19B2
330
1960
100
AcDbEntity
  8
247
100
AcDbLine
 10
-33.24948541428153
 20
-5.294287470644101
 30
0.0
 11
-33.02269616415571
 21
-5.067498220518282
 31
0.0
  0
LINE
  5
19B3
330
1960
100
AcDbEntity
  8
247
100
AcDbLine
 10
-33.34508538597047
 20
-5.187831679609032
 30
0.0
 11
-33.15750889818987
 21
-5.000255191828435
 31
0.0
  0
LINE
  5
19B4
330
1960
100
AcDbEntity
  8
247
100
AcDbLine
 10
-33.32611932889075
 20
-6.583255961597674
 30
0.0
 11
-33.07825923254735
 21
-6.33539586525426
 31
0.0
  0
LINE
  5
19B5
330
1960
100
AcDbEntity
  8
247
100
AcDbLine
 10
-33.56226562612212
 20
-6.617346496104997
 30
0.0
 11
-33.04807839570675
 21
-6.103159265689581
 31
0.0
  0
LINE
  5
19B6
330
1960
100
AcDbEntity
  8
247
100
AcDbLine
 10
-33.38366966837942
 20
-5.167084565958488
 30
0.0
 11
-33.53271718728841
 21
-5.686886672373727
 31
0.0
  0
ARC
  5
19B7
330
1960
100
AcDbEntity
  8
247
100
AcDbCircle
 10
-33.49315954372028
 20
-5.416959471225506
 30
0.0
 40
0.2728103756904602
100
AcDbArc
 50
261.6626016879294
 51
66.33815509518976
  0
ARC
  5
19B8
102
{ACAD_REACTORS
330
1997
102
}
330
1960
100
AcDbEntity
  8
247
100
AcDbCircle
 10
-34.34905630275348
 20
-5.935308165073163
 30
0.0
 40
0.9548561096191406
100
AcDbArc
 50
90.0
 51
270.0
  0
LINE
  5
19B9
330
1960
100
AcDbEntity
  8
247
100
AcDbLine
 10
-33.92575171209708
 20
-5.162330717563431
 30
0.0
 11
-33.74387304998771
 21
-4.980452055454057
 31
0.0
  0
LINE
  5
19BA
330
1960
100
AcDbEntity
  8
247
100
AcDbLine
 10
-33.96637715157025
 20
-6.617346496104961
 30
0.0
 11
-33.73244065774726
 21
-6.383410002281995
 31
0.0
  0
LINE
  5
19BB
330
1960
100
AcDbEntity
  8
247
100
AcDbLine
 10
-34.16843291429429
 20
-6.617346496104961
 30
0.0
 11
-33.65121347028413
 21
-6.100127052094788
 31
0.0
  0
LINE
  5
19BC
102
{ACAD_REACTORS
330
1997
102
}
330
1960
100
AcDbEntity
  8
247
100
AcDbLine
 10
-33.97345434352494
 20
-4.980452055454022
 30
0.0
 11
-34.02560506984331
 21
-5.162330717563397
 31
0.0
  0
LINE
  5
19BD
330
1960
100
AcDbEntity
  8
247
100
AcDbLine
 10
-33.87885519191351
 20
-4.980452055454022
 30
0.0
 11
-33.93100591823218
 21
-5.162330717563397
 31
0.0
  0
LINE
  5
19BE
330
1960
100
AcDbEntity
  8
247
100
AcDbLine
 10
-33.93100591823218
 20
-5.162330717563397
 30
0.0
 11
-33.83639990016577
 21
-5.162330717563943
 31
0.0
  0
LINE
  5
19BF
102
{ACAD_REACTORS
330
1997
102
}
330
1960
100
AcDbEntity
  8
247
100
AcDbLine
 10
-34.34905630275347
 20
-5.162330717563397
 30
0.0
 11
-34.02560506984331
 21
-5.162330717563397
 31
0.0
  0
LINE
  5
19C0
102
{ACAD_REACTORS
330
1997
102
}
330
1960
100
AcDbEntity
  8
247
100
AcDbLine
 10
-34.34905630275347
 20
-4.980452055454022
 30
0.0
 11
-33.97345434352494
 21
-4.980452055454022
 31
0.0
  0
LINE
  5
19C1
330
1960
100
AcDbEntity
  8
247
100
AcDbLine
 10
-34.25361944362261
 20
-6.617346496104961
 30
0.0
 11
-33.83639990016577
 21
-5.162330717563943
 31
0.0
  0
ARC
  5
19C2
102
{ACAD_REACTORS
330
1997
102
}
330
1960
100
AcDbEntity
  8
247
100
AcDbCircle
 10
-34.34905630275348
 20
-5.935308165073163
 30
0.0
 40
0.7729774475097657
100
AcDbArc
 50
90.0
 51
270.0
  0
LINE
  5
19C3
330
1960
100
AcDbEntity
  8
247
100
AcDbLine
 10
-33.59227726935282
 20
-5.894584777468858
 30
0.0
 11
-33.74132724028186
 21
-6.414402301733869
 31
0.0
  0
LINE
  5
19C4
330
1960
100
AcDbEntity
  8
247
100
AcDbLine
 10
-33.76432138884621
 20
-6.617346496104961
 30
0.0
 11
-33.09696722493157
 21
-5.949992332190358
 31
0.0
  0
LINE
  5
19C5
330
1960
100
AcDbEntity
  8
247
100
AcDbLine
 10
-33.96294102599786
 20
-5.603631556912332
 30
0.0
 11
-33.33976152453961
 21
-4.98045205545409
 31
0.0
  0
LINE
  5
19C6
330
1960
100
AcDbEntity
  8
247
100
AcDbLine
 10
-33.88170965299169
 20
-5.320344421182076
 30
0.0
 11
-33.54181728726366
 21
-4.98045205545409
 31
0.0
  0
LINE
  5
19C7
330
1960
100
AcDbEntity
  8
247
100
AcDbLine
 10
-33.87885519191351
 20
-4.980452055454022
 30
0.0
 11
-33.29212306560278
 21
-4.98045205545409
 31
0.0
  0
LINE
  5
19C8
330
1960
100
AcDbEntity
  8
247
100
AcDbLine
 10
-34.20663514501642
 20
-6.453492964103067
 30
0.0
 11
-33.43708746216296
 21
-5.68394528124958
 31
0.0
  0
LINE
  5
19C9
330
1960
100
AcDbEntity
  8
247
100
AcDbLine
 10
-34.04417239900407
 20
-5.886918692642555
 30
0.0
 11
-33.40752155767241
 21
-5.250267851310902
 31
0.0
  0
LINE
  5
19CA
330
1960
100
AcDbEntity
  8
247
100
AcDbLine
 10
-34.12540377201024
 20
-6.170205828372812
 30
0.0
 11
-33.48875024945432
 21
-5.533552305816922
 31
0.0
  0
LINE
  5
19CB
330
1960
100
AcDbEntity
  8
247
100
AcDbLine
 10
-34.25361944362261
 20
-6.617346496104961
 30
0.0
 11
-33.49885870143511
 21
-6.617346496104961
 31
0.0
  0
ARC
  5
19CC
330
1960
100
AcDbEntity
  8
247
100
AcDbCircle
 10
-33.7017693154488
 20
-6.144467253207928
 30
0.0
 40
0.2728181809186935
100
AcDbArc
 50
261.6628542111488
 51
66.33819215911005
  0
HATCH
  5
19CD
330
1960
100
AcDbEntity
  8
247
100
AcDbHatch
 10
0.0
 20
0.0
 30
0.0
210
0.0
220
0.0
230
1.0
  2
ANSI31
 70
     0
 71
     1
 91
        1
 92
       33
 93
       15
 72
     1
 10
-30.93234258815385
 20
-5.213053221225506
 11
-30.98711630031205
 21
-5.039352507114179
 72
     2
 10
-30.65694280788044
 20
-5.935308165073163
 40
0.7729795932769776
 50
110.8721834020771
 51
132.5419489373868
 73
     1
 72
     2
 10
-31.37046362086872
 20
-5.371489805698163
 40
0.1909725040197372
 50
1.710121382062761
 51
163.9983983544485
 73
     1
 72
     1
 10
-31.79915701076128
 20
-6.173670286655194
 11
-31.55403829738237
 21
-5.318844694614178
 72
     2
 10
-31.61558233424762
 20
-6.226308531284101
 40
0.1909723699092865
 50
164.0002730571839
 51
344.0002730571838
 73
     1
 72
     1
 10
-31.43200765773393
 20
-6.278946775913007
 11
-31.31521612331011
 21
-5.871649260043866
 72
     1
 10
-31.46658025905229
 20
-5.871649260043866
 11
-31.31521612331011
 21
-5.871649260043866
 72
     1
 10
-31.46658025905229
 20
-5.871649260043866
 11
-31.41442953273393
 21
-5.689770597934491
 72
     1
 10
-31.41442953273393
 20
-5.689770597934491
 11
-30.8846481911812
 21
-5.689770597934491
 72
     1
 10
-31.15062719508745
 20
-6.617346496104961
 11
-30.8846481911812
 21
-5.689770597934491
 72
     1
 10
-31.25731817409135
 20
-6.510662383556135
 11
-31.15062719508745
 21
-6.617346496104961
 72
     2
 10
-31.59605413600543
 20
-6.02624749612785
 40
0.5911056518554688
 50
163.9997507017293
 51
304.9638732916317
 73
     1
 72
     2
 10
-30.62962804957965
 20
-6.057325071811445
 40
1.546847534179687
 50
155.2051773698404
 51
172.7948259620522
 73
     1
 72
     2
 10
-31.465673886982
 20
-5.571550840854412
 40
0.5910996437072754
 50
53.44401219705755
 51
164.0001843876852
 73
     1
 72
     2
 10
-30.65694280788044
 20
-5.935308165073163
 40
0.954856538772583
 50
110.22964506332
 51
118.5716889237176
 73
     1
 97
       15
330
19F2
330
19D7
330
19F3
330
19D0
330
19CF
330
19F8
330
19F6
330
19F4
330
19F5
330
19F9
330
19F7
330
19D1
330
19D5
330
19CE
330
19F1
 75
     0
 76
     1
 52
360.0
 41
0.045
 77
     0
 78
     1
 53
44.99999999999996
 43
-89.21390640422442
 44
-13.97765998315783
 45
-0.101027881362028
 46
0.101027881362028
 79
     0
 98
        1
 10
-89.21390640422442
 20
-13.97765998315783
  0
ARC
  5
19CE
102
{ACAD_REACTORS
330
19CD
102
}
330
1960
100
AcDbEntity
  8
247
100
AcDbCircle
 10
-31.465673886982
 20
-5.571550840854412
 30
0.0
 40
0.5910996437072754
100
AcDbArc
 50
53.44401219705755
 51
164.0001843876852
  0
ARC
  5
19CF
102
{ACAD_REACTORS
330
19CD
102
}
330
1960
100
AcDbEntity
  8
247
100
AcDbCircle
 10
-31.61558233424762
 20
-6.226308531284101
 30
0.0
 40
0.1909723699092865
100
AcDbArc
 50
164.0002730571839
 51
344.0002730571838
  0
LINE
  5
19D0
102
{ACAD_REACTORS
330
19CD
102
}
330
1960
100
AcDbEntity
  8
247
100
AcDbLine
 10
-31.79915701076128
 20
-6.173670286655194
 30
0.0
 11
-31.55403829738237
 21
-5.318844694614178
 31
0.0
  0
ARC
  5
19D1
102
{ACAD_REACTORS
330
19CD
102
}
330
1960
100
AcDbEntity
  8
247
100
AcDbCircle
 10
-31.59605413600543
 20
-6.02624749612785
 30
0.0
 40
0.5911056518554688
100
AcDbArc
 50
163.9997507017293
 51
304.9638732916317
  0
LINE
  5
19D2
330
1960
100
AcDbEntity
  8
247
100
AcDbLine
 10
-32.60231252833939
 20
-5.180513090610272
 30
0.0
 11
-32.54494329616166
 21
-4.980452055454022
 31
0.0
  0
LINE
  5
19D3
330
1960
100
AcDbEntity
  8
247
100
AcDbLine
 10
-32.60231252833939
 20
-5.180513090610272
 30
0.0
 11
-32.53608556911088
 21
-5.180513090610272
 31
0.0
  0
LINE
  5
19D4
330
1960
100
AcDbEntity
  8
247
100
AcDbLine
 10
-32.54494329616166
 20
-4.980452055454022
 30
0.0
 11
-32.07192693873979
 21
-4.980452055454022
 31
0.0
  0
ARC
  5
19D5
102
{ACAD_REACTORS
330
19CD
102
}
330
1960
100
AcDbEntity
  8
247
100
AcDbCircle
 10
-30.62962804957965
 20
-6.057325071811445
 30
0.0
 40
1.546847534179687
100
AcDbArc
 50
155.2051773698404
 51
172.7948259620522
  0
LINE
  5
19D6
330
1960
100
AcDbEntity
  8
247
100
AcDbLine
 10
-32.54129720851519
 20
-6.617346496104961
 30
0.0
 11
-32.07192693873979
 21
-4.980452055454022
 31
0.0
  0
ARC
  5
19D7
102
{ACAD_REACTORS
330
19CD
102
}
330
1960
100
AcDbEntity
  8
247
100
AcDbCircle
 10
-30.65694280788044
 20
-5.935308165073163
 30
0.0
 40
0.7729795932769776
100
AcDbArc
 50
110.8721834020771
 51
132.5419489373868
  0
POLYLINE
  5
19D8
330
1960
100
AcDbEntity
  8
247
100
AcDb2dPolyline
 66
     1
 10
0.0
 20
0.0
 30
0.0
 70
     1
1001
HATCH_DISTANCE
1040
1.0
1001
HATCH_DISPLAY
1070
     0
1001
HATCH_TYPE
1070
     7
  0
VERTEX
  5
19D9
330
19D8
100
AcDbEntity
  8
247
100
AcDbVertex
100
AcDb2dVertex
 10
-30.84561239406207
 20
-5.185704130649335
 30
0.0
  0
VERTEX
  5
19DA
330
19D8
100
AcDbEntity
  8
247
100
AcDbVertex
100
AcDb2dVertex
 10
-30.90038610622028
 20
-5.012003416538006
 30
0.0
  0
VERTEX
  5
19DB
330
19D8
100
AcDbEntity
  8
247
100
AcDbVertex
100
AcDb2dVertex
 10
-30.90038610622028
 20
-5.012003416538006
 30
0.0
  0
VERTEX
  5
19DC
330
19D8
100
AcDbEntity
  8
247
100
AcDbVertex
100
AcDb2dVertex
 10
-30.84561239406207
 20
-5.185704130649335
 30
0.0
  0
SEQEND
  5
19DD
330
19D8
100
AcDbEntity
  8
247
  0
POLYLINE
  5
19DE
330
1960
100
AcDbEntity
  8
247
100
AcDb2dPolyline
 66
     1
 10
0.0
 20
0.0
 30
0.0
 70
     1
  0
VERTEX
  5
19DF
330
19DE
100
AcDbEntity
  8
247
100
AcDbVertex
100
AcDb2dVertex
 10
-30.84561239406207
 20
-5.185704130649335
 30
0.0
  0
VERTEX
  5
19E0
330
19DE
100
AcDbEntity
  8
247
100
AcDbVertex
100
AcDb2dVertex
 10
-30.90038610622028
 20
-5.012003416538006
 30
0.0
  0
VERTEX
  5
19E1
330
19DE
100
AcDbEntity
  8
247
100
AcDbVertex
100
AcDb2dVertex
 10
-30.90038610622028
 20
-5.012003416538006
 30
0.0
  0
VERTEX
  5
19E2
330
19DE
100
AcDbEntity
  8
247
100
AcDbVertex
100
AcDb2dVertex
 10
-30.84561239406207
 20
-5.185704130649335
 30
0.0
  0
SEQEND
  5
19E3
330
19DE
100
AcDbEntity
  8
247
  0
POLYLINE
  5
19E4
330
1960
100
AcDbEntity
  8
247
100
AcDb2dPolyline
 66
     1
 10
0.0
 20
0.0
 30
0.0
 70
     1
1001
HATCH_DISTANCE
1040
1.0
1001
HATCH_DISPLAY
1070
     0
1001
HATCH_TYPE
1070
     7
  0
VERTEX
  5
19E5
330
19E4
100
AcDbEntity
  8
247
100
AcDbVertex
100
AcDb2dVertex
 10
-30.84561239406207
 20
-5.185704130649335
 30
0.0
  0
VERTEX
  5
19E6
330
19E4
100
AcDbEntity
  8
247
100
AcDbVertex
100
AcDb2dVertex
 10
-30.90038610622028
 20
-5.012003416538006
 30
0.0
  0
VERTEX
  5
19E7
330
19E4
100
AcDbEntity
  8
247
100
AcDbVertex
100
AcDb2dVertex
 10
-30.90038610622028
 20
-5.012003416538006
 30
0.0
  0
VERTEX
  5
19E8
330
19E4
100
AcDbEntity
  8
247
100
AcDbVertex
100
AcDb2dVertex
 10
-30.84561239406207
 20
-5.185704130649335
 30
0.0
  0
SEQEND
  5
19E9
330
19E4
100
AcDbEntity
  8
247
  0
POLYLINE
  5
19EA
330
1960
100
AcDbEntity
  8
247
100
AcDb2dPolyline
 66
     1
 10
0.0
 20
0.0
 30
0.0
 70
     1
  0
VERTEX
  5
19EB
330
19EA
100
AcDbEntity
  8
247
100
AcDbVertex
100
AcDb2dVertex
 10
-30.84561239406207
 20
-5.185704130649335
 30
0.0
  0
VERTEX
  5
19EC
330
19EA
100
AcDbEntity
  8
247
100
AcDbVertex
100
AcDb2dVertex
 10
-30.90038610622028
 20
-5.012003416538006
 30
0.0
  0
VERTEX
  5
19ED
330
19EA
100
AcDbEntity
  8
247
100
AcDbVertex
100
AcDb2dVertex
 10
-30.90038610622028
 20
-5.012003416538006
 30
0.0
  0
VERTEX
  5
19EE
330
19EA
100
AcDbEntity
  8
247
100
AcDbVertex
100
AcDb2dVertex
 10
-30.84561239406207
 20
-5.185704130649335
 30
0.0
  0
SEQEND
  5
19EF
330
19EA
100
AcDbEntity
  8
247
  0
LINE
  5
19F0
102
{ACAD_REACTORS
330
1997
102
}
330
1960
100
AcDbEntity
  8
247
100
AcDbLine
 10
-30.84561239406205
 20
-5.185704130649335
 30
0.0
 11
-30.90038610622027
 21
-5.012003416538006
 31
0.0
  0
ARC
  5
19F1
102
{ACAD_REACTORS
330
19CD
102
}
330
1960
100
AcDbEntity
  8
247
100
AcDbCircle
 10
-30.65694280788044
 20
-5.935308165073163
 30
0.0
 40
0.954856538772583
100
AcDbArc
 50
110.22964506332
 51
118.5716889237176
  0
LINE
  5
19F2
102
{ACAD_REACTORS
330
19CD
102
}
330
1960
100
AcDbEntity
  8
247
100
AcDbLine
 10
-30.93234258815385
 20
-5.213053221225506
 30
0.0
 11
-30.98711630031205
 21
-5.039352507114179
 31
0.0
  0
ARC
  5
19F3
102
{ACAD_REACTORS
330
19CD
102
}
330
1960
100
AcDbEntity
  8
247
100
AcDbCircle
 10
-31.37046362086872
 20
-5.371489805698163
 30
0.0
 40
0.1909725040197372
100
AcDbArc
 50
1.710121382062761
 51
163.9983983544485
  0
LINE
  5
19F4
102
{ACAD_REACTORS
330
19CD
102
}
330
1960
100
AcDbEntity
  8
247
100
AcDbLine
 10
-31.46658025905229
 20
-5.871649260043866
 30
0.0
 11
-31.41442953273393
 21
-5.689770597934491
 31
0.0
  0
LINE
  5
19F5
102
{ACAD_REACTORS
330
19CD
102
}
330
1960
100
AcDbEntity
  8
247
100
AcDbLine
 10
-31.41442953273393
 20
-5.689770597934491
 30
0.0
 11
-30.8846481911812
 21
-5.689770597934491
 31
0.0
  0
LINE
  5
19F6
102
{ACAD_REACTORS
330
19CD
102
}
330
1960
100
AcDbEntity
  8
247
100
AcDbLine
 10
-31.46658025905229
 20
-5.871649260043866
 30
0.0
 11
-31.31521612331011
 21
-5.871649260043866
 31
0.0
  0
LINE
  5
19F7
102
{ACAD_REACTORS
330
19CD
102
}
330
1960
100
AcDbEntity
  8
247
100
AcDbLine
 10
-31.25731817409135
 20
-6.510662383556135
 30
0.0
 11
-31.15062719508745
 21
-6.617346496104961
 31
0.0
  0
LINE
  5
19F8
102
{ACAD_REACTORS
330
19CD
102
}
330
1960
100
AcDbEntity
  8
247
100
AcDbLine
 10
-31.43200765773393
 20
-6.278946775913007
 30
0.0
 11
-31.31521612331011
 21
-5.871649260043866
 31
0.0
  0
LINE
  5
19F9
102
{ACAD_REACTORS
330
19CD
102
}
330
1960
100
AcDbEntity
  8
247
100
AcDbLine
 10
-31.15062719508745
 20
-6.617346496104961
 30
0.0
 11
-30.8846481911812
 21
-5.689770597934491
 31
0.0
  0
ARC
  5
19FA
102
{ACAD_REACTORS
330
1997
102
}
330
1960
100
AcDbEntity
  8
247
100
AcDbCircle
 10
-30.65694280788044
 20
-5.935308165073163
 30
0.0
 40
0.9548561096191406
100
AcDbArc
 50
270.0
 51
104.7707939660941
  0
ARC
  5
19FB
102
{ACAD_REACTORS
330
1997
102
}
330
1960
100
AcDbEntity
  8
247
100
AcDbCircle
 10
-30.65694280788044
 20
-5.935308165073163
 30
0.0
 40
0.7729774475097657
100
AcDbArc
 50
270.0
 51
104.1274364964119
  0
LINE
  5
19FC
330
1960
100
AcDbEntity
  8
246
100
AcDbLine
 10
-40.0
 20
5.0
 30
0.0
 11
-40.49999999999999
 21
5.5
 31
0.0
  0
LINE
  5
19FD
330
1960
100
AcDbEntity
  8
246
100
AcDbLine
 10
-43.01794900000004
 20
1.732051000000069
 30
0.0
 11
-40.0
 21
4.75
 31
0.0
  0
LINE
  5
19FE
330
1960
100
AcDbEntity
  8
246
100
AcDbLine
 10
-43.01794900000004
 20
1.732051000000069
 30
0.0
 11
-45.55662499999994
 21
1.732051000000069
 31
0.0
  0
LINE
  5
19FF
330
1960
100
AcDbEntity
  8
246
100
AcDbLine
 10
-43.01794900000004
 20
0.866025000000036
 30
0.0
 11
-45.55662499999994
 21
0.866025000000036
 31
0.0
  0
LINE
  5
1A00
330
1960
100
AcDbEntity
  8
240
100
AcDbLine
 10
-37.0
 20
7.800000000000068
 30
0.0
 11
-37.0
 21
9.5
 31
0.0
  0
LINE
  5
1A01
330
1960
100
AcDbEntity
  8
240
100
AcDbLine
 10
-39.20000000000004
 20
8.0
 30
0.0
 11
-39.0
 21
7.800000000000068
 31
0.0
  0
LINE
  5
1A02
330
1960
100
AcDbEntity
  8
240
100
AcDbLine
 10
-39.0
 20
7.800000000000068
 30
0.0
 11
-37.0
 21
7.800000000000068
 31
0.0
  0
LINE
  5
1A03
330
1960
100
AcDbEntity
  8
241
100
AcDbLine
 10
-12.5
 20
0.0
 30
0.0
 11
-12.5
 21
-10.5
 31
0.0
  0
LINE
  5
1A04
330
1960
100
AcDbEntity
  8
241
100
AcDbLine
 10
-12.14999999999997
 20
0.0
 30
0.0
 11
-12.14999999999997
 21
-11.59999999999991
 31
0.0
  0
LINE
  5
1A05
330
1960
100
AcDbEntity
  8
241
100
AcDbLine
 10
-15.0
 20
-10.0
 30
0.0
 11
-15.0
 21
0.0
 31
0.0
  0
LINE
  5
1A06
330
1960
100
AcDbEntity
  8
240
100
AcDbLine
 10
0.0
 20
-13.85147199999994
 30
0.0
 11
0.0
 21
0.0
 31
0.0
  0
LINE
  5
1A07
330
1960
100
AcDbEntity
  8
241
100
AcDbLine
 10
-4.5
 20
-13.67526599999996
 30
0.0
 11
-12.14999999999997
 21
-13.67526599999996
 31
0.0
  0
LINE
  5
1A08
330
1960
100
AcDbEntity
  8
241
100
AcDbLine
 10
-4.5
 20
-12.17526599999996
 30
0.0
 11
-12.14999999999997
 21
-12.17526599999996
 31
0.0
  0
LINE
  5
1A09
330
1960
100
AcDbEntity
  8
240
100
AcDbLine
 10
-11.45000000000004
 20
-15.0
 30
0.0
 11
-1.189949999999953
 21
-15.0
 31
0.0
  0
LINE
  5
1A0A
330
1960
100
AcDbEntity
  8
240
100
AcDbLine
 10
-12.14999999999997
 20
-14.29999999999995
 30
0.0
 11
-12.14999999999997
 21
-11.59999999999991
 31
0.0
  0
ARC
  5
1A0B
330
1960
100
AcDbEntity
  8
240
100
AcDbCircle
 10
-11.45000000000004
 20
-14.29999999999995
 30
0.0
 40
0.7
100
AcDbArc
 50
180.0
 51
270.0
  0
LINE
  5
1A0C
330
1960
100
AcDbEntity
  8
242
100
AcDbLine
 10
-15.0
 20
-10.0
 30
0.0
 11
-15.5
 21
-10.5
 31
0.0
  0
LINE
  5
1A0D
330
1960
100
AcDbEntity
  8
240
100
AcDbLine
 10
-12.5
 20
-11.25
 30
0.0
 11
-12.14999999999997
 21
-11.59999999999991
 31
0.0
  0
LINE
  5
1A0E
330
1960
100
AcDbEntity
  8
240
100
AcDbLine
 10
-12.5
 20
-10.5
 30
0.0
 11
-12.5
 21
-11.25
 31
0.0
  0
LINE
  5
1A0F
330
1960
100
AcDbEntity
  8
242
100
AcDbLine
 10
-12.5
 20
-10.0
 30
0.0
 11
-15.0
 21
-10.0
 31
0.0
  0
LINE
  5
1A10
330
1960
100
AcDbEntity
  8
241
100
AcDbLine
 10
-4.5
 20
-12.17526599999996
 30
0.0
 11
-4.5
 21
-13.67526599999996
 31
0.0
  0
ARC
  5
1A11
330
1960
100
AcDbEntity
  8
240
100
AcDbCircle
 10
-0.6000000000000228
 20
-13.85147199999994
 30
0.0
 40
0.6
100
AcDbArc
 50
314.9999999999993
 51
0.0
  0
LINE
  5
1A12
330
1960
100
AcDbEntity
  8
240
100
AcDbLine
 10
-0.6949749999999995
 20
-14.79497499999991
 30
0.0
 11
-0.1757359999999153
 21
-14.27573599999993
 31
0.0
  0
ARC
  5
1A13
330
1960
100
AcDbEntity
  8
240
100
AcDbCircle
 10
-1.189949999999953
 20
-14.29999999999995
 30
0.0
 40
0.7
100
AcDbArc
 50
270.0
 51
314.9999999999993
  0
LINE
  5
1A14
330
1960
100
AcDbEntity
  8
241
100
AcDbLine
 10
-4.5
 20
-1.5
 30
0.0
 11
-12.14999999999997
 21
-1.5
 31
0.0
  0
LINE
  5
1A15
330
1960
100
AcDbEntity
  8
241
100
AcDbLine
 10
-4.5
 20
1.5
 30
0.0
 11
-12.14999999999997
 21
1.5
 31
0.0
  0
LINE
  5
1A16
330
1960
100
AcDbEntity
  8
246
100
AcDbLine
 10
-27.0
 20
-5.0
 30
0.0
 11
0.0
 21
-5.0
 31
0.0
  0
LINE
  5
1A17
330
1960
100
AcDbEntity
  8
246
100
AcDbLine
 10
-4.600000000000022
 20
-8.25
 30
0.0
 11
-27.0
 21
-5.895665000000008
 31
0.0
  0
LINE
  5
1A18
330
1960
100
AcDbEntity
  8
246
100
AcDbLine
 10
-27.0
 20
5.0
 30
0.0
 11
0.0
 21
5.0
 31
0.0
  0
LINE
  5
1A19
330
1960
100
AcDbEntity
  8
246
100
AcDbLine
 10
-27.0
 20
5.866415000000074
 30
0.0
 11
-4.600000000000022
 21
8.25
 31
0.0
  0
LINE
  5
1A1A
330
1960
100
AcDbEntity
  8
246
100
AcDbLine
 10
-27.00000000000002
 20
5.866415000000188
 30
0.0
 11
-27.00000000000057
 21
-5.895664999999951
 31
0.0
  0
LINE
  5
1A1B
330
1960
100
AcDbEntity
  8
241
100
AcDbLine
 10
-15.0
 20
10.0
 30
0.0
 11
-15.0
 21
0.0
 31
0.0
  0
LINE
  5
1A1C
330
1960
100
AcDbEntity
  8
242
100
AcDbLine
 10
-12.5
 20
10.0
 30
0.0
 11
-15.0
 21
10.0
 31
0.0
  0
LINE
  5
1A1D
330
1960
100
AcDbEntity
  8
241
100
AcDbLine
 10
-4.5
 20
1.5
 30
0.0
 11
-4.5
 21
0.0
 31
0.0
  0
LINE
  5
1A1E
330
1960
100
AcDbEntity
  8
246
100
AcDbLine
 10
-2.5
 20
-8.25
 30
0.0
 11
-2.299999999999954
 21
-8.25
 31
0.0
  0
LINE
  5
1A1F
330
1960
100
AcDbEntity
  8
246
100
AcDbLine
 10
-4.600000000000022
 20
-7.0
 30
0.0
 11
-2.5
 21
-7.0
 31
0.0
  0
LINE
  5
1A20
330
1960
100
AcDbEntity
  8
246
100
AcDbLine
 10
-4.600000000000022
 20
-7.0
 30
0.0
 11
-4.600000000000022
 21
-8.25
 31
0.0
  0
LINE
  5
1A21
330
1960
100
AcDbEntity
  8
246
100
AcDbLine
 10
-2.5
 20
-8.25
 30
0.0
 11
-2.5
 21
-7.0
 31
0.0
  0
LINE
  5
1A22
330
1960
100
AcDbEntity
  8
241
100
AcDbLine
 10
-4.5
 20
-1.5
 30
0.0
 11
-4.5
 21
0.0
 31
0.0
  0
LINE
  5
1A23
330
1960
100
AcDbEntity
  8
246
100
AcDbLine
 10
0.0
 20
-6.922094000000015
 30
0.0
 11
-2.299999999999954
 21
-8.25
 31
0.0
  0
LINE
  5
1A24
330
1960
100
AcDbEntity
  8
246
100
AcDbLine
 10
-2.5
 20
8.25
 30
0.0
 11
-2.299999999999954
 21
8.25
 31
0.0
  0
LINE
  5
1A25
330
1960
100
AcDbEntity
  8
246
100
AcDbLine
 10
-4.600000000000022
 20
7.0
 30
0.0
 11
-2.5
 21
7.0
 31
0.0
  0
LINE
  5
1A26
330
1960
100
AcDbEntity
  8
246
100
AcDbLine
 10
-4.600000000000022
 20
7.0
 30
0.0
 11
-4.600000000000022
 21
8.25
 31
0.0
  0
LINE
  5
1A27
330
1960
100
AcDbEntity
  8
246
100
AcDbLine
 10
-2.5
 20
8.25
 30
0.0
 11
-2.5
 21
7.0
 31
0.0
  0
LINE
  5
1A28
330
1960
100
AcDbEntity
  8
246
100
AcDbLine
 10
0.0
 20
6.922094000000129
 30
0.0
 11
-2.299999999999954
 21
8.25
 31
0.0
  0
LINE
  5
1A29
330
1960
100
AcDbEntity
  8
240
100
AcDbLine
 10
-36.0
 20
10.5
 30
0.0
 11
-12.5
 21
10.5
 31
0.0
  0
LINE
  5
1A2A
330
1960
100
AcDbEntity
  8
241
100
AcDbLine
 10
-4.5
 20
12.17526600000008
 30
0.0
 11
-12.14999999999997
 21
12.17526600000008
 31
0.0
  0
LINE
  5
1A2B
330
1960
100
AcDbEntity
  8
241
100
AcDbLine
 10
-4.5
 20
13.67526600000007
 30
0.0
 11
-12.14999999999997
 21
13.67526600000007
 31
0.0
  0
LINE
  5
1A2C
330
1960
100
AcDbEntity
  8
240
100
AcDbLine
 10
-11.45000000000004
 20
15.0
 30
0.0
 11
-1.189949999999953
 21
15.0
 31
0.0
  0
ARC
  5
1A2D
330
1960
100
AcDbEntity
  8
240
100
AcDbCircle
 10
-11.45000000000004
 20
14.30000000000006
 30
0.0
 40
0.7
100
AcDbArc
 50
90.0
 51
180.0
  0
LINE
  5
1A2E
330
1960
100
AcDbEntity
  8
240
100
AcDbLine
 10
-12.5
 20
10.5
 30
0.0
 11
-12.5
 21
11.25
 31
0.0
  0
LINE
  5
1A2F
330
1960
100
AcDbEntity
  8
240
100
AcDbLine
 10
-12.5
 20
11.25
 30
0.0
 11
-12.14999999999997
 21
11.60000000000002
 31
0.0
  0
LINE
  5
1A30
330
1960
100
AcDbEntity
  8
240
100
AcDbLine
 10
-12.14999999999997
 20
14.30000000000006
 30
0.0
 11
-12.14999999999997
 21
11.60000000000002
 31
0.0
  0
LINE
  5
1A31
330
1960
100
AcDbEntity
  8
241
100
AcDbLine
 10
-4.5
 20
12.17526600000008
 30
0.0
 11
-4.5
 21
13.67526600000007
 31
0.0
  0
ARC
  5
1A32
330
1960
100
AcDbEntity
  8
240
100
AcDbCircle
 10
-1.189949999999953
 20
14.30000000000006
 30
0.0
 40
0.7
100
AcDbArc
 50
45.00000000000063
 51
90.0
  0
LINE
  5
1A33
330
1960
100
AcDbEntity
  8
240
100
AcDbLine
 10
-0.1757359999999153
 20
14.27573600000005
 30
0.0
 11
-0.6949749999999995
 21
14.79497500000002
 31
0.0
  0
ARC
  5
1A34
330
1960
100
AcDbEntity
  8
240
100
AcDbCircle
 10
-0.6000000000000228
 20
13.85147200000005
 30
0.0
 40
0.6
100
AcDbArc
 50
0.0
 51
45.00000000000063
  0
ENDBLK
  5
1A36
330
1960
100
AcDbEntity
  8
0
100
AcDbBlockEnd
  0
BLOCK
  5
1A4C
330
1A42
100
AcDbEntity
  8
0
100
AcDbBlockBegin
  2
*D8
 70
     1
 10
0.0
 20
0.0
 30
0.0
  3
*D8
  1

  0
LINE
  5
1A4E
330
1A42
100
AcDbEntity
  8
250
  6
CONTINUOUS
100
AcDbLine
 10
-69.5
 20
-7.999999999999978
 30
0.0
 11
-85.0
 21
-7.999999999999974
 31
0.0
  0
LINE
  5
1A4F
330
1A42
100
AcDbEntity
  8
250
  6
CONTINUOUS
100
AcDbLine
 10
-69.5
 20
7.99999999999999
 30
0.0
 11
-85.0
 21
7.999999999999994
 31
0.0
  0
LINE
  5
1A50
330
1A42
100
AcDbEntity
  8
250
  6
CONTINUOUS
100
AcDbLine
 10
-84.0
 20
-5.769999999999973
 30
0.0
 11
-84.0
 21
5.769999999999995
 31
0.0
  0
INSERT
  5
1A51
330
1A42
100
AcDbEntity
  8
250
  6
CONTINUOUS
100
AcDbBlockReference
  2
_OPEN
 10
-84.0
 20
-7.999999999999974
 30
0.0
 41
2.229999999999999
 42
2.229999999999999
 43
2.229999999999999
 50
270.0
  0
INSERT
  5
1A52
330
1A42
100
AcDbEntity
  8
250
  6
CONTINUOUS
100
AcDbBlockReference
  2
_OPEN
 10
-84.0
 20
7.999999999999994
 30
0.0
 41
2.229999999999999
 42
2.229999999999999
 43
2.229999999999999
 50
90.0
  0
MTEXT
  5
1A53
330
1A42
100
AcDbEntity
  8
250
  6
CONTINUOUS
 62
    40
100
AcDbMText
 10
-86.5
 20
-0.0000000000000025
 30
0.0
 40
3.0
 41
0.0
 71
     5
 72
     1
  1
\A1;{\H3;\U+2205}16
 11
0.0000000000000001
 21
1.0
 31
0.0
1001
ACAD
1000
MTEXTBEGIN
1070
    73
1070
     1
1070
    44
1040
1.0
1070
    74
1070
     0
1000
MTEXTEND
  0
POINT
  5
1A54
330
1A42
100
AcDbEntity
  8
DEFPOINTS
  6
CONTINUOUS
 62
     0
100
AcDbPoint
 10
-69.0
 20
-7.999999999999978
 30
0.0
  0
POINT
  5
1A55
330
1A42
100
AcDbEntity
  8
DEFPOINTS
  6
CONTINUOUS
 62
     0
100
AcDbPoint
 10
-69.0
 20
7.99999999999999
 30
0.0
  0
POINT
  5
1A56
330
1A42
100
AcDbEntity
  8
DEFPOINTS
  6
CONTINUOUS
 62
     0
100
AcDbPoint
 10
-84.0
 20
7.999999999999994
 30
0.0
  0
ENDBLK
  5
1A4D
330
1A42
100
AcDbEntity
  8
0
100
AcDbBlockEnd
  0
ENDSEC
  0
SECTION
  2
ENTITIES
  0
TEXT
  5
13C1
330
1A
100
AcDbEntity
  8
241
100
AcDbText
 10
-74.0
 20
49.0
 30
0.0
 40
5.0
  1
SL16-NBS10-40
  7
YOKO
 11
-74.0
 21
49.0
 31
0.0
100
AcDbText
 73
     1
  0
DIMENSION
  5
13C3
330
1A
100
AcDbEntity
  8
250
  6
CONTINUOUS
100
AcDbDimension
  2
*D1
 10
21.0
 20
14.99999999999999
 30
0.0
 11
18.49999999999999
 21
0.0000000000000257
 31
0.0
 70
    32
  1
{\H3;\U+2205}<>
  3
BIGT
100
AcDbAlignedDimension
 13
-1.189949999999953
 23
-14.99999999999994
 33
0.0
 14
-1.189949999999953
 24
15.0
 34
0.0
 50
90.0
100
AcDbRotatedDimension
1001
ACAD
1000
DSTYLE
1002
{
1070
    78
1070
     8
1070
   140
1040
3.0
1002
}
  0
DIMENSION
  5
13C4
330
1A
100
AcDbEntity
  8
250
  6
CONTINUOUS
100
AcDbDimension
  2
*D2
 10
-0.0000000000000013
 20
-35.0
 30
0.0
 11
-20.0
 21
-32.5
 31
0.0
 70
    32
  1
35～45
  3
BIGT
100
AcDbAlignedDimension
 13
-40.0
 23
-5.0
 33
0.0
 14
0.0
 24
-13.85147199999994
 34
0.0
100
AcDbRotatedDimension
1001
ACAD
1000
DSTYLE
1002
{
1070
    78
1070
     8
1070
   140
1040
3.0
1002
}
  0
DIMENSION
  5
13C5
330
1A
100
AcDbEntity
  8
250
  6
CONTINUOUS
100
AcDbDimension
  2
*D3
 10
14.0
 20
4.999999999999995
 30
0.0
 11
11.27464379319485
 21
0.730192865609638
 31
0.0
 70
   160
  1
MAX.%%c<>
  3
BIGT
100
AcDbAlignedDimension
 13
0.0
 23
-5.0
 33
0.0
 14
0.0
 24
5.0
 34
0.0
 50
90.0
100
AcDbRotatedDimension
1001
ACAD
1000
DSTYLE
1002
{
1070
   287
1070
     5
1070
    78
1070
     8
1070
   140
1040
3.0
1070
   145
1040
1.0
1070
   279
1070
     2
1070
   289
1070
     3
1002
}
  0
DIMENSION
  5
1857
330
1A
100
AcDbEntity
  8
250
  6
CONTINUOUS
100
AcDbDimension
  2
*D4
 10
0.0000000000000013
 20
35.0
 30
0.0
 11
-38.5
 21
37.5
 31
0.0
 70
    32
  3
BIGT
100
AcDbAlignedDimension
 13
-77.0
 23
6.699999999999998
 33
0.0
 14
0.0
 24
13.85147200000005
 34
0.0
100
AcDbRotatedDimension
1001
ACAD
1000
DSTYLE
1002
{
1070
    78
1070
     8
1070
   140
1040
3.0
1002
}
  0
DIMENSION
  5
1867
330
1A
100
AcDbEntity
  8
250
  6
CONTINUOUS
100
AcDbDimension
  2
*D5
 10
0.0000000000000009
 20
28.0
 30
0.0
 11
-18.5
 21
30.5
 31
0.0
 70
    32
  3
BIGT
100
AcDbAlignedDimension
 13
-37.0
 23
9.5
 33
0.0
 14
0.0
 24
13.85147200000005
 34
0.0
100
AcDbRotatedDimension
1001
ACAD
1000
DSTYLE
1002
{
1070
    78
1070
     8
1070
   140
1040
3.0
1002
}
  0
DIMENSION
  5
1874
330
1A
100
AcDbEntity
  8
250
  6
CONTINUOUS
100
AcDbDimension
  2
*D6
 10
-37.0
 20
28.0
 30
0.0
 11
-57.0
 21
30.5
 31
0.0
 70
    32
  3
BIGT
100
AcDbAlignedDimension
 13
-77.0
 23
6.699999999999998
 33
0.0
 14
-37.0
 24
9.5
 34
0.0
100
AcDbRotatedDimension
1001
ACAD
1000
DSTYLE
1002
{
1070
    78
1070
     8
1070
   140
1040
3.0
1002
}
  0
INSERT
  5
1A37
330
1A
100
AcDbEntity
  8
240
100
AcDbBlockReference
  2
A$C533B2494
 10
0.0
 20
0.0
 30
0.0
  0
DIMENSION
  5
1A41
330
1A
100
AcDbEntity
  8
250
  6
CONTINUOUS
100
AcDbDimension
  2
*D8
 10
-84.0
 20
7.999999999999994
 30
0.0
 11
-86.5
 21
-0.0000000000000025
 31
0.0
 70
    32
  1
{\H3;\U+2205}<>
  3
BIGT
100
AcDbAlignedDimension
 13
-69.0
 23
-7.999999999999978
 33
0.0
 14
-69.0
 24
7.99999999999999
 34
0.0
 50
90.0
100
AcDbRotatedDimension
1001
ACAD
1000
DSTYLE
1002
{
1070
    78
1070
     8
1070
   140
1040
3.0
1002
}
  0
VIEWPORT
  5
22
330
17
100
AcDbEntity
 67
     1
  8
0
100
AcDbViewport
 10
261.5176991150442
 20
148.5
 30
0.0
 40
523.0353982300885
 41
297.0
 68
     1
 69
     1
1001
ACAD
1000
MVIEW
1002
{
1070
    16
1010
0.0
1020
0.0
1030
0.0
1010
0.0
1020
0.0
1030
1.0
1040
0.0
1040
297.0
1040
261.5176991150442
1040
148.5
1040
50.0
1040
0.0
1040
0.0
1070
     0
1070
   100
1070
     1
1070
     1
1070
     0
1070
     0
1070
     0
1070
     0
1040
0.0
1040
0.0
1040
0.0
1040
1.0
1040
1.0
1040
10.0
1040
10.0
1070
     0
1002
{
1002
}
1002
}
  0
ENDSEC
  0
SECTION
  2
OBJECTS
  0
DICTIONARY
  5
C
330
0
100
AcDbDictionary
  3
ACAD_GROUP
350
D
  3
ACAD_LAYOUT
350
565
  3
ACAD_MLINESTYLE
350
E
  3
ACAD_PLOTSETTINGS
350
566
  3
ACAD_PLOTSTYLENAME
350
563
  3
ACDBHEADERROUNDTRIPXREC
350
1A5E
  3
ACDBVARIABLEDICTIONARY
350
145B
  3
DWGPROPS
350
1622
  3
GRADE_DWG
350
540
  0
DICTIONARY
  5
1A81
330
1A
100
AcDbDictionary
280
     1
  3
ACAD_LAYOUTSELFREF
360
1A82
  0
DICTIONARY
  5
1A7F
330
17
100
AcDbDictionary
280
     1
  3
ACAD_LAYOUTSELFREF
360
1A80
  0
DICTIONARY
  5
D
102
{ACAD_REACTORS
330
C
102
}
330
C
100
AcDbDictionary
  3
DREC-1
350
5FC
  3
DREC-2
350
654
  3
DREC-3
350
673
  0
DICTIONARY
  5
565
102
{ACAD_REACTORS
330
C
102
}
330
C
100
AcDbDictionary
  0
DICTIONARY
  5
E
102
{ACAD_REACTORS
330
C
102
}
330
C
100
AcDbDictionary
  3
STANDARD
350
13
  0
DICTIONARY
  5
566
102
{ACAD_REACTORS
330
C
102
}
330
C
100
AcDbDictionary
  0
ACDBDICTIONARYWDFLT
  5
563
102
{ACAD_REACTORS
330
C
102
}
330
C
100
AcDbDictionary
281
     1
  3
Normal
350
564
100
AcDbDictionaryWithDefault
340
564
  0
DICTIONARY
  5
1A5E
102
{ACAD_REACTORS
330
C
102
}
330
C
100
AcDbDictionary
  3
CEPSNTYPE
350
1A68
  3
DIMSTYLEDATA
350
1A6C
  3
FINGERPRINTGUID
350
1A69
  3
HYPERLINKBASE
350
1A61
  3
INSUNITS
350
1A67
  3
LAYOUTDICT
350
1A63
  3
LWETCUNION
350
1A66
  3
PLOTSETDICT
350
1A64
  3
PLOTSTYLNAMDICT
350
1A65
  3
PSVPSCALE
350
1A6B
  3
PUCSBASE
350
1A6F
  3
PUCSORGBACK
350
1A75
  3
PUCSORGBOTTOM
350
1A71
  3
PUCSORGFRONT
350
1A74
  3
PUCSORGLEFT
350
1A72
  3
PUCSORGRIGHT
350
1A73
  3
PUCSORGTOP
350
1A70
  3
PUCSORTHOREF
350
1A6D
  3
PUCSORTHOVIEW
350
1A6E
  3
STYLESHEET
350
1A62
  3
TSTACKALIGN
350
1A5F
  3
TSTACKSIZE
350
1A60
  3
UCSBASE
350
1A78
  3
UCSORGBACK
350
1A7E
  3
UCSORGBOTTOM
350
1A7A
  3
UCSORGFRONT
350
1A7D
  3
UCSORGLEFT
350
1A7B
  3
UCSORGRIGHT
350
1A7C
  3
UCSORGTOP
350
1A79
  3
UCSORTHOREF
350
1A76
  3
UCSORTHOVIEW
350
1A77
  3
VERSIONGUID
350
1A6A
  0
DICTIONARY
  5
145B
102
{ACAD_REACTORS
330
C
102
}
330
C
100
AcDbDictionary
  3
DIMASSOC
350
145C
  3
SORTENTS
350
177E
  0
XRECORD
  5
1622
102
{ACAD_REACTORS
330
C
102
}
330
C
100
AcDbXrecord
  1
DWGPROPS COOKIE
  2

  3

  4

  6

  7

  8
ymat
  9

300
=
301
=
302
=
303
=
304
=
305
=
306
=
307
=
308
=
309
=
 40
0.0710792824074074
 41
2452180.683445092
 42
2452409.086919479
  1

 90
        0
  0
DICTIONARY
  5
540
102
{ACAD_REACTORS
330
C
102
}
330
C
100
AcDbDictionary
  3
VERSION
350
560
  0
XRECORD
  5
1A82
102
{ACAD_REACTORS
330
1A81
102
}
330
1A81
100
AcDbXrecord
340
1A
  0
XRECORD
  5
1A80
102
{ACAD_REACTORS
330
1A7F
102
}
330
1A7F
100
AcDbXrecord
340
17
  0
GROUP
  5
5FC
102
{ACAD_REACTORS
330
D
102
}
330
D
100
AcDbGroup
300

 70
     0
 71
     1
1001
GRPNAME
1000
DREC-
1001
GPARA
1000
xsiz
1000
44.182
1000
ysiz
1000
40.677
1000
angl
1000
0
1000
ctyp
1000
0
1000
csiz
1000
5
1000
lfnt
1000
cont
1000
hcnt
1000
hoff
1000
vcnt
1000
voff
1000
opnt
1000
4
1000
dxpt
1000
0
1000
dypt
1000
0
  0
GROUP
  5
654
102
{ACAD_REACTORS
330
D
102
}
330
D
100
AcDbGroup
300

 70
     0
 71
     1
1001
GRPNAME
1000
DREC-
1001
GPARA
1000
xsiz
1000
54.592
1000
ysiz
1000
53.036
1000
angl
1000
0
1000
ctyp
1000
0
1000
csiz
1000
5
1000
lfnt
1000
cont
1000
hcnt
1000
hoff
1000
vcnt
1000
voff
1000
opnt
1000
4
1000
dxpt
1000
0
1000
dypt
1000
0
  0
GROUP
  5
673
102
{ACAD_REACTORS
330
D
102
}
330
D
100
AcDbGroup
300

 70
     0
 71
     1
1001
GRPNAME
1000
DREC-
1001
GPARA
1000
xsiz
1000
30.363
1000
ysiz
1000
36.175
1000
angl
1000
0
1000
ctyp
1000
0
1000
csiz
1000
5
1000
lfnt
1000
cont
1000
hcnt
1000
hoff
1000
vcnt
1000
voff
1000
opnt
1000
4
1000
dxpt
1000
0
1000
dypt
1000
0
  0
MLINESTYLE
  5
13
102
{ACAD_REACTORS
330
E
102
}
330
E
100
AcDbMlineStyle
  2
STANDARD
 70
     0
  3

 62
     0
 51
90.0
 52
90.0
 71
     2
 49
0.5
 62
   256
  6
BYLAYER
 49
-0.5
 62
   256
  6
BYLAYER
  0
ACDBPLACEHOLDER
  5
564
102
{ACAD_REACTORS
330
563
102
}
330
563
100
AcDbPlaceHolder
280
     0
  0
XRECORD
  5
1A68
102
{ACAD_REACTORS
330
1A5E
102
}
330
1A5E
100
AcDbXrecord
 90
        0
  0
XRECORD
  5
1A6C
102
{ACAD_REACTORS
330
1A5E
102
}
330
1A5E
100
AcDbXrecord
1000
DSTYLE
1002
{
1070
    79
 70
     2
1070
   179
 70
     3
1070
   289
 70
     2
1070
   341
340
594
1070
   342
340
594
1070
   371
 70
    -1
1070
   372
 70
    -1
1002
}
  0
XRECORD
  5
1A69
102
{ACAD_REACTORS
330
1A5E
102
}
330
1A5E
100
AcDbXrecord
  1
{51294030-9CB4-11D3-8E18-00A0C925D94D}
  0
XRECORD
  5
1A61
102
{ACAD_REACTORS
330
1A5E
102
}
330
1A5E
100
AcDbXrecord
  1

  0
XRECORD
  5
1A67
102
{ACAD_REACTORS
330
1A5E
102
}
330
1A5E
100
AcDbXrecord
 90
        0
  0
XRECORD
  5
1A63
102
{ACAD_REACTORS
330
1A5E
102
}
330
1A5E
100
AcDbXrecord
340
565
  0
XRECORD
  5
1A66
102
{ACAD_REACTORS
330
1A5E
102
}
330
1A5E
100
AcDbXrecord
 90
    10781
  0
XRECORD
  5
1A64
102
{ACAD_REACTORS
330
1A5E
102
}
330
1A5E
100
AcDbXrecord
340
566
  0
XRECORD
  5
1A65
102
{ACAD_REACTORS
330
1A5E
102
}
330
1A5E
100
AcDbXrecord
340
563
  0
XRECORD
  5
1A6B
102
{ACAD_REACTORS
330
1A5E
102
}
330
1A5E
100
AcDbXrecord
 40
0.0
  0
XRECORD
  5
1A6F
102
{ACAD_REACTORS
330
1A5E
102
}
330
1A5E
100
AcDbXrecord
340
0
  0
XRECORD
  5
1A75
102
{ACAD_REACTORS
330
1A5E
102
}
330
1A5E
100
AcDbXrecord
 10
0.0
 20
0.0
 30
0.0
  0
XRECORD
  5
1A71
102
{ACAD_REACTORS
330
1A5E
102
}
330
1A5E
100
AcDbXrecord
 10
0.0
 20
0.0
 30
0.0
  0
XRECORD
  5
1A74
102
{ACAD_REACTORS
330
1A5E
102
}
330
1A5E
100
AcDbXrecord
 10
0.0
 20
0.0
 30
0.0
  0
XRECORD
  5
1A72
102
{ACAD_REACTORS
330
1A5E
102
}
330
1A5E
100
AcDbXrecord
 10
0.0
 20
0.0
 30
0.0
  0
XRECORD
  5
1A73
102
{ACAD_REACTORS
330
1A5E
102
}
330
1A5E
100
AcDbXrecord
 10
0.0
 20
0.0
 30
0.0
  0
XRECORD
  5
1A70
102
{ACAD_REACTORS
330
1A5E
102
}
330
1A5E
100
AcDbXrecord
 10
0.0
 20
0.0
 30
0.0
  0
XRECORD
  5
1A6D
102
{ACAD_REACTORS
330
1A5E
102
}
330
1A5E
100
AcDbXrecord
340
0
  0
XRECORD
  5
1A6E
102
{ACAD_REACTORS
330
1A5E
102
}
330
1A5E
100
AcDbXrecord
 70
     0
  0
XRECORD
  5
1A62
102
{ACAD_REACTORS
330
1A5E
102
}
330
1A5E
100
AcDbXrecord
  1
big.ctb
  0
XRECORD
  5
1A5F
102
{ACAD_REACTORS
330
1A5E
102
}
330
1A5E
100
AcDbXrecord
 90
        1
  0
XRECORD
  5
1A60
102
{ACAD_REACTORS
330
1A5E
102
}
330
1A5E
100
AcDbXrecord
 90
       70
  0
XRECORD
  5
1A78
102
{ACAD_REACTORS
330
1A5E
102
}
330
1A5E
100
AcDbXrecord
340
0
  0
XRECORD
  5
1A7E
102
{ACAD_REACTORS
330
1A5E
102
}
330
1A5E
100
AcDbXrecord
 10
0.0
 20
0.0
 30
0.0
  0
XRECORD
  5
1A7A
102
{ACAD_REACTORS
330
1A5E
102
}
330
1A5E
100
AcDbXrecord
 10
0.0
 20
0.0
 30
0.0
  0
XRECORD
  5
1A7D
102
{ACAD_REACTORS
330
1A5E
102
}
330
1A5E
100
AcDbXrecord
 10
0.0
 20
0.0
 30
0.0
  0
XRECORD
  5
1A7B
102
{ACAD_REACTORS
330
1A5E
102
}
330
1A5E
100
AcDbXrecord
 10
0.0
 20
0.0
 30
0.0
  0
XRECORD
  5
1A7C
102
{ACAD_REACTORS
330
1A5E
102
}
330
1A5E
100
AcDbXrecord
 10
0.0
 20
0.0
 30
0.0
  0
XRECORD
  5
1A79
102
{ACAD_REACTORS
330
1A5E
102
}
330
1A5E
100
AcDbXrecord
 10
0.0
 20
0.0
 30
0.0
  0
XRECORD
  5
1A76
102
{ACAD_REACTORS
330
1A5E
102
}
330
1A5E
100
AcDbXrecord
340
0
  0
XRECORD
  5
1A77
102
{ACAD_REACTORS
330
1A5E
102
}
330
1A5E
100
AcDbXrecord
 70
     0
  0
XRECORD
  5
1A6A
102
{ACAD_REACTORS
330
1A5E
102
}
330
1A5E
100
AcDbXrecord
  1
{EDD58EC8-688C-11D7-AD80-0010B5C7BFCA}
  0
DICTIONARYVAR
  5
145C
102
{ACAD_REACTORS
330
145B
102
}
330
145B
100
DictionaryVariables
280
     0
  1
1
  0
DICTIONARYVAR
  5
177E
102
{ACAD_REACTORS
330
145B
102
}
330
145B
100
DictionaryVariables
280
     0
  1
96
  0
XRECORD
  5
560
102
{ACAD_REACTORS
330
540
102
}
330
540
100
AcDbXrecord
  1
2.0.0
  0
ENDSEC
  0
EOF
