  0
SECTION
  2
HEADER
  9
$ACADVER
  1
AC1015
  9
$ACADMAINTVER
 70
    20
  9
$DWGCODEPAGE
  3
ANSI_932
  9
$INSBASE
 10
0.0
 20
0.0
 30
0.0
  9
$EXTMIN
 10
-53.00916990243035
 20
-43.0087275884681
 30
-0.0015258207003583
  9
$EXTMAX
 10
102.7055516127794
 20
54.00283844210543
 30
0.0000000349246037
  9
$LIMMIN
 10
0.0
 20
0.0
  9
$LIMMAX
 10
297.0
 20
210.0
  9
$ORTHOMODE
 70
     0
  9
$REGENMODE
 70
     1
  9
$FILLMODE
 70
     1
  9
$QTEXTMODE
 70
     0
  9
$MIRRTEXT
 70
     1
  9
$LTSCALE
 40
10.0
  9
$ATTMODE
 70
     1
  9
$TEXTSIZE
 40
3.0
  9
$TRACEWID
 40
1.0
  9
$TEXTSTYLE
  7
YOKO
  9
$CLAYER
  8
2
  9
$CELTYPE
  6
BYLAYER
  9
$CECOLOR
 62
   256
  9
$CELTSCALE
 40
1.0
  9
$DISPSILH
 70
     0
  9
$DIMSCALE
 40
1.0
  9
$DIMASZ
 40
2.0
  9
$DIMEXO
 40
0.5
  9
$DIMDLI
 40
2.5
  9
$DIMRND
 40
0.0
  9
$DIMDLE
 40
0.0
  9
$DIMEXE
 40
1.0
  9
$DIMTP
 40
0.0
  9
$DIMTM
 40
0.0
  9
$DIMTXT
 40
2.799999999999999
  9
$DIMCEN
 40
0.0
  9
$DIMTSZ
 40
0.0
  9
$DIMTOL
 70
     0
  9
$DIMLIM
 70
     0
  9
$DIMTIH
 70
     0
  9
$DIMTOH
 70
     0
  9
$DIMSE1
 70
     0
  9
$DIMSE2
 70
     0
  9
$DIMTAD
 70
     3
  9
$DIMZIN
 70
     8
  9
$DIMBLK
  1

  9
$DIMASO
 70
     1
  9
$DIMSHO
 70
     1
  9
$DIMPOST
  1

  9
$DIMAPOST
  1

  9
$DIMALT
 70
     0
  9
$DIMALTD
 70
     2
  9
$DIMALTF
 40
25.4
  9
$DIMLFAC
 40
1.0
  9
$DIMTOFL
 70
     1
  9
$DIMTVP
 40
0.0
  9
$DIMTIX
 70
     1
  9
$DIMSOXD
 70
     0
  9
$DIMSAH
 70
     1
  9
$DIMBLK1
  1
Open
  9
$DIMBLK2
  1
Open
  9
$DIMSTYLE
  2
BIGT
  9
$DIMCLRD
 70
   256
  9
$DIMCLRE
 70
   256
  9
$DIMCLRT
 70
    40
  9
$DIMTFAC
 40
1.0
  9
$DIMGAP
 40
1.0
  9
$DIMJUST
 70
     0
  9
$DIMSD1
 70
     0
  9
$DIMSD2
 70
     0
  9
$DIMTOLJ
 70
     1
  9
$DIMTZIN
 70
     8
  9
$DIMALTZ
 70
     0
  9
$DIMALTTZ
 70
     0
  9
$DIMUPT
 70
     0
  9
$DIMDEC
 70
     3
  9
$DIMTDEC
 70
     3
  9
$DIMALTU
 70
     2
  9
$DIMALTTD
 70
     2
  9
$DIMTXSTY
  7
STANDARD
  9
$DIMAUNIT
 70
     0
  9
$DIMADEC
 70
     3
  9
$DIMALTRND
 40
0.0
  9
$DIMAZIN
 70
     2
  9
$DIMDSEP
 70
    46
  9
$DIMATFIT
 70
     2
  9
$DIMFRAC
 70
     0
  9
$DIMLDRBLK
  1
Open
  9
$DIMLUNIT
 70
     2
  9
$DIMLWD
 70
    -1
  9
$DIMLWE
 70
    -1
  9
$DIMTMOVE
 70
     0
  9
$LUNITS
 70
     2
  9
$LUPREC
 70
     3
  9
$SKETCHINC
 40
1.0
  9
$FILLETRAD
 40
0.0
  9
$AUNITS
 70
     0
  9
$AUPREC
 70
     3
  9
$MENU
  1
.
  9
$ELEVATION
 40
0.0
  9
$PELEVATION
 40
0.0
  9
$THICKNESS
 40
0.0
  9
$LIMCHECK
 70
     0
  9
$CHAMFERA
 40
10.0
  9
$CHAMFERB
 40
10.0
  9
$CHAMFERC
 40
0.0
  9
$CHAMFERD
 40
0.0
  9
$SKPOLY
 70
     0
  9
$TDCREATE
 40
2454685.705541621
  9
$TDUCREATE
 40
2454685.330541621
  9
$TDUPDATE
 40
2454705.385235278
  9
$TDUUPDATE
 40
2454705.010235278
  9
$TDINDWG
 40
0.0309065741
  9
$TDUSRTIMER
 40
0.0309065741
  9
$USRTIMER
 70
     1
  9
$ANGBASE
 50
0.0
  9
$ANGDIR
 70
     0
  9
$PDMODE
 70
     1
  9
$PDSIZE
 40
-5.0
  9
$PLINEWID
 40
0.0
  9
$SPLFRAME
 70
     0
  9
$SPLINETYPE
 70
     6
  9
$SPLINESEGS
 70
     8
  9
$HANDSEED
  5
11AC
  9
$SURFTAB1
 70
     6
  9
$SURFTAB2
 70
     6
  9
$SURFTYPE
 70
     6
  9
$SURFU
 70
     6
  9
$SURFV
 70
     6
  9
$UCSBASE
  2

  9
$UCSNAME
  2

  9
$UCSORG
 10
0.0
 20
0.0
 30
0.0
  9
$UCSXDIR
 10
1.0
 20
0.0
 30
0.0
  9
$UCSYDIR
 10
0.0
 20
1.0
 30
0.0
  9
$UCSORTHOREF
  2

  9
$UCSORTHOVIEW
 70
     0
  9
$UCSORGTOP
 10
0.0
 20
0.0
 30
0.0
  9
$UCSORGBOTTOM
 10
0.0
 20
0.0
 30
0.0
  9
$UCSORGLEFT
 10
0.0
 20
0.0
 30
0.0
  9
$UCSORGRIGHT
 10
0.0
 20
0.0
 30
0.0
  9
$UCSORGFRONT
 10
0.0
 20
0.0
 30
0.0
  9
$UCSORGBACK
 10
0.0
 20
0.0
 30
0.0
  9
$PUCSBASE
  2

  9
$PUCSNAME
  2

  9
$PUCSORG
 10
0.0
 20
0.0
 30
0.0
  9
$PUCSXDIR
 10
1.0
 20
0.0
 30
0.0
  9
$PUCSYDIR
 10
0.0
 20
1.0
 30
0.0
  9
$PUCSORTHOREF
  2

  9
$PUCSORTHOVIEW
 70
     0
  9
$PUCSORGTOP
 10
0.0
 20
0.0
 30
0.0
  9
$PUCSORGBOTTOM
 10
0.0
 20
0.0
 30
0.0
  9
$PUCSORGLEFT
 10
0.0
 20
0.0
 30
0.0
  9
$PUCSORGRIGHT
 10
0.0
 20
0.0
 30
0.0
  9
$PUCSORGFRONT
 10
0.0
 20
0.0
 30
0.0
  9
$PUCSORGBACK
 10
0.0
 20
0.0
 30
0.0
  9
$USERI1
 70
     1
  9
$USERI2
 70
     0
  9
$USERI3
 70
     0
  9
$USERI4
 70
     0
  9
$USERI5
 70
     0
  9
$USERR1
 40
0.0
  9
$USERR2
 40
0.0
  9
$USERR3
 40
0.0
  9
$USERR4
 40
0.0
  9
$USERR5
 40
0.0
  9
$WORLDVIEW
 70
     1
  9
$SHADEDGE
 70
     3
  9
$SHADEDIF
 70
    70
  9
$TILEMODE
 70
     1
  9
$MAXACTVP
 70
    16
  9
$PINSBASE
 10
0.0
 20
0.0
 30
0.0
  9
$PLIMCHECK
 70
     0
  9
$PEXTMIN
 10
1.000000000000000E+20
 20
1.000000000000000E+20
 30
1.000000000000000E+20
  9
$PEXTMAX
 10
-1.000000000000000E+20
 20
-1.000000000000000E+20
 30
-1.000000000000000E+20
  9
$PLIMMIN
 10
0.0
 20
0.0
  9
$PLIMMAX
 10
420.0
 20
297.0
  9
$UNITMODE
 70
     0
  9
$VISRETAIN
 70
     0
  9
$PLINEGEN
 70
     0
  9
$PSLTSCALE
 70
     1
  9
$TREEDEPTH
 70
  3020
  9
$CMLSTYLE
  2
STANDARD
  9
$CMLJUST
 70
     0
  9
$CMLSCALE
 40
1.0
  9
$PROXYGRAPHICS
 70
     1
  9
$MEASUREMENT
 70
     1
  9
$CELWEIGHT
370
    -1
  9
$ENDCAPS
280
     0
  9
$JOINSTYLE
280
     0
  9
$LWDISPLAY
290
     0
  9
$INSUNITS
 70
     0
  9
$HYPERLINKBASE
  1

  9
$STYLESHEET
  1
big.ctb
  9
$XEDIT
290
     1
  9
$CEPSNTYPE
380
     0
  9
$PSTYLEMODE
290
     1
  9
$FINGERPRINTGUID
  2
{9430112F-0C1B-437E-856D-8A9E004AF8C7}
  9
$VERSIONGUID
  2
{C7C18684-2666-443E-A5D6-68EE61C072EB}
  9
$EXTNAMES
290
     1
  9
$PSVPSCALE
 40
0.0
  9
$OLESTARTUP
290
     0
  0
ENDSEC
  0
SECTION
  2
CLASSES
  0
CLASS
  1
ACDBDICTIONARYWDFLT
  2
AcDbDictionaryWithDefault
  3
ObjectDBX Classes
 90
        0
280
     0
281
     0
  0
CLASS
  1
ACDBPLACEHOLDER
  2
AcDbPlaceHolder
  3
ObjectDBX Classes
 90
        0
280
     0
281
     0
  0
CLASS
  1
LAYOUT
  2
AcDbLayout
  3
ObjectDBX Classes
 90
        0
280
     0
281
     0
  0
CLASS
  1
PLOTSETTINGS
  2
AcDbPlotSettings
  3
ObjectDBX Classes
 90
        0
280
     0
281
     0
  0
CLASS
  1
MATERIAL
  2
AcDbMaterial
  3
ObjectDBX Classes
 90
     1153
280
     0
281
     0
  0
CLASS
  1
VISUALSTYLE
  2
AcDbVisualStyle
  3
ObjectDBX Classes
 90
     4095
280
     0
281
     0
  0
CLASS
  1
TABLESTYLE
  2
AcDbTableStyle
  3
ObjectDBX Classes
 90
     4095
280
     0
281
     0
  0
CLASS
  1
SCALE
  2
AcDbScale
  3
ObjectDBX Classes
 90
     1153
280
     0
281
     0
  0
CLASS
  1
MLEADERSTYLE
  2
AcDbMLeaderStyle
  3
ACDB_MLEADERSTYLE_CLASS
 90
     4095
280
     0
281
     0
  0
CLASS
  1
CELLSTYLEMAP
  2
AcDbCellStyleMap
  3
ObjectDBX Classes
 90
     1152
280
     0
281
     0
  0
CLASS
  1
DICTIONARYVAR
  2
AcDbDictionaryVar
  3
ObjectDBX Classes
 90
        0
280
     0
281
     0
  0
ENDSEC
  0
SECTION
  2
TABLES
  0
TABLE
  2
VPORT
  5
8
102
{ACAD_XDICTIONARY
360
1065
102
}
330
0
100
AcDbSymbolTable
 70
     1
  0
VPORT
  5
77A
330
8
100
AcDbSymbolTableRecord
100
AcDbViewportTableRecord
  2
*Active
 70
     0
 10
0.0
 20
0.0
 11
1.0
 21
1.0
 12
24.84819085517454
 22
5.497055426818661
 13
0.0
 23
0.0
 14
7.0
 24
7.0
 15
7.0
 25
7.0
 16
0.0
 26
0.0
 36
1.0
 17
0.0
 27
0.0
 37
0.0
 40
97.72401327192413
 41
1.888480392156862
 42
50.0
 43
0.0
 44
0.0
 50
0.0
 51
0.0
 71
     0
 72
 20000
 73
     1
 74
     0
 75
     0
 76
     0
 77
     0
 78
     0
281
     0
 65
     1
110
0.0
120
0.0
130
0.0
111
1.0
121
0.0
131
0.0
112
0.0
122
1.0
132
0.0
 79
     0
146
0.0
  0
ENDTAB
  0
TABLE
  2
LTYPE
  5
5
330
0
100
AcDbSymbolTable
 70
    47
  0
LTYPE
  5
14
330
5
100
AcDbSymbolTableRecord
100
AcDbLinetypeTableRecord
  2
BYBLOCK
 70
     0
  3

 72
    65
 73
     0
 40
0.0
  0
LTYPE
  5
15
330
5
100
AcDbSymbolTableRecord
100
AcDbLinetypeTableRecord
  2
BYLAYER
 70
     0
  3

 72
    65
 73
     0
 40
0.0
  0
LTYPE
  5
16
330
5
100
AcDbSymbolTableRecord
100
AcDbLinetypeTableRecord
  2
CONTINUOUS
 70
     0
  3
Solid line
 72
    65
 73
     0
 40
0.0
  0
LTYPE
  5
258
330
5
100
AcDbSymbolTableRecord
100
AcDbLinetypeTableRecord
  2
CENTER2
 70
     0
  3
___ _ ___ _ ___ _ ___ _ ___ _ ___ _ ___ _ ___ _
 72
    65
 73
     4
 40
1.125
 49
0.75
 74
     0
 49
-0.125
 74
     0
 49
0.125
 74
     0
 49
-0.125
 74
     0
  0
LTYPE
  5
25D
330
5
100
AcDbSymbolTableRecord
100
AcDbLinetypeTableRecord
  2
PHANTOM2
 70
     0
  3
___ _ _ ___ _ _ ___ _ _ ___ _ _ ___ _ _ ___ _ _
 72
    65
 73
     6
 40
1.25
 49
0.625
 74
     0
 49
-0.125
 74
     0
 49
0.125
 74
     0
 49
-0.125
 74
     0
 49
0.125
 74
     0
 49
-0.125
 74
     0
  0
ENDTAB
  0
TABLE
  2
LAYER
  5
2
330
0
100
AcDbSymbolTable
 70
    66
  0
LAYER
  5
F
102
{ACAD_XDICTIONARY
360
C80
102
}
330
2
100
AcDbSymbolTableRecord
100
AcDbLayerTableRecord
  2
0
 70
     0
 62
     7
  6
CONTINUOUS
370
    -3
390
564
  0
LAYER
  5
AF
102
{ACAD_XDICTIONARY
360
C82
102
}
330
2
100
AcDbSymbolTableRecord
100
AcDbLayerTableRecord
  2
2
 70
     0
 62
     7
  6
CONTINUOUS
370
    -3
390
564
  0
LAYER
  5
1AA
102
{ACAD_XDICTIONARY
360
C90
102
}
330
2
100
AcDbSymbolTableRecord
100
AcDbLayerTableRecord
  2
240
 70
     0
 62
     4
  6
CONTINUOUS
370
    -3
390
564
  0
LAYER
  5
1AB
102
{ACAD_XDICTIONARY
360
C92
102
}
330
2
100
AcDbSymbolTableRecord
100
AcDbLayerTableRecord
  2
241
 70
     0
 62
   211
  6
CONTINUOUS
370
    -3
390
564
  0
LAYER
  5
1AC
102
{ACAD_XDICTIONARY
360
C94
102
}
330
2
100
AcDbSymbolTableRecord
100
AcDbLayerTableRecord
  2
242
 70
     0
 62
     3
  6
CONTINUOUS
370
    -3
390
564
  0
LAYER
  5
1AF
102
{ACAD_XDICTIONARY
360
C9A
102
}
330
2
100
AcDbSymbolTableRecord
100
AcDbLayerTableRecord
  2
245
 70
     0
 62
     2
  6
CENTER2
370
    -3
390
564
  0
LAYER
  5
21A
102
{ACAD_XDICTIONARY
360
C9C
102
}
330
2
100
AcDbSymbolTableRecord
100
AcDbLayerTableRecord
  2
246
 70
     0
 62
     3
  6
PHANTOM2
370
    -3
390
564
  0
LAYER
  5
21E
102
{ACAD_XDICTIONARY
360
CA2
102
}
330
2
100
AcDbSymbolTableRecord
100
AcDbLayerTableRecord
  2
250
 70
     0
 62
     3
  6
CONTINUOUS
370
    -3
390
564
  0
LAYER
  5
21F
102
{ACAD_XDICTIONARY
360
CA4
102
}
330
2
100
AcDbSymbolTableRecord
100
AcDbLayerTableRecord
  2
251
 70
     0
 62
    40
  6
CONTINUOUS
370
    -3
390
564
  0
LAYER
  5
5C4
330
2
100
AcDbSymbolTableRecord
100
AcDbLayerTableRecord
  2
Defpoints
 70
     0
 62
     7
  6
CONTINUOUS
290
     0
370
    -3
390
564
  0
ENDTAB
  0
TABLE
  2
STYLE
  5
3
330
0
100
AcDbSymbolTable
 70
    12
  0
STYLE
  5
10
330
3
100
AcDbSymbolTableRecord
100
AcDbTextStyleTableRecord
  2
STANDARD
 70
     0
 40
0.0
 41
1.0
 50
0.0
 71
     0
 42
3.0
  3
romans.shx
  4
BIGFONT.SHX
  0
STYLE
  5
339
330
3
100
AcDbSymbolTableRecord
100
AcDbTextStyleTableRecord
  2
YOKO
 70
     0
 40
0.0
 41
1.0
 50
0.0
 71
     0
 42
3.0
  3
romans.shx
  4
extfont.shx
  0
ENDTAB
  0
TABLE
  2
VIEW
  5
6
330
0
100
AcDbSymbolTable
 70
     0
  0
ENDTAB
  0
TABLE
  2
UCS
  5
7
330
0
100
AcDbSymbolTable
 70
     0
  0
ENDTAB
  0
TABLE
  2
APPID
  5
9
330
0
100
AcDbSymbolTable
 70
    42
  0
APPID
  5
11
330
9
100
AcDbSymbolTableRecord
100
AcDbRegAppTableRecord
  2
ACAD
 70
     0
  0
APPID
  5
1B1
330
9
100
AcDbSymbolTableRecord
100
AcDbRegAppTableRecord
  2
GLOBAL
 70
     0
  0
APPID
  5
2A4
330
9
100
AcDbSymbolTableRecord
100
AcDbRegAppTableRecord
  2
DETAIL
 70
     0
  0
APPID
  5
5FD
330
9
100
AcDbSymbolTableRecord
100
AcDbRegAppTableRecord
  2
GRPNAME
 70
     0
  0
APPID
  5
5FE
330
9
100
AcDbSymbolTableRecord
100
AcDbRegAppTableRecord
  2
GPARA
 70
     0
  0
APPID
  5
6C4
330
9
100
AcDbSymbolTableRecord
100
AcDbRegAppTableRecord
  2
DCO15
 70
     0
  0
APPID
  5
6C5
330
9
100
AcDbSymbolTableRecord
100
AcDbRegAppTableRecord
  2
ITEMNAME
 70
     0
  0
APPID
  5
6C6
330
9
100
AcDbSymbolTableRecord
100
AcDbRegAppTableRecord
  2
GRADE_0
 70
     0
  0
APPID
  5
7CD
330
9
100
AcDbSymbolTableRecord
100
AcDbRegAppTableRecord
  2
ACAD_MLEADERVER
 70
     0
  0
APPID
  5
A6A
330
9
100
AcDbSymbolTableRecord
100
AcDbRegAppTableRecord
  2
DRAWING
 70
     0
  0
APPID
  5
A6B
330
9
100
AcDbSymbolTableRecord
100
AcDbRegAppTableRecord
  2
HATCH_TYPE
 70
     0
  0
APPID
  5
A6C
330
9
100
AcDbSymbolTableRecord
100
AcDbRegAppTableRecord
  2
HATCH_DISPLAY
 70
     0
  0
APPID
  5
A6D
330
9
100
AcDbSymbolTableRecord
100
AcDbRegAppTableRecord
  2
HATCH_DISTANCE
 70
     0
  0
APPID
  5
A6E
330
9
100
AcDbSymbolTableRecord
100
AcDbRegAppTableRecord
  2
INSERT_PATH
 70
     0
  0
APPID
  5
A6F
330
9
100
AcDbSymbolTableRecord
100
AcDbRegAppTableRecord
  2
GMODEL
 70
     0
  0
APPID
  5
A70
330
9
100
AcDbSymbolTableRecord
100
AcDbRegAppTableRecord
  2
MCAD_NO_VIS
 70
     0
  0
APPID
  5
A71
330
9
100
AcDbSymbolTableRecord
100
AcDbRegAppTableRecord
  2
ACAD_TEMP_GRAPHIC
 70
     0
  0
APPID
  5
A72
330
9
100
AcDbSymbolTableRecord
100
AcDbRegAppTableRecord
  2
ACATTRIBSERVICES
 70
     0
  0
APPID
  5
A73
330
9
100
AcDbSymbolTableRecord
100
AcDbRegAppTableRecord
  2
GENIUS_GENDTOL_13
 70
     0
  0
APPID
  5
A74
330
9
100
AcDbSymbolTableRecord
100
AcDbRegAppTableRecord
  2
GENIUS_GENDIMSH_14
 70
     0
  0
APPID
  5
A75
330
9
100
AcDbSymbolTableRecord
100
AcDbRegAppTableRecord
  2
GENIUS_GENODEF_13
 70
     0
  0
APPID
  5
A76
330
9
100
AcDbSymbolTableRecord
100
AcDbRegAppTableRecord
  2
GENIUS_GENOLIS_13
 70
     0
  0
APPID
  5
A77
330
9
100
AcDbSymbolTableRecord
100
AcDbRegAppTableRecord
  2
GENIUS_GENOENT_13
 70
     0
  0
APPID
  5
A78
330
9
100
AcDbSymbolTableRecord
100
AcDbRegAppTableRecord
  2
GENIUS_GENOBJ-F-SHCL_13
 70
     0
  0
APPID
  5
A79
330
9
100
AcDbSymbolTableRecord
100
AcDbRegAppTableRecord
  2
GENIUS_GENOREF_13
 70
     0
  0
APPID
  5
A7A
330
9
100
AcDbSymbolTableRecord
100
AcDbRegAppTableRecord
  2
GENIUS_GEFMSH_13
 70
     0
  0
APPID
  5
A7B
330
9
100
AcDbSymbolTableRecord
100
AcDbRegAppTableRecord
  2
GENIUS_GEFSH_13
 70
     0
  0
APPID
  5
A7C
330
9
100
AcDbSymbolTableRecord
100
AcDbRegAppTableRecord
  2
GENIUS_GEFSHP_13
 70
     0
  0
APPID
  5
A7D
330
9
100
AcDbSymbolTableRecord
100
AcDbRegAppTableRecord
  2
GENIUS_GENOBJ-F-SHS_13
 70
     0
  0
APPID
  5
A7E
330
9
100
AcDbSymbolTableRecord
100
AcDbRegAppTableRecord
  2
GENIUS_GENBH_13
 70
     0
  0
APPID
  5
A7F
330
9
100
AcDbSymbolTableRecord
100
AcDbRegAppTableRecord
  2
GENIUS_GENOBJ-NBEHI-BHF_13
 70
     0
  0
APPID
  5
A80
330
9
100
AcDbSymbolTableRecord
100
AcDbRegAppTableRecord
  2
GENIUS_GENOBJ-NBEHI-BHB_13
 70
     0
  0
APPID
  5
A81
330
9
100
AcDbSymbolTableRecord
100
AcDbRegAppTableRecord
  2
GENIUS_GENOBJ-F-SHSV_13
 70
     0
  0
APPID
  5
A82
330
9
100
AcDbSymbolTableRecord
100
AcDbRegAppTableRecord
  2
GENIUS_GENOBJ-N-DIM_13
 70
     0
  0
APPID
  5
A83
330
9
100
AcDbSymbolTableRecord
100
AcDbRegAppTableRecord
  2
GENIUS_GENDIM_13
 70
     0
  0
APPID
  5
A84
330
9
100
AcDbSymbolTableRecord
100
AcDbRegAppTableRecord
  2
GENIUS_GENOBJ-N-FIL_13
 70
     0
  0
APPID
  5
A85
330
9
100
AcDbSymbolTableRecord
100
AcDbRegAppTableRecord
  2
GENIUS_GENOBJ-N-TIT_13
 70
     0
  0
APPID
  5
A86
330
9
100
AcDbSymbolTableRecord
100
AcDbRegAppTableRecord
  2
GENIUS_GENTITLE_13
 70
     0
  0
APPID
  5
A87
330
9
100
AcDbSymbolTableRecord
100
AcDbRegAppTableRecord
  2
GENIUS_GENSCREG_15
 70
     0
  0
APPID
  5
A88
330
9
100
AcDbSymbolTableRecord
100
AcDbRegAppTableRecord
  2
GENIUS_GENOBJ-N-SDF_13
 70
     0
  0
APPID
  5
A89
330
9
100
AcDbSymbolTableRecord
100
AcDbRegAppTableRecord
  2
GENIUS_GENOBJ-N-CEN_13
 70
     0
  0
APPID
  5
DF9
330
9
100
AcDbSymbolTableRecord
100
AcDbRegAppTableRecord
  2
Layer_Scale
 70
     0
  0
ENDTAB
  0
TABLE
  2
DIMSTYLE
  5
A
330
0
100
AcDbSymbolTable
 70
    32
100
AcDbDimStyleTable
 71
     1
340
725
  0
DIMSTYLE
105
725
330
A
100
AcDbSymbolTableRecord
100
AcDbDimStyleTableRecord
  2
BIGT
 70
     0
 41
2.229999999999999
 42
0.5
 43
2.5
 44
1.0
 73
     0
 74
     0
 77
     3
 78
     8
 79
     2
140
2.799999999999999
141
0.0
147
1.0
172
     1
173
     1
174
     1
176
   256
177
   256
178
    40
179
     3
271
     3
272
     3
284
     8
289
     2
340
10
341
594
343
594
344
594
371
    -1
372
    -1
  0
DIMSTYLE
105
A55
102
{ACAD_REACTORS
330
BC4
330
C1F
102
}
330
A
100
AcDbSymbolTableRecord
100
AcDbDimStyleTableRecord
  2
BIGT$0
 70
     0
  4
"
 41
2.229999999999999
 42
0.5
 43
7.0
 44
1.0
 47
0.1
 48
0.1
 73
     0
 74
     0
 77
     3
 78
     8
 79
     2
140
3.0
141
0.0
143
0.0393701
146
0.71
147
1.0
172
     1
176
     3
177
     3
178
    40
179
     3
271
     3
272
     3
284
     8
289
     2
340
10
341
594
342
594
371
    -1
372
    -1
  0
DIMSTYLE
105
A56
102
{ACAD_REACTORS
330
C45
102
}
330
A
100
AcDbSymbolTableRecord
100
AcDbDimStyleTableRecord
  2
BIGT$2
 70
     0
  4
"
 41
2.229999999999999
 42
0.5
 43
7.0
 44
1.0
 47
0.1
 48
0.1
 73
     0
 74
     0
 77
     3
 78
     8
 79
     2
140
3.0
141
0.0
143
0.0393701
146
0.71
147
1.0
172
     1
176
     3
177
     3
178
    40
179
     3
271
     3
272
     3
284
     8
289
     2
340
10
341
594
342
594
371
    -1
372
    -1
  0
DIMSTYLE
105
A5A
330
A
100
AcDbSymbolTableRecord
100
AcDbDimStyleTableRecord
  2
BIGT$7
 70
     0
  4
"
 41
2.5
 42
0.5
 43
7.0
 44
1.0
 47
0.1
 48
0.1
 73
     0
 74
     0
 77
     3
 78
     8
 79
     2
140
5.0
141
0.0
143
0.0393701
146
0.71
147
1.5
172
     1
176
     3
177
     3
178
    40
179
     3
271
     3
272
     3
284
     8
289
     2
340
10
341
594
342
594
371
    -1
372
    -1
  0
ENDTAB
  0
TABLE
  2
BLOCK_RECORD
  5
1
330
0
100
AcDbSymbolTable
 70
    47
  0
BLOCK_RECORD
  5
1A
330
1
100
AcDbSymbolTableRecord
100
AcDbBlockTableRecord
  2
*MODEL_SPACE
340
567
  0
BLOCK_RECORD
  5
17
330
1
100
AcDbSymbolTableRecord
100
AcDbBlockTableRecord
  2
*PAPER_SPACE
340
568
  0
BLOCK_RECORD
  5
594
330
1
100
AcDbSymbolTableRecord
100
AcDbBlockTableRecord
  2
_Open
340
0
102
{BLKREFS
331
ADD
331
ADE
331
AE9
331
AEA
331
C16
331
C17
331
C3E
331
C3F
331
10FD
331
10FE
331
1106
331
1107
331
110F
331
1110
102
}
  0
BLOCK_RECORD
  5
6E3
330
1
100
AcDbSymbolTableRecord
100
AcDbBlockTableRecord
  2
矢印なし
340
0
102
{BLKREFS
331
6E6
331
A8F
331
DFF
102
}
  0
BLOCK_RECORD
  5
BF2
330
1
100
AcDbSymbolTableRecord
100
AcDbBlockTableRecord
  2
*D18
340
0
  0
BLOCK_RECORD
  5
C20
330
1
100
AcDbSymbolTableRecord
100
AcDbBlockTableRecord
  2
*D20
340
0
  0
BLOCK_RECORD
  5
C46
330
1
100
AcDbSymbolTableRecord
100
AcDbBlockTableRecord
  2
*D22
340
0
  0
BLOCK_RECORD
  5
1119
330
1
100
AcDbSymbolTableRecord
100
AcDbBlockTableRecord
  2
A
340
0
310
2800000020000000200000000100080000000000000400000000000000000000000000000000000000000000000080000080000000808000800000008000800080800000C0C0C000C0DCC000F0CAA6000020400000206000002080000020A0000020C0000020E00000400000004020000040400000406000004080000040A0
310
000040C0000040E00000600000006020000060400000606000006080000060A0000060C0000060E00000800000008020000080400000806000008080000080A0000080C0000080E00000A0000000A0200000A0400000A0600000A0800000A0A00000A0C00000A0E00000C0000000C0200000C0400000C0600000C0800000C0
310
A00000C0C00000C0E00000E0000000E0200000E0400000E0600000E0800000E0A00000E0C00000E0E00040000000400020004000400040006000400080004000A0004000C0004000E00040200000402020004020400040206000402080004020A0004020C0004020E000404000004040200040404000404060004040800040
310
40A0004040C0004040E00040600000406020004060400040606000406080004060A0004060C0004060E00040800000408020004080400040806000408080004080A0004080C0004080E00040A0000040A0200040A0400040A0600040A0800040A0A00040A0C00040A0E00040C0000040C0200040C0400040C0600040C08000
310
40C0A00040C0C00040C0E00040E0000040E0200040E0400040E0600040E0800040E0A00040E0C00040E0E00080000000800020008000400080006000800080008000A0008000C0008000E00080200000802020008020400080206000802080008020A0008020C0008020E00080400000804020008040400080406000804080
310
008040A0008040C0008040E00080600000806020008060400080606000806080008060A0008060C0008060E00080800000808020008080400080806000808080008080A0008080C0008080E00080A0000080A0200080A0400080A0600080A0800080A0A00080A0C00080A0E00080C0000080C0200080C0400080C0600080C0
310
800080C0A00080C0C00080C0E00080E0000080E0200080E0400080E0600080E0800080E0A00080E0C00080E0E000C0000000C0002000C0004000C0006000C0008000C000A000C000C000C000E000C0200000C0202000C0204000C0206000C0208000C020A000C020C000C020E000C0400000C0402000C0404000C0406000C0
310
408000C040A000C040C000C040E000C0600000C0602000C0604000C0606000C0608000C060A000C060C000C060E000C0800000C0802000C0804000C0806000C0808000C080A000C080C000C080E000C0A00000C0A02000C0A04000C0A06000C0A08000C0A0A000C0A0C000C0A0E000C0C00000C0C02000C0C04000C0C06000
310
C0C08000C0C0A000F0FBFF00A4A0A000808080000000FF0000FF000000FFFF00FF000000FF00FF00FFFF0000FFFFFF0000000000000000000000000000000000000000000000000000000000000000000000000000000000000000000000000000000000000000000000000000000000000000000000000000000000000000
310
00000000000000000000000000000000000000000000000000000000000000000000000000000000000000000000000000000000000000000000000000000000000000000000000000000000000000000000000000000000000000000000000000000000000000000000000000000000000000000000000000000000000000
310
000000000000000000000000000000000000000000000000000000000000FEFEFEFEFEE70000000000000000000000000000000000000000000000000000FE000000E7E7E700000000000000000000000000000000000000000000000000FE000000E700E7FE000000000000000000000000000000000000000000000000FE
310
000000E700E700FEFE000000000000000000000000FEE7E7FEFEFEFEFEFEFEE7000000E7E7E7000000FEFE00000000000000000000FEE7E700000000000000E7000000E7E7000000000000FEFA0000000000000000FEE7E7000000FB000000E7000000E7E7E7FEFE000000FE00FA00000000000000FEE7E70000E7FBE70000
310
E7000000E70000E7E7FEFEE700FEFEFA000000000000FEE7E700E700FBE70000E7000000E7FBFBE7FB0000E7E7E700FEFA00000000FBFEE7E7FBFBE7E7E7FBFBE7FBFBFBFBFBFBFBFBFBFBFBFBFBFBFBFBFBFB000000FEE7E70000E7FBE70000E7000000E7E7FEFEFEFEE7FE00FEFEFA000000000000FEE7E7000000FB0000
310
00E7000000E7000000000000E7FE00FA00000000000000FEE7E700000000000000E7000000E700000000000000FEFA0000000000000000FEE7E7FEFEFEFEFEFEFEE7000000E7E7E7000000FEFE0000000000000000000000000000000000000000FE000000E700E700FEFE0000000000000000000000000000000000000000
310
0000FE000000E700E7FE000000000000000000000000000000000000000000000000FA000000E7FEFE00000000000000000000000000000000000000000000000000FAFEFEFEFEFE00000000000000000000000000000000000000000000000000000000000000000000000000000000000000000000000000000000000000
310
00000000000000000000000000000000000000000000000000000000000000000000000000000000000000000000000000000000000000000000000000000000000000000000000000000000000000000000000000000000000000000000000000000000000000000000000000000000000000000000000000000000000000
310
0000000000000000000000000000000000000000000000000000000000000000000000000000000000000000000000000000000000000000
102
{BLKREFS
331
118F
102
}
  0
ENDTAB
  0
ENDSEC
  0
SECTION
  2
BLOCKS
  0
BLOCK
  5
1B
330
1A
100
AcDbEntity
  8
0
100
AcDbBlockBegin
  2
*MODEL_SPACE
 70
     0
 10
0.0
 20
0.0
 30
0.0
  3
*MODEL_SPACE
  1

  0
ENDBLK
  5
1C
330
1A
100
AcDbEntity
  8
0
100
AcDbBlockEnd
  0
BLOCK
  5
18
330
17
100
AcDbEntity
 67
     1
  8
0
100
AcDbBlockBegin
  2
*PAPER_SPACE
 70
     0
 10
0.0
 20
0.0
 30
0.0
  3
*PAPER_SPACE
  1

  0
ENDBLK
  5
19
330
17
100
AcDbEntity
 67
     1
  8
0
100
AcDbBlockEnd
  0
BLOCK
  5
598
330
594
100
AcDbEntity
  8
0
100
AcDbBlockBegin
  2
_Open
 70
     0
 10
0.0
 20
0.0
 30
0.0
  3
_Open
  1

  0
LINE
  5
595
330
594
100
AcDbEntity
  8
0
  6
ByBlock
 62
     0
370
    -2
100
AcDbLine
 10
-1.0
 20
0.1666666666666666
 30
0.0
 11
0.0
 21
0.0
 31
0.0
  0
LINE
  5
596
330
594
100
AcDbEntity
  8
0
  6
ByBlock
 62
     0
370
    -2
100
AcDbLine
 10
-1.0
 20
-0.1666666666666666
 30
0.0
 11
0.0
 21
0.0
 31
0.0
  0
LINE
  5
597
330
594
100
AcDbEntity
  8
0
  6
ByBlock
 62
     0
370
    -2
100
AcDbLine
 10
0.0
 20
0.0
 30
0.0
 11
-1.0
 21
0.0
 31
0.0
  0
ENDBLK
  5
599
330
594
100
AcDbEntity
  8
0
100
AcDbBlockEnd
  0
BLOCK
  5
6E4
330
6E3
100
AcDbEntity
  8
0
100
AcDbBlockBegin
  2
矢印なし
 70
     0
 10
0.0
 20
0.0
 30
0.0
  3
矢印なし
  1

  0
ENDBLK
  5
6E5
330
6E3
100
AcDbEntity
  8
0
100
AcDbBlockEnd
  0
BLOCK
  5
BF3
330
BF2
100
AcDbEntity
  8
0
100
AcDbBlockBegin
  2
*D18
 70
     1
 10
0.0
 20
0.0
 30
0.0
  3
*D18
  1

  0
LINE
  5
10FA
330
BF2
100
AcDbEntity
  8
250
  6
Continuous
 62
     3
100
AcDbLine
 10
0.0000000000000142
 20
-31.69999999999999
 30
0.0
 11
0.0000000000000135
 21
-43.0
 31
0.0
  0
LINE
  5
10FB
330
BF2
100
AcDbEntity
  8
250
  6
Continuous
 62
     3
100
AcDbLine
 10
60.00000000000024
 20
-0.4999999999999716
 30
0.0
 11
60.00000000000024
 21
-43.0
 31
0.0
  0
LINE
  5
10FC
330
BF2
100
AcDbEntity
  8
250
  6
Continuous
 62
     3
100
AcDbLine
 10
2.000000000000013
 20
-42.0
 30
0.0
 11
58.00000000000024
 21
-42.0
 31
0.0
  0
INSERT
  5
10FD
330
BF2
100
AcDbEntity
  8
250
  6
Continuous
 62
     3
100
AcDbBlockReference
  2
_Open
 10
0.0000000000000135
 20
-42.0
 30
0.0
 41
2.0
 42
2.0
 43
2.0
 50
180.0
  0
INSERT
  5
10FE
330
BF2
100
AcDbEntity
  8
250
  6
Continuous
 62
     3
100
AcDbBlockReference
  2
_Open
 10
60.00000000000024
 20
-42.0
 30
0.0
 41
2.0
 42
2.0
 43
2.0
  0
MTEXT
  5
10FF
330
BF2
100
AcDbEntity
  8
250
  6
Continuous
 62
    40
370
    -3
100
AcDbMText
 10
28.7985916094474
 20
-39.5
 30
0.0
 40
3.0
 41
0.0
 71
     5
 72
     1
  1
\A1;60
 73
     1
 44
1.0
1001
ACAD
1000
MTEXTBEGIN
1070
    73
1070
     1
1070
    44
1040
1.0
1070
    74
1070
     0
1000
MTEXTEND
  0
POINT
  5
1100
330
BF2
100
AcDbEntity
  8
Defpoints
  6
Continuous
 62
     0
100
AcDbPoint
 10
0.0000000000000142
 20
-31.19999999999999
 30
0.0
  0
POINT
  5
1101
330
BF2
100
AcDbEntity
  8
Defpoints
  6
Continuous
 62
     0
100
AcDbPoint
 10
60.00000000000024
 20
0.0000000000000284
 30
0.0
  0
POINT
  5
1102
330
BF2
100
AcDbEntity
  8
Defpoints
  6
Continuous
 62
     0
100
AcDbPoint
 10
60.00000000000024
 20
-42.0
 30
0.0
  0
ENDBLK
  5
BF4
330
BF2
100
AcDbEntity
  8
0
100
AcDbBlockEnd
  0
BLOCK
  5
C21
330
C20
100
AcDbEntity
  8
0
370
    -3
100
AcDbBlockBegin
  2
*D20
 70
     1
 10
0.0
 20
0.0
 30
0.0
  3
*D20
  1

  0
LINE
  5
1103
330
C20
100
AcDbEntity
  8
250
  6
Continuous
 62
     3
100
AcDbLine
 10
-0.1999999999938922
 20
-31.50000000000023
 30
0.0
 11
-50.0
 21
-31.50000000000022
 31
0.0
  0
LINE
  5
1104
330
C20
100
AcDbEntity
  8
250
  6
Continuous
 62
     3
100
AcDbLine
 10
-0.2000000000021629
 20
31.49999999999991
 30
0.0
 11
-49.99999999999999
 21
31.49999999999993
 31
0.0
  0
LINE
  5
1105
330
C20
100
AcDbEntity
  8
250
  6
Continuous
 62
     3
100
AcDbLine
 10
-49.0
 20
-29.50000000000022
 30
0.0
 11
-48.99999999999998
 21
29.49999999999993
 31
0.0
  0
INSERT
  5
1106
330
C20
100
AcDbEntity
  8
250
  6
Continuous
 62
     3
100
AcDbBlockReference
  2
_Open
 10
-49.0
 20
-31.50000000000022
 30
0.0
 41
2.0
 42
2.0
 43
2.0
 50
270.0
  0
INSERT
  5
1107
330
C20
100
AcDbEntity
  8
250
  6
Continuous
 62
     3
100
AcDbBlockReference
  2
_Open
 10
-48.99999999999998
 20
31.49999999999993
 30
0.0
 41
2.0
 42
2.0
 43
2.0
 50
90.0
  0
MTEXT
  5
1108
330
C20
100
AcDbEntity
  8
250
  6
Continuous
 62
    40
370
    -3
100
AcDbMText
 10
-51.49999999999999
 20
-0.0000000000001495
 30
0.0
 40
3.0
 41
0.0
 71
     5
 72
     1
  1
\A1;{\H3;%%C}63
 11
0.0000000000000001
 21
1.0
 31
0.0
 73
     1
 44
1.0
1001
ACAD
1000
MTEXTBEGIN
1070
    73
1070
     1
1070
    44
1040
1.0
1070
    74
1070
     0
1000
MTEXTEND
  0
POINT
  5
1109
330
C20
100
AcDbEntity
  8
Defpoints
  6
Continuous
 62
     0
100
AcDbPoint
 10
0.3000000000061078
 20
-31.50000000000023
 30
0.0
  0
POINT
  5
110A
330
C20
100
AcDbEntity
  8
Defpoints
  6
Continuous
 62
     0
100
AcDbPoint
 10
0.2999999999978371
 20
31.49999999999991
 30
0.0
  0
POINT
  5
110B
330
C20
100
AcDbEntity
  8
Defpoints
  6
Continuous
 62
     0
100
AcDbPoint
 10
-48.99999999999998
 20
31.49999999999993
 30
0.0
  0
ENDBLK
  5
C22
330
C20
100
AcDbEntity
  8
0
370
    -3
100
AcDbBlockEnd
  0
BLOCK
  5
C47
330
C46
100
AcDbEntity
  8
0
100
AcDbBlockBegin
  2
*D22
 70
     1
 10
0.0
 20
0.0
 30
0.0
  3
*D22
  1

  0
LINE
  5
110C
330
C46
100
AcDbEntity
  8
250
  6
Continuous
 62
     3
100
AcDbLine
 10
61.04989082724287
 20
-0.3215687199485117
 30
0.0
 11
73.7500932512489
 21
-10.97830387920407
 31
0.0
  0
LINE
  5
110D
330
C46
100
AcDbEntity
  8
250
  6
Continuous
 62
     3
100
AcDbLine
 10
61.0498908270854
 20
0.3212188895503474
 30
0.0
 11
73.75009324586962
 21
10.97795405502901
 31
0.0
  0
ARC
  5
110E
330
C46
100
AcDbEntity
  8
250
  6
Continuous
 62
     3
100
AcDbCircle
 10
60.6668686055259
 20
-0.0001749152929226
 30
0.0
 40
16.07893681347637
100
AcDbArc
 50
327.1314143998039
 51
32.86858562827113
  0
INSERT
  5
110F
330
C46
100
AcDbEntity
  8
250
  6
Continuous
 62
     3
100
AcDbBlockReference
  2
_Open
 10
72.98404880781496
 20
-10.33551626989289
 30
0.0
 41
2.0
 42
2.0
 43
2.0
 50
233.5657072139394
  0
INSERT
  5
1110
330
C46
100
AcDbEntity
  8
250
  6
Continuous
 62
     3
100
AcDbBlockReference
  2
_Open
 10
72.98404880275064
 20
10.33516644534247
 30
0.0
 41
2.0
 42
2.0
 43
2.0
 50
126.4342928141356
  0
MTEXT
  5
1111
330
C46
100
AcDbEntity
  8
250
  6
Continuous
 62
    40
370
    -3
100
AcDbMText
 10
74.24580467826638
 20
-0.0046600921274164
 30
0.0
 40
3.0
 41
0.0
 71
     5
 72
     1
  1
\A1;80\U+00B0
 11
0.0003303039771157
 21
0.9999999454496398
 31
0.0
 73
     1
 44
1.0
1001
ACAD
1000
MTEXTBEGIN
1070
    73
1070
     1
1070
    44
1040
1.0
1070
    74
1070
     0
1000
MTEXTEND
  0
POINT
  5
1112
330
C46
100
AcDbEntity
  8
Defpoints
  6
Continuous
 62
     0
100
AcDbPoint
 10
76.31239559565054
 20
3.707883101115047
 30
0.0
  0
POINT
  5
1113
330
C46
100
AcDbEntity
  8
Defpoints
  6
Continuous
 62
     0
100
AcDbPoint
 10
59.57134514437218
 20
0.9190784159924591
 30
0.0
  0
POINT
  5
1114
330
C46
100
AcDbEntity
  8
Defpoints
  6
Continuous
 62
     0
100
AcDbPoint
 10
59.57134514437218
 20
-0.919428247493073
 30
0.0
  0
POINT
  5
1115
330
C46
100
AcDbEntity
  8
Defpoints
  6
Continuous
 62
     0
100
AcDbPoint
 10
46.61994428575919
 20
-11.78694393118437
 30
0.0
  0
POINT
  5
1116
330
C46
100
AcDbEntity
  8
Defpoints
  6
Continuous
 62
     0
100
AcDbPoint
 10
46.61994427287125
 20
11.78659409968355
 30
0.0
  0
ENDBLK
  5
C48
330
C46
100
AcDbEntity
  8
0
100
AcDbBlockEnd
  0
BLOCK
  5
111A
330
1119
100
AcDbEntity
  8
0
100
AcDbBlockBegin
  2
A
 70
     0
 10
0.0
 20
0.0
 30
0.0
  3
A
  1

  0
LINE
  5
111C
330
1119
100
AcDbEntity
  8
240
100
AcDbLine
 10
-37.99999999999999
 20
-16.28256631896343
 30
0.0
 11
-37.99999999999999
 21
16.28256631896349
 31
0.0
  0
LINE
  5
111D
330
1119
100
AcDbEntity
  8
241
100
AcDbLine
 10
-33.1063054583576
 20
-16.99999999999994
 30
0.0
 11
-33.1063054583576
 21
17.00000000000003
 31
0.0
  0
LINE
  5
111E
330
1119
100
AcDbEntity
  8
241
100
AcDbLine
 10
-35.17687804757138
 20
-16.70899999999997
 30
0.0
 11
-35.17687804757138
 21
16.70900000000003
 31
0.0
  0
LINE
  5
111F
330
1119
100
AcDbEntity
  8
241
100
AcDbLine
 10
-1.870096189432317
 20
-16.99999999999997
 30
0.0
 11
-1.870096189432317
 21
17.00000000000003
 31
0.0
  0
LINE
  5
1120
330
1119
100
AcDbEntity
  8
242
100
AcDbLine
 10
0.2999999999978371
 20
31.49999999999991
 30
0.0
 11
0.300000000000054
 21
29.31945577173897
 31
0.0
  0
LINE
  5
1121
330
1119
100
AcDbEntity
  8
240
100
AcDbLine
 10
-33.1063054583576
 20
-16.99999999999994
 30
0.0
 11
-1.870096189432317
 21
-16.99999999999997
 31
0.0
  0
ARC
  5
1122
330
1119
100
AcDbEntity
  8
240
100
AcDbCircle
 10
-36.99977894790037
 20
-16.01499999999998
 30
0.0
 40
0.9999999999999939
100
AcDbArc
 50
210.0000000000001
 51
260.0636329278606
  0
LINE
  5
1123
330
1119
100
AcDbEntity
  8
240
100
AcDbLine
 10
-37.99999999999999
 20
-16.28256631896343
 30
0.0
 11
-37.86580435168479
 21
-16.51499999999996
 31
0.0
  0
LINE
  5
1124
330
1119
100
AcDbEntity
  8
240
100
AcDbLine
 10
-35.17687804757138
 20
-16.70899999999997
 30
0.0
 11
-33.1063054583576
 21
-16.99999999999994
 31
0.0
  0
LINE
  5
1125
330
1119
100
AcDbEntity
  8
240
100
AcDbLine
 10
-37.17233328716772
 20
-16.99999999999997
 30
0.0
 11
-36.82722105708014
 21
-16.99999999999997
 31
0.0
  0
LINE
  5
1126
330
1119
100
AcDbEntity
  8
240
100
AcDbLine
 10
-36.82722105708014
 20
-16.99999999999997
 30
0.0
 11
-35.17687804757138
 21
-16.70899999999997
 31
0.0
  0
LINE
  5
1127
330
1119
100
AcDbEntity
  8
240
100
AcDbLine
 10
0.0000000000000142
 20
-31.19999999999999
 30
0.0
 11
0.3000000000061078
 21
-31.50000000000023
 31
0.0
  0
LINE
  5
1128
330
1119
100
AcDbEntity
  8
240
100
AcDbLine
 10
-1.870096189432317
 20
-16.99999999999997
 30
0.0
 11
-0.4294095225512394
 21
-16.61396917106287
 31
0.0
  0
ARC
  5
1129
330
1119
100
AcDbEntity
  8
240
100
AcDbCircle
 10
-0.2999999999999687
 20
-17.09693208420742
 30
0.0
 40
0.5000000000000152
100
AcDbArc
 50
53.13010235416021
 51
105.0000000000011
  0
LINE
  5
112A
330
1119
100
AcDbEntity
  8
240
100
AcDbLine
 10
-1.870096189432317
 20
17.00000000000003
 30
0.0
 11
-33.1063054583576
 21
17.00000000000003
 31
0.0
  0
CIRCLE
  5
112B
330
1119
100
AcDbEntity
  8
241
100
AcDbCircle
 10
-16.99999999999995
 20
-0.0000000000000284
 30
0.0
 40
4.5
  0
ARC
  5
112C
330
1119
100
AcDbEntity
  8
240
100
AcDbCircle
 10
-36.99977894790037
 20
16.01500000000001
 30
0.0
 40
1.000000000000011
100
AcDbArc
 50
99.93636707213937
 51
149.9999999999998
  0
LINE
  5
112D
330
1119
100
AcDbEntity
  8
240
100
AcDbLine
 10
-37.86580435168479
 20
16.51500000000001
 30
0.0
 11
-37.99999999999999
 21
16.28256631896349
 31
0.0
  0
LINE
  5
112E
330
1119
100
AcDbEntity
  8
240
100
AcDbLine
 10
-33.1063054583576
 20
17.00000000000003
 30
0.0
 11
-35.17687804757138
 21
16.70900000000003
 31
0.0
  0
LINE
  5
112F
330
1119
100
AcDbEntity
  8
240
100
AcDbLine
 10
-36.82722105708014
 20
17.00000000000003
 30
0.0
 11
-37.17233328716772
 21
17.00000000000003
 31
0.0
  0
LINE
  5
1130
330
1119
100
AcDbEntity
  8
240
100
AcDbLine
 10
-35.17687804757138
 20
16.70900000000003
 30
0.0
 11
-36.82722105708014
 21
17.00000000000003
 31
0.0
  0
LINE
  5
1131
330
1119
100
AcDbEntity
  8
240
100
AcDbLine
 10
-0.4294095225512394
 20
16.61396917106296
 30
0.0
 11
-1.870096189432317
 21
17.00000000000003
 31
0.0
  0
ARC
  5
1132
330
1119
100
AcDbEntity
  8
240
100
AcDbCircle
 10
-0.2999999999999687
 20
17.09693208420751
 30
0.0
 40
0.500000000000017
100
AcDbArc
 50
255.0000000000004
 51
306.8698976458398
  0
LINE
  5
1133
330
1119
100
AcDbEntity
  8
240
100
AcDbLine
 10
0.3000000000000256
 20
31.50000000000003
 30
0.0
 11
0.0
 21
31.19999999999885
 31
0.0
  0
LINE
  5
1134
330
1119
100
AcDbEntity
  8
245
100
AcDbLine
 10
-41.15656164008963
 20
-0.0000000000000284
 30
0.0
 11
65.33044146325382
 21
0.0000000000000568
 31
0.0
  0
LINE
  5
1135
330
1119
100
AcDbEntity
  8
245
100
AcDbLine
 10
-16.99999999999995
 20
-8.129614299788471
 30
0.0
 11
-16.99999999999993
 21
7.92941259283296
 31
0.0
  0
LINE
  5
1136
330
1119
100
AcDbEntity
  8
240
100
AcDbLine
 10
0.0000000000000142
 20
-31.19999999999999
 30
0.0
 11
0.0
 21
31.19999999999885
 31
0.0
  0
LINE
  5
1137
330
1119
100
AcDbEntity
  8
242
100
AcDbLine
 10
0.300000000000054
 20
-31.50000000000009
 30
0.0
 11
0.3000000000000824
 21
-29.31945577173903
 31
0.0
  0
LWPOLYLINE
  5
1138
330
1119
100
AcDbEntity
  8
241
100
AcDbPolyline
 90
       21
 70
   128
 43
0.0
 10
-20.9772386552077
 20
-4.052226494342136
 10
-22.14382471715412
 20
-2.583840708288363
 10
-22.75037689847126
 20
-0.7895071539726644
 10
-22.71713734415756
 20
0.9861611321033194
 10
-22.14175372499081
 20
2.587613413757907
 10
-21.06407340215561
 20
3.972553770203177
 10
-19.49615904964376
 20
5.019747273807837
 10
-17.58569261847758
 20
5.530521839983833
 10
-15.63456575053222
 20
5.403177676004219
 10
-13.85886887753936
 20
4.67649148351299
 10
-12.3960092146085
 20
3.390519065842994
 10
-11.85287052486607
 20
2.576340526794041
 10
-11.46083092732915
 20
1.675598445398094
 10
-11.19286331822771
 20
-0.1495093117108865
 10
-11.51837627541398
 20
-1.840807022500456
 10
-12.35418167470333
 20
-3.337859533992997
 10
-13.69233158923542
 20
-4.570163218845578
 10
-15.47001357054914
 20
-5.362674277609045
 10
-17.43921214484173
 20
-5.542929158807766
 10
-19.31614592044137
 20
-5.098116650417779
 10
-20.9772386552077
 20
-4.052226494342136
  0
ARC
  5
1139
330
1119
100
AcDbEntity
  8
240
100
AcDbCircle
 10
46.12321507062101
 20
-39.66001702017329
 30
0.0
 40
24.66575230657627
100
AcDbArc
 50
103.2728323258343
 51
130.3023703244837
  0
ARC
  5
113A
330
1119
100
AcDbEntity
  8
240
100
AcDbCircle
 10
46.12321507062093
 20
39.660017020173
 30
0.0
 40
24.66575230657604
100
AcDbArc
 50
229.6976296755174
 51
256.7271676741657
  0
LINE
  5
113B
330
1119
100
AcDbEntity
  8
240
100
AcDbLine
 10
56.12689715301055
 20
0.8426488874308972
 30
0.0
 11
43.98880245938819
 21
11.12781418974791
 31
0.0
  0
LINE
  5
113C
330
1119
100
AcDbEntity
  8
240
100
AcDbLine
 10
40.46024782744406
 20
15.65314011266875
 30
0.0
 11
44.89481934663821
 21
11.89552392404036
 31
0.0
  0
LINE
  5
113D
330
1119
100
AcDbEntity
  8
240
100
AcDbLine
 10
56.12689715301055
 20
-0.8426488874308404
 30
0.0
 11
43.98880245938816
 21
-11.12781418974791
 31
0.0
  0
ARC
  5
113E
330
1119
100
AcDbEntity
  8
240
100
AcDbCircle
 10
55.40971118642291
 20
-0.0000000000000284
 30
0.0
 40
1.106531905621698
100
AcDbArc
 50
310.4014018618162
 51
49.59859813818376
  0
LINE
  5
113F
330
1119
100
AcDbEntity
  8
240
100
AcDbLine
 10
40.46024782744406
 20
-15.65314011266869
 30
0.0
 11
44.89481934663821
 21
-11.8955239240403
 31
0.0
  0
LINE
  5
1140
330
1119
100
AcDbEntity
  8
241
100
AcDbLine
 10
23.06436567161354
 20
-17.04212926114078
 30
0.0
 11
23.06436567161343
 21
-26.86887061248038
 31
0.0
  0
ELLIPSE
  5
1141
330
1119
100
AcDbEntity
  8
241
100
AcDbEllipse
 10
16.25906331691006
 20
0.0000000000000284
 30
0.0
 11
-0.0000000000000039
 21
-31.5
 31
0.0
210
0.0
220
0.0
230
1.0
 40
0.1227845609029055
 41
3.604874340050308
 42
5.819903620719251
  0
ELLIPSE
  5
1142
330
1119
100
AcDbEntity
  8
240
100
AcDbEllipse
 10
24.45609668121405
 20
26.86887061248055
 30
0.0
 11
-9.983408150503777
 21
8.362792596588491
 31
0.0
210
0.0
220
0.0
230
0.9999999999999998
 40
0.068854266011017
 41
1.016390072840328
 42
1.488783248450944
  0
LWPOLYLINE
  5
1143
330
1119
100
AcDbEntity
  8
241
100
AcDbPolyline
 90
       11
 70
   128
 43
0.0
 10
14.53063516480081
 20
28.17960946446343
 10
14.65636265276039
 20
28.55249354488464
 10
14.84676342324162
 20
28.90162518264728
 10
15.10857866002318
 20
29.22946130838025
 10
15.44197417034168
 20
29.52959539506295
 10
15.83055528623602
 20
29.79051955368138
 10
16.28673167049273
 20
30.0243373834879
 10
16.8190294965686
 20
30.23416606502579
 10
17.41904146434349
 20
30.41648467595181
 10
18.03827556772826
 20
30.56276861703739
 10
18.71088085251592
 20
30.68693056000339
  0
LINE
  5
1144
330
1119
100
AcDbEntity
  8
240
100
AcDbLine
 10
16.73303365218676
 20
31.50000000000003
 30
0.0
 11
0.2999999999978371
 21
31.49999999999991
 31
0.0
  0
ELLIPSE
  5
1145
330
1119
100
AcDbEntity
  8
240
100
AcDbEllipse
 10
54.64220123185443
 20
0.0000000000000284
 30
0.0
 11
-38.12454153503394
 21
31.42461150031526
 31
0.0
210
0.0
220
0.0
230
1.0
 40
0.0571292064902617
 41
5.986286911328883
 42
6.213986449529143
  0
ARC
  5
1146
330
1119
100
AcDbEntity
  8
241
100
AcDbCircle
 10
15.94575902994991
 20
6.443317369848983
 30
0.0
 40
2.916061672907985
100
AcDbArc
 50
4.604818966789783
 51
185.4929512537344
  0
LINE
  5
1147
330
1119
100
AcDbEntity
  8
241
100
AcDbLine
 10
13.89886350622096
 20
6.24649310909902
 30
0.0
 11
13.9756892023632
 21
5.359741579061818
 31
0.0
  0
LINE
  5
1148
330
1119
100
AcDbEntity
  8
241
100
AcDbLine
 10
13.04308796430679
 20
6.164182340013923
 30
0.0
 11
14.59662384721498
 21
-11.76732222563751
 31
0.0
  0
LINE
  5
1149
330
1119
100
AcDbEntity
  8
241
100
AcDbLine
 10
12.76911873782406
 20
10.8962747771163
 30
0.0
 11
13.75404902115197
 21
-13.01239797708561
 31
0.0
  0
ARC
  5
114A
330
1119
100
AcDbEntity
  8
241
100
AcDbCircle
 10
15.33508120067206
 20
6.414183444315057
 30
0.0
 40
1.44597417486604
100
AcDbArc
 50
3.71845771887402
 51
186.6596046452093
  0
ELLIPSE
  5
114B
330
1119
100
AcDbEntity
  8
241
100
AcDbEllipse
 10
24.45609668121405
 20
17.087745215333
 30
0.0
 11
-9.999994516920907
 21
-0.8664993307020964
 31
0.0
210
0.0
220
0.0
230
1.0
 40
0.0120853425540218
 41
4.850968126229421
 42
5.938552191290983
  0
LINE
  5
114C
330
1119
100
AcDbEntity
  8
240
100
AcDbLine
 10
23.06436567161343
 20
26.86887061248043
 30
0.0
 11
30.16888034539837
 21
20.84888892202551
 31
0.0
  0
LINE
  5
114D
330
1119
100
AcDbEntity
  8
241
100
AcDbLine
 10
23.06436567161343
 20
26.86887061248043
 30
0.0
 11
23.06436567161354
 21
17.087745215333
 31
0.0
  0
ELLIPSE
  5
114E
330
1119
100
AcDbEntity
  8
241
100
AcDbEllipse
 10
15.11449470720141
 20
11.33205349085457
 30
0.0
 11
-0.0000000000000006
 21
-4.999999999999985
 31
0.0
210
0.0
220
0.0
230
1.0
 40
0.4708669849116873
 41
3.392201062497202
 42
4.799655442984415
  0
LINE
  5
114F
330
1119
100
AcDbEntity
  8
241
100
AcDbLine
 10
15.04056919944953
 20
16.3130269813133
 30
0.0
 11
14.53063516480081
 21
16.17586208895668
 31
0.0
  0
LINE
  5
1150
330
1119
100
AcDbEntity
  8
241
100
AcDbLine
 10
13.04308796430679
 20
6.164182340013923
 30
0.0
 11
13.89886350622096
 21
6.24649310909902
 31
0.0
  0
ARC
  5
1151
330
1119
100
AcDbEntity
  8
241
100
AcDbCircle
 10
17.04582460767638
 20
-14.48757760234466
 30
0.0
 40
3.103010722552659
100
AcDbArc
 50
215.8489068105643
 51
267.249497327036
  0
ARC
  5
1152
330
1119
100
AcDbEntity
  8
241
100
AcDbCircle
 10
16.89604480267481
 20
-11.59911148958238
 30
0.0
 40
1.446198770701006
100
AcDbArc
 50
183.4052055942119
 51
6.972856769866573
  0
ARC
  5
1153
330
1119
100
AcDbEntity
  8
241
100
AcDbCircle
 10
17.50327285111832
 20
-11.53321274631193
 30
0.0
 40
2.916061672908029
100
AcDbArc
 50
184.6048189668094
 51
5.492951253731046
  0
LINE
  5
1154
330
1119
100
AcDbEntity
  8
241
100
AcDbLine
 10
20.4059439167615
 20
-11.2540777164767
 30
0.0
 11
18.33154716113547
 21
-11.42354422830945
 31
0.0
  0
LINE
  5
1155
330
1119
100
AcDbEntity
  8
241
100
AcDbLine
 10
18.04242975868591
 20
-11.42354422830945
 30
0.0
 11
18.33154716113547
 21
-11.42354422830945
 31
0.0
  0
LINE
  5
1156
330
1119
100
AcDbEntity
  8
241
100
AcDbLine
 10
23.06436567161354
 20
-17.04212926114078
 30
0.0
 11
16.89692076814485
 21
-17.58701354955337
 31
0.0
  0
LINE
  5
1157
330
1119
100
AcDbEntity
  8
241
100
AcDbLine
 10
14.59662384721498
 20
-11.76732222563751
 30
0.0
 11
15.4523993891291
 21
-11.68501145655241
 31
0.0
  0
ELLIPSE
  5
1158
330
1119
100
AcDbEntity
  8
241
100
AcDbEllipse
 10
16.09942499052933
 20
-12.57661926334728
 30
0.0
 11
-0.0000000000000006
 21
-5.0
 31
0.0
210
0.0
220
0.0
230
1.0
 40
0.4708669849116916
 41
4.799655442984416
 42
5.553894528759339
  0
LWPOLYLINE
  5
1159
330
1119
100
AcDbEntity
  8
241
100
AcDbPolyline
 90
       14
 70
   128
 43
0.0
 10
18.71088085251592
 20
-30.68693056000339
 10
18.21754748107737
 20
-30.59896187389174
 10
17.97956435584292
 20
-30.55036907625677
 10
17.74928163394823
 20
-30.49892866304342
 10
17.30079503983616
 20
-30.38416273736615
 10
16.9424051478427
 20
-30.27566421312852
 10
16.60630628194816
 20
-30.15680587694433
 10
15.99291498597979
 20
-29.88096972215581
 10
15.47439422830059
 20
-29.55433815279051
 10
15.24340092198061
 20
-29.36230308886829
 10
15.04262270234092
 20
-29.15706581872289
 10
14.72595696755202
 20
-28.69769999466965
 10
14.66563896075799
 20
-28.57347378205751
 10
14.53063516480081
 20
-28.17960946446331
  0
LINE
  5
115A
330
1119
100
AcDbEntity
  8
240
100
AcDbLine
 10
0.3000000000061078
 20
-31.50000000000023
 30
0.0
 11
16.73303365218676
 21
-31.49999999999997
 31
0.0
  0
ELLIPSE
  5
115B
330
1119
100
AcDbEntity
  8
240
100
AcDbEllipse
 10
24.45609668121399
 20
-26.86887061248043
 30
0.0
 11
-9.98340815050372
 21
-8.362792596588489
 31
0.0
210
0.0
220
0.0
230
0.9999999999999998
 40
0.068854266011015
 41
4.794402058728642
 42
5.266795234339335
  0
LINE
  5
115C
330
1119
100
AcDbEntity
  8
240
100
AcDbLine
 10
23.06436567161343
 20
-26.86887061248038
 30
0.0
 11
30.16888034539837
 21
-20.8488889220254
 31
0.0
  0
ELLIPSE
  5
115D
330
1119
100
AcDbEntity
  8
240
100
AcDbEllipse
 10
54.64220123185443
 20
0.0000000000000284
 30
0.0
 11
-38.12454153503431
 21
-31.42461150031551
 31
0.0
210
0.0
220
0.0
230
1.0
 40
0.0571292064902612
 41
0.0691988576506867
 42
0.2968983958509423
  0
LINE
  5
115E
330
1119
100
AcDbEntity
  8
241
100
AcDbLine
 10
43.98880245938779
 20
11.12781418974847
 30
0.0
 11
37.5028504443557
 21
5.631969059081995
 31
0.0
  0
LINE
  5
115F
330
1119
100
AcDbEntity
  8
240
100
AcDbLine
 10
43.98880245938819
 20
11.12781418974791
 30
0.0
 11
44.89481934663821
 21
11.89552392404036
 31
0.0
  0
LINE
  5
1160
330
1119
100
AcDbEntity
  8
240
100
AcDbLine
 10
44.89481934663821
 20
-11.8955239240403
 30
0.0
 11
43.98880245938816
 21
-11.12781418974791
 31
0.0
  0
LINE
  5
1161
330
1119
100
AcDbEntity
  8
241
100
AcDbLine
 10
43.98880245938904
 20
-11.12781418974808
 30
0.0
 11
39.00778686881232
 21
-6.907170833800023
 31
0.0
  0
LINE
  5
1162
330
1119
100
AcDbEntity
  8
246
100
AcDbLine
 10
59.57134514437218
 20
-0.919428247493073
 30
0.0
 11
46.61994428575918
 21
-11.78694393118437
 31
0.0
  0
LINE
  5
1163
330
1119
100
AcDbEntity
  8
246
100
AcDbLine
 10
59.57134514437218
 20
0.9190784159924589
 30
0.0
 11
46.61994427287125
 21
11.78659409968355
 31
0.0
  0
ARC
  5
1164
330
1119
100
AcDbEntity
  8
246
100
AcDbCircle
 10
58.80000001274836
 20
-0.000174915750307
 30
0.0
 40
1.199999999999999
100
AcDbArc
 50
310.0000000000001
 51
49.99999999999991
  0
LINE
  5
1165
330
1119
100
AcDbEntity
  8
240
100
AcDbLine
 10
39.09247066761434
 20
-6.880304362531717
 30
0.0
 11
27.10107482451842
 21
-10.68465060637936
 31
0.0
  0
ELLIPSE
  5
1166
330
1119
100
AcDbEntity
  8
241
100
AcDbEllipse
 10
31.36963829980626
 20
-16.89529075459521
 30
0.0
 11
19.0728755485006
 21
8.090550947664288
 31
0.0
210
0.0
220
0.0
230
1.0
 40
0.5380314721770969
 41
0.9535878831536871
 42
1.397378337844264
  0
ELLIPSE
  5
1167
330
1119
100
AcDbEntity
  8
241
100
AcDbEllipse
 10
28.68429462541597
 20
14.10039095016927
 30
0.0
 11
20.18011706087014
 21
-4.689826407759829
 31
0.0
210
0.0
220
0.0
230
1.0
 40
0.5380314721771025
 41
4.885806969335333
 42
5.329597424025916
  0
LINE
  5
1168
330
1119
100
AcDbEntity
  8
240
100
AcDbLine
 10
38.01444845968108
 20
5.562808057837855
 30
0.0
 11
25.54744550311109
 21
7.248175047478525
 31
0.0
  0
ARC
  5
1169
330
1119
100
AcDbEntity
  8
240
100
AcDbCircle
 10
16.27574646552962
 20
3.433673930676832
 30
0.0
 40
3.0
100
AcDbArc
 50
94.95151679374805
 51
184.951516793748
  0
ELLIPSE
  5
116A
330
1119
100
AcDbEntity
  8
241
100
AcDbEllipse
 10
16.49486736821312
 20
0.904462560374128
 30
0.0
 11
-0.2989961023118088
 21
3.451173906195182
 31
0.0
210
0.0
220
0.0
230
1.0
 40
0.8660254037844326
 41
6.091199089460232
 42
6.283185307179586
  0
ELLIPSE
  5
116B
330
1119
100
AcDbEntity
  8
241
100
AcDbEllipse
 10
17.09237844378437
 20
-5.992331801592399
 30
0.0
 11
-0.2989961023118063
 21
3.451173906195153
 31
0.0
210
0.0
220
0.0
230
1.0
 40
0.8660254037844397
 41
3.141592653589788
 42
3.333578871309177
  0
LINE
  5
116C
330
1119
100
AcDbEntity
  8
240
100
AcDbLine
 10
14.3226950708249
 20
-8.780481392129587
 30
0.0
 11
13.28694218988663
 21
3.174735710442234
 31
0.0
  0
ARC
  5
116D
330
1119
100
AcDbEntity
  8
240
100
AcDbCircle
 10
17.31149934646787
 20
-8.521543171895075
 30
0.0
 40
3.0
100
AcDbArc
 50
184.951516793748
 51
274.951516793748
  0
ELLIPSE
  5
116E
330
1119
100
AcDbEntity
  8
241
100
AcDbEllipse
 10
17.24187649494023
 20
-7.717918754689975
 30
0.0
 11
2.988804275642979
 21
0.2589382202345558
 31
0.0
210
0.0
220
0.0
230
1.0
 40
0.5773502691896275
 41
3.141592653589793
 42
4.712388980384693
  0
ELLIPSE
  5
116F
330
1119
100
AcDbEntity
  8
241
100
AcDbEllipse
 10
16.3453693170572
 20
2.630049513471732
 30
0.0
 11
2.988804275642979
 21
0.2589382202345558
 31
0.0
210
0.0
220
0.0
230
1.0
 40
0.5773502691896227
 41
1.570796326794901
 42
3.141592653589793
  0
ARC
  5
1170
330
1119
100
AcDbEntity
  8
241
100
AcDbCircle
 10
23.76749954916569
 20
-1.939745440061841
 30
0.0
 40
2.75
100
AcDbArc
 50
94.95151679374805
 51
274.951516793748
  0
ARC
  5
1171
330
1119
100
AcDbEntity
  8
241
100
AcDbCircle
 10
24.76376764104673
 20
-1.853432699983642
 30
0.0
 40
2.75
100
AcDbArc
 50
274.951516793748
 51
94.95151679374805
  0
ARC
  5
1172
330
1119
100
AcDbEntity
  8
241
100
AcDbCircle
 10
24.76376764104673
 20
-1.853432699983642
 30
0.0
 40
4.500000000000014
100
AcDbArc
 50
274.951516793748
 51
94.95151679374805
  0
ARC
  5
1173
330
1119
100
AcDbEntity
  8
241
100
AcDbCircle
 10
23.76749954916569
 20
-1.939745440061841
 30
0.0
 40
4.500000000000014
100
AcDbArc
 50
94.95151679374805
 51
274.951516793748
  0
LINE
  5
1174
330
1119
100
AcDbEntity
  8
240
100
AcDbLine
 10
27.10107482451842
 20
-10.68465060637936
 30
0.0
 11
17.57043756670241
 21
-11.51034744753821
 31
0.0
  0
LINE
  5
1175
330
1119
100
AcDbEntity
  8
241
100
AcDbLine
 10
30.37298462543355
 20
-5.391377733944693
 30
0.0
 11
17.95617188677106
 21
-9.330690181051323
 31
0.0
  0
LINE
  5
1176
330
1119
100
AcDbEntity
  8
241
100
AcDbLine
 10
24.0048595843807
 20
-4.679482692734552
 30
0.0
 11
25.0011276762617
 21
-4.593169952656353
 31
0.0
  0
LINE
  5
1177
330
1119
100
AcDbEntity
  8
241
100
AcDbLine
 10
24.15590687951751
 20
-6.422951853526342
 30
0.0
 11
25.15217497139851
 21
-6.336639113448114
 31
0.0
  0
LINE
  5
1178
330
1119
100
AcDbEntity
  8
240
100
AcDbLine
 10
25.54744550311109
 20
7.248175047478525
 30
0.0
 11
16.01680824529505
 21
6.422478206319823
 31
0.0
  0
LINE
  5
1179
330
1119
100
AcDbEntity
  8
241
100
AcDbLine
 10
29.68094829978865
 20
2.596477929518641
 30
0.0
 11
16.77165540765146
 21
4.341636423168097
 31
0.0
  0
LINE
  5
117A
330
1119
100
AcDbEntity
  8
241
100
AcDbLine
 10
24.52640760583169
 20
0.8863045526890687
 30
0.0
 11
23.53013951395069
 21
0.7999918126109265
 31
0.0
  0
LINE
  5
117B
330
1119
100
AcDbEntity
  8
241
100
AcDbLine
 10
24.37536031069483
 20
2.629773713480801
 30
0.0
 11
23.37909221881388
 21
2.543460973402602
 31
0.0
  0
LINE
  5
117C
330
1119
100
AcDbEntity
  8
241
100
AcDbLine
 10
44.51902275017816
 20
-2.661982884438401
 30
0.0
 11
46.71162005080081
 21
-1.546568328819631
 31
0.0
  0
ARC
  5
117D
330
1119
100
AcDbEntity
  8
240
100
AcDbCircle
 10
43.69286138678553
 20
-0.213490638498115
 30
0.0
 40
3.300000000000005
100
AcDbArc
 50
304.9515167937486
 51
336.1738442835759
  0
ARC
  5
117E
330
1119
100
AcDbEntity
  8
241
100
AcDbCircle
 10
38.03292992161927
 20
19.28934682049896
 30
0.0
 40
23.14839113512868
100
AcDbArc
 50
272.0436888808194
 51
279.1876584588917
  0
LINE
  5
117F
330
1119
100
AcDbEntity
  8
240
100
AcDbLine
 10
45.5833755227964
 20
-2.918293089980039
 30
0.0
 11
39.82247742661143
 21
-6.944856760457582
 31
0.0
  0
LINE
  5
1180
330
1119
100
AcDbEntity
  8
240
100
AcDbLine
 10
39.82247742661143
 20
-6.944856760457582
 30
0.0
 11
39.21106167935782
 21
-6.96059901042318
 31
0.0
  0
ARC
  5
1181
330
1119
100
AcDbEntity
  8
240
100
AcDbCircle
 10
43.69286138678553
 20
-0.213490638498115
 30
0.0
 40
8.099999999999958
100
AcDbArc
 50
235.3926404080928
 51
235.6571435247964
  0
LINE
  5
1182
330
1119
100
AcDbEntity
  8
240
100
AcDbLine
 10
39.2110616793578
 20
-6.960599010423067
 30
0.0
 11
39.12329659308777
 21
-6.901470721916211
 31
0.0
  0
ELLIPSE
  5
1183
330
1119
100
AcDbEntity
  8
241
100
AcDbEllipse
 10
34.42265894259741
 20
14.19576672391613
 30
0.0
 11
-11.057601345872
 21
16.29022882023855
 31
0.0
210
0.0
220
0.0
230
1.0
 40
0.6702254977800008
 41
2.839341028005366
 42
3.057067272604536
  0
ARC
  5
1184
330
1119
100
AcDbEntity
  8
241
100
AcDbCircle
 10
41.48045091838899
 20
-20.52008314040796
 30
0.0
 40
23.26943699996322
100
AcDbArc
 50
90.73398024742227
 51
97.84073958786386
  0
LINE
  5
1185
330
1119
100
AcDbEntity
  8
240
100
AcDbLine
 10
38.72247647730045
 20
5.751946119912759
 30
0.0
 11
45.09003195398192
 21
2.776143855241883
 31
0.0
  0
LINE
  5
1186
330
1119
100
AcDbEntity
  8
240
100
AcDbLine
 10
38.11746331712003
 20
5.662301764639551
 30
0.0
 11
38.72247647730045
 21
5.751946119912815
 31
0.0
  0
LINE
  5
1187
330
1119
100
AcDbEntity
  8
240
100
AcDbLine
 10
38.04117486859373
 20
5.588960524595705
 30
0.0
 11
38.11746331712014
 21
5.662301764639607
 31
0.0
  0
ARC
  5
1188
330
1119
100
AcDbEntity
  8
240
100
AcDbCircle
 10
43.69286138678553
 20
-0.213490638498115
 30
0.0
 40
8.100000000000024
100
AcDbArc
 50
134.2458900627023
 51
134.5103931794052
  0
LINE
  5
1189
330
1119
100
AcDbEntity
  8
241
100
AcDbLine
 10
44.08561835311873
 20
2.340603886414612
 30
0.0
 11
46.43737683844166
 21
1.618894401721632
 31
0.0
  0
ELLIPSE
  5
118A
330
1119
100
AcDbEntity
  8
241
100
AcDbEllipse
 10
37.03890510695867
 20
-16.00235433791212
 30
0.0
 11
8.091231497259203
 21
17.9492082108856
 31
0.0
210
0.0
220
0.0
230
1.0
 40
0.6702254977799984
 41
0.0845253809852597
 42
0.30225162558443
  0
ARC
  5
118B
330
1119
100
AcDbEntity
  8
240
100
AcDbCircle
 10
43.69286138678553
 20
-0.213490638498115
 30
0.0
 40
3.300000000000025
100
AcDbArc
 50
336.1738442835759
 51
33.7291893039243
  0
ARC
  5
118C
330
1119
100
AcDbEntity
  8
240
100
AcDbCircle
 10
43.69286138678553
 20
-0.213490638498115
 30
0.0
 40
3.300000000000032
100
AcDbArc
 50
33.7291893039243
 51
64.95151679374974
  0
LINE
  5
118D
330
1119
100
AcDbEntity
  8
245
100
AcDbLine
 10
12.16280042654823
 20
-2.945130824998614
 30
0.0
 11
48.34058046677943
 21
0.1891694207541548
 31
0.0
  0
LINE
  5
118E
330
1119
100
AcDbEntity
  8
241
100
AcDbLine
 10
15.45239938912907
 20
-11.68501145655241
 30
0.0
 11
15.37698041371529
 21
-10.81449683449313
 31
0.0
  0
ENDBLK
  5
111B
330
1119
100
AcDbEntity
  8
0
100
AcDbBlockEnd
  0
ENDSEC
  0
SECTION
  2
ENTITIES
  0
INSERT
  5
6E6
330
1A
100
AcDbEntity
  8
245
100
AcDbBlockReference
  2
矢印なし
 10
175.6238269664377
 20
90.55123571690598
 30
0.0
  0
DIMENSION
  5
BC4
330
1A
100
AcDbEntity
  8
250
  6
Continuous
370
    -3
100
AcDbDimension
  2
*D18
 10
60.00000000000024
 20
-42.0
 30
0.0
 11
28.7985916094474
 21
-42.0
 31
0.0
 70
   160
 71
     5
 42
60.00000000000023
  3
BIGT$0
100
AcDbAlignedDimension
 13
0.0000000000000142
 23
-31.19999999999999
 33
0.0
 14
60.00000000000024
 24
0.0000000000000284
 34
0.0
100
AcDbRotatedDimension
1001
ACAD
1000
DSTYLE
1002
{
1070
    41
1040
2.0
1002
}
  0
DIMENSION
  5
C1F
330
1A
100
AcDbEntity
  8
250
  6
Continuous
370
    -3
100
AcDbDimension
  2
*D20
 10
-48.99999999999998
 20
31.49999999999993
 30
0.0
 11
-51.49999999999999
 21
-0.0000000000001495
 31
0.0
 70
    32
  1
{\H3;%%C}<>
 71
     5
 42
63.00000000000014
  3
BIGT$0
100
AcDbAlignedDimension
 13
0.3000000000061078
 23
-31.50000000000023
 33
0.0
 14
0.2999999999978371
 24
31.49999999999991
 34
0.0
 50
90.0
100
AcDbRotatedDimension
1001
ACAD
1000
DSTYLE
1002
{
1070
    41
1040
2.0
1002
}
  0
DIMENSION
  5
C45
330
1A
100
AcDbEntity
  8
250
  6
Continuous
370
    -3
100
AcDbDimension
  2
*D22
 10
46.61994427287125
 20
11.78659409968355
 30
0.0
 11
76.74580454189047
 21
-0.0054858520702084
 31
0.0
 70
   162
 71
     5
 42
1.396263401105465
  3
BIGT$2
100
AcDb2LineAngularDimension
 13
59.57134514437218
 23
-0.919428247493073
 33
0.0
 14
46.61994428575918
 24
-11.78694393118437
 34
0.0
 15
59.57134514437218
 25
0.9190784159924589
 35
0.0
 16
76.31239559565054
 26
3.707883101115047
 36
0.0
1001
ACAD
1000
DSTYLE
1002
{
1070
    41
1040
2.0
1070
   288
1070
     1
1002
}
  0
LEADER
  5
D07
102
{ACAD_REACTORS
330
D0A
102
}
330
1A
100
AcDbEntity
  8
250
  6
Continuous
370
    -3
100
AcDbLeader
  3
BIGT$7
 76
     2
 10
49.37155262751649
 20
9.477720546454008
 30
0.0
 10
64.14078794567915
 20
35.05878650645235
 30
0.0
1001
ACAD
1000
DSTYLE
1002
{
1070
    41
1040
2.0
1002
}
  0
MTEXT
  5
D08
102
{ACAD_REACTORS
330
D0A
102
}
330
1A
100
AcDbEntity
  8
250
  6
Continuous
 62
    40
370
    -3
100
AcDbMText
 10
66.94078794567916
 20
36.05878650645235
 30
0.0
 40
2.799999999999999
 41
0.0
 71
     7
 72
     1
  1
INSERT：CN1906
  7
YOKO
 73
     1
 44
1.0
1001
ITEMNAME
1000
LNSP3
1001
ACAD
1000
MTEXTBEGIN
1070
    73
1070
     1
1070
    44
1040
1.0
1070
    74
1070
     0
1000
MTEXTEND
  0
LINE
  5
D09
102
{ACAD_REACTORS
330
D0A
102
}
330
1A
100
AcDbEntity
  8
250
  6
Continuous
370
    -3
100
AcDbLine
 10
64.14078794567915
 20
35.05878650645235
 30
0.0
 11
102.7007879456791
 21
35.05878650645235
 31
0.0
1001
ITEMNAME
1000
LNSP2
  0
TEXT
  5
1117
330
1A
100
AcDbEntity
  8
251
  6
Continuous
 62
    40
100
AcDbText
 10
-35.0
 20
49.0
 30
0.0
 40
5.0
  1
S63-DCLNN0006-019
  7
YOKO
 11
-35.0
 21
49.0
 31
0.0
100
AcDbText
 73
     1
  0
INSERT
  5
118F
330
1A
100
AcDbEntity
  8
2
100
AcDbBlockReference
  2
A
 10
0.0
 20
0.0
 30
0.0
  0
VIEWPORT
  5
22
102
{ACAD_XDICTIONARY
360
1192
102
}
330
17
100
AcDbEntity
 67
     1
  8
0
100
AcDbViewport
 10
261.5176991150442
 20
148.5
 30
0.0
 40
523.0353982300885
 41
297.0
 68
     1
 69
     1
 12
261.5176991150442
 22
148.5
 13
0.0
 23
0.0
 14
1.0
 24
1.0
 15
10.0
 25
10.0
 16
0.0
 26
0.0
 36
1.0
 17
0.0
 27
0.0
 37
0.0
 42
50.0
 43
0.0
 44
0.0
 45
297.0
 50
0.0
 51
0.0
 72
   100
 90
    32800
  1

281
     0
 71
     1
 74
     0
110
0.0
120
0.0
130
0.0
111
1.0
121
0.0
131
0.0
112
0.0
122
1.0
132
0.0
 79
     0
146
0.0
  0
ENDSEC
  0
SECTION
  2
OBJECTS
  0
DICTIONARY
  5
C
330
0
100
AcDbDictionary
281
     1
  3
ACAD_COLOR
350
7A6
  3
ACAD_GROUP
350
D
  3
ACAD_LAYOUT
350
565
  3
ACAD_MATERIAL
350
77C
  3
ACAD_MLEADERSTYLE
350
7CB
  3
ACAD_MLINESTYLE
350
E
  3
ACAD_PLOTSETTINGS
350
566
  3
ACAD_PLOTSTYLENAME
350
563
  3
ACAD_SCALELIST
350
7A9
  3
ACAD_TABLESTYLE
350
7A7
  3
ACAD_VISUALSTYLE
350
795
  3
ACDB_RECOMPOSE_DATA
350
1063
  3
AcDbVariableDictionary
350
10E6
  3
DWGPROPS
350
1191
  3
GRADE_DWG
350
540
  0
DICTIONARY
  5
1065
330
8
100
AcDbDictionary
280
     1
281
     1
  0
DICTIONARY
  5
C80
330
F
100
AcDbDictionary
280
     1
281
     1
  3
ADSK_XREC_LAYER_RECONCILED
360
C81
  0
DICTIONARY
  5
C82
330
AF
100
AcDbDictionary
280
     1
281
     1
  3
ADSK_XREC_LAYER_RECONCILED
360
C83
  0
DICTIONARY
  5
C90
330
1AA
100
AcDbDictionary
280
     1
281
     1
  3
ADSK_XREC_LAYER_RECONCILED
360
C91
  0
DICTIONARY
  5
C92
330
1AB
100
AcDbDictionary
280
     1
281
     1
  3
ADSK_XREC_LAYER_RECONCILED
360
C93
  0
DICTIONARY
  5
C94
330
1AC
100
AcDbDictionary
280
     1
281
     1
  3
ADSK_XREC_LAYER_RECONCILED
360
C95
  0
DICTIONARY
  5
C9A
330
1AF
100
AcDbDictionary
280
     1
281
     1
  3
ADSK_XREC_LAYER_RECONCILED
360
C9B
  0
DICTIONARY
  5
C9C
330
21A
100
AcDbDictionary
280
     1
281
     1
  3
ADSK_XREC_LAYER_RECONCILED
360
C9D
  0
DICTIONARY
  5
CA2
330
21E
100
AcDbDictionary
280
     1
281
     1
  3
ADSK_XREC_LAYER_RECONCILED
360
CA3
  0
DICTIONARY
  5
CA4
330
21F
100
AcDbDictionary
280
     1
281
     1
  3
ADSK_XREC_LAYER_RECONCILED
360
CA5
  0
DICTIONARY
  5
1192
330
22
100
AcDbDictionary
280
     1
281
     1
  3
ACAD_XREC_ROUNDTRIP
360
1193
  0
DICTIONARY
  5
7A6
102
{ACAD_REACTORS
330
C
102
}
330
C
100
AcDbDictionary
281
     1
  0
DICTIONARY
  5
D
102
{ACAD_REACTORS
330
C
102
}
330
C
100
AcDbDictionary
281
     1
  3
*A1
350
6C7
  3
*A10
350
A8C
  3
*A11
350
A8D
  3
*A12
350
DFA
  3
*A2
350
DFB
  3
*A3
350
DFC
  3
*A4
350
DFD
  3
*A5
350
6C8
  3
*A6
350
6D4
  3
*A7
350
6D5
  3
*A8
350
A8A
  3
*A9
350
A8B
  3
DRAWFRAM
350
AD7
  3
DREC-1
350
5FC
  3
DREC-2
350
654
  3
DREC-3
350
673
  3
LNSP-1
350
D0A
  0
DICTIONARY
  5
565
102
{ACAD_REACTORS
330
C
102
}
330
C
100
AcDbDictionary
281
     1
  3
Model
350
567
  3
ﾚｲｱｳﾄ1
350
568
  0
DICTIONARY
  5
77C
102
{ACAD_REACTORS
330
C
102
}
330
C
100
AcDbDictionary
281
     1
  3
ByBlock
350
785
  3
ByLayer
350
77D
  3
Global
350
78D
  0
DICTIONARY
  5
7CB
102
{ACAD_REACTORS
330
C
102
}
330
C
100
AcDbDictionary
281
     1
  3
Standard
350
7CC
  0
DICTIONARY
  5
E
102
{ACAD_REACTORS
330
C
102
}
330
C
100
AcDbDictionary
281
     1
  3
STANDARD
350
13
  0
DICTIONARY
  5
566
102
{ACAD_REACTORS
330
C
102
}
330
C
100
AcDbDictionary
281
     1
  3
A3(0.5倍)
350
772
  3
A3(1倍)
350
773
  3
A3(1倍)(2000)
350
774
  3
A3(2倍)
350
775
  3
A4(0.5倍)
350
776
  3
A4(1倍)
350
777
  3
A4(1倍)(2000)
350
778
  3
A4(2倍)
350
779
  0
ACDBDICTIONARYWDFLT
  5
563
102
{ACAD_REACTORS
330
C
102
}
330
C
100
AcDbDictionary
281
     1
  3
Normal
350
564
100
AcDbDictionaryWithDefault
340
564
  0
DICTIONARY
  5
7A9
102
{ACAD_REACTORS
330
C
102
}
330
C
100
AcDbDictionary
281
     1
  3
A0
350
7AA
  3
A1
350
7AB
  3
A2
350
7AC
  3
A3
350
7AD
  3
A4
350
7AE
  3
A5
350
7AF
  3
A6
350
7B0
  3
A7
350
7B1
  3
A8
350
7B2
  3
A9
350
7B3
  3
B0
350
7B4
  3
B1
350
7B5
  3
B2
350
7B6
  3
B3
350
7B7
  3
B4
350
7B8
  3
B5
350
7B9
  3
B6
350
7BA
  3
B7
350
7BB
  3
B8
350
7BC
  3
B9
350
7BD
  3
C0
350
7BE
  3
C1
350
7BF
  3
C2
350
7C0
  3
C3
350
7C1
  3
C4
350
7C2
  3
C5
350
7C3
  3
C6
350
7C4
  3
C7
350
7C5
  3
C8
350
7C6
  3
C9
350
7C7
  3
D0
350
7C8
  3
D1
350
7C9
  3
D2
350
7CA
  0
DICTIONARY
  5
7A7
102
{ACAD_REACTORS
330
C
102
}
330
C
100
AcDbDictionary
281
     1
  3
Standard
350
7A8
  0
DICTIONARY
  5
795
102
{ACAD_REACTORS
330
C
102
}
330
C
100
AcDbDictionary
281
     1
  3
2dWireframe
350
79B
  3
3D Hidden
350
79D
  3
3dWireframe
350
79C
  3
Basic
350
79A
  3
Brighten
350
7A1
  3
ColorChange
350
7A5
  3
Conceptual
350
79E
  3
Dim
350
7A0
  3
Facepattern
350
7A4
  3
Flat
350
796
  3
FlatWithEdges
350
797
  3
Gouraud
350
798
  3
GouraudWithEdges
350
799
  3
Linepattern
350
7A3
  3
Realistic
350
79F
  3
Thicken
350
7A2
  0
XRECORD
  5
1063
102
{ACAD_REACTORS
330
C
102
}
330
C
100
AcDbXrecord
280
     1
 90
        1
330
7A8
  0
DICTIONARY
  5
10E6
102
{ACAD_REACTORS
330
C
102
}
330
C
100
AcDbDictionary
281
     1
  3
CANNOSCALE
350
10E9
  3
CMLEADERSTYLE
350
10E8
  3
CTABLESTYLE
350
10E7
  3
DIMASSOC
350
10EC
  3
INDEXCTL
350
10EB
  3
SORTENTS
350
10EA
  0
XRECORD
  5
1191
102
{ACAD_REACTORS
330
C
102
}
330
C
100
AcDbXrecord
280
     1
  1
DWGPROPS COOKIE
  2

  3

  4

  6

  7

  8
YAMASAKI
  9

300
=
301
=
302
=
303
=
304
=
305
=
306
=
307
=
308
=
309
=
 40
0.0309060300925926
 41
2454685.705541621
 42
2454705.385235278
  1

 90
        0
  0
DICTIONARY
  5
540
102
{ACAD_REACTORS
330
C
102
}
330
C
100
AcDbDictionary
281
     1
  3
VERSION
350
560
  0
XRECORD
  5
C81
102
{ACAD_REACTORS
330
C80
102
}
330
C80
100
AcDbXrecord
280
     1
290
     1
  0
XRECORD
  5
C83
102
{ACAD_REACTORS
330
C82
102
}
330
C82
100
AcDbXrecord
280
     1
290
     1
  0
XRECORD
  5
C91
102
{ACAD_REACTORS
330
C90
102
}
330
C90
100
AcDbXrecord
280
     1
290
     1
  0
XRECORD
  5
C93
102
{ACAD_REACTORS
330
C92
102
}
330
C92
100
AcDbXrecord
280
     1
290
     1
  0
XRECORD
  5
C95
102
{ACAD_REACTORS
330
C94
102
}
330
C94
100
AcDbXrecord
280
     1
290
     1
  0
XRECORD
  5
C9B
102
{ACAD_REACTORS
330
C9A
102
}
330
C9A
100
AcDbXrecord
280
     1
290
     1
  0
XRECORD
  5
C9D
102
{ACAD_REACTORS
330
C9C
102
}
330
C9C
100
AcDbXrecord
280
     1
290
     1
  0
XRECORD
  5
CA3
102
{ACAD_REACTORS
330
CA2
102
}
330
CA2
100
AcDbXrecord
280
     1
290
     1
  0
XRECORD
  5
CA5
102
{ACAD_REACTORS
330
CA4
102
}
330
CA4
100
AcDbXrecord
280
     1
290
     1
  0
XRECORD
  5
1193
102
{ACAD_REACTORS
330
1192
102
}
330
1192
100
AcDbXrecord
280
     1
102
SHADEPLOT
 70
     0
  0
GROUP
  5
6C7
102
{ACAD_REACTORS
330
D
102
}
330
D
100
AcDbGroup
300

 70
     0
 71
     1
1001
GRPNAME
1000
DMA00
  0
GROUP
  5
A8C
102
{ACAD_REACTORS
330
D
102
}
330
D
100
AcDbGroup
300

 70
     0
 71
     1
1001
GRPNAME
1000
DMA00
  0
GROUP
  5
A8D
102
{ACAD_REACTORS
330
D
102
}
330
D
100
AcDbGroup
300

 70
     0
 71
     1
1001
GRPNAME
1000
DMA00
  0
GROUP
  5
DFA
102
{ACAD_REACTORS
330
D
102
}
330
D
100
AcDbGroup
300

 70
     0
 71
     1
1001
GRPNAME
1000
DMA00
  0
GROUP
  5
DFB
102
{ACAD_REACTORS
330
D
102
}
330
D
100
AcDbGroup
300

 70
     0
 71
     1
1001
GRPNAME
1000
DMA00
  0
GROUP
  5
DFC
102
{ACAD_REACTORS
330
D
102
}
330
D
100
AcDbGroup
300

 70
     0
 71
     1
1001
GRPNAME
1000
DMA00
  0
GROUP
  5
DFD
102
{ACAD_REACTORS
330
D
102
}
330
D
100
AcDbGroup
300

 70
     0
 71
     1
1001
GRPNAME
1000
DMA00
  0
GROUP
  5
6C8
102
{ACAD_REACTORS
330
D
102
}
330
D
100
AcDbGroup
300

 70
     0
 71
     1
1001
GRPNAME
1000
DMA00
  0
GROUP
  5
6D4
102
{ACAD_REACTORS
330
D
102
}
330
D
100
AcDbGroup
300

 70
     0
 71
     1
1001
GRPNAME
1000
DMA00
  0
GROUP
  5
6D5
102
{ACAD_REACTORS
330
D
102
}
330
D
100
AcDbGroup
300

 70
     0
 71
     1
1001
GRPNAME
1000
DMA00
  0
GROUP
  5
A8A
102
{ACAD_REACTORS
330
D
102
}
330
D
100
AcDbGroup
300

 70
     0
 71
     1
1001
GRPNAME
1000
DMA00
  0
GROUP
  5
A8B
102
{ACAD_REACTORS
330
D
102
}
330
D
100
AcDbGroup
300

 70
     0
 71
     1
1001
GRPNAME
1000
DMA00
  0
GROUP
  5
AD7
102
{ACAD_REACTORS
330
D
102
}
330
D
100
AcDbGroup
300

 70
     0
 71
     1
  0
GROUP
  5
5FC
102
{ACAD_REACTORS
330
D
102
}
330
D
100
AcDbGroup
300

 70
     0
 71
     1
1001
GRPNAME
1000
DREC-
1001
GPARA
1000
xsiz
1000
44.182
1000
ysiz
1000
40.677
1000
angl
1000
0
1000
ctyp
1000
0
1000
csiz
1000
5
1000
lfnt
1000
cont
1000
hcnt
1000
hoff
1000
vcnt
1000
voff
1000
opnt
1000
4
1000
dxpt
1000
0
1000
dypt
1000
0
  0
GROUP
  5
654
102
{ACAD_REACTORS
330
D
102
}
330
D
100
AcDbGroup
300

 70
     0
 71
     1
1001
GRPNAME
1000
DREC-
1001
GPARA
1000
xsiz
1000
54.592
1000
ysiz
1000
53.036
1000
angl
1000
0
1000
ctyp
1000
0
1000
csiz
1000
5
1000
lfnt
1000
cont
1000
hcnt
1000
hoff
1000
vcnt
1000
voff
1000
opnt
1000
4
1000
dxpt
1000
0
1000
dypt
1000
0
  0
GROUP
  5
673
102
{ACAD_REACTORS
330
D
102
}
330
D
100
AcDbGroup
300

 70
     0
 71
     1
1001
GRPNAME
1000
DREC-
1001
GPARA
1000
xsiz
1000
30.363
1000
ysiz
1000
36.175
1000
angl
1000
0
1000
ctyp
1000
0
1000
csiz
1000
5
1000
lfnt
1000
cont
1000
hcnt
1000
hoff
1000
vcnt
1000
voff
1000
opnt
1000
4
1000
dxpt
1000
0
1000
dypt
1000
0
  0
GROUP
  5
D0A
102
{ACAD_REACTORS
330
D
102
}
330
D
100
AcDbGroup
300

 70
     0
 71
     1
340
D07
340
D08
340
D09
1001
GRPNAME
1000
LNSP
  0
LAYOUT
  5
567
102
{ACAD_XDICTIONARY
360
1194
102
}
102
{ACAD_REACTORS
330
565
102
}
330
565
100
AcDbPlotSettings
  1
A3(1倍)
  2
Canon LBP5600.pc3
  4
A3
  6

 40
5.873749732971191
 41
5.873747825622558
 42
5.873748779296875
 43
5.873748779296875
 44
296.9259948730469
 45
419.9466552734374
 46
37.59
 47
55.6
 48
0.0
 49
0.0
140
0.0
141
0.0
142
1.0
143
1.0
 70
 11956
 72
     1
 73
     1
 74
     2
  7
big.ctb
 75
    16
147
1.0
148
0.0
149
0.0
100
AcDbLayout
  1
Model
 70
     1
 71
     0
 10
0.0
 20
0.0
 11
12.0
 21
9.0
 12
0.0
 22
0.0
 32
0.0
 14
0.0
 24
0.0
 34
0.0
 15
0.0
 25
0.0
 35
0.0
146
0.0
 13
0.0
 23
0.0
 33
0.0
 16
1.0
 26
0.0
 36
0.0
 17
0.0
 27
1.0
 37
0.0
 76
     0
330
1A
331
77A
  0
LAYOUT
  5
568
102
{ACAD_XDICTIONARY
360
1196
102
}
102
{ACAD_REACTORS
330
565
102
}
330
565
100
AcDbPlotSettings
  1

  2
\\ICHIRO\FX Able Model-PRII ART4-ADV
  4

  6

 40
0.0
 41
0.0
 42
0.0
 43
0.0
 44
0.0
 45
0.0
 46
0.0
 47
0.0
 48
0.0
 49
0.0
140
0.0
141
0.0
142
1.0
143
1.0
 70
   688
 72
     0
 73
     0
 74
     5
  7
big.ctb
 75
    16
147
1.0
148
0.0
149
0.0
100
AcDbLayout
  1
ﾚｲｱｳﾄ1
 70
     1
 71
     1
 10
0.0
 20
0.0
 11
420.0
 21
297.0
 12
0.0
 22
0.0
 32
0.0
 14
1.000000000000000E+20
 24
1.000000000000000E+20
 34
1.000000000000000E+20
 15
-1.000000000000000E+20
 25
-1.000000000000000E+20
 35
-1.000000000000000E+20
146
0.0
 13
0.0
 23
0.0
 33
0.0
 16
1.0
 26
0.0
 36
0.0
 17
0.0
 27
1.0
 37
0.0
 76
     0
330
17
331
22
  0
MATERIAL
  5
785
102
{ACAD_XDICTIONARY
360
786
102
}
102
{ACAD_REACTORS
330
77C
102
}
330
77C
100
AcDbMaterial
  1
ByBlock
 72
     0
 43
0.0208333333333333
 43
0.0
 43
0.0
 43
0.0
 43
0.0
 43
0.0208333333333333
 43
0.0
 43
0.0
 43
0.0
 43
0.0
 43
1.0
 43
0.0
 43
0.0
 43
0.0
 43
0.0
 43
1.0
 77
     0
 47
0.0208333333333333
 47
0.0
 47
0.0
 47
0.0
 47
0.0
 47
0.0208333333333333
 47
0.0
 47
0.0
 47
0.0
 47
0.0
 47
1.0
 47
0.0
 47
0.0
 47
0.0
 47
0.0
 47
1.0
171
     0
 49
0.0208333333333333
 49
0.0
 49
0.0
 49
0.0
 49
0.0
 49
0.0208333333333333
 49
0.0
 49
0.0
 49
0.0
 49
0.0
 49
1.0
 49
0.0
 49
0.0
 49
0.0
 49
0.0
 49
1.0
175
     0
142
0.0208333333333333
142
0.0
142
0.0
142
0.0
142
0.0
142
0.0208333333333333
142
0.0
142
0.0
142
0.0
142
0.0
142
1.0
142
0.0
142
0.0
142
0.0
142
0.0
142
1.0
179
     0
144
0.0208333333333333
144
0.0
144
0.0
144
0.0
144
0.0
144
0.0208333333333333
144
0.0
144
0.0
144
0.0
144
0.0
144
1.0
144
0.0
144
0.0
144
0.0
144
0.0
144
1.0
147
0.0208333333333333
147
0.0
147
0.0
147
0.0
147
0.0
147
0.0208333333333333
147
0.0
147
0.0
147
0.0
147
0.0
147
1.0
147
0.0
147
0.0
147
0.0
147
0.0
147
1.0
  0
MATERIAL
  5
77D
102
{ACAD_XDICTIONARY
360
77E
102
}
102
{ACAD_REACTORS
330
77C
102
}
330
77C
100
AcDbMaterial
  1
ByLayer
 72
     0
 43
0.0208333333333333
 43
0.0
 43
0.0
 43
0.0
 43
0.0
 43
0.0208333333333333
 43
0.0
 43
0.0
 43
0.0
 43
0.0
 43
1.0
 43
0.0
 43
0.0
 43
0.0
 43
0.0
 43
1.0
 77
     0
 47
0.0208333333333333
 47
0.0
 47
0.0
 47
0.0
 47
0.0
 47
0.0208333333333333
 47
0.0
 47
0.0
 47
0.0
 47
0.0
 47
1.0
 47
0.0
 47
0.0
 47
0.0
 47
0.0
 47
1.0
171
     0
 49
0.0208333333333333
 49
0.0
 49
0.0
 49
0.0
 49
0.0
 49
0.0208333333333333
 49
0.0
 49
0.0
 49
0.0
 49
0.0
 49
1.0
 49
0.0
 49
0.0
 49
0.0
 49
0.0
 49
1.0
175
     0
142
0.0208333333333333
142
0.0
142
0.0
142
0.0
142
0.0
142
0.0208333333333333
142
0.0
142
0.0
142
0.0
142
0.0
142
1.0
142
0.0
142
0.0
142
0.0
142
0.0
142
1.0
179
     0
144
0.0208333333333333
144
0.0
144
0.0
144
0.0
144
0.0
144
0.0208333333333333
144
0.0
144
0.0
144
0.0
144
0.0
144
1.0
144
0.0
144
0.0
144
0.0
144
0.0
144
1.0
147
0.0208333333333333
147
0.0
147
0.0
147
0.0
147
0.0
147
0.0208333333333333
147
0.0
147
0.0
147
0.0
147
0.0
147
1.0
147
0.0
147
0.0
147
0.0
147
0.0
147
1.0
  0
MATERIAL
  5
78D
102
{ACAD_XDICTIONARY
360
78E
102
}
102
{ACAD_REACTORS
330
77C
102
}
330
77C
100
AcDbMaterial
  1
Global
 72
     0
 43
0.0208333333333333
 43
0.0
 43
0.0
 43
0.0
 43
0.0
 43
0.0208333333333333
 43
0.0
 43
0.0
 43
0.0
 43
0.0
 43
1.0
 43
0.0
 43
0.0
 43
0.0
 43
0.0
 43
1.0
 77
     0
 47
0.0208333333333333
 47
0.0
 47
0.0
 47
0.0
 47
0.0
 47
0.0208333333333333
 47
0.0
 47
0.0
 47
0.0
 47
0.0
 47
1.0
 47
0.0
 47
0.0
 47
0.0
 47
0.0
 47
1.0
171
     0
 49
0.0208333333333333
 49
0.0
 49
0.0
 49
0.0
 49
0.0
 49
0.0208333333333333
 49
0.0
 49
0.0
 49
0.0
 49
0.0
 49
1.0
 49
0.0
 49
0.0
 49
0.0
 49
0.0
 49
1.0
175
     0
142
0.0208333333333333
142
0.0
142
0.0
142
0.0
142
0.0
142
0.0208333333333333
142
0.0
142
0.0
142
0.0
142
0.0
142
1.0
142
0.0
142
0.0
142
0.0
142
0.0
142
1.0
179
     0
144
0.0208333333333333
144
0.0
144
0.0
144
0.0
144
0.0
144
0.0208333333333333
144
0.0
144
0.0
144
0.0
144
0.0
144
1.0
144
0.0
144
0.0
144
0.0
144
0.0
144
1.0
147
0.0208333333333333
147
0.0
147
0.0
147
0.0
147
0.0
147
0.0208333333333333
147
0.0
147
0.0
147
0.0
147
0.0
147
1.0
147
0.0
147
0.0
147
0.0
147
0.0
147
1.0
  0
MLEADERSTYLE
  5
7CC
102
{ACAD_REACTORS
330
7CB
102
}
330
7CB
100
AcDbMLeaderStyle
170
     2
171
     1
172
     0
 90
        2
 40
0.0
 41
0.0
173
     1
 91
-1056964608
340
14
 92
       -2
290
     1
 42
2.0
291
     1
 43
0.36
  3
Standard
 44
4.0
300

342
10
174
     1
178
     6
175
     1
176
     0
 93
-1056964608
 45
4.0
292
     0
297
     0
 46
4.0
 94
-1056964608
 47
1.0
 49
1.0
140
1.0
293
     1
141
0.0
294
     1
177
     0
142
1.0
295
     0
296
     0
143
0.125
1001
ACAD_MLEADERVER
1070
     2
  0
MLINESTYLE
  5
13
102
{ACAD_REACTORS
330
E
102
}
330
E
100
AcDbMlineStyle
  2
STANDARD
 70
     0
  3

 62
     0
 51
90.0
 52
90.0
 71
     2
 49
0.5
 62
   256
  6
BYLAYER
 49
-0.5
 62
   256
  6
BYLAYER
  0
PLOTSETTINGS
  5
772
102
{ACAD_XDICTIONARY
360
1198
102
}
102
{ACAD_REACTORS
330
566
102
}
330
566
100
AcDbPlotSettings
  1
A3(0.5倍)
  2
Canon LBP5600.pc3
  4
A3
  6

 40
5.873749732971191
 41
5.873747825622558
 42
5.873748779296875
 43
5.873748779296875
 44
296.9259948730469
 45
419.9466552734374
 46
90.09
 47
129.85
 48
0.0
 49
0.0
140
0.0
141
0.0
142
1.0
143
2.0
 70
  1716
 72
     1
 73
     1
 74
     2
  7
big.ctb
 75
    17
147
0.5
148
0.0
149
0.0
  0
PLOTSETTINGS
  5
773
102
{ACAD_XDICTIONARY
360
119A
102
}
102
{ACAD_REACTORS
330
566
102
}
330
566
100
AcDbPlotSettings
  1
A3(1倍)
  2
Canon LBP5600.pc3
  4
A3
  6

 40
5.873749732971191
 41
5.873747825622558
 42
5.873748779296875
 43
5.873748779296875
 44
296.9259948730469
 45
419.9466552734374
 46
37.59
 47
55.6
 48
0.0
 49
0.0
140
0.0
141
0.0
142
1.0
143
1.0
 70
  1716
 72
     1
 73
     1
 74
     2
  7
big.ctb
 75
    16
147
1.0
148
0.0
149
0.0
  0
PLOTSETTINGS
  5
774
102
{ACAD_XDICTIONARY
360
119C
102
}
102
{ACAD_REACTORS
330
566
102
}
330
566
100
AcDbPlotSettings
  1
A3(1倍)(2000)
  2
Canon LBP5600.pc3
  4
A3
  6

 40
5.873749732971191
 41
5.873747825622558
 42
5.873748779296875
 43
5.873748779296875
 44
296.9259948730469
 45
419.9466552734374
 46
37.59
 47
55.6
 48
0.0
 49
0.0
140
0.0
141
0.0
142
1.0
143
1.0
 70
  1716
 72
     1
 73
     1
 74
     2
  7
big.ctb
 75
    16
147
1.0
148
0.0
149
0.0
  0
PLOTSETTINGS
  5
775
102
{ACAD_XDICTIONARY
360
119E
102
}
102
{ACAD_REACTORS
330
566
102
}
330
566
100
AcDbPlotSettings
  1
A3(2倍)
  2
Canon LBP5600.pc3
  4
A3
  6

 40
5.873749732971191
 41
5.873747825622558
 42
5.873748779296875
 43
5.873748779296875
 44
296.9259948730469
 45
419.9466552734374
 46
-67.40999999999999
 47
-92.9
 48
0.0
 49
0.0
140
0.0
141
0.0
142
1.0
143
0.5
 70
  1716
 72
     1
 73
     1
 74
     2
  7
big.ctb
 75
    27
147
2.0
148
0.0
149
0.0
  0
PLOTSETTINGS
  5
776
102
{ACAD_XDICTIONARY
360
11A0
102
}
102
{ACAD_REACTORS
330
566
102
}
330
566
100
AcDbPlotSettings
  1
A4(0.5倍)
  2
Canon LBP5600.pc3
  4
A3
  6

 40
5.873749732971191
 41
5.873747825622558
 42
5.873748779296875
 43
5.873748779296875
 44
296.9259948730469
 45
419.9466552734374
 46
90.09
 47
129.85
 48
0.0
 49
0.0
140
0.0
141
0.0
142
1.0
143
2.0
 70
  1716
 72
     1
 73
     1
 74
     2
  7
big.ctb
 75
    17
147
0.5
148
0.0
149
0.0
  0
PLOTSETTINGS
  5
777
102
{ACAD_XDICTIONARY
360
11A2
102
}
102
{ACAD_REACTORS
330
566
102
}
330
566
100
AcDbPlotSettings
  1
A4(1倍)
  2
Canon LBP5600.pc3
  4
A3
  6

 40
5.873749732971191
 41
5.873747825622558
 42
5.873748779296875
 43
5.873748779296875
 44
296.9259948730469
 45
419.9466552734374
 46
37.59
 47
55.6
 48
0.0
 49
0.0
140
0.0
141
0.0
142
1.0
143
1.0
 70
  1716
 72
     1
 73
     1
 74
     2
  7
big.ctb
 75
    16
147
1.0
148
0.0
149
0.0
  0
PLOTSETTINGS
  5
778
102
{ACAD_XDICTIONARY
360
11A4
102
}
102
{ACAD_REACTORS
330
566
102
}
330
566
100
AcDbPlotSettings
  1
A4(1倍)(2000)
  2
Canon LBP5600.pc3
  4
A3
  6

 40
5.873749732971191
 41
5.873747825622558
 42
5.873748779296875
 43
5.873748779296875
 44
296.9259948730469
 45
419.9466552734374
 46
37.59
 47
55.6
 48
0.0
 49
0.0
140
0.0
141
0.0
142
1.0
143
1.0
 70
  1716
 72
     1
 73
     1
 74
     2
  7
big.ctb
 75
    16
147
1.0
148
0.0
149
0.0
  0
PLOTSETTINGS
  5
779
102
{ACAD_XDICTIONARY
360
11A6
102
}
102
{ACAD_REACTORS
330
566
102
}
330
566
100
AcDbPlotSettings
  1
A4(2倍)
  2
Canon LBP5600.pc3
  4
A3
  6

 40
5.873749732971191
 41
5.873747825622558
 42
5.873748779296875
 43
5.873748779296875
 44
296.9259948730469
 45
419.9466552734374
 46
-67.40999999999999
 47
-92.9
 48
0.0
 49
0.0
140
0.0
141
0.0
142
1.0
143
0.5
 70
  1716
 72
     1
 73
     1
 74
     2
  7
big.ctb
 75
    27
147
2.0
148
0.0
149
0.0
  0
ACDBPLACEHOLDER
  5
564
102
{ACAD_REACTORS
330
563
102
}
330
563
  0
SCALE
  5
7AA
102
{ACAD_REACTORS
330
7A9
102
}
330
7A9
100
AcDbScale
 70
     0
300
1:1
140
1.0
141
1.0
290
     1
  0
SCALE
  5
7AB
102
{ACAD_REACTORS
330
7A9
102
}
330
7A9
100
AcDbScale
 70
     0
300
1:2
140
1.0
141
2.0
290
     0
  0
SCALE
  5
7AC
102
{ACAD_REACTORS
330
7A9
102
}
330
7A9
100
AcDbScale
 70
     0
300
1:4
140
1.0
141
4.0
290
     0
  0
SCALE
  5
7AD
102
{ACAD_REACTORS
330
7A9
102
}
330
7A9
100
AcDbScale
 70
     0
300
1:5
140
1.0
141
5.0
290
     0
  0
SCALE
  5
7AE
102
{ACAD_REACTORS
330
7A9
102
}
330
7A9
100
AcDbScale
 70
     0
300
1:8
140
1.0
141
8.0
290
     0
  0
SCALE
  5
7AF
102
{ACAD_REACTORS
330
7A9
102
}
330
7A9
100
AcDbScale
 70
     0
300
1:10
140
1.0
141
10.0
290
     0
  0
SCALE
  5
7B0
102
{ACAD_REACTORS
330
7A9
102
}
330
7A9
100
AcDbScale
 70
     0
300
1:16
140
1.0
141
16.0
290
     0
  0
SCALE
  5
7B1
102
{ACAD_REACTORS
330
7A9
102
}
330
7A9
100
AcDbScale
 70
     0
300
1:20
140
1.0
141
20.0
290
     0
  0
SCALE
  5
7B2
102
{ACAD_REACTORS
330
7A9
102
}
330
7A9
100
AcDbScale
 70
     0
300
1:30
140
1.0
141
30.0
290
     0
  0
SCALE
  5
7B3
102
{ACAD_REACTORS
330
7A9
102
}
330
7A9
100
AcDbScale
 70
     0
300
1:40
140
1.0
141
40.0
290
     0
  0
SCALE
  5
7B4
102
{ACAD_REACTORS
330
7A9
102
}
330
7A9
100
AcDbScale
 70
     0
300
1:50
140
1.0
141
50.0
290
     0
  0
SCALE
  5
7B5
102
{ACAD_REACTORS
330
7A9
102
}
330
7A9
100
AcDbScale
 70
     0
300
1:100
140
1.0
141
100.0
290
     0
  0
SCALE
  5
7B6
102
{ACAD_REACTORS
330
7A9
102
}
330
7A9
100
AcDbScale
 70
     0
300
2:1
140
2.0
141
1.0
290
     0
  0
SCALE
  5
7B7
102
{ACAD_REACTORS
330
7A9
102
}
330
7A9
100
AcDbScale
 70
     0
300
4:1
140
4.0
141
1.0
290
     0
  0
SCALE
  5
7B8
102
{ACAD_REACTORS
330
7A9
102
}
330
7A9
100
AcDbScale
 70
     0
300
8:1
140
8.0
141
1.0
290
     0
  0
SCALE
  5
7B9
102
{ACAD_REACTORS
330
7A9
102
}
330
7A9
100
AcDbScale
 70
     0
300
10:1
140
10.0
141
1.0
290
     0
  0
SCALE
  5
7BA
102
{ACAD_REACTORS
330
7A9
102
}
330
7A9
100
AcDbScale
 70
     0
300
100:1
140
100.0
141
1.0
290
     0
  0
SCALE
  5
7BB
102
{ACAD_REACTORS
330
7A9
102
}
330
7A9
100
AcDbScale
 70
     0
300
1/128" = 1'-0"
140
0.0078125
141
12.0
290
     0
  0
SCALE
  5
7BC
102
{ACAD_REACTORS
330
7A9
102
}
330
7A9
100
AcDbScale
 70
     0
300
1/64" = 1'-0"
140
0.015625
141
12.0
290
     0
  0
SCALE
  5
7BD
102
{ACAD_REACTORS
330
7A9
102
}
330
7A9
100
AcDbScale
 70
     0
300
1/32" = 1'-0"
140
0.03125
141
12.0
290
     0
  0
SCALE
  5
7BE
102
{ACAD_REACTORS
330
7A9
102
}
330
7A9
100
AcDbScale
 70
     0
300
1/16" = 1'-0"
140
0.0625
141
12.0
290
     0
  0
SCALE
  5
7BF
102
{ACAD_REACTORS
330
7A9
102
}
330
7A9
100
AcDbScale
 70
     0
300
3/32" = 1'-0"
140
0.09375
141
12.0
290
     0
  0
SCALE
  5
7C0
102
{ACAD_REACTORS
330
7A9
102
}
330
7A9
100
AcDbScale
 70
     0
300
1/8" = 1'-0"
140
0.125
141
12.0
290
     0
  0
SCALE
  5
7C1
102
{ACAD_REACTORS
330
7A9
102
}
330
7A9
100
AcDbScale
 70
     0
300
3/16" = 1'-0"
140
0.1875
141
12.0
290
     0
  0
SCALE
  5
7C2
102
{ACAD_REACTORS
330
7A9
102
}
330
7A9
100
AcDbScale
 70
     0
300
1/4" = 1'-0"
140
0.25
141
12.0
290
     0
  0
SCALE
  5
7C3
102
{ACAD_REACTORS
330
7A9
102
}
330
7A9
100
AcDbScale
 70
     0
300
3/8" = 1'-0"
140
0.375
141
12.0
290
     0
  0
SCALE
  5
7C4
102
{ACAD_REACTORS
330
7A9
102
}
330
7A9
100
AcDbScale
 70
     0
300
1/2" = 1'-0"
140
0.5
141
12.0
290
     0
  0
SCALE
  5
7C5
102
{ACAD_REACTORS
330
7A9
102
}
330
7A9
100
AcDbScale
 70
     0
300
3/4" = 1'-0"
140
0.75
141
12.0
290
     0
  0
SCALE
  5
7C6
102
{ACAD_REACTORS
330
7A9
102
}
330
7A9
100
AcDbScale
 70
     0
300
1" = 1'-0"
140
1.0
141
12.0
290
     0
  0
SCALE
  5
7C7
102
{ACAD_REACTORS
330
7A9
102
}
330
7A9
100
AcDbScale
 70
     0
300
1-1/2" = 1'-0"
140
1.5
141
12.0
290
     0
  0
SCALE
  5
7C8
102
{ACAD_REACTORS
330
7A9
102
}
330
7A9
100
AcDbScale
 70
     0
300
3" = 1'-0"
140
3.0
141
12.0
290
     0
  0
SCALE
  5
7C9
102
{ACAD_REACTORS
330
7A9
102
}
330
7A9
100
AcDbScale
 70
     0
300
6" = 1'-0"
140
6.0
141
12.0
290
     0
  0
SCALE
  5
7CA
102
{ACAD_REACTORS
330
7A9
102
}
330
7A9
100
AcDbScale
 70
     0
300
1'-0" = 1'-0"
140
12.0
141
12.0
290
     0
  0
TABLESTYLE
  5
7A8
102
{ACAD_XDICTIONARY
360
1061
102
}
102
{ACAD_REACTORS
330
7A7
102
}
330
7A7
100
AcDbTableStyle
  3
Standard
 70
     0
 71
     0
 40
1.5
 41
1.5
280
     0
281
     0
  7
STANDARD
140
4.5
170
     2
 62
     0
 63
     7
283
     0
274
    -2
284
     1
 64
     0
275
    -2
285
     1
 65
     0
276
    -2
286
     1
 66
     0
277
    -2
287
     1
 67
     0
278
    -2
288
     1
 68
     0
279
    -2
289
     1
 69
     0
  7
STANDARD
140
6.0
170
     5
 62
     0
 63
     7
283
     0
274
    -2
284
     1
 64
     0
275
    -2
285
     1
 65
     0
276
    -2
286
     1
 66
     0
277
    -2
287
     1
 67
     0
278
    -2
288
     1
 68
     0
279
    -2
289
     1
 69
     0
  7
STANDARD
140
4.5
170
     5
 62
     0
 63
     7
283
     0
274
    -2
284
     1
 64
     0
275
    -2
285
     1
 65
     0
276
    -2
286
     1
 66
     0
277
    -2
287
     1
 67
     0
278
    -2
288
     1
 68
     0
279
    -2
289
     1
 69
     0
  0
VISUALSTYLE
  5
79B
102
{ACAD_REACTORS
330
795
102
}
330
795
100
AcDbVisualStyle
  2
2dWireframe
 70
     4
 71
     0
 72
     2
 73
     0
 90
        0
 40
-0.6
 41
-30.0
 62
     5
 63
     7
 74
     1
 91
        4
 64
     7
 65
   257
 75
     1
175
     1
 42
1.0
 92
        0
 66
   257
 43
1.0
 76
     1
 77
     6
 78
     2
 67
     7
 79
     5
170
     0
171
     0
290
     0
174
     0
 93
        1
 44
0.0
173
     0
291
     0
 45
0.0
1001
ACAD
1000
AcDbSavedByObjectVersion
1070
     0
  0
VISUALSTYLE
  5
79D
102
{ACAD_REACTORS
330
795
102
}
330
795
100
AcDbVisualStyle
  2
3D Hidden
 70
     6
 71
     1
 72
     2
 73
     2
 90
        0
 40
-0.6
 41
-30.0
 62
     5
 63
     7
 74
     2
 91
        2
 64
     7
 65
   257
 75
     2
175
     1
 42
40.0
 92
        0
 66
   257
 43
1.0
 76
     1
 77
     6
 78
     2
 67
     7
 79
     3
170
     0
171
     0
290
     0
174
     0
 93
        1
 44
0.0
173
     0
291
     0
 45
0.0
1001
ACAD
1000
AcDbSavedByObjectVersion
1070
     0
  0
VISUALSTYLE
  5
79C
102
{ACAD_REACTORS
330
795
102
}
330
795
100
AcDbVisualStyle
  2
3dWireframe
 70
     5
 71
     0
 72
     2
 73
     0
 90
        0
 40
-0.6
 41
-30.0
 62
     5
 63
     7
 74
     1
 91
        4
 64
     7
 65
   257
 75
     1
175
     1
 42
1.0
 92
        0
 66
   257
 43
1.0
 76
     1
 77
     6
 78
     2
 67
     7
 79
     5
170
     0
171
     0
290
     0
174
     0
 93
        1
 44
0.0
173
     0
291
     0
 45
0.0
1001
ACAD
1000
AcDbSavedByObjectVersion
1070
     0
  0
VISUALSTYLE
  5
79A
102
{ACAD_REACTORS
330
795
102
}
330
795
100
AcDbVisualStyle
  2
Basic
 70
     7
 71
     1
 72
     0
 73
     1
 90
        0
 40
-0.6
 41
-30.0
 62
     5
 63
     7
 74
     0
 91
        4
 64
     7
 65
   257
 75
     1
175
     1
 42
1.0
 92
        8
 66
     7
 43
1.0
 76
     1
 77
     6
 78
     2
 67
     7
 79
     5
170
     0
171
     0
290
     0
174
     0
 93
        1
 44
0.0
173
     0
291
     1
 45
0.0
1001
ACAD
1000
AcDbSavedByObjectVersion
1070
     0
  0
VISUALSTYLE
  5
7A1
102
{ACAD_REACTORS
330
795
102
}
330
795
100
AcDbVisualStyle
  2
Brighten
 70
    12
 71
     2
 72
     2
 73
     0
 90
        0
 40
-0.6
 41
-30.0
 62
     5
 63
     7
 74
     1
 91
        4
 64
     7
 65
   257
 75
     1
175
     1
 42
1.0
 92
        8
 66
     7
 43
1.0
 76
     1
 77
     6
 78
     2
 67
     7
 79
     5
170
     0
171
     0
290
     0
174
     0
 93
        1
 44
50.0
173
     0
291
     1
 45
0.0
1001
ACAD
1000
AcDbSavedByObjectVersion
1070
     0
  0
VISUALSTYLE
  5
7A5
102
{ACAD_REACTORS
330
795
102
}
330
795
100
AcDbVisualStyle
  2
ColorChange
 70
    16
 71
     2
 72
     2
 73
     3
 90
        0
 40
-0.6
 41
-30.0
 62
     5
 63
     8
 74
     1
 91
        4
 64
     7
 65
   257
 75
     1
175
     1
 42
1.0
 92
        8
 66
     8
 43
1.0
 76
     1
 77
     6
 78
     2
 67
     7
 79
     5
170
     0
171
     0
290
     0
174
     0
 93
        1
 44
0.0
173
     0
291
     1
 45
0.0
1001
ACAD
1000
AcDbSavedByObjectVersion
1070
     0
  0
VISUALSTYLE
  5
79E
102
{ACAD_REACTORS
330
795
102
}
330
795
100
AcDbVisualStyle
  2
Conceptual
 70
     9
 71
     3
 72
     2
 73
     0
 90
        0
 40
-0.6
 41
-30.0
 62
     5
 63
     7
 74
     2
 91
        2
 64
     7
 65
   257
 75
     1
175
     1
 42
40.0
 92
        8
 66
     7
 43
1.0
 76
     1
 77
     6
 78
     2
 67
     7
 79
     3
170
     0
171
     0
290
     0
174
     0
 93
        1
 44
0.0
173
     0
291
     0
 45
0.0
1001
ACAD
1000
AcDbSavedByObjectVersion
1070
     0
  0
VISUALSTYLE
  5
7A0
102
{ACAD_REACTORS
330
795
102
}
330
795
100
AcDbVisualStyle
  2
Dim
 70
    11
 71
     2
 72
     2
 73
     0
 90
        0
 40
-0.6
 41
-30.0
 62
     5
 63
     7
 74
     1
 91
        4
 64
     7
 65
   257
 75
     1
175
     1
 42
1.0
 92
        8
 66
     7
 43
1.0
 76
     1
 77
     6
 78
     2
 67
     7
 79
     5
170
     0
171
     0
290
     0
174
     0
 93
        1
 44
-50.0
173
     0
291
     1
 45
0.0
1001
ACAD
1000
AcDbSavedByObjectVersion
1070
     0
  0
VISUALSTYLE
  5
7A4
102
{ACAD_REACTORS
330
795
102
}
330
795
100
AcDbVisualStyle
  2
Facepattern
 70
    15
 71
     2
 72
     2
 73
     0
 90
        0
 40
-0.6
 41
-30.0
 62
     5
 63
     7
 74
     1
 91
        4
 64
     7
 65
   257
 75
     1
175
     1
 42
1.0
 92
        8
 66
     7
 43
1.0
 76
     1
 77
     6
 78
     2
 67
     7
 79
     5
170
     0
171
     0
290
     0
174
     0
 93
        1
 44
0.0
173
     0
291
     1
 45
0.0
1001
ACAD
1000
AcDbSavedByObjectVersion
1070
     0
  0
VISUALSTYLE
  5
796
102
{ACAD_REACTORS
330
795
102
}
330
795
100
AcDbVisualStyle
  2
Flat
 70
     0
 71
     2
 72
     1
 73
     1
 90
        2
 40
-0.6
 41
30.0
 62
     5
 63
     7
 74
     0
 91
        4
 64
     7
 65
   257
 75
     1
175
     1
 42
1.0
 92
        8
 66
     7
 43
1.0
 76
     1
 77
     6
 78
     2
 67
     7
 79
     5
170
     0
171
     0
290
     0
174
     0
 93
       13
 44
0.0
173
     0
291
     1
 45
0.0
1001
ACAD
1000
AcDbSavedByObjectVersion
1070
     0
  0
VISUALSTYLE
  5
797
102
{ACAD_REACTORS
330
795
102
}
330
795
100
AcDbVisualStyle
  2
FlatWithEdges
 70
     1
 71
     2
 72
     1
 73
     1
 90
        2
 40
-0.6
 41
30.0
 62
     5
 63
     7
 74
     1
 91
        4
 64
     7
 65
   257
 75
     1
175
     1
 42
1.0
 92
        0
 66
   257
 43
1.0
 76
     1
 77
     6
 78
     2
 67
     7
 79
     5
170
     0
171
     0
290
     0
174
     0
 93
       13
 44
0.0
173
     0
291
     1
 45
0.0
1001
ACAD
1000
AcDbSavedByObjectVersion
1070
     0
  0
VISUALSTYLE
  5
798
102
{ACAD_REACTORS
330
795
102
}
330
795
100
AcDbVisualStyle
  2
Gouraud
 70
     2
 71
     2
 72
     2
 73
     1
 90
        2
 40
-0.6
 41
30.0
 62
     5
 63
     7
 74
     0
 91
        4
 64
     7
 65
   257
 75
     1
175
     1
 42
1.0
 92
        0
 66
     7
 43
1.0
 76
     1
 77
     6
 78
     2
 67
     7
 79
     5
170
     0
171
     0
290
     0
174
     0
 93
       13
 44
0.0
173
     0
291
     1
 45
0.0
1001
ACAD
1000
AcDbSavedByObjectVersion
1070
     0
  0
VISUALSTYLE
  5
799
102
{ACAD_REACTORS
330
795
102
}
330
795
100
AcDbVisualStyle
  2
GouraudWithEdges
 70
     3
 71
     2
 72
     2
 73
     1
 90
        2
 40
-0.6
 41
30.0
 62
     5
 63
     7
 74
     1
 91
        4
 64
     7
 65
   257
 75
     1
175
     1
 42
1.0
 92
        0
 66
   257
 43
1.0
 76
     1
 77
     6
 78
     2
 67
     7
 79
     5
170
     0
171
     0
290
     0
174
     0
 93
       13
 44
0.0
173
     0
291
     1
 45
0.0
1001
ACAD
1000
AcDbSavedByObjectVersion
1070
     0
  0
VISUALSTYLE
  5
7A3
102
{ACAD_REACTORS
330
795
102
}
330
795
100
AcDbVisualStyle
  2
Linepattern
 70
    14
 71
     2
 72
     2
 73
     0
 90
        0
 40
-0.6
 41
-30.0
 62
     5
 63
     7
 74
     1
 91
        4
 64
     7
 65
   257
 75
     7
175
     7
 42
1.0
 92
        8
 66
     7
 43
1.0
 76
     1
 77
     6
 78
     2
 67
     7
 79
     5
170
     0
171
     0
290
     0
174
     0
 93
        1
 44
0.0
173
     0
291
     1
 45
0.0
1001
ACAD
1000
AcDbSavedByObjectVersion
1070
     0
  0
VISUALSTYLE
  5
79F
102
{ACAD_REACTORS
330
795
102
}
330
795
100
AcDbVisualStyle
  2
Realistic
 70
     8
 71
     2
 72
     2
 73
     0
 90
        0
 40
-0.6
 41
-30.0
 62
     5
 63
     7
 74
     1
 91
        0
 64
     7
 65
   257
 75
     1
175
     1
 42
1.0
 92
        8
 66
     8
 43
1.0
 76
     1
 77
     6
 78
     2
 67
     7
 79
     5
170
     0
171
     0
290
     0
174
     0
 93
       13
 44
0.0
173
     0
291
     0
 45
0.0
1001
ACAD
1000
AcDbSavedByObjectVersion
1070
     0
  0
VISUALSTYLE
  5
7A2
102
{ACAD_REACTORS
330
795
102
}
330
795
100
AcDbVisualStyle
  2
Thicken
 70
    13
 71
     2
 72
     2
 73
     0
 90
        0
 40
-0.6
 41
-30.0
 62
     5
 63
     7
 74
     1
 91
        4
 64
     7
 65
   257
 75
     1
175
     1
 42
1.0
 92
       12
 66
     7
 43
1.0
 76
     1
 77
     6
 78
     2
 67
     7
 79
     5
170
     0
171
     0
290
     0
174
     0
 93
        1
 44
0.0
173
     0
291
     1
 45
0.0
1001
ACAD
1000
AcDbSavedByObjectVersion
1070
     0
  0
DICTIONARYVAR
  5
10E9
102
{ACAD_REACTORS
330
10E6
102
}
330
10E6
100
DictionaryVariables
280
     0
  1
1:1
  0
DICTIONARYVAR
  5
10E8
102
{ACAD_REACTORS
330
10E6
102
}
330
10E6
100
DictionaryVariables
280
     0
  1
STANDARD
  0
DICTIONARYVAR
  5
10E7
102
{ACAD_REACTORS
330
10E6
102
}
330
10E6
100
DictionaryVariables
280
     0
  1
STANDARD
  0
DICTIONARYVAR
  5
10EC
102
{ACAD_REACTORS
330
10E6
102
}
330
10E6
100
DictionaryVariables
280
     0
  1
1
  0
DICTIONARYVAR
  5
10EB
102
{ACAD_REACTORS
330
10E6
102
}
330
10E6
100
DictionaryVariables
280
     0
  1
0
  0
DICTIONARYVAR
  5
10EA
102
{ACAD_REACTORS
330
10E6
102
}
330
10E6
100
DictionaryVariables
280
     0
  1
127
  0
XRECORD
  5
560
102
{ACAD_REACTORS
330
540
102
}
330
540
100
AcDbXrecord
280
     1
  1
2.0.0
  0
DICTIONARY
  5
1194
330
567
100
AcDbDictionary
280
     1
281
     1
  3
ACAD_XREC_ROUNDTRIP
360
1195
  0
DICTIONARY
  5
1196
330
568
100
AcDbDictionary
280
     1
281
     1
  3
ACAD_XREC_ROUNDTRIP
360
1197
  0
DICTIONARY
  5
786
330
785
100
AcDbDictionary
280
     1
281
     1
  3
ACAD_XREC_ROUNDTRIP
360
11A9
  3
BUMPTILE
360
788
  3
DIFFUSETILE
360
787
  3
OPACITYTILE
360
78B
  3
REFLECTIONTILE
360
78A
  3
REFRACTIONTILE
360
78C
  3
SPECULARTILE
360
789
  0
DICTIONARY
  5
77E
330
77D
100
AcDbDictionary
280
     1
281
     1
  3
ACAD_XREC_ROUNDTRIP
360
11A8
  3
BUMPTILE
360
780
  3
DIFFUSETILE
360
77F
  3
OPACITYTILE
360
783
  3
REFLECTIONTILE
360
782
  3
REFRACTIONTILE
360
784
  3
SPECULARTILE
360
781
  0
DICTIONARY
  5
78E
330
78D
100
AcDbDictionary
280
     1
281
     1
  3
ACAD_XREC_ROUNDTRIP
360
11AA
  3
BUMPTILE
360
790
  3
DIFFUSETILE
360
78F
  3
OPACITYTILE
360
793
  3
REFLECTIONTILE
360
792
  3
REFRACTIONTILE
360
794
  3
SPECULARTILE
360
791
  0
DICTIONARY
  5
1198
330
772
100
AcDbDictionary
280
     1
281
     1
  3
ACAD_XREC_ROUNDTRIP
360
1199
  0
DICTIONARY
  5
119A
330
773
100
AcDbDictionary
280
     1
281
     1
  3
ACAD_XREC_ROUNDTRIP
360
119B
  0
DICTIONARY
  5
119C
330
774
100
AcDbDictionary
280
     1
281
     1
  3
ACAD_XREC_ROUNDTRIP
360
119D
  0
DICTIONARY
  5
119E
330
775
100
AcDbDictionary
280
     1
281
     1
  3
ACAD_XREC_ROUNDTRIP
360
119F
  0
DICTIONARY
  5
11A0
330
776
100
AcDbDictionary
280
     1
281
     1
  3
ACAD_XREC_ROUNDTRIP
360
11A1
  0
DICTIONARY
  5
11A2
330
777
100
AcDbDictionary
280
     1
281
     1
  3
ACAD_XREC_ROUNDTRIP
360
11A3
  0
DICTIONARY
  5
11A4
330
778
100
AcDbDictionary
280
     1
281
     1
  3
ACAD_XREC_ROUNDTRIP
360
11A5
  0
DICTIONARY
  5
11A6
330
779
100
AcDbDictionary
280
     1
281
     1
  3
ACAD_XREC_ROUNDTRIP
360
11A7
  0
DICTIONARY
  5
1061
330
7A8
100
AcDbDictionary
280
     1
281
     1
  3
ACAD_ROUNDTRIP_2008_TABLESTYLE_CELLSTYLEMAP
360
1190
  3
ACAD_XREC_ROUNDTRIP
360
11AB
  0
XRECORD
  5
1195
102
{ACAD_REACTORS
330
1194
102
}
330
1194
100
AcDbXrecord
280
     1
102
SHADEPLOT
 70
     0
102
SHADEPLOTRESLEVEL
 70
     2
102
SHADEPLOTCUSTOMDPI
 70
   300
  0
XRECORD
  5
1197
102
{ACAD_REACTORS
330
1196
102
}
330
1196
100
AcDbXrecord
280
     1
102
SHADEPLOT
 70
     0
102
SHADEPLOTRESLEVEL
 70
     2
102
SHADEPLOTCUSTOMDPI
 70
   300
  0
XRECORD
  5
11A9
102
{ACAD_REACTORS
330
786
102
}
330
786
100
AcDbXrecord
280
     1
102
MATERIAL
148
0.0
149
0.0
149
0.0
 93
        0
 94
      127
282
     0
 72
     0
 77
     0
171
     0
175
     0
179
     0
273
     0
  0
XRECORD
  5
788
102
{ACAD_REACTORS
330
786
102
}
330
786
100
AcDbXrecord
280
     1
270
     1
271
     1
  0
XRECORD
  5
787
102
{ACAD_REACTORS
330
786
102
}
330
786
100
AcDbXrecord
280
     1
270
     1
271
     1
  0
XRECORD
  5
78B
102
{ACAD_REACTORS
330
786
102
}
330
786
100
AcDbXrecord
280
     1
270
     1
271
     1
  0
XRECORD
  5
78A
102
{ACAD_REACTORS
330
786
102
}
330
786
100
AcDbXrecord
280
     1
270
     1
271
     1
  0
XRECORD
  5
78C
102
{ACAD_REACTORS
330
786
102
}
330
786
100
AcDbXrecord
280
     1
270
     1
271
     1
  0
XRECORD
  5
789
102
{ACAD_REACTORS
330
786
102
}
330
786
100
AcDbXrecord
280
     1
270
     1
271
     1
  0
XRECORD
  5
11A8
102
{ACAD_REACTORS
330
77E
102
}
330
77E
100
AcDbXrecord
280
     1
102
MATERIAL
148
0.0
149
0.0
149
0.0
 93
        0
 94
      127
282
     0
 72
     0
 77
     0
171
     0
175
     0
179
     0
273
     0
  0
XRECORD
  5
780
102
{ACAD_REACTORS
330
77E
102
}
330
77E
100
AcDbXrecord
280
     1
270
     1
271
     1
  0
XRECORD
  5
77F
102
{ACAD_REACTORS
330
77E
102
}
330
77E
100
AcDbXrecord
280
     1
270
     1
271
     1
  0
XRECORD
  5
783
102
{ACAD_REACTORS
330
77E
102
}
330
77E
100
AcDbXrecord
280
     1
270
     1
271
     1
  0
XRECORD
  5
782
102
{ACAD_REACTORS
330
77E
102
}
330
77E
100
AcDbXrecord
280
     1
270
     1
271
     1
  0
XRECORD
  5
784
102
{ACAD_REACTORS
330
77E
102
}
330
77E
100
AcDbXrecord
280
     1
270
     1
271
     1
  0
XRECORD
  5
781
102
{ACAD_REACTORS
330
77E
102
}
330
77E
100
AcDbXrecord
280
     1
270
     1
271
     1
  0
XRECORD
  5
11AA
102
{ACAD_REACTORS
330
78E
102
}
330
78E
100
AcDbXrecord
280
     1
102
MATERIAL
148
0.0
149
0.0
149
0.0
 93
        0
 94
      127
282
     0
 72
     0
 77
     0
171
     0
175
     0
179
     0
273
     0
  0
XRECORD
  5
790
102
{ACAD_REACTORS
330
78E
102
}
330
78E
100
AcDbXrecord
280
     1
270
     1
271
     1
  0
XRECORD
  5
78F
102
{ACAD_REACTORS
330
78E
102
}
330
78E
100
AcDbXrecord
280
     1
270
     1
271
     1
  0
XRECORD
  5
793
102
{ACAD_REACTORS
330
78E
102
}
330
78E
100
AcDbXrecord
280
     1
270
     1
271
     1
  0
XRECORD
  5
792
102
{ACAD_REACTORS
330
78E
102
}
330
78E
100
AcDbXrecord
280
     1
270
     1
271
     1
  0
XRECORD
  5
794
102
{ACAD_REACTORS
330
78E
102
}
330
78E
100
AcDbXrecord
280
     1
270
     1
271
     1
  0
XRECORD
  5
791
102
{ACAD_REACTORS
330
78E
102
}
330
78E
100
AcDbXrecord
280
     1
270
     1
271
     1
  0
XRECORD
  5
1199
102
{ACAD_REACTORS
330
1198
102
}
330
1198
100
AcDbXrecord
280
     1
102
SHADEPLOT
 70
     0
102
SHADEPLOTRESLEVEL
 70
     2
102
SHADEPLOTCUSTOMDPI
 70
   300
  0
XRECORD
  5
119B
102
{ACAD_REACTORS
330
119A
102
}
330
119A
100
AcDbXrecord
280
     1
102
SHADEPLOT
 70
     0
102
SHADEPLOTRESLEVEL
 70
     2
102
SHADEPLOTCUSTOMDPI
 70
   300
  0
XRECORD
  5
119D
102
{ACAD_REACTORS
330
119C
102
}
330
119C
100
AcDbXrecord
280
     1
102
SHADEPLOT
 70
     0
102
SHADEPLOTRESLEVEL
 70
     2
102
SHADEPLOTCUSTOMDPI
 70
   300
  0
XRECORD
  5
119F
102
{ACAD_REACTORS
330
119E
102
}
330
119E
100
AcDbXrecord
280
     1
102
SHADEPLOT
 70
     0
102
SHADEPLOTRESLEVEL
 70
     2
102
SHADEPLOTCUSTOMDPI
 70
   300
  0
XRECORD
  5
11A1
102
{ACAD_REACTORS
330
11A0
102
}
330
11A0
100
AcDbXrecord
280
     1
102
SHADEPLOT
 70
     0
102
SHADEPLOTRESLEVEL
 70
     2
102
SHADEPLOTCUSTOMDPI
 70
   300
  0
XRECORD
  5
11A3
102
{ACAD_REACTORS
330
11A2
102
}
330
11A2
100
AcDbXrecord
280
     1
102
SHADEPLOT
 70
     0
102
SHADEPLOTRESLEVEL
 70
     2
102
SHADEPLOTCUSTOMDPI
 70
   300
  0
XRECORD
  5
11A5
102
{ACAD_REACTORS
330
11A4
102
}
330
11A4
100
AcDbXrecord
280
     1
102
SHADEPLOT
 70
     0
102
SHADEPLOTRESLEVEL
 70
     2
102
SHADEPLOTCUSTOMDPI
 70
   300
  0
XRECORD
  5
11A7
102
{ACAD_REACTORS
330
11A6
102
}
330
11A6
100
AcDbXrecord
280
     1
102
SHADEPLOT
 70
     0
102
SHADEPLOTRESLEVEL
 70
     2
102
SHADEPLOTCUSTOMDPI
 70
   300
  0
CELLSTYLEMAP
  5
1190
102
{ACAD_REACTORS
330
1061
102
}
330
1061
100
AcDbCellStyleMap
 90
        3
300
CELLSTYLE
  1
TABLEFORMAT_BEGIN
 90
        5
170
     1
 91
        0
 92
    32768
 62
   257
 93
        1
300
CONTENTFORMAT
  1
CONTENTFORMAT_BEGIN
 90
        0
 91
        0
 92
      512
 93
        0
300

 40
0.0
140
1.0
 94
        5
 62
     0
340
10
144
6.0
309
CONTENTFORMAT_END
171
     1
301
MARGIN
  1
CELLMARGIN_BEGIN
 40
1.5
 40
1.5
 40
1.5
 40
1.5
 40
4.5
 40
4.5
309
CELLMARGIN_END
 94
        6
 95
        1
302
GRIDFORMAT
  1
GRIDFORMAT_BEGIN
 90
        0
 91
        1
 62
     0
 92
       -2
340
0
 93
        0
 40
1.125
309
GRIDFORMAT_END
 95
        2
302
GRIDFORMAT
  1
GRIDFORMAT_BEGIN
 90
        0
 91
        1
 62
     0
 92
       -2
340
0
 93
        0
 40
1.125
309
GRIDFORMAT_END
 95
        4
302
GRIDFORMAT
  1
GRIDFORMAT_BEGIN
 90
        0
 91
        1
 62
     0
 92
       -2
340
0
 93
        0
 40
1.125
309
GRIDFORMAT_END
 95
        8
302
GRIDFORMAT
  1
GRIDFORMAT_BEGIN
 90
        0
 91
        1
 62
     0
 92
       -2
340
0
 93
        0
 40
1.125
309
GRIDFORMAT_END
 95
       16
302
GRIDFORMAT
  1
GRIDFORMAT_BEGIN
 90
        0
 91
        1
 62
     0
 92
       -2
340
0
 93
        0
 40
1.125
309
GRIDFORMAT_END
 95
       32
302
GRIDFORMAT
  1
GRIDFORMAT_BEGIN
 90
        0
 91
        1
 62
     0
 92
       -2
340
0
 93
        0
 40
1.125
309
GRIDFORMAT_END
309
TABLEFORMAT_END
  1
CELLSTYLE_BEGIN
 90
        1
 91
        1
300
_TITLE
309
CELLSTYLE_END
300
CELLSTYLE
  1
TABLEFORMAT_BEGIN
 90
        5
170
     1
 91
        0
 92
        0
 62
   257
 93
        1
300
CONTENTFORMAT
  1
CONTENTFORMAT_BEGIN
 90
        0
 91
        0
 92
      512
 93
        0
300

 40
0.0
140
1.0
 94
        5
 62
     0
340
10
144
4.5
309
CONTENTFORMAT_END
171
     1
301
MARGIN
  1
CELLMARGIN_BEGIN
 40
1.5
 40
1.5
 40
1.5
 40
1.5
 40
4.5
 40
4.5
309
CELLMARGIN_END
 94
        6
 95
        1
302
GRIDFORMAT
  1
GRIDFORMAT_BEGIN
 90
        0
 91
        1
 62
     0
 92
       -2
340
0
 93
        0
 40
1.125
309
GRIDFORMAT_END
 95
        2
302
GRIDFORMAT
  1
GRIDFORMAT_BEGIN
 90
        0
 91
        1
 62
     0
 92
       -2
340
0
 93
        0
 40
1.125
309
GRIDFORMAT_END
 95
        4
302
GRIDFORMAT
  1
GRIDFORMAT_BEGIN
 90
        0
 91
        1
 62
     0
 92
       -2
340
0
 93
        0
 40
1.125
309
GRIDFORMAT_END
 95
        8
302
GRIDFORMAT
  1
GRIDFORMAT_BEGIN
 90
        0
 91
        1
 62
     0
 92
       -2
340
0
 93
        0
 40
1.125
309
GRIDFORMAT_END
 95
       16
302
GRIDFORMAT
  1
GRIDFORMAT_BEGIN
 90
        0
 91
        1
 62
     0
 92
       -2
340
0
 93
        0
 40
1.125
309
GRIDFORMAT_END
 95
       32
302
GRIDFORMAT
  1
GRIDFORMAT_BEGIN
 90
        0
 91
        1
 62
     0
 92
       -2
340
0
 93
        0
 40
1.125
309
GRIDFORMAT_END
309
TABLEFORMAT_END
  1
CELLSTYLE_BEGIN
 90
        2
 91
        1
300
_HEADER
309
CELLSTYLE_END
300
CELLSTYLE
  1
TABLEFORMAT_BEGIN
 90
        5
170
     1
 91
        0
 92
        0
 62
   257
 93
        1
300
CONTENTFORMAT
  1
CONTENTFORMAT_BEGIN
 90
        0
 91
        0
 92
      512
 93
        0
300

 40
0.0
140
1.0
 94
        2
 62
     0
340
10
144
4.5
309
CONTENTFORMAT_END
171
     1
301
MARGIN
  1
CELLMARGIN_BEGIN
 40
1.5
 40
1.5
 40
1.5
 40
1.5
 40
4.5
 40
4.5
309
CELLMARGIN_END
 94
        6
 95
        1
302
GRIDFORMAT
  1
GRIDFORMAT_BEGIN
 90
        0
 91
        1
 62
     0
 92
       -2
340
0
 93
        0
 40
1.125
309
GRIDFORMAT_END
 95
        2
302
GRIDFORMAT
  1
GRIDFORMAT_BEGIN
 90
        0
 91
        1
 62
     0
 92
       -2
340
0
 93
        0
 40
1.125
309
GRIDFORMAT_END
 95
        4
302
GRIDFORMAT
  1
GRIDFORMAT_BEGIN
 90
        0
 91
        1
 62
     0
 92
       -2
340
0
 93
        0
 40
1.125
309
GRIDFORMAT_END
 95
        8
302
GRIDFORMAT
  1
GRIDFORMAT_BEGIN
 90
        0
 91
        1
 62
     0
 92
       -2
340
0
 93
        0
 40
1.125
309
GRIDFORMAT_END
 95
       16
302
GRIDFORMAT
  1
GRIDFORMAT_BEGIN
 90
        0
 91
        1
 62
     0
 92
       -2
340
0
 93
        0
 40
1.125
309
GRIDFORMAT_END
 95
       32
302
GRIDFORMAT
  1
GRIDFORMAT_BEGIN
 90
        0
 91
        1
 62
     0
 92
       -2
340
0
 93
        0
 40
1.125
309
GRIDFORMAT_END
309
TABLEFORMAT_END
  1
CELLSTYLE_BEGIN
 90
        3
 91
        2
300
_DATA
309
CELLSTYLE_END
  0
XRECORD
  5
11AB
102
{ACAD_REACTORS
330
1061
102
}
330
1061
100
AcDbXrecord
280
     1
102
ACAD_ROUNDTRIP_PRE2007_TABLESTYLE
 90
      512
 91
        0
  1

 92
      512
 93
        0
  2

 94
      512
 95
        0
  3

  0
ENDSEC
  0
EOF
