  0
SECTION
  2
HEADER
  9
$ACADVER
  1
AC1015
  9
$ACADMAINTVER
 70
     6
  9
$DWGCODEPAGE
  3
ANSI_1252
  9
$INSBASE
 10
0.0
 20
0.0
 30
0.0
  9
$EXTMIN
 10
-41.15656164008964
 20
-42.99999999999998
 30
0.0
  9
$EXTMAX
 10
86.86204999991962
 20
31.50000000000005
 30
0.0
  9
$LIMMIN
 10
0.0
 20
0.0
  9
$LIMMAX
 10
12.0
 20
9.0
  9
$ORTHOMODE
 70
     0
  9
$REGENMODE
 70
     1
  9
$FILLMODE
 70
     1
  9
$QTEXTMODE
 70
     0
  9
$MIRRTEXT
 70
     0
  9
$LTSCALE
 40
1.0
  9
$ATTMODE
 70
     1
  9
$TEXTSIZE
 40
0.2
  9
$TRACEWID
 40
0.05
  9
$TEXTSTYLE
  7
Standard
  9
$CLAYER
  8
0
  9
$CELTYPE
  6
ByLayer
  9
$CECOLOR
 62
   256
  9
$CELTSCALE
 40
1.0
  9
$DISPSILH
 70
     0
  9
$DIMSCALE
 40
1.0
  9
$DIMASZ
 40
0.18
  9
$DIMEXO
 40
0.0625
  9
$DIMDLI
 40
0.38
  9
$DIMRND
 40
0.0
  9
$DIMDLE
 40
0.0
  9
$DIMEXE
 40
0.18
  9
$DIMTP
 40
0.0
  9
$DIMTM
 40
0.0
  9
$DIMTXT
 40
0.18
  9
$DIMCEN
 40
0.09
  9
$DIMTSZ
 40
0.0
  9
$DIMTOL
 70
     0
  9
$DIMLIM
 70
     0
  9
$DIMTIH
 70
     1
  9
$DIMTOH
 70
     1
  9
$DIMSE1
 70
     0
  9
$DIMSE2
 70
     0
  9
$DIMTAD
 70
     0
  9
$DIMZIN
 70
     0
  9
$DIMBLK
  1

  9
$DIMASO
 70
     1
  9
$DIMSHO
 70
     1
  9
$DIMPOST
  1

  9
$DIMAPOST
  1

  9
$DIMALT
 70
     0
  9
$DIMALTD
 70
     2
  9
$DIMALTF
 40
25.4
  9
$DIMLFAC
 40
1.0
  9
$DIMTOFL
 70
     0
  9
$DIMTVP
 40
0.0
  9
$DIMTIX
 70
     0
  9
$DIMSOXD
 70
     0
  9
$DIMSAH
 70
     0
  9
$DIMBLK1
  1

  9
$DIMBLK2
  1

  9
$DIMSTYLE
  2
Standard
  9
$DIMCLRD
 70
     0
  9
$DIMCLRE
 70
     0
  9
$DIMCLRT
 70
     0
  9
$DIMTFAC
 40
1.0
  9
$DIMGAP
 40
0.09
  9
$DIMJUST
 70
     0
  9
$DIMSD1
 70
     0
  9
$DIMSD2
 70
     0
  9
$DIMTOLJ
 70
     1
  9
$DIMTZIN
 70
     0
  9
$DIMALTZ
 70
     0
  9
$DIMALTTZ
 70
     0
  9
$DIMUPT
 70
     0
  9
$DIMDEC
 70
     4
  9
$DIMTDEC
 70
     4
  9
$DIMALTU
 70
     2
  9
$DIMALTTD
 70
     2
  9
$DIMTXSTY
  7
Standard
  9
$DIMAUNIT
 70
     0
  9
$DIMADEC
 70
     0
  9
$DIMALTRND
 40
0.0
  9
$DIMAZIN
 70
     0
  9
$DIMDSEP
 70
    46
  9
$DIMATFIT
 70
     3
  9
$DIMFRAC
 70
     0
  9
$DIMLDRBLK
  1

  9
$DIMLUNIT
 70
     2
  9
$DIMLWD
 70
    -2
  9
$DIMLWE
 70
    -2
  9
$DIMTMOVE
 70
     0
  9
$LUNITS
 70
     2
  9
$LUPREC
 70
     4
  9
$SKETCHINC
 40
0.1
  9
$FILLETRAD
 40
0.0
  9
$AUNITS
 70
     0
  9
$AUPREC
 70
     0
  9
$MENU
  1
.
  9
$ELEVATION
 40
0.0
  9
$PELEVATION
 40
0.0
  9
$THICKNESS
 40
0.0
  9
$LIMCHECK
 70
     0
  9
$CHAMFERA
 40
0.0
  9
$CHAMFERB
 40
0.0
  9
$CHAMFERC
 40
0.0
  9
$CHAMFERD
 40
0.0
  9
$SKPOLY
 70
     0
  9
$TDCREATE
 40
2453353.508792488
  9
$TDUCREATE
 40
2453353.717125822
  9
$TDUPDATE
 40
2455009.669707442
  9
$TDUUPDATE
 40
2455009.878040776
  9
$TDINDWG
 40
0.0448494213
  9
$TDUSRTIMER
 40
0.0448373958
  9
$USRTIMER
 70
     1
  9
$ANGBASE
 50
0.0
  9
$ANGDIR
 70
     0
  9
$PDMODE
 70
     0
  9
$PDSIZE
 40
0.0
  9
$PLINEWID
 40
0.0
  9
$SPLFRAME
 70
     0
  9
$SPLINETYPE
 70
     6
  9
$SPLINESEGS
 70
     8
  9
$HANDSEED
  5
454
  9
$SURFTAB1
 70
     6
  9
$SURFTAB2
 70
     6
  9
$SURFTYPE
 70
     6
  9
$SURFU
 70
     6
  9
$SURFV
 70
     6
  9
$UCSBASE
  2

  9
$UCSNAME
  2

  9
$UCSORG
 10
0.0
 20
0.0
 30
0.0
  9
$UCSXDIR
 10
1.0
 20
0.0
 30
0.0
  9
$UCSYDIR
 10
0.0
 20
1.0
 30
0.0
  9
$UCSORTHOREF
  2

  9
$UCSORTHOVIEW
 70
     0
  9
$UCSORGTOP
 10
0.0
 20
0.0
 30
0.0
  9
$UCSORGBOTTOM
 10
0.0
 20
0.0
 30
0.0
  9
$UCSORGLEFT
 10
0.0
 20
0.0
 30
0.0
  9
$UCSORGRIGHT
 10
0.0
 20
0.0
 30
0.0
  9
$UCSORGFRONT
 10
0.0
 20
0.0
 30
0.0
  9
$UCSORGBACK
 10
0.0
 20
0.0
 30
0.0
  9
$PUCSBASE
  2

  9
$PUCSNAME
  2

  9
$PUCSORG
 10
0.0
 20
0.0
 30
0.0
  9
$PUCSXDIR
 10
1.0
 20
0.0
 30
0.0
  9
$PUCSYDIR
 10
0.0
 20
1.0
 30
0.0
  9
$PUCSORTHOREF
  2

  9
$PUCSORTHOVIEW
 70
     0
  9
$PUCSORGTOP
 10
0.0
 20
0.0
 30
0.0
  9
$PUCSORGBOTTOM
 10
0.0
 20
0.0
 30
0.0
  9
$PUCSORGLEFT
 10
0.0
 20
0.0
 30
0.0
  9
$PUCSORGRIGHT
 10
0.0
 20
0.0
 30
0.0
  9
$PUCSORGFRONT
 10
0.0
 20
0.0
 30
0.0
  9
$PUCSORGBACK
 10
0.0
 20
0.0
 30
0.0
  9
$USERI1
 70
     0
  9
$USERI2
 70
     0
  9
$USERI3
 70
     0
  9
$USERI4
 70
     0
  9
$USERI5
 70
     0
  9
$USERR1
 40
0.0
  9
$USERR2
 40
0.0
  9
$USERR3
 40
0.0
  9
$USERR4
 40
0.0
  9
$USERR5
 40
0.0
  9
$WORLDVIEW
 70
     1
  9
$SHADEDGE
 70
     3
  9
$SHADEDIF
 70
    70
  9
$TILEMODE
 70
     1
  9
$MAXACTVP
 70
    64
  9
$PINSBASE
 10
0.0
 20
0.0
 30
0.0
  9
$PLIMCHECK
 70
     0
  9
$PEXTMIN
 10
0.0
 20
0.0
 30
0.0
  9
$PEXTMAX
 10
0.0
 20
0.0
 30
0.0
  9
$PLIMMIN
 10
0.0
 20
0.0
  9
$PLIMMAX
 10
12.0
 20
9.0
  9
$UNITMODE
 70
     0
  9
$VISRETAIN
 70
     1
  9
$PLINEGEN
 70
     0
  9
$PSLTSCALE
 70
     1
  9
$TREEDEPTH
 70
  3020
  9
$CMLSTYLE
  2
Standard
  9
$CMLJUST
 70
     0
  9
$CMLSCALE
 40
1.0
  9
$PROXYGRAPHICS
 70
     1
  9
$MEASUREMENT
 70
     0
  9
$CELWEIGHT
370
    -1
  9
$ENDCAPS
280
     0
  9
$JOINSTYLE
280
     0
  9
$LWDISPLAY
290
     0
  9
$INSUNITS
 70
     1
  9
$HYPERLINKBASE
  1

  9
$STYLESHEET
  1

  9
$XEDIT
290
     0
  9
$CEPSNTYPE
380
     0
  9
$PSTYLEMODE
290
     1
  9
$FINGERPRINTGUID
  2
{8BAE0D3F-6380-4E3D-B0D1-267E31F469C1}
  9
$VERSIONGUID
  2
{6F1AD05E-3764-4268-ADD0-261F181DCA83}
  9
$EXTNAMES
290
     1
  9
$PSVPSCALE
 40
0.0
  9
$OLESTARTUP
290
     0
  0
ENDSEC
  0
SECTION
  2
CLASSES
  0
CLASS
  1
ACDBDICTIONARYWDFLT
  2
AcDbDictionaryWithDefault
  3
ObjectDBX Classes
 90
        0
280
     0
281
     0
  0
CLASS
  1
ACDBPLACEHOLDER
  2
AcDbPlaceHolder
  3
ObjectDBX Classes
 90
        0
280
     0
281
     0
  0
CLASS
  1
LAYOUT
  2
AcDbLayout
  3
ObjectDBX Classes
 90
        0
280
     0
281
     0
  0
CLASS
  1
DICTIONARYVAR
  2
AcDbDictionaryVar
  3
ObjectDBX Classes
 90
        0
280
     0
281
     0
  0
CLASS
  1
TABLESTYLE
  2
AcDbTableStyle
  3
ObjectDBX Classes
 90
     4095
280
     0
281
     0
  0
CLASS
  1
SCALE
  2
AcDbScale
  3
ObjectDBX Classes
 90
     1153
280
     0
281
     0
  0
ENDSEC
  0
SECTION
  2
TABLES
  0
TABLE
  2
VPORT
  5
8
330
0
100
AcDbSymbolTable
 70
     2
  0
VPORT
  5
97
330
8
100
AcDbSymbolTableRecord
100
AcDbViewportTableRecord
  2
*Active
 70
     0
 10
0.0
 20
0.0
 11
1.0
 21
1.0
 12
22.85274417991499
 22
-5.749999999999964
 13
0.0
 23
0.0
 14
0.5
 24
0.5
 15
0.5
 25
0.5
 16
0.0
 26
0.0
 36
1.0
 17
0.0
 27
0.0
 37
0.0
 40
75.99000000000002
 41
2.031468531468532
 42
50.0
 43
0.0
 44
0.0
 50
0.0
 51
0.0
 71
    16
 72
  1000
 73
     1
 74
     3
 75
     0
 76
     0
 77
     0
 78
     0
281
     0
 65
     0
110
0.0
120
0.0
130
0.0
111
1.0
121
0.0
131
0.0
112
0.0
122
1.0
132
0.0
 79
     0
146
0.0
  0
ENDTAB
  0
TABLE
  2
LTYPE
  5
5
330
0
100
AcDbSymbolTable
 70
     4
  0
LTYPE
  5
14
330
5
100
AcDbSymbolTableRecord
100
AcDbLinetypeTableRecord
  2
ByBlock
 70
     0
  3

 72
    65
 73
     0
 40
0.0
  0
LTYPE
  5
15
330
5
100
AcDbSymbolTableRecord
100
AcDbLinetypeTableRecord
  2
ByLayer
 70
     0
  3

 72
    65
 73
     0
 40
0.0
  0
LTYPE
  5
16
330
5
100
AcDbSymbolTableRecord
100
AcDbLinetypeTableRecord
  2
Continuous
 70
     0
  3
Solid line
 72
    65
 73
     0
 40
0.0
  0
LTYPE
  5
41C
330
5
100
AcDbSymbolTableRecord
100
AcDbLinetypeTableRecord
  2
CENTER2
 70
     0
  3
___ _ ___ _ ___ _ ___ _ ___ _ ___ _ ___ _ ___ _
 72
    65
 73
     4
 40
1.125
 49
0.75
 74
     4
 75
     0
340
0
 46
1.0
 50
0.0
 44
0.0
 45
0.0
 49
-0.125
 74
     4
 75
     0
340
0
 46
1.0
 50
0.0
 44
0.0
 45
0.0
 49
0.125
 74
     4
 75
     0
340
0
 46
1.0
 50
0.0
 44
0.0
 45
0.0
 49
-0.125
 74
     4
 75
     0
340
0
 46
1.0
 50
0.0
 44
0.0
 45
0.0
  0
LTYPE
  5
41D
330
5
100
AcDbSymbolTableRecord
100
AcDbLinetypeTableRecord
  2
HIDDEN2
 70
     0
  3
_ _ _ _ _ _ _ _ _ _ _ _ _ _ _ _ _ _ _ _ _ _ _ _
 72
    65
 73
     2
 40
0.1875
 49
0.125
 74
     4
 75
     0
340
0
 46
1.0
 50
0.0
 44
0.0
 45
0.0
 49
-0.0625
 74
     4
 75
     0
340
0
 46
1.0
 50
0.0
 44
0.0
 45
0.0
  0
LTYPE
  5
41E
330
5
100
AcDbSymbolTableRecord
100
AcDbLinetypeTableRecord
  2
PHANTOM2
 70
     0
  3
___ _ _ ___ _ _ ___ _ _ ___ _ _ ___ _ _ ___ _ _
 72
    65
 73
     6
 40
1.25
 49
0.625
 74
     4
 75
     0
340
0
 46
1.0
 50
0.0
 44
0.0
 45
0.0
 49
-0.125
 74
     4
 75
     0
340
0
 46
1.0
 50
0.0
 44
0.0
 45
0.0
 49
0.125
 74
     4
 75
     0
340
0
 46
1.0
 50
0.0
 44
0.0
 45
0.0
 49
-0.125
 74
     4
 75
     0
340
0
 46
1.0
 50
0.0
 44
0.0
 45
0.0
 49
0.125
 74
     4
 75
     0
340
0
 46
1.0
 50
0.0
 44
0.0
 45
0.0
 49
-0.125
 74
     4
 75
     0
340
0
 46
1.0
 50
0.0
 44
0.0
 45
0.0
  0
ENDTAB
  0
TABLE
  2
LAYER
  5
2
330
0
100
AcDbSymbolTable
 70
     7
  0
LAYER
  5
10
330
2
100
AcDbSymbolTableRecord
100
AcDbLayerTableRecord
  2
0
 70
     0
 62
     7
  6
Continuous
370
    -3
390
F
  0
LAYER
  5
C1
330
2
100
AcDbSymbolTableRecord
100
AcDbLayerTableRecord
  2
DIM
 70
     0
 62
     7
  6
Continuous
370
    -3
390
F
  0
LAYER
  5
C4
330
2
100
AcDbSymbolTableRecord
100
AcDbLayerTableRecord
  2
DEFPOINTS
 70
     0
 62
     7
  6
Continuous
290
     0
370
    -3
390
F
  0
LAYER
  5
115
330
2
100
AcDbSymbolTableRecord
100
AcDbLayerTableRecord
  2
CNTRL
 70
     0
 62
     1
  6
CENTER2
370
    -3
390
F
  0
LAYER
  5
118
330
2
100
AcDbSymbolTableRecord
100
AcDbLayerTableRecord
  2
LINE
 70
     0
 62
     3
  6
Continuous
370
    -3
390
F
  0
LAYER
  5
12B
330
2
100
AcDbSymbolTableRecord
100
AcDbLayerTableRecord
  2
HIDDEN
 70
     0
 62
     2
  6
HIDDEN2
370
    -3
390
F
  0
LAYER
  5
173
330
2
100
AcDbSymbolTableRecord
100
AcDbLayerTableRecord
  2
KA
 70
     0
 62
     4
  6
PHANTOM2
370
    -3
390
F
  0
ENDTAB
  0
TABLE
  2
STYLE
  5
3
330
0
100
AcDbSymbolTable
 70
     1
  0
STYLE
  5
11
330
3
100
AcDbSymbolTableRecord
100
AcDbTextStyleTableRecord
  2
Standard
 70
     0
 40
0.0
 41
1.0
 50
0.0
 71
     0
 42
0.2
  3
txt
  4

  0
ENDTAB
  0
TABLE
  2
VIEW
  5
6
330
0
100
AcDbSymbolTable
 70
     0
  0
ENDTAB
  0
TABLE
  2
UCS
  5
7
330
0
100
AcDbSymbolTable
 70
     0
  0
ENDTAB
  0
TABLE
  2
APPID
  5
9
330
0
100
AcDbSymbolTable
 70
     2
  0
APPID
  5
12
330
9
100
AcDbSymbolTableRecord
100
AcDbRegAppTableRecord
  2
ACAD
 70
     0
  0
APPID
  5
41B
330
9
100
AcDbSymbolTableRecord
100
AcDbRegAppTableRecord
  2
GRPNAME
 70
     0
  0
ENDTAB
  0
TABLE
  2
DIMSTYLE
  5
A
330
0
100
AcDbSymbolTable
 70
     3
100
AcDbDimStyleTable
  0
DIMSTYLE
105
27
330
A
100
AcDbSymbolTableRecord
100
AcDbDimStyleTableRecord
  2
Standard
 70
     0
340
11
  0
DIMSTYLE
105
C2
330
A
100
AcDbSymbolTableRecord
100
AcDbDimStyleTableRecord
  2
BIGT
 70
     0
 41
2.229999999999999
 42
0.5
 43
2.5
 44
1.0
 73
     0
 74
     0
 77
     3
 78
     9
140
3.5
141
0.0
147
1.0
172
     1
176
   256
177
   256
178
    40
271
     3
272
     3
284
     8
340
11
341
41F
342
41F
  0
DIMSTYLE
105
2D5
102
{ACAD_REACTORS
330
2D6
330
2E2
102
}
330
A
100
AcDbSymbolTableRecord
100
AcDbDimStyleTableRecord
  2
BIGT$0
 70
     0
  4
"
 41
2.229999999999999
 42
0.5
 43
7.0
 44
1.0
 47
0.1
 48
0.1
 73
     0
 74
     0
 77
     3
 78
     8
 79
     2
140
3.0
141
0.0
143
0.0393701
146
0.71
147
1.0
172
     1
176
     3
177
     3
178
    40
179
     3
271
     3
272
     3
284
     8
289
     2
340
11
341
41F
342
41F
371
    -1
372
    -1
  0
ENDTAB
  0
TABLE
  2
BLOCK_RECORD
  5
1
330
0
100
AcDbSymbolTable
 70
    22
  0
BLOCK_RECORD
  5
1F
102
{ACAD_XDICTIONARY
360
44F
102
}
330
1
100
AcDbSymbolTableRecord
100
AcDbBlockTableRecord
  2
*Model_Space
340
22
  0
BLOCK_RECORD
  5
73
330
1
100
AcDbSymbolTableRecord
100
AcDbBlockTableRecord
  2
*Paper_Space
340
74
  0
BLOCK_RECORD
  5
41F
330
1
100
AcDbSymbolTableRecord
100
AcDbBlockTableRecord
  2
_OPEN
340
0
102
{BLKREFS
331
D1
331
D2
331
DD
331
DE
331
E9
331
EA
331
F5
331
F7
331
103
331
104
331
10F
331
110
331
1EC
331
1ED
331
1F7
331
1F8
331
202
331
203
331
20D
331
20F
331
21A
331
21B
331
225
331
226
331
2DD
331
2DE
331
2E9
331
2EA
331
3E9
331
3EA
331
3F4
331
3F5
331
3FF
331
400
331
40A
331
40B
331
415
331
416
102
}
  0
BLOCK_RECORD
  5
BE
330
1
100
AcDbSymbolTableRecord
100
AcDbBlockTableRecord
  2
*Paper_Space1
340
BF
  0
BLOCK_RECORD
  5
D5
330
1
100
AcDbSymbolTableRecord
100
AcDbBlockTableRecord
  2
*D2
340
0
  0
BLOCK_RECORD
  5
E1
330
1
100
AcDbSymbolTableRecord
100
AcDbBlockTableRecord
  2
*D3
340
0
  0
BLOCK_RECORD
  5
ED
330
1
100
AcDbSymbolTableRecord
100
AcDbBlockTableRecord
  2
*D4
340
0
  0
BLOCK_RECORD
  5
FB
330
1
100
AcDbSymbolTableRecord
100
AcDbBlockTableRecord
  2
*D5
340
0
  0
BLOCK_RECORD
  5
107
330
1
100
AcDbSymbolTableRecord
100
AcDbBlockTableRecord
  2
*D6
340
0
  0
BLOCK_RECORD
  5
113
330
1
100
AcDbSymbolTableRecord
100
AcDbBlockTableRecord
  2
*D7
340
0
  0
BLOCK_RECORD
  5
1F0
330
1
100
AcDbSymbolTableRecord
100
AcDbBlockTableRecord
  2
*D8
340
0
  0
BLOCK_RECORD
  5
1FB
330
1
100
AcDbSymbolTableRecord
100
AcDbBlockTableRecord
  2
*D9
340
0
  0
BLOCK_RECORD
  5
206
330
1
100
AcDbSymbolTableRecord
100
AcDbBlockTableRecord
  2
*D10
340
0
  0
BLOCK_RECORD
  5
213
330
1
100
AcDbSymbolTableRecord
100
AcDbBlockTableRecord
  2
*D11
340
0
  0
BLOCK_RECORD
  5
21E
330
1
100
AcDbSymbolTableRecord
100
AcDbBlockTableRecord
  2
*D12
340
0
  0
BLOCK_RECORD
  5
229
330
1
100
AcDbSymbolTableRecord
100
AcDbBlockTableRecord
  2
*D13
340
0
  0
BLOCK_RECORD
  5
2E1
330
1
100
AcDbSymbolTableRecord
100
AcDbBlockTableRecord
  2
*D14
340
0
  0
BLOCK_RECORD
  5
2ED
330
1
100
AcDbSymbolTableRecord
100
AcDbBlockTableRecord
  2
*D15
340
0
  0
BLOCK_RECORD
  5
368
330
1
100
AcDbSymbolTableRecord
100
AcDbBlockTableRecord
  2
A
340
0
  0
BLOCK_RECORD
  5
3ED
330
1
100
AcDbSymbolTableRecord
100
AcDbBlockTableRecord
  2
*D17
340
0
  0
BLOCK_RECORD
  5
3F8
330
1
100
AcDbSymbolTableRecord
100
AcDbBlockTableRecord
  2
*D18
340
0
  0
BLOCK_RECORD
  5
403
330
1
100
AcDbSymbolTableRecord
100
AcDbBlockTableRecord
  2
*D19
340
0
  0
BLOCK_RECORD
  5
40E
330
1
100
AcDbSymbolTableRecord
100
AcDbBlockTableRecord
  2
*D20
340
0
  0
BLOCK_RECORD
  5
419
330
1
100
AcDbSymbolTableRecord
100
AcDbBlockTableRecord
  2
*D21
340
0
  0
ENDTAB
  0
ENDSEC
  0
SECTION
  2
BLOCKS
  0
BLOCK
  5
20
330
1F
100
AcDbEntity
  8
0
100
AcDbBlockBegin
  2
*Model_Space
 70
     0
 10
0.0
 20
0.0
 30
0.0
  3
*Model_Space
  1

  0
ENDBLK
  5
21
330
1F
100
AcDbEntity
  8
0
100
AcDbBlockEnd
  0
BLOCK
  5
75
330
73
100
AcDbEntity
 67
     1
  8
0
100
AcDbBlockBegin
  2
*Paper_Space
 70
     0
 10
0.0
 20
0.0
 30
0.0
  3
*Paper_Space
  1

  0
ENDBLK
  5
76
330
73
100
AcDbEntity
 67
     1
  8
0
100
AcDbBlockEnd
  0
BLOCK
  5
420
330
41F
100
AcDbEntity
  8
0
100
AcDbBlockBegin
  2
_OPEN
 70
     0
 10
0.0
 20
0.0
 30
0.0
  3
_OPEN
  1

  0
LINE
  5
C6
330
41F
100
AcDbEntity
  8
0
  6
ByBlock
 62
     0
370
    -2
100
AcDbLine
 10
0.0
 20
0.0
 30
0.0
 11
-1.0
 21
-0.1666666666667
 31
0.0
  0
LINE
  5
C7
330
41F
100
AcDbEntity
  8
0
  6
ByBlock
 62
     0
370
    -2
100
AcDbLine
 10
-1.0
 20
0.1666666666667
 30
0.0
 11
0.0
 21
0.0
 31
0.0
  0
LINE
  5
C8
330
41F
100
AcDbEntity
  8
0
  6
ByBlock
 62
     0
370
    -2
100
AcDbLine
 10
0.0
 20
0.0
 30
0.0
 11
-1.0
 21
0.0
 31
0.0
  0
ENDBLK
  5
421
330
41F
100
AcDbEntity
  8
0
100
AcDbBlockEnd
  0
BLOCK
  5
425
330
BE
100
AcDbEntity
  8
0
100
AcDbBlockBegin
  2
*Paper_Space1
 70
     0
 10
0.0
 20
0.0
 30
0.0
  3
*Paper_Space1
  1

  0
ENDBLK
  5
426
330
BE
100
AcDbEntity
  8
0
100
AcDbBlockEnd
  0
BLOCK
  5
427
330
D5
100
AcDbEntity
  8
0
100
AcDbBlockBegin
  2
*D2
 70
     1
 10
0.0
 20
0.0
 30
0.0
  3
*D2
  1

  0
POINT
  5
CC
330
D5
100
AcDbEntity
  8
DEFPOINTS
  6
ByBlock
100
AcDbPoint
 10
152.8416137366546
 20
100.8482266908503
 30
0.0
  0
POINT
  5
CD
330
D5
100
AcDbEntity
  8
DEFPOINTS
  6
ByBlock
100
AcDbPoint
 10
195.8416137366528
 20
87.14822669085041
 30
0.0
  0
LINE
  5
CE
330
D5
100
AcDbEntity
  8
0
  6
ByBlock
370
    -2
100
AcDbLine
 10
152.8416137366546
 20
101.3482266908503
 30
0.0
 11
152.8416137366546
 21
114.6482266908504
 31
0.0
  0
LINE
  5
CF
330
D5
100
AcDbEntity
  8
0
  6
ByBlock
370
    -2
100
AcDbLine
 10
195.8416137366528
 20
87.64822669085041
 30
0.0
 11
195.8416137366528
 21
114.6482266908504
 31
0.0
  0
LINE
  5
D0
330
D5
100
AcDbEntity
  8
0
  6
ByBlock
370
    -2
100
AcDbLine
 10
155.0716137366545
 20
113.6482266908504
 30
0.0
 11
193.6116137366528
 21
113.6482266908504
 31
0.0
  0
INSERT
  5
D1
330
D5
100
AcDbEntity
  8
0
  6
ByBlock
370
    -2
100
AcDbBlockReference
  2
_OPEN
 10
152.8416137366546
 20
113.6482266908504
 30
0.0
 41
2.229999999999999
 42
2.229999999999999
 43
2.229999999999999
 50
180.0
  0
INSERT
  5
D2
330
D5
100
AcDbEntity
  8
0
  6
ByBlock
370
    -2
100
AcDbBlockReference
  2
_OPEN
 10
195.8416137366528
 20
113.6482266908504
 30
0.0
 41
2.229999999999999
 42
2.229999999999999
 43
2.229999999999999
  0
MTEXT
  5
D3
330
D5
100
AcDbEntity
  8
0
  6
ByBlock
100
AcDbMText
 10
174.3416137366537
 20
116.1482266908504
 30
0.0
 40
3.0
 41
0.0
 71
     5
 72
     1
  1
43
 73
     1
 44
1.0
  0
ENDBLK
  5
428
330
D5
100
AcDbEntity
  8
0
100
AcDbBlockEnd
  0
BLOCK
  5
429
330
E1
100
AcDbEntity
  8
0
100
AcDbBlockBegin
  2
*D3
 70
     1
 10
0.0
 20
0.0
 30
0.0
  3
*D3
  1

  0
POINT
  5
D8
330
E1
100
AcDbEntity
  8
DEFPOINTS
  6
ByBlock
100
AcDbPoint
 10
130.8416137366545
 20
94.52322669085035
 30
0.0
  0
POINT
  5
D9
330
E1
100
AcDbEntity
  8
DEFPOINTS
  6
ByBlock
100
AcDbPoint
 10
195.8416137366528
 20
86.64822669085041
 30
0.0
  0
LINE
  5
DA
330
E1
100
AcDbEntity
  8
0
  6
ByBlock
370
    -2
100
AcDbLine
 10
130.8416137366545
 20
95.02322669085035
 30
0.0
 11
130.8416137366545
 21
121.6482266908504
 31
0.0
  0
LINE
  5
DB
330
E1
100
AcDbEntity
  8
0
  6
ByBlock
370
    -2
100
AcDbLine
 10
195.8416137366528
 20
87.14822669085041
 30
0.0
 11
195.8416137366528
 21
121.6482266908504
 31
0.0
  0
LINE
  5
DC
330
E1
100
AcDbEntity
  8
0
  6
ByBlock
370
    -2
100
AcDbLine
 10
133.0716137366545
 20
120.6482266908504
 30
0.0
 11
193.6116137366528
 21
120.6482266908504
 31
0.0
  0
INSERT
  5
DD
330
E1
100
AcDbEntity
  8
0
  6
ByBlock
370
    -2
100
AcDbBlockReference
  2
_OPEN
 10
130.8416137366545
 20
120.6482266908504
 30
0.0
 41
2.229999999999999
 42
2.229999999999999
 43
2.229999999999999
 50
180.0
  0
INSERT
  5
DE
330
E1
100
AcDbEntity
  8
0
  6
ByBlock
370
    -2
100
AcDbBlockReference
  2
_OPEN
 10
195.8416137366528
 20
120.6482266908504
 30
0.0
 41
2.229999999999999
 42
2.229999999999999
 43
2.229999999999999
  0
MTEXT
  5
DF
330
E1
100
AcDbEntity
  8
0
  6
ByBlock
100
AcDbMText
 10
163.3416137366536
 20
123.1482266908504
 30
0.0
 40
3.0
 41
0.0
 71
     5
 72
     1
  1
65
 73
     1
 44
1.0
  0
ENDBLK
  5
42A
330
E1
100
AcDbEntity
  8
0
100
AcDbBlockEnd
  0
BLOCK
  5
42B
330
ED
100
AcDbEntity
  8
0
100
AcDbBlockBegin
  2
*D4
 70
     1
 10
0.0
 20
0.0
 30
0.0
  3
*D4
  1

  0
POINT
  5
E4
330
ED
100
AcDbEntity
  8
DEFPOINTS
  6
ByBlock
100
AcDbPoint
 10
130.8416137366546
 20
94.52322669085035
 30
0.0
  0
POINT
  5
E5
330
ED
100
AcDbEntity
  8
DEFPOINTS
  6
ByBlock
100
AcDbPoint
 10
152.8416137366545
 20
100.848226690994
 30
0.0
  0
LINE
  5
E6
330
ED
100
AcDbEntity
  8
0
  6
ByBlock
370
    -2
100
AcDbLine
 10
130.8416137366546
 20
95.02322669085035
 30
0.0
 11
130.8416137366546
 21
114.6482266908504
 31
0.0
  0
LINE
  5
E7
330
ED
100
AcDbEntity
  8
0
  6
ByBlock
370
    -2
100
AcDbLine
 10
152.8416137366545
 20
101.348226690994
 30
0.0
 11
152.8416137366545
 21
114.6482266908504
 31
0.0
  0
LINE
  5
E8
330
ED
100
AcDbEntity
  8
0
  6
ByBlock
370
    -2
100
AcDbLine
 10
133.0716137366545
 20
113.6482266908504
 30
0.0
 11
150.6116137366545
 21
113.6482266908504
 31
0.0
  0
INSERT
  5
E9
330
ED
100
AcDbEntity
  8
0
  6
ByBlock
370
    -2
100
AcDbBlockReference
  2
_OPEN
 10
130.8416137366546
 20
113.6482266908504
 30
0.0
 41
2.229999999999999
 42
2.229999999999999
 43
2.229999999999999
 50
180.0
  0
INSERT
  5
EA
330
ED
100
AcDbEntity
  8
0
  6
ByBlock
370
    -2
100
AcDbBlockReference
  2
_OPEN
 10
152.8416137366545
 20
113.6482266908504
 30
0.0
 41
2.229999999999999
 42
2.229999999999999
 43
2.229999999999999
  0
MTEXT
  5
EB
330
ED
100
AcDbEntity
  8
0
  6
ByBlock
100
AcDbMText
 10
141.8416137366546
 20
116.1482266908504
 30
0.0
 40
3.0
 41
0.0
 71
     5
 72
     1
  1
22
 73
     1
 44
1.0
  0
ENDBLK
  5
42C
330
ED
100
AcDbEntity
  8
0
100
AcDbBlockEnd
  0
BLOCK
  5
42D
330
FB
100
AcDbEntity
  8
0
100
AcDbBlockBegin
  2
*D5
 70
     1
 10
0.0
 20
0.0
 30
0.0
  3
*D5
  1

  0
POINT
  5
F0
330
FB
100
AcDbEntity
  8
DEFPOINTS
  6
ByBlock
100
AcDbPoint
 10
130.8416137366545
 20
94.52322669085035
 30
0.0
  0
POINT
  5
F1
330
FB
100
AcDbEntity
  8
DEFPOINTS
  6
ByBlock
100
AcDbPoint
 10
131.8416137366546
 20
101.1272181894029
 30
0.0
  0
LINE
  5
F2
330
FB
100
AcDbEntity
  8
0
  6
ByBlock
370
    -2
100
AcDbLine
 10
130.8416137366545
 20
95.02322669085035
 30
0.0
 11
130.8416137366545
 21
107.6482266908504
 31
0.0
  0
LINE
  5
F3
330
FB
100
AcDbEntity
  8
0
  6
ByBlock
370
    -2
100
AcDbLine
 10
131.8416137366546
 20
101.6272181894029
 30
0.0
 11
131.8416137366546
 21
107.6482266908504
 31
0.0
  0
LINE
  5
F4
330
FB
100
AcDbEntity
  8
0
  6
ByBlock
370
    -2
100
AcDbLine
 10
128.6116137366545
 20
106.6482266908504
 30
0.0
 11
126.3816137366545
 21
106.6482266908504
 31
0.0
  0
INSERT
  5
F5
330
FB
100
AcDbEntity
  8
0
  6
ByBlock
370
    -2
100
AcDbBlockReference
  2
_OPEN
 10
130.8416137366545
 20
106.6482266908504
 30
0.0
 41
2.229999999999999
 42
2.229999999999999
 43
2.229999999999999
  0
LINE
  5
F6
330
FB
100
AcDbEntity
  8
0
  6
ByBlock
370
    -2
100
AcDbLine
 10
134.0716137366545
 20
106.6482266908504
 30
0.0
 11
139.2916137366546
 21
106.6482266908504
 31
0.0
  0
INSERT
  5
F7
330
FB
100
AcDbEntity
  8
0
  6
ByBlock
370
    -2
100
AcDbBlockReference
  2
_OPEN
 10
131.8416137366546
 20
106.6482266908504
 30
0.0
 41
2.229999999999999
 42
2.229999999999999
 43
2.229999999999999
 50
180.0
  0
LINE
  5
F8
330
FB
100
AcDbEntity
  8
0
  6
ByBlock
370
    -2
100
AcDbLine
 10
130.8416137366545
 20
106.6482266908504
 30
0.0
 11
131.8416137366546
 21
106.6482266908504
 31
0.0
  0
MTEXT
  5
F9
330
FB
100
AcDbEntity
  8
0
  6
ByBlock
100
AcDbMText
 10
137.7966137366546
 20
109.1482266908504
 30
0.0
 40
3.0
 41
0.0
 71
     5
 72
     1
  1
1
 73
     1
 44
1.0
  0
ENDBLK
  5
42E
330
FB
100
AcDbEntity
  8
0
100
AcDbBlockEnd
  0
BLOCK
  5
42F
330
107
100
AcDbEntity
  8
0
100
AcDbBlockBegin
  2
*D6
 70
     1
 10
0.0
 20
0.0
 30
0.0
  3
*D6
  1

  0
POINT
  5
FE
330
107
100
AcDbEntity
  8
DEFPOINTS
  6
ByBlock
100
AcDbPoint
 10
195.8416137366401
 20
70.64822669085031
 30
0.0
  0
POINT
  5
FF
330
107
100
AcDbEntity
  8
DEFPOINTS
  6
ByBlock
100
AcDbPoint
 10
195.8416137366528
 20
86.64822669085041
 30
0.0
  0
LINE
  5
100
330
107
100
AcDbEntity
  8
0
  6
ByBlock
370
    -2
100
AcDbLine
 10
196.3416137366401
 20
70.64822669085031
 30
0.0
 11
215.8416137366546
 21
70.64822669085031
 31
0.0
  0
LINE
  5
101
330
107
100
AcDbEntity
  8
0
  6
ByBlock
370
    -2
100
AcDbLine
 10
196.3416137366528
 20
86.64822669085041
 30
0.0
 11
215.8416137366546
 21
86.64822669085041
 31
0.0
  0
LINE
  5
102
330
107
100
AcDbEntity
  8
0
  6
ByBlock
370
    -2
100
AcDbLine
 10
214.8416137366546
 20
72.87822669085031
 30
0.0
 11
214.8416137366546
 21
84.4182266908504
 31
0.0
  0
INSERT
  5
103
330
107
100
AcDbEntity
  8
0
  6
ByBlock
370
    -2
100
AcDbBlockReference
  2
_OPEN
 10
214.8416137366546
 20
70.64822669085031
 30
0.0
 41
2.229999999999999
 42
2.229999999999999
 43
2.229999999999999
 50
270.0
  0
INSERT
  5
104
330
107
100
AcDbEntity
  8
0
  6
ByBlock
370
    -2
100
AcDbBlockReference
  2
_OPEN
 10
214.8416137366546
 20
86.64822669085041
 30
0.0
 41
2.229999999999999
 42
2.229999999999999
 43
2.229999999999999
 50
90.0
  0
MTEXT
  5
105
330
107
100
AcDbEntity
  8
0
  6
ByBlock
100
AcDbMText
 10
212.3416137366546
 20
78.64822669085035
 30
0.0
 40
3.0
 41
0.0
 71
     5
 72
     1
  1
{\H3;%%c}16
 11
6.123031769111886E-17
 21
1.0
 31
0.0
 73
     1
 44
1.0
  0
ENDBLK
  5
430
330
107
100
AcDbEntity
  8
0
100
AcDbBlockEnd
  0
BLOCK
  5
431
330
113
100
AcDbEntity
  8
0
100
AcDbBlockBegin
  2
*D7
 70
     1
 10
0.0
 20
0.0
 30
0.0
  3
*D7
  1

  0
POINT
  5
10A
330
113
100
AcDbEntity
  8
DEFPOINTS
  6
ByBlock
100
AcDbPoint
 10
186.8416137366402
 20
70.64822669085054
 30
0.0
  0
POINT
  5
10B
330
113
100
AcDbEntity
  8
DEFPOINTS
  6
ByBlock
100
AcDbPoint
 10
195.8416137366401
 20
70.64822669085031
 30
0.0
  0
LINE
  5
10C
330
113
100
AcDbEntity
  8
0
  6
ByBlock
370
    -2
100
AcDbLine
 10
186.8416137366402
 20
70.14822669085054
 30
0.0
 11
186.8416137366402
 21
42.64822669085035
 31
0.0
  0
LINE
  5
10D
330
113
100
AcDbEntity
  8
0
  6
ByBlock
370
    -2
100
AcDbLine
 10
195.8416137366401
 20
70.14822669085031
 30
0.0
 11
195.8416137366401
 21
42.64822669085035
 31
0.0
  0
LINE
  5
10E
330
113
100
AcDbEntity
  8
0
  6
ByBlock
370
    -2
100
AcDbLine
 10
189.0716137366402
 20
43.64822669085035
 30
0.0
 11
193.6116137366402
 21
43.64822669085035
 31
0.0
  0
INSERT
  5
10F
330
113
100
AcDbEntity
  8
0
  6
ByBlock
370
    -2
100
AcDbBlockReference
  2
_OPEN
 10
186.8416137366402
 20
43.64822669085035
 30
0.0
 41
2.229999999999999
 42
2.229999999999999
 43
2.229999999999999
 50
180.0
  0
INSERT
  5
110
330
113
100
AcDbEntity
  8
0
  6
ByBlock
370
    -2
100
AcDbBlockReference
  2
_OPEN
 10
195.8416137366401
 20
43.64822669085035
 30
0.0
 41
2.229999999999999
 42
2.229999999999999
 43
2.229999999999999
  0
MTEXT
  5
111
330
113
100
AcDbEntity
  8
0
  6
ByBlock
100
AcDbMText
 10
191.3416137366402
 20
46.14822669085035
 30
0.0
 40
3.0
 41
0.0
 71
     5
 72
     1
  1
9
 73
     1
 44
1.0
  0
ENDBLK
  5
432
330
113
100
AcDbEntity
  8
0
100
AcDbBlockEnd
  0
BLOCK
  5
433
330
1F0
100
AcDbEntity
  8
0
100
AcDbBlockBegin
  2
*D8
 70
     1
 10
0.0
 20
0.0
 30
0.0
  3
*D8
  1

  0
POINT
  5
1E7
330
1F0
100
AcDbEntity
  8
DEFPOINTS
  6
ByBlock
100
AcDbPoint
 10
22.0
 20
22.19999999999999
 30
0.0
  0
POINT
  5
1E8
330
1F0
100
AcDbEntity
  8
DEFPOINTS
  6
ByBlock
100
AcDbPoint
 10
64.99999999999824
 20
8.500000000000057
 30
0.0
  0
LINE
  5
1E9
330
1F0
100
AcDbEntity
  8
0
  6
ByBlock
370
    -2
100
AcDbLine
 10
22.0
 20
22.69999999999999
 30
0.0
 11
22.0
 21
36.0
 31
0.0
  0
LINE
  5
1EA
330
1F0
100
AcDbEntity
  8
0
  6
ByBlock
370
    -2
100
AcDbLine
 10
64.99999999999824
 20
9.000000000000057
 30
0.0
 11
64.99999999999824
 21
36.0
 31
0.0
  0
LINE
  5
1EB
330
1F0
100
AcDbEntity
  8
0
  6
ByBlock
370
    -2
100
AcDbLine
 10
24.23
 20
35.0
 30
0.0
 11
62.76999999999824
 21
35.0
 31
0.0
  0
INSERT
  5
1EC
330
1F0
100
AcDbEntity
  8
0
  6
ByBlock
370
    -2
100
AcDbBlockReference
  2
_OPEN
 10
22.0
 20
35.0
 30
0.0
 41
2.229999999999999
 42
2.229999999999999
 43
2.229999999999999
 50
180.0
  0
INSERT
  5
1ED
330
1F0
100
AcDbEntity
  8
0
  6
ByBlock
370
    -2
100
AcDbBlockReference
  2
_OPEN
 10
64.99999999999824
 20
35.0
 30
0.0
 41
2.229999999999999
 42
2.229999999999999
 43
2.229999999999999
  0
MTEXT
  5
1EE
330
1F0
100
AcDbEntity
  8
0
  6
ByBlock
100
AcDbMText
 10
43.49999999999912
 20
37.5
 30
0.0
 40
3.0
 41
0.0
 71
     5
 72
     1
  1
43
 73
     1
 44
1.0
  0
ENDBLK
  5
434
330
1F0
100
AcDbEntity
  8
0
100
AcDbBlockEnd
  0
BLOCK
  5
435
330
1FB
100
AcDbEntity
  8
0
100
AcDbBlockBegin
  2
*D9
 70
     1
 10
0.0
 20
0.0
 30
0.0
  3
*D9
  1

  0
POINT
  5
1F2
330
1FB
100
AcDbEntity
  8
DEFPOINTS
  6
ByBlock
100
AcDbPoint
 10
-0.0000000000000284
 20
15.875
 30
0.0
  0
POINT
  5
1F3
330
1FB
100
AcDbEntity
  8
DEFPOINTS
  6
ByBlock
100
AcDbPoint
 10
64.99999999999824
 20
8.000000000000057
 30
0.0
  0
LINE
  5
1F4
330
1FB
100
AcDbEntity
  8
0
  6
ByBlock
370
    -2
100
AcDbLine
 10
-0.0000000000000284
 20
16.375
 30
0.0
 11
-0.0000000000000284
 21
43.0
 31
0.0
  0
LINE
  5
1F5
330
1FB
100
AcDbEntity
  8
0
  6
ByBlock
370
    -2
100
AcDbLine
 10
64.99999999999824
 20
8.500000000000057
 30
0.0
 11
64.99999999999824
 21
43.0
 31
0.0
  0
LINE
  5
1F6
330
1FB
100
AcDbEntity
  8
0
  6
ByBlock
370
    -2
100
AcDbLine
 10
2.229999999999971
 20
42.0
 30
0.0
 11
62.76999999999824
 21
42.0
 31
0.0
  0
INSERT
  5
1F7
330
1FB
100
AcDbEntity
  8
0
  6
ByBlock
370
    -2
100
AcDbBlockReference
  2
_OPEN
 10
-0.0000000000000284
 20
42.0
 30
0.0
 41
2.229999999999999
 42
2.229999999999999
 43
2.229999999999999
 50
180.0
  0
INSERT
  5
1F8
330
1FB
100
AcDbEntity
  8
0
  6
ByBlock
370
    -2
100
AcDbBlockReference
  2
_OPEN
 10
64.99999999999824
 20
42.0
 30
0.0
 41
2.229999999999999
 42
2.229999999999999
 43
2.229999999999999
  0
MTEXT
  5
1F9
330
1FB
100
AcDbEntity
  8
0
  6
ByBlock
100
AcDbMText
 10
32.4999999999991
 20
44.5
 30
0.0
 40
3.0
 41
0.0
 71
     5
 72
     1
  1
65
 73
     1
 44
1.0
  0
ENDBLK
  5
436
330
1FB
100
AcDbEntity
  8
0
100
AcDbBlockEnd
  0
BLOCK
  5
437
330
206
100
AcDbEntity
  8
0
100
AcDbBlockBegin
  2
*D10
 70
     1
 10
0.0
 20
0.0
 30
0.0
  3
*D10
  1

  0
POINT
  5
1FD
330
206
100
AcDbEntity
  8
DEFPOINTS
  6
ByBlock
100
AcDbPoint
 10
0.0
 20
15.875
 30
0.0
  0
POINT
  5
1FE
330
206
100
AcDbEntity
  8
DEFPOINTS
  6
ByBlock
100
AcDbPoint
 10
21.99999999999997
 20
22.20000000014366
 30
0.0
  0
LINE
  5
1FF
330
206
100
AcDbEntity
  8
0
  6
ByBlock
370
    -2
100
AcDbLine
 10
0.0
 20
16.375
 30
0.0
 11
0.0
 21
36.0
 31
0.0
  0
LINE
  5
200
330
206
100
AcDbEntity
  8
0
  6
ByBlock
370
    -2
100
AcDbLine
 10
21.99999999999997
 20
22.70000000014366
 30
0.0
 11
21.99999999999997
 21
36.0
 31
0.0
  0
LINE
  5
201
330
206
100
AcDbEntity
  8
0
  6
ByBlock
370
    -2
100
AcDbLine
 10
2.229999999999999
 20
35.0
 30
0.0
 11
19.76999999999997
 21
35.0
 31
0.0
  0
INSERT
  5
202
330
206
100
AcDbEntity
  8
0
  6
ByBlock
370
    -2
100
AcDbBlockReference
  2
_OPEN
 10
0.0
 20
35.0
 30
0.0
 41
2.229999999999999
 42
2.229999999999999
 43
2.229999999999999
 50
180.0
  0
INSERT
  5
203
330
206
100
AcDbEntity
  8
0
  6
ByBlock
370
    -2
100
AcDbBlockReference
  2
_OPEN
 10
21.99999999999997
 20
35.0
 30
0.0
 41
2.229999999999999
 42
2.229999999999999
 43
2.229999999999999
  0
MTEXT
  5
204
330
206
100
AcDbEntity
  8
0
  6
ByBlock
100
AcDbMText
 10
10.99999999999999
 20
37.5
 30
0.0
 40
3.0
 41
0.0
 71
     5
 72
     1
  1
22
 73
     1
 44
1.0
  0
ENDBLK
  5
438
330
206
100
AcDbEntity
  8
0
100
AcDbBlockEnd
  0
BLOCK
  5
439
330
213
100
AcDbEntity
  8
0
100
AcDbBlockBegin
  2
*D11
 70
     1
 10
0.0
 20
0.0
 30
0.0
  3
*D11
  1

  0
POINT
  5
208
330
213
100
AcDbEntity
  8
DEFPOINTS
  6
ByBlock
100
AcDbPoint
 10
-0.0000000000000284
 20
15.875
 30
0.0
  0
POINT
  5
209
330
213
100
AcDbEntity
  8
DEFPOINTS
  6
ByBlock
100
AcDbPoint
 10
1.0
 20
22.47899149855252
 30
0.0
  0
LINE
  5
20A
330
213
100
AcDbEntity
  8
0
  6
ByBlock
370
    -2
100
AcDbLine
 10
-0.0000000000000284
 20
16.375
 30
0.0
 11
-0.0000000000000284
 21
29.0
 31
0.0
  0
LINE
  5
20B
330
213
100
AcDbEntity
  8
0
  6
ByBlock
370
    -2
100
AcDbLine
 10
1.0
 20
22.97899149855252
 30
0.0
 11
1.0
 21
29.0
 31
0.0
  0
LINE
  5
20C
330
213
100
AcDbEntity
  8
0
  6
ByBlock
370
    -2
100
AcDbLine
 10
-2.230000000000028
 20
28.0
 30
0.0
 11
-4.460000000000027
 21
28.0
 31
0.0
  0
INSERT
  5
20D
330
213
100
AcDbEntity
  8
0
  6
ByBlock
370
    -2
100
AcDbBlockReference
  2
_OPEN
 10
-0.0000000000000284
 20
28.0
 30
0.0
 41
2.229999999999999
 42
2.229999999999999
 43
2.229999999999999
  0
LINE
  5
20E
330
213
100
AcDbEntity
  8
0
  6
ByBlock
370
    -2
100
AcDbLine
 10
3.229999999999999
 20
28.0
 30
0.0
 11
8.45
 21
28.0
 31
0.0
  0
INSERT
  5
20F
330
213
100
AcDbEntity
  8
0
  6
ByBlock
370
    -2
100
AcDbBlockReference
  2
_OPEN
 10
1.0
 20
28.0
 30
0.0
 41
2.229999999999999
 42
2.229999999999999
 43
2.229999999999999
 50
180.0
  0
LINE
  5
210
330
213
100
AcDbEntity
  8
0
  6
ByBlock
370
    -2
100
AcDbLine
 10
-0.0000000000000284
 20
28.0
 30
0.0
 11
1.0
 21
28.0
 31
0.0
  0
MTEXT
  5
211
330
213
100
AcDbEntity
  8
0
  6
ByBlock
100
AcDbMText
 10
6.954999999999998
 20
30.5
 30
0.0
 40
3.0
 41
0.0
 71
     5
 72
     1
  1
1
 73
     1
 44
1.0
  0
ENDBLK
  5
43A
330
213
100
AcDbEntity
  8
0
100
AcDbBlockEnd
  0
BLOCK
  5
43B
330
21E
100
AcDbEntity
  8
0
100
AcDbBlockBegin
  2
*D12
 70
     1
 10
0.0
 20
0.0
 30
0.0
  3
*D12
  1

  0
POINT
  5
215
330
21E
100
AcDbEntity
  8
DEFPOINTS
  6
ByBlock
100
AcDbPoint
 10
64.99999999998559
 20
-8.000000000000043
 30
0.0
  0
POINT
  5
216
330
21E
100
AcDbEntity
  8
DEFPOINTS
  6
ByBlock
100
AcDbPoint
 10
64.99999999999824
 20
8.000000000000057
 30
0.0
  0
LINE
  5
217
330
21E
100
AcDbEntity
  8
0
  6
ByBlock
370
    -2
100
AcDbLine
 10
65.49999999998559
 20
-8.000000000000043
 30
0.0
 11
85.0
 21
-8.000000000000043
 31
0.0
  0
LINE
  5
218
330
21E
100
AcDbEntity
  8
0
  6
ByBlock
370
    -2
100
AcDbLine
 10
65.49999999999824
 20
8.000000000000057
 30
0.0
 11
85.0
 21
8.000000000000057
 31
0.0
  0
LINE
  5
219
330
21E
100
AcDbEntity
  8
0
  6
ByBlock
370
    -2
100
AcDbLine
 10
84.0
 20
-5.770000000000044
 30
0.0
 11
84.0
 21
5.770000000000058
 31
0.0
  0
INSERT
  5
21A
330
21E
100
AcDbEntity
  8
0
  6
ByBlock
370
    -2
100
AcDbBlockReference
  2
_OPEN
 10
84.0
 20
-8.000000000000043
 30
0.0
 41
2.229999999999999
 42
2.229999999999999
 43
2.229999999999999
 50
270.0
  0
INSERT
  5
21B
330
21E
100
AcDbEntity
  8
0
  6
ByBlock
370
    -2
100
AcDbBlockReference
  2
_OPEN
 10
84.0
 20
8.000000000000057
 30
0.0
 41
2.229999999999999
 42
2.229999999999999
 43
2.229999999999999
 50
90.0
  0
MTEXT
  5
21C
330
21E
100
AcDbEntity
  8
0
  6
ByBlock
100
AcDbMText
 10
81.5
 20
0.0000000000000071
 30
0.0
 40
3.0
 41
0.0
 71
     5
 72
     1
  1
{\H3;%%c}16
 11
6.123031769111886E-17
 21
1.0
 31
0.0
 73
     1
 44
1.0
  0
ENDBLK
  5
43C
330
21E
100
AcDbEntity
  8
0
100
AcDbBlockEnd
  0
BLOCK
  5
43D
330
229
100
AcDbEntity
  8
0
100
AcDbBlockBegin
  2
*D13
 70
     1
 10
0.0
 20
0.0
 30
0.0
  3
*D13
  1

  0
POINT
  5
220
330
229
100
AcDbEntity
  8
DEFPOINTS
  6
ByBlock
100
AcDbPoint
 10
55.99999999998562
 20
-7.999999999999815
 30
0.0
  0
POINT
  5
221
330
229
100
AcDbEntity
  8
DEFPOINTS
  6
ByBlock
100
AcDbPoint
 10
64.99999999998559
 20
-8.000000000000043
 30
0.0
  0
LINE
  5
222
330
229
100
AcDbEntity
  8
0
  6
ByBlock
370
    -2
100
AcDbLine
 10
55.99999999998562
 20
-8.499999999999815
 30
0.0
 11
55.99999999998562
 21
-36.0
 31
0.0
  0
LINE
  5
223
330
229
100
AcDbEntity
  8
0
  6
ByBlock
370
    -2
100
AcDbLine
 10
64.99999999998559
 20
-8.500000000000043
 30
0.0
 11
64.99999999998559
 21
-36.0
 31
0.0
  0
LINE
  5
224
330
229
100
AcDbEntity
  8
0
  6
ByBlock
370
    -2
100
AcDbLine
 10
58.22999999998562
 20
-35.0
 30
0.0
 11
62.76999999998559
 21
-35.0
 31
0.0
  0
INSERT
  5
225
330
229
100
AcDbEntity
  8
0
  6
ByBlock
370
    -2
100
AcDbBlockReference
  2
_OPEN
 10
55.99999999998562
 20
-35.0
 30
0.0
 41
2.229999999999999
 42
2.229999999999999
 43
2.229999999999999
 50
180.0
  0
INSERT
  5
226
330
229
100
AcDbEntity
  8
0
  6
ByBlock
370
    -2
100
AcDbBlockReference
  2
_OPEN
 10
64.99999999998559
 20
-35.0
 30
0.0
 41
2.229999999999999
 42
2.229999999999999
 43
2.229999999999999
  0
MTEXT
  5
227
330
229
100
AcDbEntity
  8
0
  6
ByBlock
100
AcDbMText
 10
60.4999999999856
 20
-32.5
 30
0.0
 40
3.0
 41
0.0
 71
     5
 72
     1
  1
9
 73
     1
 44
1.0
  0
ENDBLK
  5
43E
330
229
100
AcDbEntity
  8
0
100
AcDbBlockEnd
  0
BLOCK
  5
43F
330
2E1
100
AcDbEntity
  8
0
100
AcDbBlockBegin
  2
*D14
 70
     1
 10
0.0
 20
0.0
 30
0.0
  3
*D14
  1

  0
POINT
  5
2D8
330
2E1
100
AcDbEntity
  8
DEFPOINTS
  6
ByBlock
 62
     3
100
AcDbPoint
 10
75.99928488042184
 20
-23.6025974025974
 30
0.0
  0
POINT
  5
2D9
330
2E1
100
AcDbEntity
  8
DEFPOINTS
  6
ByBlock
 62
     3
100
AcDbPoint
 10
135.9992848804221
 20
7.59740259740262
 30
0.0
  0
LINE
  5
2DA
330
2E1
100
AcDbEntity
  8
0
  6
ByBlock
 62
     3
100
AcDbLine
 10
75.99928488042184
 20
-24.1025974025974
 30
0.0
 11
75.99928488042184
 21
-35.40259740259741
 31
0.0
  0
LINE
  5
2DB
330
2E1
100
AcDbEntity
  8
0
  6
ByBlock
 62
     3
100
AcDbLine
 10
135.9992848804221
 20
7.09740259740262
 30
0.0
 11
135.9992848804221
 21
-35.40259740259741
 31
0.0
  0
LINE
  5
2DC
330
2E1
100
AcDbEntity
  8
0
  6
ByBlock
 62
     3
100
AcDbLine
 10
77.99928488042184
 20
-34.40259740259741
 30
0.0
 11
133.9992848804221
 21
-34.40259740259741
 31
0.0
  0
INSERT
  5
2DD
330
2E1
100
AcDbEntity
  8
0
  6
ByBlock
 62
     3
100
AcDbBlockReference
  2
_OPEN
 10
75.99928488042184
 20
-34.40259740259741
 30
0.0
 41
2.0
 42
2.0
 43
2.0
 50
180.0
  0
INSERT
  5
2DE
330
2E1
100
AcDbEntity
  8
0
  6
ByBlock
 62
     3
100
AcDbBlockReference
  2
_OPEN
 10
135.9992848804221
 20
-34.40259740259741
 30
0.0
 41
2.0
 42
2.0
 43
2.0
  0
MTEXT
  5
2DF
330
2E1
100
AcDbEntity
  8
0
  6
ByBlock
 62
    40
370
    -3
100
AcDbMText
 10
104.7978764898692
 20
-31.90259740259741
 30
0.0
 40
3.0
 41
0.0
 71
     5
 72
     1
  1
60
 73
     1
 44
1.0
  0
ENDBLK
  5
440
330
2E1
100
AcDbEntity
  8
0
100
AcDbBlockEnd
  0
BLOCK
  5
441
330
2ED
100
AcDbEntity
  8
0
100
AcDbBlockBegin
  2
*D15
 70
     1
 10
0.0
 20
0.0
 30
0.0
  3
*D15
  1

  0
POINT
  5
2E4
330
2ED
100
AcDbEntity
  8
DEFPOINTS
  6
ByBlock
 62
     3
100
AcDbPoint
 10
76.29928488042793
 20
-23.90259740259764
 30
0.0
  0
POINT
  5
2E5
330
2ED
100
AcDbEntity
  8
DEFPOINTS
  6
ByBlock
 62
     3
100
AcDbPoint
 10
76.29928488041966
 20
39.09740259740251
 30
0.0
  0
LINE
  5
2E6
330
2ED
100
AcDbEntity
  8
0
  6
ByBlock
 62
     3
100
AcDbLine
 10
75.79928488042793
 20
-23.90259740259764
 30
0.0
 11
25.99928488042185
 21
-23.90259740259764
 31
0.0
  0
LINE
  5
2E7
330
2ED
100
AcDbEntity
  8
0
  6
ByBlock
 62
     3
100
AcDbLine
 10
75.79928488041966
 20
39.09740259740251
 30
0.0
 11
25.99928488042185
 21
39.09740259740251
 31
0.0
  0
LINE
  5
2E8
330
2ED
100
AcDbEntity
  8
0
  6
ByBlock
 62
     3
100
AcDbLine
 10
26.99928488042185
 20
-21.90259740259764
 30
0.0
 11
26.99928488042185
 21
37.09740259740251
 31
0.0
  0
INSERT
  5
2E9
330
2ED
100
AcDbEntity
  8
0
  6
ByBlock
 62
     3
100
AcDbBlockReference
  2
_OPEN
 10
26.99928488042185
 20
-23.90259740259764
 30
0.0
 41
2.0
 42
2.0
 43
2.0
 50
270.0
  0
INSERT
  5
2EA
330
2ED
100
AcDbEntity
  8
0
  6
ByBlock
 62
     3
100
AcDbBlockReference
  2
_OPEN
 10
26.99928488042185
 20
39.09740259740251
 30
0.0
 41
2.0
 42
2.0
 43
2.0
 50
90.0
  0
MTEXT
  5
2EB
330
2ED
100
AcDbEntity
  8
0
  6
ByBlock
 62
    40
370
    -3
100
AcDbMText
 10
24.49928488042185
 20
7.597402597402432
 30
0.0
 40
3.0
 41
0.0
 71
     5
 72
     1
  1
{\H3;%%C}63
 11
6.123031769111886E-17
 21
1.0
 31
0.0
 73
     1
 44
1.0
  0
ENDBLK
  5
442
330
2ED
100
AcDbEntity
  8
0
100
AcDbBlockEnd
  0
BLOCK
  5
443
330
368
100
AcDbEntity
  8
0
100
AcDbBlockBegin
  2
A
 70
     0
 10
0.0
 20
0.0
 30
0.0
  3
A
  1

  0
ENDBLK
  5
444
330
368
100
AcDbEntity
  8
0
100
AcDbBlockEnd
  0
BLOCK
  5
445
330
3ED
100
AcDbEntity
  8
0
100
AcDbBlockBegin
  2
*D17
 70
     1
 10
0.0
 20
0.0
 30
0.0
  3
*D17
  1

  0
POINT
  5
3E4
330
3ED
100
AcDbEntity
  8
DEFPOINTS
  6
ByBlock
 62
     3
100
AcDbPoint
 10
0.0
 20
-31.19999999999997
 30
0.0
  0
POINT
  5
3E5
330
3ED
100
AcDbEntity
  8
DEFPOINTS
  6
ByBlock
 62
     3
100
AcDbPoint
 10
60.00000000000023
 20
0.0000000000000497
 30
0.0
  0
LINE
  5
3E6
330
3ED
100
AcDbEntity
  8
0
  6
ByBlock
 62
     3
100
AcDbLine
 10
0.0
 20
-31.69999999999997
 30
0.0
 11
0.0
 21
-42.99999999999998
 31
0.0
  0
LINE
  5
3E7
330
3ED
100
AcDbEntity
  8
0
  6
ByBlock
 62
     3
100
AcDbLine
 10
60.00000000000023
 20
-0.4999999999999503
 30
0.0
 11
60.00000000000023
 21
-42.99999999999998
 31
0.0
  0
LINE
  5
3E8
330
3ED
100
AcDbEntity
  8
0
  6
ByBlock
 62
     3
100
AcDbLine
 10
2.0
 20
-41.99999999999998
 30
0.0
 11
58.00000000000023
 21
-41.99999999999998
 31
0.0
  0
INSERT
  5
3E9
330
3ED
100
AcDbEntity
  8
0
  6
ByBlock
 62
     3
100
AcDbBlockReference
  2
_OPEN
 10
0.0
 20
-41.99999999999998
 30
0.0
 41
2.0
 42
2.0
 43
2.0
 50
180.0
  0
INSERT
  5
3EA
330
3ED
100
AcDbEntity
  8
0
  6
ByBlock
 62
     3
100
AcDbBlockReference
  2
_OPEN
 10
60.00000000000023
 20
-41.99999999999998
 30
0.0
 41
2.0
 42
2.0
 43
2.0
  0
MTEXT
  5
3EB
330
3ED
100
AcDbEntity
  8
0
  6
ByBlock
 62
    40
370
    -3
100
AcDbMText
 10
28.79859160944739
 20
-39.49999999999998
 30
0.0
 40
3.0
 41
0.0
 71
     5
 72
     1
  1
60
 73
     1
 44
1.0
  0
ENDBLK
  5
446
330
3ED
100
AcDbEntity
  8
0
100
AcDbBlockEnd
  0
BLOCK
  5
447
330
3F8
100
AcDbEntity
  8
0
100
AcDbBlockBegin
  2
*D18
 70
     1
 10
0.0
 20
0.0
 30
0.0
  3
*D18
  1

  0
POINT
  5
3EF
330
3F8
100
AcDbEntity
  8
DEFPOINTS
  6
ByBlock
 62
     3
100
AcDbPoint
 10
0.3000000000060936
 20
-31.50000000000021
 30
0.0
  0
POINT
  5
3F0
330
3F8
100
AcDbEntity
  8
DEFPOINTS
  6
ByBlock
 62
     3
100
AcDbPoint
 10
0.2999999999978229
 20
31.49999999999994
 30
0.0
  0
LINE
  5
3F1
330
3F8
100
AcDbEntity
  8
0
  6
ByBlock
 62
     3
100
AcDbLine
 10
-0.1999999999939064
 20
-31.50000000000021
 30
0.0
 11
-49.99999999999999
 21
-31.50000000000021
 31
0.0
  0
LINE
  5
3F2
330
3F8
100
AcDbEntity
  8
0
  6
ByBlock
 62
     3
100
AcDbLine
 10
-0.2000000000021771
 20
31.49999999999993
 30
0.0
 11
-49.99999999999999
 21
31.49999999999993
 31
0.0
  0
LINE
  5
3F3
330
3F8
100
AcDbEntity
  8
0
  6
ByBlock
 62
     3
100
AcDbLine
 10
-48.99999999999999
 20
-29.50000000000021
 30
0.0
 11
-48.99999999999999
 21
29.49999999999993
 31
0.0
  0
INSERT
  5
3F4
330
3F8
100
AcDbEntity
  8
0
  6
ByBlock
 62
     3
100
AcDbBlockReference
  2
_OPEN
 10
-48.99999999999999
 20
-31.50000000000021
 30
0.0
 41
2.0
 42
2.0
 43
2.0
 50
270.0
  0
INSERT
  5
3F5
330
3F8
100
AcDbEntity
  8
0
  6
ByBlock
 62
     3
100
AcDbBlockReference
  2
_OPEN
 10
-48.99999999999999
 20
31.49999999999993
 30
0.0
 41
2.0
 42
2.0
 43
2.0
 50
90.0
  0
MTEXT
  5
3F6
330
3F8
100
AcDbEntity
  8
0
  6
ByBlock
 62
    40
370
    -3
100
AcDbMText
 10
-51.49999999999999
 20
-0.0000000000001386
 30
0.0
 40
3.0
 41
0.0
 71
     5
 72
     1
  1
{\H3;%%C}63
 11
6.123031769111886E-17
 21
1.0
 31
0.0
 73
     1
 44
1.0
  0
ENDBLK
  5
448
330
3F8
100
AcDbEntity
  8
0
100
AcDbBlockEnd
  0
BLOCK
  5
449
330
403
100
AcDbEntity
  8
0
100
AcDbBlockBegin
  2
*D19
 70
     1
 10
0.0
 20
0.0
 30
0.0
  3
*D19
  1

  0
POINT
  5
3FA
330
403
100
AcDbEntity
  8
DEFPOINTS
  6
ByBlock
 62
     3
100
AcDbPoint
 10
0.3000000000060936
 20
-31.50000000000021
 30
0.0
  0
POINT
  5
3FB
330
403
100
AcDbEntity
  8
DEFPOINTS
  6
ByBlock
 62
     3
100
AcDbPoint
 10
0.2999999999978229
 20
31.49999999999994
 30
0.0
  0
LINE
  5
3FC
330
403
100
AcDbEntity
  8
0
  6
ByBlock
 62
     3
100
AcDbLine
 10
0.8000000000060936
 20
-31.50000000000021
 30
0.0
 11
86.86204999991962
 21
-31.50000000000021
 31
0.0
  0
LINE
  5
3FD
330
403
100
AcDbEntity
  8
0
  6
ByBlock
 62
     3
100
AcDbLine
 10
0.7999999999978229
 20
31.49999999999993
 30
0.0
 11
86.86204999991962
 21
31.49999999999993
 31
0.0
  0
LINE
  5
3FE
330
403
100
AcDbEntity
  8
0
  6
ByBlock
 62
     3
100
AcDbLine
 10
85.86204999991962
 20
-29.50000000000021
 30
0.0
 11
85.86204999991962
 21
29.49999999999993
 31
0.0
  0
INSERT
  5
3FF
330
403
100
AcDbEntity
  8
0
  6
ByBlock
 62
     3
100
AcDbBlockReference
  2
_OPEN
 10
85.86204999991962
 20
-31.50000000000021
 30
0.0
 41
2.0
 42
2.0
 43
2.0
 50
270.0
  0
INSERT
  5
400
330
403
100
AcDbEntity
  8
0
  6
ByBlock
 62
     3
100
AcDbBlockReference
  2
_OPEN
 10
85.86204999991962
 20
31.49999999999993
 30
0.0
 41
2.0
 42
2.0
 43
2.0
 50
90.0
  0
MTEXT
  5
401
330
403
100
AcDbEntity
  8
0
  6
ByBlock
 62
    40
370
    -3
100
AcDbMText
 10
83.36204999991962
 20
-1.369201773835883
 30
0.0
 40
3.0
 41
0.0
 71
     5
 72
     1
  1
{\H3;%%C}63
 11
6.123031769111886E-17
 21
1.0
 31
0.0
 73
     1
 44
1.0
  0
ENDBLK
  5
44A
330
403
100
AcDbEntity
  8
0
100
AcDbBlockEnd
  0
BLOCK
  5
44B
330
40E
100
AcDbEntity
  8
0
100
AcDbBlockBegin
  2
*D20
 70
     1
 10
0.0
 20
0.0
 30
0.0
  3
*D20
  1

  0
POINT
  5
405
330
40E
100
AcDbEntity
  8
DEFPOINTS
  6
ByBlock
 62
     3
100
AcDbPoint
 10
0.3000000000060936
 20
-31.50000000000021
 30
0.0
  0
POINT
  5
406
330
40E
100
AcDbEntity
  8
DEFPOINTS
  6
ByBlock
 62
     3
100
AcDbPoint
 10
0.2999999999978229
 20
31.49999999999994
 30
0.0
  0
LINE
  5
407
330
40E
100
AcDbEntity
  8
0
  6
ByBlock
 62
     3
100
AcDbLine
 10
0.8000000000060936
 20
-31.50000000000021
 30
0.0
 11
86.86204999991962
 21
-31.50000000000021
 31
0.0
  0
LINE
  5
408
330
40E
100
AcDbEntity
  8
0
  6
ByBlock
 62
     3
100
AcDbLine
 10
0.7999999999978229
 20
31.49999999999993
 30
0.0
 11
86.86204999991962
 21
31.49999999999993
 31
0.0
  0
LINE
  5
409
330
40E
100
AcDbEntity
  8
0
  6
ByBlock
 62
     3
100
AcDbLine
 10
85.86204999991962
 20
-29.50000000000021
 30
0.0
 11
85.86204999991962
 21
29.49999999999993
 31
0.0
  0
INSERT
  5
40A
330
40E
100
AcDbEntity
  8
0
  6
ByBlock
 62
     3
100
AcDbBlockReference
  2
_OPEN
 10
85.86204999991962
 20
-31.50000000000021
 30
0.0
 41
2.0
 42
2.0
 43
2.0
 50
270.0
  0
INSERT
  5
40B
330
40E
100
AcDbEntity
  8
0
  6
ByBlock
 62
     3
100
AcDbBlockReference
  2
_OPEN
 10
85.86204999991962
 20
31.49999999999993
 30
0.0
 41
2.0
 42
2.0
 43
2.0
 50
90.0
  0
MTEXT
  5
40C
330
40E
100
AcDbEntity
  8
0
  6
ByBlock
 62
    40
370
    -3
100
AcDbMText
 10
83.36204999991962
 20
-1.369201773835883
 30
0.0
 40
3.0
 41
0.0
 71
     5
 72
     1
  1
{\H3;%%C}63
 11
6.123031769111886E-17
 21
1.0
 31
0.0
 73
     1
 44
1.0
  0
ENDBLK
  5
44C
330
40E
100
AcDbEntity
  8
0
100
AcDbBlockEnd
  0
BLOCK
  5
44D
330
419
100
AcDbEntity
  8
0
100
AcDbBlockBegin
  2
*D21
 70
     1
 10
0.0
 20
0.0
 30
0.0
  3
*D21
  1

  0
POINT
  5
410
330
419
100
AcDbEntity
  8
DEFPOINTS
  6
ByBlock
 62
     3
100
AcDbPoint
 10
0.0
 20
-31.19999999999997
 30
0.0
  0
POINT
  5
411
330
419
100
AcDbEntity
  8
DEFPOINTS
  6
ByBlock
 62
     3
100
AcDbPoint
 10
60.00000000000023
 20
0.0000000000000497
 30
0.0
  0
LINE
  5
412
330
419
100
AcDbEntity
  8
0
  6
ByBlock
 62
     3
100
AcDbLine
 10
0.0
 20
-31.69999999999997
 30
0.0
 11
0.0
 21
-42.99999999999998
 31
0.0
  0
LINE
  5
413
330
419
100
AcDbEntity
  8
0
  6
ByBlock
 62
     3
100
AcDbLine
 10
60.00000000000023
 20
-0.4999999999999503
 30
0.0
 11
60.00000000000023
 21
-42.99999999999998
 31
0.0
  0
LINE
  5
414
330
419
100
AcDbEntity
  8
0
  6
ByBlock
 62
     3
100
AcDbLine
 10
2.0
 20
-41.99999999999998
 30
0.0
 11
58.00000000000023
 21
-41.99999999999998
 31
0.0
  0
INSERT
  5
415
330
419
100
AcDbEntity
  8
0
  6
ByBlock
 62
     3
100
AcDbBlockReference
  2
_OPEN
 10
0.0
 20
-41.99999999999998
 30
0.0
 41
2.0
 42
2.0
 43
2.0
 50
180.0
  0
INSERT
  5
416
330
419
100
AcDbEntity
  8
0
  6
ByBlock
 62
     3
100
AcDbBlockReference
  2
_OPEN
 10
60.00000000000023
 20
-41.99999999999998
 30
0.0
 41
2.0
 42
2.0
 43
2.0
  0
MTEXT
  5
417
330
419
100
AcDbEntity
  8
0
  6
ByBlock
 62
    40
370
    -3
100
AcDbMText
 10
28.79859160944739
 20
-39.49999999999998
 30
0.0
 40
3.0
 41
0.0
 71
     5
 72
     1
  1
60
 73
     1
 44
1.0
  0
ENDBLK
  5
44E
330
419
100
AcDbEntity
  8
0
100
AcDbBlockEnd
  0
ENDSEC
  0
SECTION
  2
ENTITIES
  0
DIMENSION
  5
2D6
330
1F
100
AcDbEntity
  8
DIM
  6
Continuous
370
    -3
100
AcDbDimension
  2
*D21
 10
60.00000000000023
 20
-41.99999999999998
 30
0.0
 11
28.79859160944739
 21
-39.49999999999998
 31
0.0
 70
    32
 71
     1
 72
   140
 41
19.78474423504324
 42
-1.0
  3
BIGT$0
100
AcDbAlignedDimension
 13
0.0
 23
-31.19999999999997
 33
0.0
 14
60.00000000000023
 24
0.0000000000000497
 34
0.0
100
AcDbRotatedDimension
1001
ACAD
1000
DSTYLE
1002
{
1070
    41
1040
2.0
1002
}
  0
DIMENSION
  5
2E2
330
1F
100
AcDbEntity
  8
DIM
  6
Continuous
370
    -3
100
AcDbDimension
  2
*D20
 10
85.86204999991962
 20
31.49999999999993
 30
0.0
 11
83.36204999991962
 21
-1.369201773835883
 31
0.0
 70
    32
  1
{\H3;%%C}<>
 71
     1
 72
   140
 41
19.78474423504324
 42
-1.0
 53
90.0
  3
BIGT$0
100
AcDbAlignedDimension
 13
0.3000000000060936
 23
-31.50000000000021
 33
0.0
 14
0.2999999999978229
 24
31.49999999999994
 34
0.0
 50
90.0
100
AcDbRotatedDimension
1001
ACAD
1000
DSTYLE
1002
{
1070
    41
1040
2.0
1002
}
  0
LINE
  5
36B
330
1F
100
AcDbEntity
  8
LINE
100
AcDbLine
 10
46.61994427287124
 20
11.78659409968357
 30
0.0
 11
59.57134514437217
 21
0.9190784159924803
 31
0.0
  0
LINE
  5
36C
330
1F
100
AcDbEntity
  8
LINE
100
AcDbLine
 10
46.61994428575917
 20
-11.78694393118435
 30
0.0
 11
59.57134514437217
 21
-0.9194282474930517
 31
0.0
  0
ARC
  5
36D
330
1F
100
AcDbEntity
  8
LINE
100
AcDbCircle
 10
58.81011877084671
 20
-0.0001749157502715
 30
0.0
 40
1.193520959041325
100
AcDbArc
 50
309.6278853093186
 51
50.37211469068059
  0
ARC
  5
36E
330
1F
100
AcDbEntity
  8
LINE
100
AcDbCircle
 10
45.68813271227444
 20
10.74435895852257
 30
0.0
 40
1.398043945637165
100
AcDbArc
 50
48.20165605691157
 51
124.5722651931692
  0
ARC
  5
36F
330
1F
100
AcDbEntity
  8
LINE
100
AcDbCircle
 10
45.66572922751466
 20
-10.38505252333103
 30
0.0
 40
1.695826021970862
100
AcDbArc
 50
242.9612785582977
 51
304.2416545397469
  0
LINE
  5
370
330
1F
100
AcDbEntity
  8
KA
100
AcDbLine
 10
-38.00000000000001
 20
-16.28256631896341
 30
0.0
 11
-38.00000000000001
 21
16.28256631896351
 31
0.0
  0
LINE
  5
371
330
1F
100
AcDbEntity
  8
KA
100
AcDbLine
 10
-33.10630545835762
 20
-16.99999999999992
 30
0.0
 11
-33.10630545835762
 21
17.00000000000005
 31
0.0
  0
LINE
  5
372
330
1F
100
AcDbEntity
  8
KA
100
AcDbLine
 10
-35.17687804757139
 20
-16.70899999999995
 30
0.0
 11
-35.17687804757139
 21
16.70900000000005
 31
0.0
  0
LINE
  5
373
330
1F
100
AcDbEntity
  8
KA
100
AcDbLine
 10
-1.870096189432331
 20
-16.99999999999995
 30
0.0
 11
-1.870096189432331
 21
17.00000000000005
 31
0.0
  0
LINE
  5
374
330
1F
100
AcDbEntity
  8
LINE
100
AcDbLine
 10
0.2999999999978229
 20
31.49999999999994
 30
0.0
 11
0.3000000000000398
 21
29.31945577173899
 31
0.0
  0
LINE
  5
375
330
1F
100
AcDbEntity
  8
KA
100
AcDbLine
 10
-33.10630545835762
 20
-16.99999999999992
 30
0.0
 11
-1.870096189432331
 21
-16.99999999999995
 31
0.0
  0
ARC
  5
376
330
1F
100
AcDbEntity
  8
KA
100
AcDbCircle
 10
-36.99977894790038
 20
-16.01499999999996
 30
0.0
 40
0.9999999999999939
100
AcDbArc
 50
210.0000000000001
 51
260.0636329278606
  0
LINE
  5
377
330
1F
100
AcDbEntity
  8
KA
100
AcDbLine
 10
-38.00000000000001
 20
-16.28256631896341
 30
0.0
 11
-37.8658043516848
 21
-16.51499999999994
 31
0.0
  0
LINE
  5
378
330
1F
100
AcDbEntity
  8
KA
100
AcDbLine
 10
-35.17687804757139
 20
-16.70899999999995
 30
0.0
 11
-33.10630545835762
 21
-16.99999999999992
 31
0.0
  0
LINE
  5
379
330
1F
100
AcDbEntity
  8
KA
100
AcDbLine
 10
-37.17233328716773
 20
-16.99999999999995
 30
0.0
 11
-36.82722105708015
 21
-16.99999999999995
 31
0.0
  0
LINE
  5
37A
330
1F
100
AcDbEntity
  8
KA
100
AcDbLine
 10
-36.82722105708015
 20
-16.99999999999995
 30
0.0
 11
-35.17687804757139
 21
-16.70899999999995
 31
0.0
  0
LINE
  5
37B
330
1F
100
AcDbEntity
  8
LINE
100
AcDbLine
 10
0.0
 20
-31.19999999999997
 30
0.0
 11
0.3000000000060936
 21
-31.50000000000021
 31
0.0
  0
LINE
  5
37C
330
1F
100
AcDbEntity
  8
KA
100
AcDbLine
 10
-1.870096189432331
 20
-16.99999999999995
 30
0.0
 11
-0.4294095225512535
 21
-16.61396917106285
 31
0.0
  0
ARC
  5
37D
330
1F
100
AcDbEntity
  8
KA
100
AcDbCircle
 10
-0.2999999999999829
 20
-17.0969320842074
 30
0.0
 40
0.5000000000000152
100
AcDbArc
 50
53.1301023541602
 51
105.0000000000011
  0
LINE
  5
37E
330
1F
100
AcDbEntity
  8
KA
100
AcDbLine
 10
-1.870096189432331
 20
17.00000000000005
 30
0.0
 11
-33.10630545835762
 21
17.00000000000005
 31
0.0
  0
CIRCLE
  5
37F
330
1F
100
AcDbEntity
  8
KA
100
AcDbCircle
 10
-16.99999999999996
 20
-0.0000000000000071
 30
0.0
 40
4.5
  0
ARC
  5
380
330
1F
100
AcDbEntity
  8
KA
100
AcDbCircle
 10
-36.99977894790038
 20
16.01500000000003
 30
0.0
 40
1.000000000000011
100
AcDbArc
 50
99.93636707213936
 51
149.9999999999998
  0
LINE
  5
381
330
1F
100
AcDbEntity
  8
KA
100
AcDbLine
 10
-37.8658043516848
 20
16.51500000000003
 30
0.0
 11
-38.00000000000001
 21
16.28256631896351
 31
0.0
  0
LINE
  5
382
330
1F
100
AcDbEntity
  8
KA
100
AcDbLine
 10
-33.10630545835762
 20
17.00000000000005
 30
0.0
 11
-35.17687804757139
 21
16.70900000000005
 31
0.0
  0
LINE
  5
383
330
1F
100
AcDbEntity
  8
KA
100
AcDbLine
 10
-36.82722105708015
 20
17.00000000000005
 30
0.0
 11
-37.17233328716773
 21
17.00000000000005
 31
0.0
  0
LINE
  5
384
330
1F
100
AcDbEntity
  8
KA
100
AcDbLine
 10
-35.17687804757139
 20
16.70900000000005
 30
0.0
 11
-36.82722105708015
 21
17.00000000000005
 31
0.0
  0
LINE
  5
385
330
1F
100
AcDbEntity
  8
KA
100
AcDbLine
 10
-0.4294095225512535
 20
16.61396917106298
 30
0.0
 11
-1.870096189432331
 21
17.00000000000005
 31
0.0
  0
ARC
  5
386
330
1F
100
AcDbEntity
  8
KA
100
AcDbCircle
 10
-0.2999999999999829
 20
17.09693208420753
 30
0.0
 40
0.500000000000017
100
AcDbArc
 50
255.0000000000004
 51
306.8698976458398
  0
LINE
  5
387
330
1F
100
AcDbEntity
  8
LINE
100
AcDbLine
 10
0.3000000000000114
 20
31.50000000000005
 30
0.0
 11
-0.0000000000000142
 21
31.19999999999887
 31
0.0
  0
LINE
  5
388
330
1F
100
AcDbEntity
  8
CNTRL
100
AcDbLine
 10
-41.15656164008964
 20
-0.0000000000000071
 30
0.0
 11
65.3304414632538
 21
0.0000000000000782
 31
0.0
  0
LINE
  5
38A
330
1F
100
AcDbEntity
  8
LINE
100
AcDbLine
 10
0.0
 20
-31.19999999999997
 30
0.0
 11
-0.0000000000000142
 21
31.19999999999887
 31
0.0
  0
LINE
  5
38B
330
1F
100
AcDbEntity
  8
LINE
100
AcDbLine
 10
0.3000000000000398
 20
-31.50000000000007
 30
0.0
 11
0.3000000000000682
 21
-29.31945577173901
 31
0.0
  0
LWPOLYLINE
  5
38C
330
1F
100
AcDbEntity
  8
KA
100
AcDbPolyline
 90
       21
 70
   128
 43
0.0
 10
-20.97723865520771
 20
-4.052226494342115
 10
-22.14382471715413
 20
-2.583840708288342
 10
-22.75037689847127
 20
-0.789507153972643
 10
-22.71713734415758
 20
0.9861611321033408
 10
-22.14175372499082
 20
2.587613413757929
 10
-21.06407340215563
 20
3.972553770203199
 10
-19.49615904964378
 20
5.019747273807859
 10
-17.58569261847759
 20
5.530521839983855
 10
-15.63456575053223
 20
5.40317767600424
 10
-13.85886887753937
 20
4.676491483513011
 10
-12.39600921460851
 20
3.390519065843016
 10
-11.85287052486609
 20
2.576340526794063
 10
-11.46083092732917
 20
1.675598445398116
 10
-11.19286331822772
 20
-0.1495093117108652
 10
-11.518376275414
 20
-1.840807022500435
 10
-12.35418167470334
 20
-3.337859533992976
 10
-13.69233158923544
 20
-4.570163218845557
 10
-15.47001357054916
 20
-5.362674277609024
 10
-17.43921214484175
 20
-5.542929158807745
 10
-19.31614592044139
 20
-5.098116650417758
 10
-20.97723865520771
 20
-4.052226494342115
  0
ARC
  5
38D
330
1F
100
AcDbEntity
  8
LINE
100
AcDbCircle
 10
46.123215070621
 20
-39.66001702017327
 30
0.0
 40
24.66575230657627
100
AcDbArc
 50
103.2728323258343
 51
130.3023703244837
  0
ARC
  5
38E
330
1F
100
AcDbEntity
  8
LINE
100
AcDbCircle
 10
46.12321507062092
 20
39.66001702017302
 30
0.0
 40
24.66575230657604
100
AcDbArc
 50
229.6976296755174
 51
256.7271676741657
  0
LINE
  5
390
330
1F
100
AcDbEntity
  8
LINE
100
AcDbLine
 10
40.46024782744405
 20
15.65314011266877
 30
0.0
 11
44.8948193466382
 21
11.89552392404038
 31
0.0
  0
LINE
  5
393
330
1F
100
AcDbEntity
  8
LINE
100
AcDbLine
 10
40.46024782744405
 20
-15.65314011266867
 30
0.0
 11
44.8948193466382
 21
-11.89552392404028
 31
0.0
  0
LINE
  5
394
330
1F
100
AcDbEntity
  8
LINE
100
AcDbLine
 10
23.06436567161353
 20
-17.04212926114076
 30
0.0
 11
23.06436567161342
 21
-26.86887061248036
 31
0.0
  0
ELLIPSE
  5
395
330
1F
100
AcDbEntity
  8
LINE
100
AcDbEllipse
 10
16.25906331691004
 20
0.0000000000000497
 30
0.0
 11
-3.900000000000000E-15
 21
-31.5
 31
0.0
210
0.0
220
0.0
230
1.0
 40
0.1227845609029055
 41
3.604874340050305
 42
5.819903620719251
  0
ELLIPSE
  5
396
330
1F
100
AcDbEntity
  8
LINE
100
AcDbEllipse
 10
24.45609668121404
 20
26.86887061248057
 30
0.0
 11
-9.983408150503779
 21
8.362792596588491
 31
0.0
210
0.0
220
0.0
230
1.0
 40
0.068854266011017
 41
1.016390072840328
 42
1.488783248450944
  0
LWPOLYLINE
  5
397
330
1F
100
AcDbEntity
  8
LINE
100
AcDbPolyline
 90
       11
 70
   128
 43
0.0
 10
14.5306351648008
 20
28.17960946446345
 10
14.65636265276038
 20
28.55249354488466
 10
14.84676342324161
 20
28.9016251826473
 10
15.10857866002317
 20
29.22946130838027
 10
15.44197417034167
 20
29.52959539506298
 10
15.83055528623601
 20
29.7905195536814
 10
16.28673167049271
 20
30.02433738348793
 10
16.81902949656859
 20
30.23416606502581
 10
17.41904146434348
 20
30.41648467595183
 10
18.03827556772825
 20
30.56276861703741
 10
18.71088085251591
 20
30.68693056000341
  0
LINE
  5
398
330
1F
100
AcDbEntity
  8
LINE
100
AcDbLine
 10
16.73303365218675
 20
31.50000000000005
 30
0.0
 11
0.2999999999978229
 21
31.49999999999994
 31
0.0
  0
ELLIPSE
  5
399
330
1F
100
AcDbEntity
  8
LINE
100
AcDbEllipse
 10
54.64220123185441
 20
0.0000000000000497
 30
0.0
 11
-38.12454153503394
 21
31.42461150031526
 31
0.0
210
0.0
220
0.0
230
1.0
 40
0.0571292064902617
 41
5.986286911328883
 42
6.213986449529144
  0
ARC
  5
39A
330
1F
100
AcDbEntity
  8
LINE
100
AcDbCircle
 10
15.9457590299499
 20
6.443317369849005
 30
0.0
 40
2.916061672907985
100
AcDbArc
 50
4.604818966789783
 51
185.4929512537344
  0
LINE
  5
39B
330
1F
100
AcDbEntity
  8
LINE
100
AcDbLine
 10
13.89886350622095
 20
6.246493109099042
 30
0.0
 11
13.97568920236318
 21
5.35974157906184
 31
0.0
  0
LINE
  5
39C
330
1F
100
AcDbEntity
  8
LINE
100
AcDbLine
 10
13.04308796430678
 20
6.164182340013944
 30
0.0
 11
14.59662384721497
 21
-11.76732222563749
 31
0.0
  0
LINE
  5
39D
330
1F
100
AcDbEntity
  8
LINE
100
AcDbLine
 10
12.76911873782404
 20
10.89627477711632
 30
0.0
 11
13.75404902115196
 21
-13.01239797708559
 31
0.0
  0
ARC
  5
39E
330
1F
100
AcDbEntity
  8
LINE
100
AcDbCircle
 10
15.33508120067205
 20
6.414183444315078
 30
0.0
 40
1.44597417486604
100
AcDbArc
 50
3.71845771887402
 51
186.6596046452093
  0
ELLIPSE
  5
39F
330
1F
100
AcDbEntity
  8
LINE
100
AcDbEllipse
 10
24.45609668121404
 20
17.08774521533302
 30
0.0
 11
-9.999994516920907
 21
-0.8664993307020964
 31
0.0
210
0.0
220
0.0
230
0.9999999999999999
 40
0.0120853425540218
 41
4.850968126229421
 42
5.938552191290983
  0
LINE
  5
3A0
330
1F
100
AcDbEntity
  8
LINE
100
AcDbLine
 10
23.06436567161342
 20
26.86887061248045
 30
0.0
 11
30.16888034539835
 21
20.84888892202553
 31
0.0
  0
LINE
  5
3A1
330
1F
100
AcDbEntity
  8
LINE
100
AcDbLine
 10
23.06436567161342
 20
26.86887061248045
 30
0.0
 11
23.06436567161353
 21
17.08774521533302
 31
0.0
  0
ELLIPSE
  5
3A2
330
1F
100
AcDbEntity
  8
LINE
100
AcDbEllipse
 10
15.1144947072014
 20
11.33205349085459
 30
0.0
 11
-5.999999999999999E-16
 21
-4.999999999999985
 31
0.0
210
0.0
220
0.0
230
1.0
 40
0.4708669849116873
 41
3.392201062497201
 42
4.799655442984415
  0
LINE
  5
3A3
330
1F
100
AcDbEntity
  8
LINE
100
AcDbLine
 10
15.04056919944952
 20
16.31302698131332
 30
0.0
 11
14.5306351648008
 21
16.1758620889567
 31
0.0
  0
LINE
  5
3A4
330
1F
100
AcDbEntity
  8
LINE
100
AcDbLine
 10
13.04308796430678
 20
6.164182340013944
 30
0.0
 11
13.89886350622095
 21
6.246493109099042
 31
0.0
  0
ARC
  5
3A5
330
1F
100
AcDbEntity
  8
LINE
100
AcDbCircle
 10
17.04582460767637
 20
-14.48757760234464
 30
0.0
 40
3.103010722552659
100
AcDbArc
 50
215.8489068105643
 51
267.249497327036
  0
ARC
  5
3A6
330
1F
100
AcDbEntity
  8
LINE
100
AcDbCircle
 10
16.89604480267479
 20
-11.59911148958236
 30
0.0
 40
1.446198770701006
100
AcDbArc
 50
183.4052055942119
 51
6.972856769866573
  0
ARC
  5
3A7
330
1F
100
AcDbEntity
  8
LINE
100
AcDbCircle
 10
17.50327285111831
 20
-11.53321274631191
 30
0.0
 40
2.916061672908029
100
AcDbArc
 50
184.6048189668094
 51
5.492951253731047
  0
LINE
  5
3A8
330
1F
100
AcDbEntity
  8
LINE
100
AcDbLine
 10
20.40594391676149
 20
-11.25407771647668
 30
0.0
 11
18.33154716113546
 21
-11.42354422830943
 31
0.0
  0
LINE
  5
3A9
330
1F
100
AcDbEntity
  8
LINE
100
AcDbLine
 10
18.0424297586859
 20
-11.42354422830943
 30
0.0
 11
18.33154716113546
 21
-11.42354422830943
 31
0.0
  0
LINE
  5
3AA
330
1F
100
AcDbEntity
  8
LINE
100
AcDbLine
 10
23.06436567161353
 20
-17.04212926114076
 30
0.0
 11
16.89692076814484
 21
-17.58701354955335
 31
0.0
  0
LINE
  5
3AB
330
1F
100
AcDbEntity
  8
LINE
100
AcDbLine
 10
14.59662384721497
 20
-11.76732222563749
 30
0.0
 11
15.45239938912908
 21
-11.68501145655239
 31
0.0
  0
ELLIPSE
  5
3AC
330
1F
100
AcDbEntity
  8
LINE
100
AcDbEllipse
 10
16.09942499052931
 20
-12.57661926334726
 30
0.0
 11
-6.000000000000000E-16
 21
-5.0
 31
0.0
210
0.0
220
0.0
230
1.0
 40
0.4708669849116916
 41
4.799655442984415
 42
5.553894528759339
  0
LWPOLYLINE
  5
3AD
330
1F
100
AcDbEntity
  8
LINE
100
AcDbPolyline
 90
       14
 70
   128
 43
0.0
 10
18.71088085251591
 20
-30.68693056000337
 10
18.21754748107736
 20
-30.59896187389172
 10
17.97956435584291
 20
-30.55036907625675
 10
17.74928163394821
 20
-30.4989286630434
 10
17.30079503983615
 20
-30.38416273736613
 10
16.94240514784269
 20
-30.2756642131285
 10
16.60630628194815
 20
-30.15680587694431
 10
15.99291498597978
 20
-29.88096972215579
 10
15.47439422830058
 20
-29.55433815279049
 10
15.24340092198059
 20
-29.36230308886827
 10
15.04262270234091
 20
-29.15706581872287
 10
14.72595696755201
 20
-28.69769999466963
 10
14.66563896075797
 20
-28.57347378205749
 10
14.5306351648008
 20
-28.17960946446329
  0
LINE
  5
3AE
330
1F
100
AcDbEntity
  8
LINE
100
AcDbLine
 10
0.3000000000060936
 20
-31.50000000000021
 30
0.0
 11
16.73303365218675
 21
-31.49999999999995
 31
0.0
  0
ELLIPSE
  5
3AF
330
1F
100
AcDbEntity
  8
LINE
100
AcDbEllipse
 10
24.45609668121398
 20
-26.86887061248041
 30
0.0
 11
-9.98340815050372
 21
-8.362792596588488
 31
0.0
210
0.0
220
0.0
230
1.0
 40
0.068854266011015
 41
4.794402058728642
 42
5.266795234339332
  0
LINE
  5
3B0
330
1F
100
AcDbEntity
  8
LINE
100
AcDbLine
 10
23.06436567161342
 20
-26.86887061248036
 30
0.0
 11
30.16888034539835
 21
-20.84888892202538
 31
0.0
  0
ELLIPSE
  5
3B1
330
1F
100
AcDbEntity
  8
LINE
100
AcDbEllipse
 10
54.64220123185441
 20
0.0000000000000497
 30
0.0
 11
-38.12454153503431
 21
-31.42461150031551
 31
0.0
210
0.0
220
0.0
230
1.0
 40
0.0571292064902612
 41
0.0691988576506867
 42
0.2968983958509423
  0
LINE
  5
3B2
330
1F
100
AcDbEntity
  8
LINE
100
AcDbLine
 10
43.98880245938778
 20
11.12781418974849
 30
0.0
 11
37.50285044435569
 21
5.631969059082017
 31
0.0
  0
LINE
  5
3B3
330
1F
100
AcDbEntity
  8
LINE
100
AcDbLine
 10
43.98880245938818
 20
11.12781418974793
 30
0.0
 11
44.8948193466382
 21
11.89552392404038
 31
0.0
  0
LINE
  5
3B4
330
1F
100
AcDbEntity
  8
LINE
100
AcDbLine
 10
44.8948193466382
 20
-11.89552392404028
 30
0.0
 11
43.98880245938815
 21
-11.12781418974789
 31
0.0
  0
LINE
  5
3B5
330
1F
100
AcDbEntity
  8
LINE
100
AcDbLine
 10
43.98880245938903
 20
-11.12781418974806
 30
0.0
 11
39.0077868688123
 21
-6.907170833800001
 31
0.0
  0
LINE
  5
3B6
330
1F
100
AcDbEntity
  8
LINE
100
AcDbLine
 10
59.57134514437217
 20
-0.9194282474930517
 30
0.0
 11
46.61994428575917
 21
-11.78694393118435
 31
0.0
  0
LINE
  5
3B7
330
1F
100
AcDbEntity
  8
LINE
100
AcDbLine
 10
59.57134514437217
 20
0.9190784159924803
 30
0.0
 11
46.61994427287124
 21
11.78659409968357
 31
0.0
  0
ARC
  5
3B8
330
1F
100
AcDbEntity
  8
LINE
100
AcDbCircle
 10
58.80000001274834
 20
-0.0001749157502857
 30
0.0
 40
1.199999999999999
100
AcDbArc
 50
310.0000000000001
 51
49.99999999999991
  0
LINE
  5
3B9
330
1F
100
AcDbEntity
  8
LINE
100
AcDbLine
 10
39.09247066761432
 20
-6.880304362531696
 30
0.0
 11
27.10107482451841
 21
-10.68465060637934
 31
0.0
  0
ELLIPSE
  5
3BA
330
1F
100
AcDbEntity
  8
LINE
100
AcDbEllipse
 10
31.36963829980624
 20
-16.89529075459519
 30
0.0
 11
19.0728755485006
 21
8.090550947664289
 31
0.0
210
0.0
220
0.0
230
0.9999999999999999
 40
0.5380314721770967
 41
0.9535878831536871
 42
1.397378337844264
  0
ELLIPSE
  5
3BB
330
1F
100
AcDbEntity
  8
LINE
100
AcDbEllipse
 10
28.68429462541596
 20
14.10039095016929
 30
0.0
 11
20.18011706087014
 21
-4.689826407759829
 31
0.0
210
0.0
220
0.0
230
1.0
 40
0.5380314721771025
 41
4.885806969335333
 42
5.329597424025915
  0
LINE
  5
3BC
330
1F
100
AcDbEntity
  8
LINE
100
AcDbLine
 10
38.01444845968106
 20
5.562808057837877
 30
0.0
 11
25.54744550311108
 21
7.248175047478547
 31
0.0
  0
ARC
  5
3BD
330
1F
100
AcDbEntity
  8
LINE
100
AcDbCircle
 10
16.27574646552961
 20
3.433673930676854
 30
0.0
 40
3.0
100
AcDbArc
 50
94.95151679374804
 51
184.951516793748
  0
ELLIPSE
  5
3BE
330
1F
100
AcDbEntity
  8
LINE
100
AcDbEllipse
 10
16.49486736821311
 20
0.9044625603741494
 30
0.0
 11
-0.2989961023118088
 21
3.451173906195182
 31
0.0
210
0.0
220
0.0
230
0.9999999999999999
 40
0.8660254037844326
 41
6.091199089460232
 42
6.283185307179586
  0
ELLIPSE
  5
3BF
330
1F
100
AcDbEntity
  8
LINE
100
AcDbEllipse
 10
17.09237844378436
 20
-5.992331801592377
 30
0.0
 11
-0.2989961023118063
 21
3.451173906195152
 31
0.0
210
0.0
220
0.0
230
0.9999999999999999
 40
0.8660254037844398
 41
3.141592653589788
 42
3.333578871309176
  0
LINE
  5
3C0
330
1F
100
AcDbEntity
  8
LINE
100
AcDbLine
 10
14.32269507082489
 20
-8.780481392129566
 30
0.0
 11
13.28694218988662
 21
3.174735710442256
 31
0.0
  0
ARC
  5
3C1
330
1F
100
AcDbEntity
  8
LINE
100
AcDbCircle
 10
17.31149934646785
 20
-8.521543171895054
 30
0.0
 40
3.0
100
AcDbArc
 50
184.951516793748
 51
274.951516793748
  0
ELLIPSE
  5
3C2
330
1F
100
AcDbEntity
  8
LINE
100
AcDbEllipse
 10
17.24187649494021
 20
-7.717918754689953
 30
0.0
 11
2.988804275642979
 21
0.2589382202345558
 31
0.0
210
0.0
220
0.0
230
0.9999999999999999
 40
0.5773502691896275
 41
3.141592653589793
 42
4.712388980384692
  0
ELLIPSE
  5
3C3
330
1F
100
AcDbEntity
  8
LINE
100
AcDbEllipse
 10
16.34536931705719
 20
2.630049513471754
 30
0.0
 11
2.988804275642979
 21
0.2589382202345558
 31
0.0
210
0.0
220
0.0
230
0.9999999999999999
 40
0.5773502691896226
 41
1.570796326794901
 42
3.141592653589793
  0
ARC
  5
3C4
330
1F
100
AcDbEntity
  8
LINE
100
AcDbCircle
 10
23.76749954916568
 20
-1.93974544006182
 30
0.0
 40
2.75
100
AcDbArc
 50
94.95151679374804
 51
274.951516793748
  0
ARC
  5
3C5
330
1F
100
AcDbEntity
  8
LINE
100
AcDbCircle
 10
24.76376764104671
 20
-1.853432699983621
 30
0.0
 40
2.75
100
AcDbArc
 50
274.951516793748
 51
94.95151679374804
  0
ARC
  5
3C6
330
1F
100
AcDbEntity
  8
LINE
100
AcDbCircle
 10
24.76376764104671
 20
-1.853432699983621
 30
0.0
 40
4.500000000000014
100
AcDbArc
 50
274.951516793748
 51
94.95151679374804
  0
ARC
  5
3C7
330
1F
100
AcDbEntity
  8
LINE
100
AcDbCircle
 10
23.76749954916568
 20
-1.93974544006182
 30
0.0
 40
4.500000000000014
100
AcDbArc
 50
94.95151679374804
 51
274.951516793748
  0
LINE
  5
3C8
330
1F
100
AcDbEntity
  8
LINE
100
AcDbLine
 10
27.10107482451841
 20
-10.68465060637934
 30
0.0
 11
17.5704375667024
 21
-11.51034744753819
 31
0.0
  0
LINE
  5
3C9
330
1F
100
AcDbEntity
  8
LINE
100
AcDbLine
 10
30.37298462543353
 20
-5.391377733944672
 30
0.0
 11
17.95617188677105
 21
-9.330690181051303
 31
0.0
  0
LINE
  5
3CA
330
1F
100
AcDbEntity
  8
LINE
100
AcDbLine
 10
24.00485958438068
 20
-4.67948269273453
 30
0.0
 11
25.00112767626169
 21
-4.593169952656332
 31
0.0
  0
LINE
  5
3CB
330
1F
100
AcDbEntity
  8
LINE
100
AcDbLine
 10
24.15590687951749
 20
-6.422951853526321
 30
0.0
 11
25.15217497139849
 21
-6.336639113448093
 31
0.0
  0
LINE
  5
3CC
330
1F
100
AcDbEntity
  8
LINE
100
AcDbLine
 10
25.54744550311108
 20
7.248175047478547
 30
0.0
 11
16.01680824529504
 21
6.422478206319845
 31
0.0
  0
LINE
  5
3CD
330
1F
100
AcDbEntity
  8
LINE
100
AcDbLine
 10
29.68094829978864
 20
2.596477929518663
 30
0.0
 11
16.77165540765145
 21
4.341636423168119
 31
0.0
  0
LINE
  5
3CE
330
1F
100
AcDbEntity
  8
LINE
100
AcDbLine
 10
24.52640760583168
 20
0.88630455268909
 30
0.0
 11
23.53013951395067
 21
0.7999918126109478
 31
0.0
  0
LINE
  5
3CF
330
1F
100
AcDbEntity
  8
LINE
100
AcDbLine
 10
24.37536031069482
 20
2.629773713480823
 30
0.0
 11
23.37909221881387
 21
2.543460973402624
 31
0.0
  0
LINE
  5
3D0
330
1F
100
AcDbEntity
  8
LINE
100
AcDbLine
 10
44.51902275017815
 20
-2.661982884438379
 30
0.0
 11
46.7116200508008
 21
-1.546568328819609
 31
0.0
  0
ARC
  5
3D1
330
1F
100
AcDbEntity
  8
LINE
100
AcDbCircle
 10
43.69286138678552
 20
-0.2134906384980937
 30
0.0
 40
3.300000000000005
100
AcDbArc
 50
304.9515167937486
 51
336.1738442835759
  0
ARC
  5
3D2
330
1F
100
AcDbEntity
  8
LINE
100
AcDbCircle
 10
38.03292992161926
 20
19.28934682049898
 30
0.0
 40
23.14839113512868
100
AcDbArc
 50
272.0436888808194
 51
279.1876584588917
  0
LINE
  5
3D3
330
1F
100
AcDbEntity
  8
LINE
100
AcDbLine
 10
45.58337552279639
 20
-2.918293089980017
 30
0.0
 11
39.82247742661141
 21
-6.944856760457561
 31
0.0
  0
LINE
  5
3D4
330
1F
100
AcDbEntity
  8
LINE
100
AcDbLine
 10
39.82247742661141
 20
-6.944856760457561
 30
0.0
 11
39.21106167935781
 21
-6.960599010423159
 31
0.0
  0
ARC
  5
3D5
330
1F
100
AcDbEntity
  8
LINE
100
AcDbCircle
 10
43.69286138678552
 20
-0.2134906384980937
 30
0.0
 40
8.099999999999959
100
AcDbArc
 50
235.3926404080928
 51
235.6571435247964
  0
LINE
  5
3D6
330
1F
100
AcDbEntity
  8
LINE
100
AcDbLine
 10
39.21106167935778
 20
-6.960599010423046
 30
0.0
 11
39.12329659308776
 21
-6.90147072191619
 31
0.0
  0
ELLIPSE
  5
3D7
330
1F
100
AcDbEntity
  8
LINE
100
AcDbEllipse
 10
34.42265894259739
 20
14.19576672391615
 30
0.0
 11
-11.057601345872
 21
16.29022882023855
 31
0.0
210
0.0
220
0.0
230
0.9999999999999999
 40
0.6702254977800008
 41
2.839341028005367
 42
3.057067272604536
  0
ARC
  5
3D8
330
1F
100
AcDbEntity
  8
LINE
100
AcDbCircle
 10
41.48045091838898
 20
-20.52008314040794
 30
0.0
 40
23.26943699996322
100
AcDbArc
 50
90.73398024742227
 51
97.84073958786387
  0
LINE
  5
3D9
330
1F
100
AcDbEntity
  8
LINE
100
AcDbLine
 10
38.72247647730043
 20
5.75194611991278
 30
0.0
 11
45.09003195398191
 21
2.776143855241905
 31
0.0
  0
LINE
  5
3DA
330
1F
100
AcDbEntity
  8
LINE
100
AcDbLine
 10
38.11746331712001
 20
5.662301764639572
 30
0.0
 11
38.72247647730043
 21
5.751946119912837
 31
0.0
  0
LINE
  5
3DB
330
1F
100
AcDbEntity
  8
LINE
100
AcDbLine
 10
38.04117486859371
 20
5.588960524595727
 30
0.0
 11
38.11746331712013
 21
5.662301764639629
 31
0.0
  0
ARC
  5
3DC
330
1F
100
AcDbEntity
  8
LINE
100
AcDbCircle
 10
43.69286138678552
 20
-0.2134906384980937
 30
0.0
 40
8.100000000000025
100
AcDbArc
 50
134.2458900627023
 51
134.5103931794052
  0
LINE
  5
3DD
330
1F
100
AcDbEntity
  8
LINE
100
AcDbLine
 10
44.08561835311872
 20
2.340603886414634
 30
0.0
 11
46.43737683844165
 21
1.618894401721654
 31
0.0
  0
ELLIPSE
  5
3DE
330
1F
100
AcDbEntity
  8
LINE
100
AcDbEllipse
 10
37.03890510695865
 20
-16.0023543379121
 30
0.0
 11
8.091231497259205
 21
17.9492082108856
 31
0.0
210
0.0
220
0.0
230
1.0
 40
0.6702254977799984
 41
0.0845253809852597
 42
0.30225162558443
  0
ARC
  5
3DF
330
1F
100
AcDbEntity
  8
LINE
100
AcDbCircle
 10
43.69286138678552
 20
-0.2134906384980937
 30
0.0
 40
3.300000000000025
100
AcDbArc
 50
336.1738442835759
 51
33.7291893039243
  0
ARC
  5
3E0
330
1F
100
AcDbEntity
  8
LINE
100
AcDbCircle
 10
43.69286138678552
 20
-0.2134906384980937
 30
0.0
 40
3.300000000000032
100
AcDbArc
 50
33.7291893039243
 51
64.95151679374975
  0
LINE
  5
3E2
330
1F
100
AcDbEntity
  8
LINE
100
AcDbLine
 10
15.45239938912906
 20
-11.68501145655239
 30
0.0
 11
15.37698041371527
 21
-10.81449683449311
 31
0.0
  0
ENDSEC
  0
SECTION
  2
OBJECTS
  0
DICTIONARY
  5
C
330
0
100
AcDbDictionary
281
     1
  3
ACAD_COLOR
350
6C
  3
ACAD_GROUP
350
D
  3
ACAD_LAYOUT
350
1A
  3
ACAD_MATERIAL
350
6B
  3
ACAD_MLEADERSTYLE
350
275
  3
ACAD_MLINESTYLE
350
17
  3
ACAD_PLOTSETTINGS
350
19
  3
ACAD_PLOTSTYLENAME
350
E
  3
ACAD_SCALELIST
350
99
  3
ACAD_TABLESTYLE
350
92
  3
ACDBHEADERROUNDTRIPXREC
350
450
  3
AcDbVariableDictionary
350
59
  3
DWGPROPS
350
453
  0
DICTIONARY
  5
44F
330
1F
100
AcDbDictionary
280
     1
281
     1
  0
DICTIONARY
  5
6C
102
{ACAD_REACTORS
330
C
102
}
330
C
100
AcDbDictionary
281
     1
  0
DICTIONARY
  5
D
102
{ACAD_REACTORS
330
C
102
}
330
C
100
AcDbDictionary
281
     1
  0
DICTIONARY
  5
1A
102
{ACAD_REACTORS
330
C
102
}
330
C
100
AcDbDictionary
281
     1
  3
Layout1
350
74
  3
Layout2
350
BF
  3
Model
350
22
  0
DICTIONARY
  5
6B
102
{ACAD_REACTORS
330
C
102
}
330
C
100
AcDbDictionary
281
     1
  0
DICTIONARY
  5
275
102
{ACAD_REACTORS
330
C
102
}
330
C
100
AcDbDictionary
281
     1
  0
DICTIONARY
  5
17
102
{ACAD_REACTORS
330
C
102
}
330
C
100
AcDbDictionary
281
     1
  3
Standard
350
18
  0
DICTIONARY
  5
19
102
{ACAD_REACTORS
330
C
102
}
330
C
100
AcDbDictionary
281
     1
  0
ACDBDICTIONARYWDFLT
  5
E
102
{ACAD_REACTORS
330
C
102
}
330
C
100
AcDbDictionary
281
     1
  3
Normal
350
F
100
AcDbDictionaryWithDefault
340
F
  0
DICTIONARY
  5
99
102
{ACAD_REACTORS
330
C
102
}
330
C
100
AcDbDictionary
281
     1
  3
A0
350
239
  3
A1
350
23A
  3
A2
350
23B
  3
A3
350
23C
  3
A4
350
23D
  3
A5
350
23E
  3
A6
350
23F
  3
A7
350
240
  3
A8
350
241
  3
A9
350
242
  3
B0
350
243
  3
B1
350
244
  3
B2
350
245
  3
B3
350
246
  3
B4
350
247
  3
B5
350
248
  3
B6
350
249
  3
B7
350
24A
  3
B8
350
24B
  3
B9
350
24C
  3
C0
350
24D
  3
C1
350
24E
  3
C2
350
24F
  3
C3
350
250
  3
C4
350
251
  3
C5
350
252
  3
C6
350
253
  3
C7
350
254
  3
C8
350
255
  3
C9
350
256
  3
D0
350
257
  3
D1
350
258
  3
D2
350
259
  0
DICTIONARY
  5
92
102
{ACAD_REACTORS
330
C
102
}
330
C
100
AcDbDictionary
281
     1
  0
DICTIONARY
  5
450
102
{ACAD_REACTORS
330
C
102
}
330
C
100
AcDbDictionary
281
     1
  3
COLORDICT
350
451
  3
MATERIALDICT
350
452
  0
DICTIONARY
  5
59
102
{ACAD_REACTORS
330
C
102
}
330
C
100
AcDbDictionary
281
     1
  3
CTABLESTYLE
350
98
  3
DIMASSOC
350
237
  3
HIDETEXT
350
238
  0
XRECORD
  5
453
102
{ACAD_REACTORS
330
C
102
}
330
C
100
AcDbXrecord
280
     1
  1
DWGPROPS COOKIE
  2

  3

  4

  6

  7

  8
Ryan
  9

300
=
301
=
302
=
303
=
304
=
305
=
306
=
307
=
308
=
309
=
 40
0.0
 41
2453353.717125822
 42
2455009.878040776
  1

 90
        0
  0
LAYOUT
  5
74
102
{ACAD_REACTORS
330
1A
102
}
330
1A
100
AcDbPlotSettings
  1

  2
\\ADSCCNDC1\hq601xrx1
  4

  6

 40
0.0
 41
0.0
 42
0.0
 43
0.0
 44
0.0
 45
0.0
 46
0.0
 47
0.0
 48
0.0
 49
0.0
140
0.0
141
0.0
142
1.0
143
1.0
 70
   688
 72
     0
 73
     0
 74
     5
  7

 75
    16
147
1.0
148
0.0
149
0.0
100
AcDbLayout
  1
Layout1
 70
     1
 71
     1
 10
0.0
 20
0.0
 11
12.0
 21
9.0
 12
0.0
 22
0.0
 32
0.0
 14
0.0
 24
0.0
 34
0.0
 15
0.0
 25
0.0
 35
0.0
146
0.0
 13
0.0
 23
0.0
 33
0.0
 16
1.0
 26
0.0
 36
0.0
 17
0.0
 27
1.0
 37
0.0
 76
     0
330
73
  0
LAYOUT
  5
BF
102
{ACAD_REACTORS
330
1A
102
}
330
1A
100
AcDbPlotSettings
  1

  2
none_device
  4
ISO_C5_(229.00_x_162.00_MM)
  6

 40
0.0
 41
0.0
 42
0.0
 43
0.0
 44
229.0
 45
162.0
 46
0.0
 47
0.0
 48
0.0
 49
0.0
140
0.0
141
0.0
142
1.0
143
1.0
 70
   544
 72
     1
 73
     0
 74
     5
  7

 75
    16
147
1.0
148
0.0
149
0.0
100
AcDbLayout
  1
Layout2
 70
     1
 71
     2
 10
0.0
 20
0.0
 11
12.0
 21
9.0
 12
0.0
 22
0.0
 32
0.0
 14
1.000000000000000E+20
 24
1.000000000000000E+20
 34
1.000000000000000E+20
 15
-1.000000000000000E+20
 25
-1.000000000000000E+20
 35
-1.000000000000000E+20
146
0.0
 13
0.0
 23
0.0
 33
0.0
 16
1.0
 26
0.0
 36
0.0
 17
0.0
 27
1.0
 37
0.0
 76
     0
330
BE
  0
LAYOUT
  5
22
102
{ACAD_REACTORS
330
1A
102
}
330
1A
100
AcDbPlotSettings
  1

  2
none_device
  4
Sun_Hi-Res_(1280.00_x_1600.00_Pixels)
  6

 40
6.349999904632568
 41
6.349999904632568
 42
6.350006103515625
 43
6.350006103515625
 44
1280.0
 45
1600.0
 46
0.0
 47
0.0
 48
0.0
 49
0.0
140
0.0
141
0.0
142
1.0
143
0.0964820585664336
 70
 11952
 72
     2
 73
     1
 74
     0
  7

 75
     0
147
0.28088241027059
148
0.1311165230791651
149
0.096403374003771
100
AcDbLayout
  1
Model
 70
     1
 71
     0
 10
0.0
 20
0.0
 11
12.0
 21
9.0
 12
0.0
 22
0.0
 32
0.0
 14
-41.15656164008964
 24
-42.99999999999998
 34
0.0
 15
86.86204999991962
 25
31.50000000000005
 35
0.0
146
0.0
 13
0.0
 23
0.0
 33
0.0
 16
1.0
 26
0.0
 36
0.0
 17
0.0
 27
1.0
 37
0.0
 76
     0
330
1F
331
97
  0
MLINESTYLE
  5
18
102
{ACAD_REACTORS
330
17
102
}
330
17
100
AcDbMlineStyle
  2
Standard
 70
     0
  3

 62
   256
 51
90.0
 52
90.0
 71
     2
 49
0.5
 62
   256
  6
BYLAYER
 49
-0.5
 62
   256
  6
BYLAYER
  0
ACDBPLACEHOLDER
  5
F
102
{ACAD_REACTORS
330
E
102
}
330
E
  0
SCALE
  5
239
102
{ACAD_REACTORS
330
99
102
}
330
99
100
AcDbScale
 70
     0
300
1:1
140
1.0
141
1.0
290
     1
  0
SCALE
  5
23A
102
{ACAD_REACTORS
330
99
102
}
330
99
100
AcDbScale
 70
     0
300
1:2
140
1.0
141
2.0
290
     1
  0
SCALE
  5
23B
102
{ACAD_REACTORS
330
99
102
}
330
99
100
AcDbScale
 70
     0
300
1:4
140
1.0
141
4.0
290
     1
  0
SCALE
  5
23C
102
{ACAD_REACTORS
330
99
102
}
330
99
100
AcDbScale
 70
     0
300
1:5
140
1.0
141
5.0
290
     1
  0
SCALE
  5
23D
102
{ACAD_REACTORS
330
99
102
}
330
99
100
AcDbScale
 70
     0
300
1:8
140
1.0
141
8.0
290
     1
  0
SCALE
  5
23E
102
{ACAD_REACTORS
330
99
102
}
330
99
100
AcDbScale
 70
     0
300
1:10
140
1.0
141
10.0
290
     1
  0
SCALE
  5
23F
102
{ACAD_REACTORS
330
99
102
}
330
99
100
AcDbScale
 70
     0
300
1:16
140
1.0
141
16.0
290
     1
  0
SCALE
  5
240
102
{ACAD_REACTORS
330
99
102
}
330
99
100
AcDbScale
 70
     0
300
1:20
140
1.0
141
20.0
290
     1
  0
SCALE
  5
241
102
{ACAD_REACTORS
330
99
102
}
330
99
100
AcDbScale
 70
     0
300
1:30
140
1.0
141
30.0
290
     1
  0
SCALE
  5
242
102
{ACAD_REACTORS
330
99
102
}
330
99
100
AcDbScale
 70
     0
300
1:40
140
1.0
141
40.0
290
     1
  0
SCALE
  5
243
102
{ACAD_REACTORS
330
99
102
}
330
99
100
AcDbScale
 70
     0
300
1:50
140
1.0
141
50.0
290
     1
  0
SCALE
  5
244
102
{ACAD_REACTORS
330
99
102
}
330
99
100
AcDbScale
 70
     0
300
1:100
140
1.0
141
100.0
290
     1
  0
SCALE
  5
245
102
{ACAD_REACTORS
330
99
102
}
330
99
100
AcDbScale
 70
     0
300
2:1
140
2.0
141
1.0
290
     1
  0
SCALE
  5
246
102
{ACAD_REACTORS
330
99
102
}
330
99
100
AcDbScale
 70
     0
300
4:1
140
4.0
141
1.0
290
     1
  0
SCALE
  5
247
102
{ACAD_REACTORS
330
99
102
}
330
99
100
AcDbScale
 70
     0
300
8:1
140
8.0
141
1.0
290
     1
  0
SCALE
  5
248
102
{ACAD_REACTORS
330
99
102
}
330
99
100
AcDbScale
 70
     0
300
10:1
140
10.0
141
1.0
290
     1
  0
SCALE
  5
249
102
{ACAD_REACTORS
330
99
102
}
330
99
100
AcDbScale
 70
     0
300
100:1
140
100.0
141
1.0
290
     1
  0
SCALE
  5
24A
102
{ACAD_REACTORS
330
99
102
}
330
99
100
AcDbScale
 70
     0
300
1/128" = 1'-0"
140
0.0078125
141
12.0
290
     1
  0
SCALE
  5
24B
102
{ACAD_REACTORS
330
99
102
}
330
99
100
AcDbScale
 70
     0
300
1/64" = 1'-0"
140
0.015625
141
12.0
290
     1
  0
SCALE
  5
24C
102
{ACAD_REACTORS
330
99
102
}
330
99
100
AcDbScale
 70
     0
300
1/32" = 1'-0"
140
0.03125
141
12.0
290
     1
  0
SCALE
  5
24D
102
{ACAD_REACTORS
330
99
102
}
330
99
100
AcDbScale
 70
     0
300
1/16" = 1'-0"
140
0.0625
141
12.0
290
     1
  0
SCALE
  5
24E
102
{ACAD_REACTORS
330
99
102
}
330
99
100
AcDbScale
 70
     0
300
3/32" = 1'-0"
140
0.09375
141
12.0
290
     1
  0
SCALE
  5
24F
102
{ACAD_REACTORS
330
99
102
}
330
99
100
AcDbScale
 70
     0
300
1/8" = 1'-0"
140
0.125
141
12.0
290
     1
  0
SCALE
  5
250
102
{ACAD_REACTORS
330
99
102
}
330
99
100
AcDbScale
 70
     0
300
3/16" = 1'-0"
140
0.1875
141
12.0
290
     1
  0
SCALE
  5
251
102
{ACAD_REACTORS
330
99
102
}
330
99
100
AcDbScale
 70
     0
300
1/4" = 1'-0"
140
0.25
141
12.0
290
     1
  0
SCALE
  5
252
102
{ACAD_REACTORS
330
99
102
}
330
99
100
AcDbScale
 70
     0
300
3/8" = 1'-0"
140
0.375
141
12.0
290
     1
  0
SCALE
  5
253
102
{ACAD_REACTORS
330
99
102
}
330
99
100
AcDbScale
 70
     0
300
1/2" = 1'-0"
140
0.5
141
12.0
290
     1
  0
SCALE
  5
254
102
{ACAD_REACTORS
330
99
102
}
330
99
100
AcDbScale
 70
     0
300
3/4" = 1'-0"
140
0.75
141
12.0
290
     1
  0
SCALE
  5
255
102
{ACAD_REACTORS
330
99
102
}
330
99
100
AcDbScale
 70
     0
300
1" = 1'-0"
140
1.0
141
12.0
290
     1
  0
SCALE
  5
256
102
{ACAD_REACTORS
330
99
102
}
330
99
100
AcDbScale
 70
     0
300
1-1/2" = 1'-0"
140
1.5
141
12.0
290
     1
  0
SCALE
  5
257
102
{ACAD_REACTORS
330
99
102
}
330
99
100
AcDbScale
 70
     0
300
3" = 1'-0"
140
3.0
141
12.0
290
     1
  0
SCALE
  5
258
102
{ACAD_REACTORS
330
99
102
}
330
99
100
AcDbScale
 70
     0
300
6" = 1'-0"
140
6.0
141
12.0
290
     1
  0
SCALE
  5
259
102
{ACAD_REACTORS
330
99
102
}
330
99
100
AcDbScale
 70
     0
300
1'-0" = 1'-0"
140
12.0
141
12.0
290
     1
  0
XRECORD
  5
451
102
{ACAD_REACTORS
330
450
102
}
330
450
100
AcDbXrecord
280
     1
340
6C
  0
XRECORD
  5
452
102
{ACAD_REACTORS
330
450
102
}
330
450
100
AcDbXrecord
280
     1
340
6B
  0
DICTIONARYVAR
  5
98
102
{ACAD_REACTORS
330
59
102
}
330
59
100
DictionaryVariables
280
     0
  1
Standard
  0
DICTIONARYVAR
  5
237
102
{ACAD_REACTORS
330
59
102
}
330
59
100
DictionaryVariables
280
     0
  1
2
  0
DICTIONARYVAR
  5
238
102
{ACAD_REACTORS
330
59
102
}
330
59
100
DictionaryVariables
280
     0
  1
1
  0
ENDSEC
  0
EOF
