  0
SECTION
  2
HEADER
  9
$ACADVER
  1
AC1014
  9
$ACADMAINTVER
 70
     9
  9
$DWGCODEPAGE
  3
ANSI_932
  9
$INSBASE
 10
0.0
 20
0.0
 30
0.0
  9
$EXTMIN
 10
-83.35453835997727
 20
-25.00000000000054
 30
0.0
  9
$EXTMAX
 10
15.00000047690929
 20
54.00000000000002
 30
0.0
  9
$LIMMIN
 10
0.0
 20
0.0
  9
$LIMMAX
 10
297.0
 20
210.0
  9
$ORTHOMODE
 70
     0
  9
$REGENMODE
 70
     1
  9
$FILLMODE
 70
     1
  9
$QTEXTMODE
 70
     0
  9
$MIRRTEXT
 70
     1
  9
$DRAGMODE
 70
     2
  9
$LTSCALE
 40
10.0
  9
$OSMODE
 70
   613
  9
$ATTMODE
 70
     1
  9
$TEXTSIZE
 40
3.0
  9
$TRACEWID
 40
1.0
  9
$TEXTSTYLE
  7
YOKO
  9
$CLAYER
  8
240
  9
$CELTYPE
  6
BYLAYER
  9
$CECOLOR
 62
   256
  9
$CELTSCALE
 40
1.0
  9
$DELOBJ
 70
     1
  9
$DISPSILH
 70
     0
  9
$DIMSCALE
 40
1.0
  9
$DIMASZ
 40
2.229999999999999
  9
$DIMEXO
 40
0.5
  9
$DIMDLI
 40
2.5
  9
$DIMRND
 40
0.0
  9
$DIMDLE
 40
0.0
  9
$DIMEXE
 40
1.0
  9
$DIMTP
 40
0.0
  9
$DIMTM
 40
0.0
  9
$DIMTXT
 40
3.0
  9
$DIMCEN
 40
0.0
  9
$DIMTSZ
 40
0.0
  9
$DIMTOL
 70
     0
  9
$DIMLIM
 70
     0
  9
$DIMTIH
 70
     0
  9
$DIMTOH
 70
     0
  9
$DIMSE1
 70
     0
  9
$DIMSE2
 70
     0
  9
$DIMTAD
 70
     3
  9
$DIMZIN
 70
     8
  9
$DIMBLK
  1
OPEN
  9
$DIMASO
 70
     1
  9
$DIMSHO
 70
     1
  9
$DIMPOST
  1

  9
$DIMAPOST
  1

  9
$DIMALT
 70
     0
  9
$DIMALTD
 70
     2
  9
$DIMALTF
 40
25.4
  9
$DIMLFAC
 40
1.0
  9
$DIMTOFL
 70
     1
  9
$DIMTVP
 40
0.0
  9
$DIMTIX
 70
     0
  9
$DIMSOXD
 70
     0
  9
$DIMSAH
 70
     0
  9
$DIMBLK1
  1

  9
$DIMBLK2
  1

  9
$DIMSTYLE
  2
BIGT
  9
$DIMCLRD
 70
   256
  9
$DIMCLRE
 70
   256
  9
$DIMCLRT
 70
    40
  9
$DIMTFAC
 40
1.0
  9
$DIMGAP
 40
1.0
  9
$DIMJUST
 70
     0
  9
$DIMSD1
 70
     0
  9
$DIMSD2
 70
     0
  9
$DIMTOLJ
 70
     1
  9
$DIMTZIN
 70
     8
  9
$DIMALTZ
 70
     0
  9
$DIMALTTZ
 70
     0
  9
$DIMFIT
 70
     2
  9
$DIMUPT
 70
     0
  9
$DIMUNIT
 70
     2
  9
$DIMDEC
 70
     3
  9
$DIMTDEC
 70
     3
  9
$DIMALTU
 70
     2
  9
$DIMALTTD
 70
     2
  9
$DIMTXSTY
  7
STANDARD
  9
$DIMAUNIT
 70
     0
  9
$LUNITS
 70
     2
  9
$LUPREC
 70
     3
  9
$SKETCHINC
 40
1.0
  9
$FILLETRAD
 40
0.0
  9
$AUNITS
 70
     0
  9
$AUPREC
 70
     3
  9
$MENU
  1
.
  9
$ELEVATION
 40
0.0
  9
$PELEVATION
 40
0.0
  9
$THICKNESS
 40
0.0
  9
$LIMCHECK
 70
     0
  9
$BLIPMODE
 70
     0
  9
$CHAMFERA
 40
10.0
  9
$CHAMFERB
 40
10.0
  9
$CHAMFERC
 40
0.0
  9
$CHAMFERD
 40
0.0
  9
$SKPOLY
 70
     0
  9
$TDCREATE
 40
2452510.552599826
  9
$TDUPDATE
 40
2452516.379270648
  9
$TDINDWG
 40
0.0124113889
  9
$TDUSRTIMER
 40
0.0124113889
  9
$USRTIMER
 70
     1
  9
$ANGBASE
 50
0.0
  9
$ANGDIR
 70
     0
  9
$PDMODE
 70
    35
  9
$PDSIZE
 40
2.0
  9
$PLINEWID
 40
0.0
  9
$COORDS
 70
     0
  9
$SPLFRAME
 70
     0
  9
$SPLINETYPE
 70
     6
  9
$SPLINESEGS
 70
     8
  9
$ATTDIA
 70
     0
  9
$ATTREQ
 70
     0
  9
$HANDLING
 70
-16383
  9
$HANDSEED
  5
D29
  9
$SURFTAB1
 70
     6
  9
$SURFTAB2
 70
     6
  9
$SURFTYPE
 70
     6
  9
$SURFU
 70
     6
  9
$SURFV
 70
     6
  9
$UCSNAME
  2

  9
$UCSORG
 10
0.0
 20
0.0
 30
0.0
  9
$UCSXDIR
 10
1.0
 20
0.0
 30
0.0
  9
$UCSYDIR
 10
0.0
 20
1.0
 30
0.0
  9
$PUCSNAME
  2

  9
$PUCSORG
 10
0.0
 20
0.0
 30
0.0
  9
$PUCSXDIR
 10
1.0
 20
0.0
 30
0.0
  9
$PUCSYDIR
 10
0.0
 20
1.0
 30
0.0
  9
$USERI1
 70
     1
  9
$USERI2
 70
     0
  9
$USERI3
 70
     0
  9
$USERI4
 70
     0
  9
$USERI5
 70
     0
  9
$USERR1
 40
0.0
  9
$USERR2
 40
0.0
  9
$USERR3
 40
0.0
  9
$USERR4
 40
0.0
  9
$USERR5
 40
0.0
  9
$WORLDVIEW
 70
     1
  9
$SHADEDGE
 70
     3
  9
$SHADEDIF
 70
    70
  9
$TILEMODE
 70
     1
  9
$MAXACTVP
 70
    16
  9
$PINSBASE
 10
0.0
 20
0.0
 30
0.0
  9
$PLIMCHECK
 70
     0
  9
$PEXTMIN
 10
1.000000000000000E+20
 20
1.000000000000000E+20
 30
1.000000000000000E+20
  9
$PEXTMAX
 10
-1.000000000000000E+20
 20
-1.000000000000000E+20
 30
-1.000000000000000E+20
  9
$PLIMMIN
 10
0.0
 20
0.0
  9
$PLIMMAX
 10
420.0
 20
297.0
  9
$UNITMODE
 70
     0
  9
$VISRETAIN
 70
     0
  9
$PLINEGEN
 70
     0
  9
$PSLTSCALE
 70
     1
  9
$TREEDEPTH
 70
  3020
  9
$PICKSTYLE
 70
     0
  9
$CMLSTYLE
  2
STANDARD
  9
$CMLJUST
 70
     0
  9
$CMLSCALE
 40
1.0
  9
$PROXYGRAPHICS
 70
     1
  9
$MEASUREMENT
 70
     1
  0
ENDSEC
  0
SECTION
  2
CLASSES
  0
CLASS
  1
XRECORD
  2
AcDbXrecord
  3
AutoCAD 2000
 90
        0
280
     0
281
     0
  0
CLASS
  1
ACDBDICTIONARYWDFLT
  2
AcDbDictionaryWithDefault
  3
AutoCAD 2000
 90
        0
280
     0
281
     0
  0
CLASS
  1
ACDBPLACEHOLDER
  2
AcDbPlaceHolder
  3
AutoCAD 2000
 90
        0
280
     0
281
     0
  0
CLASS
  1
LAYOUT
  2
AcDbLayout
  3
AutoCAD 2000
 90
        0
280
     0
281
     0
  0
CLASS
  1
DICTIONARYVAR
  2
AcDbDictionaryVar
  3
AutoCAD 2000
 90
        0
280
     0
281
     0
  0
CLASS
  1
LONG_TRANSACTION
  2
AcDbLongTransaction
  3
AutoCAD 2000
 90
        0
280
     0
281
     0
  0
CLASS
  1
LWPOLYLINE
  2
AcDbPolyline
  3
AutoCAD 2000
 90
        0
280
     0
281
     1
  0
CLASS
  1
HATCH
  2
AcDbHatch
  3
AutoCAD 2000
 90
        0
280
     0
281
     1
  0
CLASS
  1
XRECORD
  2
AcDbXrecord
  3
AutoCAD 2000
 90
        0
280
     0
281
     0
  0
ENDSEC
  0
SECTION
  2
TABLES
  0
TABLE
  2
VPORT
  5
8
330
0
100
AcDbSymbolTable
 70
     2
  0
VPORT
  5
D03
330
8
100
AcDbSymbolTableRecord
100
AcDbViewportTableRecord
  2
*ACTIVE
 70
     0
 10
0.0
 20
0.0
 11
1.0
 21
1.0
 12
-34.17936668633256
 22
14.49955032206975
 13
0.0
 23
0.0
 14
7.0
 24
7.0
 15
7.0
 25
7.0
 16
0.0
 26
0.0
 36
1.0
 17
0.0
 27
0.0
 37
0.0
 40
79.63949106528424
 41
1.53185955786736
 42
50.0
 43
0.0
 44
0.0
 50
0.0
 51
0.0
 71
     0
 72
  2000
 73
     1
 74
     0
 75
     0
 76
     0
 77
     0
 78
     0
  0
ENDTAB
  0
TABLE
  2
LTYPE
  5
5
330
0
100
AcDbSymbolTable
 70
     3
  0
LTYPE
  5
14
330
5
100
AcDbSymbolTableRecord
100
AcDbLinetypeTableRecord
  2
BYBLOCK
 70
     0
  3

 72
    65
 73
     0
 40
0.0
  0
LTYPE
  5
15
330
5
100
AcDbSymbolTableRecord
100
AcDbLinetypeTableRecord
  2
BYLAYER
 70
     0
  3

 72
    65
 73
     0
 40
0.0
  0
LTYPE
  5
16
330
5
100
AcDbSymbolTableRecord
100
AcDbLinetypeTableRecord
  2
CONTINUOUS
 70
     0
  3
Solid line
 72
    65
 73
     0
 40
0.0
  0
LTYPE
  5
258
330
5
100
AcDbSymbolTableRecord
100
AcDbLinetypeTableRecord
  2
CENTER2
 70
     0
  3
___ _ ___ _ ___ _ ___ _ ___ _ ___ _ ___ _ ___ _
 72
    65
 73
     4
 40
1.125
 49
0.75
 74
     0
 49
-0.125
 74
     0
 49
0.125
 74
     0
 49
-0.125
 74
     0
  0
LTYPE
  5
25D
330
5
100
AcDbSymbolTableRecord
100
AcDbLinetypeTableRecord
  2
PHANTOM2
 70
     0
  3
___ _ _ ___ _ _ ___ _ _ ___ _ _ ___ _ _ ___ _ _
 72
    65
 73
     6
 40
1.25
 49
0.625
 74
     0
 49
-0.125
 74
     0
 49
0.125
 74
     0
 49
-0.125
 74
     0
 49
0.125
 74
     0
 49
-0.125
 74
     0
  0
ENDTAB
  0
TABLE
  2
LAYER
  5
2
330
0
100
AcDbSymbolTable
 70
     8
  0
LAYER
  5
F
330
2
100
AcDbSymbolTableRecord
100
AcDbLayerTableRecord
  2
0
 70
     0
 62
     7
  6
CONTINUOUS
  0
LAYER
  5
1AA
330
2
100
AcDbSymbolTableRecord
100
AcDbLayerTableRecord
  2
240
 70
     0
 62
     4
  6
CONTINUOUS
  0
LAYER
  5
1AB
330
2
100
AcDbSymbolTableRecord
100
AcDbLayerTableRecord
  2
241
 70
     0
 62
   211
  6
CONTINUOUS
  0
LAYER
  5
1AF
330
2
100
AcDbSymbolTableRecord
100
AcDbLayerTableRecord
  2
245
 70
     0
 62
     2
  6
CENTER2
  0
LAYER
  5
21A
330
2
100
AcDbSymbolTableRecord
100
AcDbLayerTableRecord
  2
246
 70
     0
 62
     3
  6
PHANTOM2
  0
LAYER
  5
21B
330
2
100
AcDbSymbolTableRecord
100
AcDbLayerTableRecord
  2
247
 70
     0
 62
    60
  6
CONTINUOUS
  0
LAYER
  5
21E
330
2
100
AcDbSymbolTableRecord
100
AcDbLayerTableRecord
  2
250
 70
     0
 62
     3
  6
CONTINUOUS
  0
LAYER
  5
5C4
330
2
100
AcDbSymbolTableRecord
100
AcDbLayerTableRecord
  2
DEFPOINTS
 70
     0
 62
     7
  6
CONTINUOUS
  0
ENDTAB
  0
TABLE
  2
STYLE
  5
3
330
0
100
AcDbSymbolTable
 70
     2
  0
STYLE
  5
10
330
3
100
AcDbSymbolTableRecord
100
AcDbTextStyleTableRecord
  2
STANDARD
 70
     0
 40
0.0
 41
1.0
 50
0.0
 71
     0
 42
3.0
  3
romans.shx
  4
BIGFONT.SHX
  0
STYLE
  5
339
330
3
100
AcDbSymbolTableRecord
100
AcDbTextStyleTableRecord
  2
YOKO
 70
     0
 40
0.0
 41
1.0
 50
0.0
 71
     0
 42
3.0
  3
romans.shx
  4
extfont.shx
  0
ENDTAB
  0
TABLE
  2
VIEW
  5
6
330
0
100
AcDbSymbolTable
 70
     0
  0
ENDTAB
  0
TABLE
  2
UCS
  5
7
330
0
100
AcDbSymbolTable
 70
     0
  0
ENDTAB
  0
TABLE
  2
APPID
  5
9
330
0
100
AcDbSymbolTable
 70
     8
  0
APPID
  5
11
330
9
100
AcDbSymbolTableRecord
100
AcDbRegAppTableRecord
  2
ACAD
 70
     0
  0
APPID
  5
1B1
330
9
100
AcDbSymbolTableRecord
100
AcDbRegAppTableRecord
  2
GLOBAL
 70
     0
  0
APPID
  5
2A4
330
9
100
AcDbSymbolTableRecord
100
AcDbRegAppTableRecord
  2
DETAIL
 70
     0
  0
APPID
  5
5FD
330
9
100
AcDbSymbolTableRecord
100
AcDbRegAppTableRecord
  2
GRPNAME
 70
     0
  0
APPID
  5
5FE
330
9
100
AcDbSymbolTableRecord
100
AcDbRegAppTableRecord
  2
GPARA
 70
     0
  0
APPID
  5
92B
330
9
100
AcDbSymbolTableRecord
100
AcDbRegAppTableRecord
  2
HATCH_TYPE
 70
     0
  0
APPID
  5
92C
330
9
100
AcDbSymbolTableRecord
100
AcDbRegAppTableRecord
  2
HATCH_DISPLAY
 70
     0
  0
APPID
  5
92D
330
9
100
AcDbSymbolTableRecord
100
AcDbRegAppTableRecord
  2
HATCH_DISTANCE
 70
     0
  0
ENDTAB
  0
TABLE
  2
DIMSTYLE
  5
A
330
0
100
AcDbSymbolTable
 70
     2
  0
DIMSTYLE
105
48F
330
A
100
AcDbSymbolTableRecord
100
AcDbDimStyleTableRecord
  2
STANDARD
 70
     0
  3

  4

  5

  6

  7

 40
1.0
 41
2.0
 42
2.0
 43
3.75
 44
2.0
 45
0.0
 46
0.0
 47
0.0
 48
0.0
140
4.0
141
0.09
142
0.0
143
25.4
144
1.0
145
0.0
146
1.0
147
1.0
 71
     0
 72
     0
 73
     1
 74
     1
 75
     0
 76
     0
 77
     0
 78
     8
170
     0
171
     2
172
     0
173
     1
174
     0
175
     0
176
   256
177
   256
178
   256
270
     2
271
     3
272
     4
273
     2
274
     2
340
10
275
     0
280
     0
281
     0
282
     0
283
     1
284
     8
285
     0
286
     0
287
     3
288
     0
  0
DIMSTYLE
105
59A
102
{ACAD_REACTORS
330
A02
330
A11
102
}
330
A
100
AcDbSymbolTableRecord
100
AcDbDimStyleTableRecord
  2
BIGT
 70
     0
  3

  4

  5
OPEN
  6

  7

 40
1.0
 41
2.229999999999999
 42
0.5
 43
2.5
 44
1.0
 45
0.0
 46
0.0
 47
0.0
 48
0.0
140
3.5
141
0.0
142
0.0
143
25.4
144
1.0
145
0.0
146
1.0
147
1.0
 71
     0
 72
     0
 73
     0
 74
     0
 75
     0
 76
     0
 77
     3
 78
     9
170
     0
171
     2
172
     1
173
     0
174
     0
175
     0
176
   256
177
   256
178
    40
270
     2
271
     3
272
     3
273
     2
274
     2
340
10
275
     0
280
     0
281
     0
282
     0
283
     1
284
     8
285
     0
286
     0
287
     2
288
     0
  0
ENDTAB
  0
TABLE
  2
BLOCK_RECORD
  5
1
330
0
100
AcDbSymbolTable
 70
     7
  0
BLOCK_RECORD
  5
1A
102
{ACAD_XDICTIONARY
360
D27
102
}
330
1
100
AcDbSymbolTableRecord
100
AcDbBlockTableRecord
  2
*MODEL_SPACE
  0
BLOCK_RECORD
  5
17
102
{ACAD_XDICTIONARY
360
D25
102
}
330
1
100
AcDbSymbolTableRecord
100
AcDbBlockTableRecord
  2
*PAPER_SPACE
  0
BLOCK_RECORD
  5
594
330
1
100
AcDbSymbolTableRecord
100
AcDbBlockTableRecord
  2
_OPEN
  0
BLOCK_RECORD
  5
A03
330
1
100
AcDbSymbolTableRecord
100
AcDbBlockTableRecord
  2
*D1
  0
BLOCK_RECORD
  5
A12
330
1
100
AcDbSymbolTableRecord
100
AcDbBlockTableRecord
  2
*D2
  0
BLOCK_RECORD
  5
C04
330
1
100
AcDbSymbolTableRecord
100
AcDbBlockTableRecord
  2
*X3
  0
BLOCK_RECORD
  5
C34
330
1
100
AcDbSymbolTableRecord
100
AcDbBlockTableRecord
  2
*X4
  0
BLOCK_RECORD
  5
C40
330
1
100
AcDbSymbolTableRecord
100
AcDbBlockTableRecord
  2
*X5
  0
BLOCK_RECORD
  5
C53
330
1
100
AcDbSymbolTableRecord
100
AcDbBlockTableRecord
  2
A$C0FFB75DA
  0
ENDTAB
  0
ENDSEC
  0
SECTION
  2
BLOCKS
  0
BLOCK
  5
1B
330
1A
100
AcDbEntity
  8
0
100
AcDbBlockBegin
  2
*MODEL_SPACE
 70
     0
 10
0.0
 20
0.0
 30
0.0
  3
*MODEL_SPACE
  1

  0
ENDBLK
  5
1C
330
1A
100
AcDbEntity
  8
0
100
AcDbBlockEnd
  0
BLOCK
  5
18
330
17
100
AcDbEntity
 67
     1
  8
0
100
AcDbBlockBegin
  2
*PAPER_SPACE
 70
     0
 10
0.0
 20
0.0
 30
0.0
  3
*PAPER_SPACE
  1

  0
ENDBLK
  5
19
330
17
100
AcDbEntity
 67
     1
  8
0
100
AcDbBlockEnd
  0
BLOCK
  5
598
330
594
100
AcDbEntity
  8
0
100
AcDbBlockBegin
  2
_OPEN
 70
     0
 10
0.0
 20
0.0
 30
0.0
  3
_OPEN
  1

  0
LINE
  5
595
330
594
100
AcDbEntity
  8
0
  6
BYBLOCK
 62
     0
100
AcDbLine
 10
-1.0
 20
0.1666666666666666
 30
0.0
 11
0.0
 21
0.0
 31
0.0
  0
LINE
  5
596
330
594
100
AcDbEntity
  8
0
  6
BYBLOCK
 62
     0
100
AcDbLine
 10
-1.0
 20
-0.1666666666666666
 30
0.0
 11
0.0
 21
0.0
 31
0.0
  0
LINE
  5
597
330
594
100
AcDbEntity
  8
0
  6
BYBLOCK
 62
     0
100
AcDbLine
 10
0.0
 20
0.0
 30
0.0
 11
-1.0
 21
0.0
 31
0.0
  0
ENDBLK
  5
599
330
594
100
AcDbEntity
  8
0
100
AcDbBlockEnd
  0
BLOCK
  5
A0D
330
A03
100
AcDbEntity
  8
0
100
AcDbBlockBegin
  2
*D1
 70
     1
 10
0.0
 20
0.0
 30
0.0
  3
*D1
  1

  0
LINE
  5
A3F
330
A03
100
AcDbEntity
  8
250
  6
CONTINUOUS
100
AcDbLine
 10
-50.0
 20
25.19999999999911
 30
0.0
 11
-50.0
 21
36.0
 31
0.0
  0
LINE
  5
A40
330
A03
100
AcDbEntity
  8
250
  6
CONTINUOUS
100
AcDbLine
 10
0.0000004769093067
 20
0.5000000000000071
 30
0.0
 11
0.0000004769093089
 21
36.0
 31
0.0
  0
LINE
  5
A41
330
A03
100
AcDbEntity
  8
250
  6
CONTINUOUS
100
AcDbLine
 10
-47.77
 20
35.0
 30
0.0
 11
-2.229999523090691
 21
35.0
 31
0.0
  0
INSERT
  5
A42
330
A03
100
AcDbEntity
  8
250
  6
CONTINUOUS
100
AcDbBlockReference
  2
_OPEN
 10
-50.0
 20
35.0
 30
0.0
 41
2.229999999999999
 42
2.229999999999999
 43
2.229999999999999
 50
180.0
  0
INSERT
  5
A43
330
A03
100
AcDbEntity
  8
250
  6
CONTINUOUS
100
AcDbBlockReference
  2
_OPEN
 10
0.0000004769093089
 20
35.0
 30
0.0
 41
2.229999999999999
 42
2.229999999999999
 43
2.229999999999999
  0
MTEXT
  5
A44
330
A03
100
AcDbEntity
  8
250
  6
CONTINUOUS
 62
    40
100
AcDbMText
 10
-24.99999976154534
 20
37.5
 30
0.0
 40
3.0
 41
0.0
 71
     5
 72
     1
  1
\A1;50
1001
ACAD
1000
MTEXTBEGIN
1070
    73
1070
     1
1070
    44
1040
1.0
1070
    74
1070
     0
1000
MTEXTEND
  0
POINT
  5
A45
330
A03
100
AcDbEntity
  8
DEFPOINTS
  6
CONTINUOUS
 62
     0
100
AcDbPoint
 10
-50.0
 20
24.69999999999911
 30
0.0
  0
POINT
  5
A46
330
A03
100
AcDbEntity
  8
DEFPOINTS
  6
CONTINUOUS
 62
     0
100
AcDbPoint
 10
0.0000004769093067
 20
0.0000000000000071
 30
0.0
  0
POINT
  5
A47
330
A03
100
AcDbEntity
  8
DEFPOINTS
  6
CONTINUOUS
 62
     0
100
AcDbPoint
 10
0.0000004769093089
 20
35.0
 30
0.0
  0
ENDBLK
  5
A0E
330
A03
100
AcDbEntity
  8
0
100
AcDbBlockEnd
  0
BLOCK
  5
A1C
330
A12
100
AcDbEntity
  8
0
100
AcDbBlockBegin
  2
*D2
 70
     1
 10
0.0
 20
0.0
 30
0.0
  3
*D2
  1

  0
LINE
  5
A36
330
A12
100
AcDbEntity
  8
250
  6
CONTINUOUS
100
AcDbLine
 10
-40.2982588061331
 20
-25.00000000000005
 30
0.0
 11
15.00000047690928
 21
-25.00000000000007
 31
0.0
  0
LINE
  5
A37
330
A12
100
AcDbEntity
  8
250
  6
CONTINUOUS
100
AcDbLine
 10
-40.29825955636846
 20
24.99999999999995
 30
0.0
 11
15.00000047690929
 21
24.99999999999993
 31
0.0
  0
LINE
  5
A38
330
A12
100
AcDbEntity
  8
250
  6
CONTINUOUS
100
AcDbLine
 10
14.00000047690928
 20
-22.77000000000006
 30
0.0
 11
14.00000047690929
 21
22.76999999999993
 31
0.0
  0
INSERT
  5
A39
330
A12
100
AcDbEntity
  8
250
  6
CONTINUOUS
100
AcDbBlockReference
  2
_OPEN
 10
14.00000047690928
 20
-25.00000000000007
 30
0.0
 41
2.229999999999999
 42
2.229999999999999
 43
2.229999999999999
 50
270.0
  0
INSERT
  5
A3A
330
A12
100
AcDbEntity
  8
250
  6
CONTINUOUS
100
AcDbBlockReference
  2
_OPEN
 10
14.00000047690929
 20
24.99999999999993
 30
0.0
 41
2.229999999999999
 42
2.229999999999999
 43
2.229999999999999
 50
90.0
  0
MTEXT
  5
A3B
330
A12
100
AcDbEntity
  8
250
  6
CONTINUOUS
 62
    40
100
AcDbMText
 10
11.50000047690928
 20
-0.0000000000000645
 30
0.0
 40
3.0
 41
0.0
 71
     5
 72
     1
  1
\A1;{\H3;\U+2205}50
 11
0.0000000000000001
 21
1.0
 31
0.0
1001
ACAD
1000
MTEXTBEGIN
1070
    73
1070
     1
1070
    44
1040
1.0
1070
    74
1070
     0
1000
MTEXTEND
  0
POINT
  5
A3C
330
A12
100
AcDbEntity
  8
DEFPOINTS
  6
CONTINUOUS
 62
     0
100
AcDbPoint
 10
-40.7982588061331
 20
-25.00000000000005
 30
0.0
  0
POINT
  5
A3D
330
A12
100
AcDbEntity
  8
DEFPOINTS
  6
CONTINUOUS
 62
     0
100
AcDbPoint
 10
-40.79825955636846
 20
24.99999999999995
 30
0.0
  0
POINT
  5
A3E
330
A12
100
AcDbEntity
  8
DEFPOINTS
  6
CONTINUOUS
 62
     0
100
AcDbPoint
 10
14.00000047690929
 20
24.99999999999993
 30
0.0
  0
ENDBLK
  5
A1D
330
A12
100
AcDbEntity
  8
0
100
AcDbBlockEnd
  0
BLOCK
  5
C32
330
C04
100
AcDbEntity
  8
0
100
AcDbBlockBegin
  2
*X3
 70
     1
 10
0.0
 20
0.0
 30
0.0
  3
*X3
  1

  0
LINE
  5
C05
330
C04
100
AcDbEntity
  8
0
 62
     0
100
AcDbLine
 10
3.235364125939702
 20
-8.207738569426133
 30
0.0
 11
2.539878131093039
 21
-7.512252574579474
 31
0.0
  0
LINE
  5
C06
330
C04
100
AcDbEntity
  8
0
 62
     0
100
AcDbLine
 10
2.525255410929922
 20
-7.733361577594422
 30
0.0
 11
2.246640667466748
 21
-7.454746834131247
 31
0.0
  0
LINE
  5
C07
330
C04
100
AcDbEntity
  8
0
 62
     0
100
AcDbLine
 10
3.292869866387924
 20
-8.500976033052424
 30
0.0
 11
3.014255122924751
 21
-8.222361289589251
 31
0.0
  0
LINE
  5
C08
330
C04
100
AcDbEntity
  8
0
 62
     0
100
AcDbLine
 10
2.222099748833683
 20
-7.665937638676258
 30
0.0
 11
2.020551260265142
 21
-7.464389150107711
 31
0.0
  0
LINE
  5
C09
330
C04
100
AcDbEntity
  8
0
 62
     0
100
AcDbLine
 10
3.294816471809426
 20
-8.738654361651997
 30
0.0
 11
3.081679061842919
 21
-8.525516951685489
 31
0.0
  0
LINE
  5
C0A
330
C04
100
AcDbEntity
  8
0
 62
     0
100
AcDbLine
 10
2.003106040329284
 20
-7.68267565334991
 30
0.0
 11
1.829933989769265
 21
-7.509503602789891
 31
0.0
  0
LINE
  5
C0B
330
C04
100
AcDbEntity
  8
0
 62
     0
100
AcDbLine
 10
3.294816471809419
 20
-8.974386084830044
 30
0.0
 11
3.082624704809468
 21
-8.762194317830092
 31
0.0
  0
LINE
  5
C0C
330
C04
100
AcDbEntity
  8
0
 62
     0
100
AcDbLine
 10
1.823500176191735
 20
-7.738801512390431
 30
0.0
 11
1.66441861575032
 21
-7.579719951949016
 31
0.0
  0
LINE
  5
C0D
330
C04
100
AcDbEntity
  8
0
 62
     0
100
AcDbLine
 10
3.294816471809426
 20
-9.210117808008119
 30
0.0
 11
3.082624704809468
 21
-8.997926041008163
 31
0.0
  0
LINE
  5
C0E
330
C04
100
AcDbEntity
  8
0
 62
     0
100
AcDbLine
 10
1.671532121270381
 20
-7.822565180647145
 30
0.0
 11
1.519384621186254
 21
-7.67041768056301
 31
0.0
  0
LINE
  5
C0F
330
C04
100
AcDbEntity
  8
0
 62
     0
100
AcDbLine
 10
3.294816471809432
 20
-9.445849531186189
 30
0.0
 11
3.082624704809474
 21
-9.233657764186231
 31
0.0
  0
LINE
  5
C10
330
C04
100
AcDbEntity
  8
0
 62
     0
100
AcDbLine
 10
1.542752218501775
 20
-7.929517001056601
 30
0.0
 11
1.39270995439402
 21
-7.779474736948849
 31
0.0
  0
LINE
  5
C11
330
C04
100
AcDbEntity
  8
0
 62
     0
100
AcDbLine
 10
3.294816471809419
 20
-9.681581254364253
 30
0.0
 11
3.082624704809468
 21
-9.469389487364303
 31
0.0
  0
LINE
  5
C12
330
C04
100
AcDbEntity
  8
0
 62
     0
100
AcDbLine
 10
1.43594765315619
 20
-8.058444158889074
 30
0.0
 11
1.28377138416043
 21
-7.906267889893321
 31
0.0
  0
LINE
  5
C13
330
C04
100
AcDbEntity
  8
0
 62
     0
100
AcDbLine
 10
3.294816471809432
 20
-9.917312977542316
 30
0.0
 11
3.082624704809474
 21
-9.705121210542358
 31
0.0
  0
LINE
  5
C14
330
C04
100
AcDbEntity
  8
0
 62
     0
100
AcDbLine
 10
1.352348231689353
 20
-8.210576460600307
 30
0.0
 11
1.193200727397836
 21
-8.051428956308786
 31
0.0
  0
LINE
  5
C15
330
C04
100
AcDbEntity
  8
0
 62
     0
100
AcDbLine
 10
3.294816471809419
 20
-10.15304470072036
 30
0.0
 11
3.082624704809468
 21
-9.940852933720428
 31
0.0
  0
LINE
  5
C16
330
C04
100
AcDbEntity
  8
0
 62
     0
100
AcDbLine
 10
1.296432579310397
 20
-8.390392531399429
 30
0.0
 11
1.123132130201639
 21
-8.217092082290662
 31
0.0
  0
LINE
  5
C17
330
C04
100
AcDbEntity
  8
0
 62
     0
100
AcDbLine
 10
3.294816471809426
 20
-10.38877642389844
 30
0.0
 11
3.082624704809468
 21
-10.17658465689848
 31
0.0
  0
LINE
  5
C18
330
C04
100
AcDbEntity
  8
0
 62
     0
100
AcDbLine
 10
1.280032579818636
 20
-8.609724255085723
 30
0.0
 11
1.078209318544381
 21
-8.407900993811464
 31
0.0
  0
LINE
  5
C19
330
C04
100
AcDbEntity
  8
0
 62
     0
100
AcDbLine
 10
3.294816471809419
 20
-10.62450814707651
 30
0.0
 11
3.082624704809468
 21
-10.41231638007656
 31
0.0
  0
LINE
  5
C1A
330
C04
100
AcDbEntity
  8
0
 62
     0
100
AcDbLine
 10
1.241817425899255
 20
-8.807240824344411
 30
0.0
 11
1.068864846956123
 21
-8.634288245401286
 31
0.0
  0
LINE
  5
C1B
330
C04
100
AcDbEntity
  8
0
 62
     0
100
AcDbLine
 10
3.294816471809419
 20
-10.86023987025457
 30
0.0
 11
3.082624704809461
 21
-10.6480481032546
 31
0.0
  0
LINE
  5
C1C
330
C04
100
AcDbEntity
  8
0
 62
     0
100
AcDbLine
 10
3.294816471809426
 20
-11.09597159343263
 30
0.0
 11
3.082624704809474
 21
-10.88377982643268
 31
0.0
  0
LINE
  5
C1D
330
C04
100
AcDbEntity
  8
0
 62
     0
100
AcDbLine
 10
3.294816471809426
 20
-11.33170331661069
 30
0.0
 11
3.082624704809468
 21
-11.11951154961074
 31
0.0
  0
LINE
  5
C1E
330
C04
100
AcDbEntity
  8
0
 62
     0
100
AcDbLine
 10
3.294816471809419
 20
-11.56743503978875
 30
0.0
 11
3.082624704809468
 21
-11.35524327278881
 31
0.0
  0
LINE
  5
C1F
330
C04
100
AcDbEntity
  8
0
 62
     0
100
AcDbLine
 10
3.294816471809426
 20
-11.80316676296683
 30
0.0
 11
3.082624704809468
 21
-11.59097499596687
 31
0.0
  0
LINE
  5
C20
330
C04
100
AcDbEntity
  8
0
 62
     0
100
AcDbLine
 10
3.294816471809411
 20
-12.03889848614488
 30
0.0
 11
3.082624704809461
 21
-11.82670671914494
 31
0.0
  0
LINE
  5
C21
330
C04
100
AcDbEntity
  8
0
 62
     0
100
AcDbLine
 10
3.294816471809426
 20
-12.27463020932296
 30
0.0
 11
3.082624704809474
 21
-12.06243844232302
 31
0.0
  0
LINE
  5
C22
330
C04
100
AcDbEntity
  8
0
 62
     0
100
AcDbLine
 10
3.294816471809426
 20
-12.51036193250103
 30
0.0
 11
3.082624704809468
 21
-12.29817016550107
 31
0.0
  0
LINE
  5
C23
330
C04
100
AcDbEntity
  8
0
 62
     0
100
AcDbLine
 10
3.294816471809419
 20
-12.7460936556791
 30
0.0
 11
3.082624704809468
 21
-12.53390188867915
 31
0.0
  0
LINE
  5
C24
330
C04
100
AcDbEntity
  8
0
 62
     0
100
AcDbLine
 10
3.290062309988357
 20
-12.97707121703608
 30
0.0
 11
3.082624704809468
 21
-12.7696336118572
 31
0.0
  0
LINE
  5
C25
330
C04
100
AcDbEntity
  8
0
 62
     0
100
AcDbLine
 10
3.253193000403448
 20
-13.17593363062925
 30
0.0
 11
3.074236505306537
 21
-12.99697713553234
 31
0.0
  0
LINE
  5
C26
330
C04
100
AcDbEntity
  8
0
 62
     0
100
AcDbLine
 10
3.18921464459015
 20
-13.34768699799401
 30
0.0
 11
3.027164552993986
 21
-13.18563690639785
 31
0.0
  0
LINE
  5
C27
330
C04
100
AcDbEntity
  8
0
 62
     0
100
AcDbLine
 10
3.103814893826012
 20
-13.49801897040793
 30
0.0
 11
2.950311173986341
 21
-13.34451525056827
 31
0.0
  0
LINE
  5
C28
330
C04
100
AcDbEntity
  8
0
 62
     0
100
AcDbLine
 10
2.999649062445164
 20
-13.62958486220516
 30
0.0
 11
2.849455977199872
 21
-13.47939177695987
 31
0.0
  0
LINE
  5
C29
330
C04
100
AcDbEntity
  8
0
 62
     0
100
AcDbLine
 10
2.877702818340999
 20
-13.74337034127906
 30
0.0
 11
2.726540528425259
 21
-13.59220805136332
 31
0.0
  0
LINE
  5
C2A
330
C04
100
AcDbEntity
  8
0
 62
     0
100
AcDbLine
 10
2.737690149594256
 20
-13.83908939571039
 30
0.0
 11
2.581011949389086
 21
-13.68241119550521
 31
0.0
  0
LINE
  5
C2B
330
C04
100
AcDbEntity
  8
0
 62
     0
100
AcDbLine
 10
1.279010410280513
 20
-12.6161413795747
 30
0.0
 11
1.11184125484943
 21
-12.44897222414361
 31
0.0
  0
LINE
  5
C2C
330
C04
100
AcDbEntity
  8
0
 62
     0
100
AcDbLine
 10
2.577943456406103
 20
-13.91507442570029
 30
0.0
 11
2.409471764917056
 21
-13.74660273421124
 31
0.0
  0
LINE
  5
C2D
330
C04
100
AcDbEntity
  8
0
 62
     0
100
AcDbLine
 10
1.279010410280505
 20
-12.85187310275276
 30
0.0
 11
1.066818637819558
 21
-12.63968133029182
 31
0.0
  0
LINE
  5
C2E
330
C04
100
AcDbEntity
  8
0
 62
     0
100
AcDbLine
 10
2.3946800115431
 20
-13.96754270401536
 30
0.0
 11
2.202938001470086
 21
-13.77580069394234
 31
0.0
  0
LINE
  5
C2F
330
C04
100
AcDbEntity
  8
0
 62
     0
100
AcDbLine
 10
1.313825469159445
 20
-13.12241988480975
 30
0.0
 11
1.066819229992219
 21
-12.87541364564252
 31
0.0
  0
LINE
  5
C30
330
C04
100
AcDbEntity
  8
0
 62
     0
100
AcDbLine
 10
2.179668798895193
 20
-13.98826321454551
 30
0.0
 11
1.932662559727964
 21
-13.74125697537827
 31
0.0
  0
LINE
  5
C31
330
C04
100
AcDbEntity
  8
0
 62
     0
100
AcDbLine
 10
1.910690917046075
 20
-13.95501705587446
 30
0.0
 11
1.10006538866326
 21
-13.14439152749164
 31
0.0
  0
ENDBLK
  5
C33
330
C04
100
AcDbEntity
  8
0
100
AcDbBlockEnd
  0
BLOCK
  5
C3E
330
C34
100
AcDbEntity
  8
0
100
AcDbBlockBegin
  2
*X4
 70
     1
 10
0.0
 20
0.0
 30
0.0
  3
*X4
  1

  0
LINE
  5
C35
330
C34
100
AcDbEntity
  8
0
 62
     0
100
AcDbLine
 10
2.976528818578984
 20
-10.77768394020218
 30
0.0
 11
2.959043916706504
 21
-10.76019903832972
 31
0.0
  0
LINE
  5
C36
330
C34
100
AcDbEntity
  8
0
 62
     0
100
AcDbLine
 10
2.976528818578976
 20
-11.01341566338025
 30
0.0
 11
2.628542881455238
 21
-10.66542972625651
 31
0.0
  0
LINE
  5
C37
330
C34
100
AcDbEntity
  8
0
 62
     0
100
AcDbLine
 10
2.963435272440881
 20
-11.23605384042024
 30
0.0
 11
2.298041846203978
 21
-10.57066041418333
 31
0.0
  0
LINE
  5
C38
330
C34
100
AcDbEntity
  8
0
 62
     0
100
AcDbLine
 10
2.632932943878123
 20
-11.14128323503552
 30
0.0
 11
1.967540810952725
 21
-10.47589110211013
 31
0.0
  0
LINE
  5
C39
330
C34
100
AcDbEntity
  8
0
 62
     0
100
AcDbLine
 10
2.302430615315357
 20
-11.04651262965084
 30
0.0
 11
1.637039775701452
 21
-10.38112179003694
 31
0.0
  0
LINE
  5
C3A
330
C34
100
AcDbEntity
  8
0
 62
     0
100
AcDbLine
 10
1.971928286752606
 20
-10.95174202426614
 30
0.0
 11
1.3065387404502
 21
-10.28635247796372
 31
0.0
  0
LINE
  5
C3B
330
C34
100
AcDbEntity
  8
0
 62
     0
100
AcDbLine
 10
1.641425958189841
 20
-10.85697141888145
 30
0.0
 11
1.066818637819564
 21
-10.28236409851116
 31
0.0
  0
LINE
  5
C3C
330
C34
100
AcDbEntity
  8
0
 62
     0
100
AcDbLine
 10
1.310923629627082
 20
-10.76220081349676
 30
0.0
 11
1.066818637819558
 21
-10.51809582168922
 31
0.0
  0
LINE
  5
C3D
330
C34
100
AcDbEntity
  8
0
 62
     0
100
AcDbLine
 10
1.088745240343236
 20
-10.77575414739097
 30
0.0
 11
1.066818637819564
 21
-10.7538275448673
 31
0.0
  0
ENDBLK
  5
C3F
330
C34
100
AcDbEntity
  8
0
100
AcDbBlockEnd
  0
BLOCK
  5
C51
330
C40
100
AcDbEntity
  8
0
100
AcDbBlockBegin
  2
*X5
 70
     1
 10
0.0
 20
0.0
 30
0.0
  3
*X5
  1

  0
LINE
  5
C41
330
C40
100
AcDbEntity
  8
0
 62
     0
100
AcDbLine
 10
2.866267759626282
 20
-9.253032542181106
 30
0.0
 11
2.667341175677612
 21
-9.05410595823244
 31
0.0
  0
LINE
  5
C42
330
C40
100
AcDbEntity
  8
0
 62
     0
100
AcDbLine
 10
2.973311016767503
 20
-9.595807522500384
 30
0.0
 11
2.336839223885135
 21
-8.959335729618025
 31
0.0
  0
LINE
  5
C43
330
C40
100
AcDbEntity
  8
0
 62
     0
100
AcDbLine
 10
2.637468497805876
 20
-9.495696726716834
 30
0.0
 11
2.006337272092656
 21
-8.864565501003609
 31
0.0
  0
LINE
  5
C44
330
C40
100
AcDbEntity
  8
0
 62
     0
100
AcDbLine
 10
2.958949796291014
 20
-9.817178025201977
 30
0.0
 11
2.709833181810154
 21
-9.568061410721107
 31
0.0
  0
LINE
  5
C45
330
C40
100
AcDbEntity
  8
0
 62
     0
100
AcDbLine
 10
2.294807617108893
 20
-9.388767569197922
 30
0.0
 11
1.894356937380115
 21
-8.988316889469144
 31
0.0
  0
LINE
  5
C46
330
C40
100
AcDbEntity
  8
0
 62
     0
100
AcDbLine
 10
2.894565644714723
 20
-9.988525596803743
 30
0.0
 11
2.709284972303904
 21
-9.803244924392927
 31
0.0
  0
LINE
  5
C47
330
C40
100
AcDbEntity
  8
0
 62
     0
100
AcDbLine
 10
2.106548709841042
 20
-9.436240385108128
 30
0.0
 11
1.894356937380115
 21
-9.224048612647202
 31
0.0
  0
LINE
  5
C48
330
C40
100
AcDbEntity
  8
0
 62
     0
100
AcDbLine
 10
2.79692411133888
 20
-10.12661578660596
 30
0.0
 11
2.572197230405548
 21
-9.901888905672636
 31
0.0
  0
LINE
  5
C49
330
C40
100
AcDbEntity
  8
0
 62
     0
100
AcDbLine
 10
1.348486654973547
 20
-8.913910053418701
 30
0.0
 11
1.326394182066565
 21
-8.89181758051172
 31
0.0
  0
LINE
  5
C4A
330
C40
100
AcDbEntity
  8
0
 62
     0
100
AcDbLine
 10
2.670262681894576
 20
-10.23568608033973
 30
0.0
 11
2.283726833106142
 21
-9.849150231551298
 31
0.0
  0
LINE
  5
C4B
330
C40
100
AcDbEntity
  8
0
 62
     0
100
AcDbLine
 10
1.407547880493345
 20
-9.208703002116557
 30
0.0
 11
1.147176011686227
 21
-8.948331133309435
 31
0.0
  0
LINE
  5
C4C
330
C40
100
AcDbEntity
  8
0
 62
     0
100
AcDbLine
 10
2.512839522459095
 20
-10.3139946440823
 30
0.0
 11
1.953224559176234
 21
-9.754379680799443
 31
0.0
  0
LINE
  5
C4D
330
C40
100
AcDbEntity
  8
0
 62
     0
100
AcDbLine
 10
1.307170115995851
 20
-9.344056960797132
 30
0.0
 11
1.148282362821553
 21
-9.185169207622832
 31
0.0
  0
LINE
  5
C4E
330
C40
100
AcDbEntity
  8
0
 62
     0
100
AcDbLine
 10
2.314609196777708
 20
-10.35149604157899
 30
0.0
 11
1.622722285246303
 21
-9.65960913004759
 31
0.0
  0
LINE
  5
C4F
330
C40
100
AcDbEntity
  8
0
 62
     0
100
AcDbLine
 10
2.0454755090717
 20
-10.31809407705103
 30
0.0
 11
1.0841334982329
 21
-9.356752066212255
 31
0.0
  0
LINE
  5
C50
330
C40
100
AcDbEntity
  8
0
 62
     0
100
AcDbLine
 10
1.731482545935462
 20
-10.23983283709287
 30
0.0
 11
1.070201539477138
 21
-9.578551830634543
 31
0.0
  0
ENDBLK
  5
C52
330
C40
100
AcDbEntity
  8
0
100
AcDbBlockEnd
  0
BLOCK
  5
CF4
330
C53
100
AcDbEntity
  8
0
100
AcDbBlockBegin
  2
A$C0FFB75DA
 70
     0
 10
0.0
 20
0.0
 30
0.0
  3
A$C0FFB75DA
  1

  0
LINE
  5
C54
330
C53
100
AcDbEntity
  8
240
100
AcDbLine
 10
-0.5732365290054418
 20
0.7600717658939118
 30
0.0
 11
-13.75977625632859
 21
4.91777176901067
 31
0.0
  0
LINE
  5
C55
330
C53
100
AcDbEntity
  8
240
100
AcDbLine
 10
-13.7606916697575
 20
-4.918057300085905
 30
0.0
 11
-0.5732365290054986
 21
-0.7600686658111329
 31
0.0
  0
CIRCLE
  5
C56
330
C53
100
AcDbEntity
  8
246
100
AcDbCircle
 10
-14.00034262215547
 20
-0.0000002930740948
 30
0.0
 40
4.7625
  0
LINE
  5
C57
330
C53
100
AcDbEntity
  8
245
100
AcDbLine
 10
-83.35453835997727
 20
0.0
 30
0.0
 11
0.6194002368204821
 21
0.0
 31
0.0
  0
LINE
  5
C58
330
C53
100
AcDbEntity
  8
241
100
AcDbLine
 10
-33.58879118338991
 20
19.36734561283464
 30
0.0
 11
-33.58879118338997
 21
15.9527436679823
 31
0.0
  0
LINE
  5
C59
330
C53
100
AcDbEntity
  8
240
100
AcDbLine
 10
-25.86138457307747
 20
13.33003389802456
 30
0.0
 11
-33.58879118338991
 21
19.36734561283464
 31
0.0
  0
LINE
  5
C5A
330
C53
100
AcDbEntity
  8
240
100
AcDbLine
 10
-50.00000047690931
 20
24.6999999999991
 30
0.0
 11
-50.00000047690932
 21
13.99999999998793
 31
0.0
  0
ELLIPSE
  5
C5B
330
C53
100
AcDbEntity
  8
241
100
AcDbEllipse
 10
-31.91961571918007
 20
-0.0000000000000568
 30
0.0
 11
0.0000000000003969
 21
25.0
 31
0.0
210
0.0
220
0.0
230
1.0
 40
0.2679491924311233
 41
0.5789027087055109
 42
2.562689977342583
  0
TEXT
  5
C5C
330
C53
100
AcDbEntity
  8
247
100
AcDbText
 10
-44.86973711761772
 20
-8.87505228252143
 30
0.0
 40
2.5
  1
S50-SVQBN-0050-16
 50
90.0
 41
0.7
  7
YOKO
 11
-44.86973711761772
 21
-8.87505228252143
 31
0.0
100
AcDbText
 73
     1
  0
LINE
  5
C5D
330
C53
100
AcDbEntity
  8
240
100
AcDbLine
 10
-76.50000047690956
 20
14.00000000000008
 30
0.0
 11
-50.00000047690932
 21
13.99999999998793
 31
0.0
  0
LINE
  5
C5E
330
C53
100
AcDbEntity
  8
240
100
AcDbLine
 10
-76.50000047690979
 20
-13.99999999999991
 30
0.0
 11
-50.00000047690932
 21
-13.99999991977988
 31
0.0
  0
LINE
  5
C5F
330
C53
100
AcDbEntity
  8
240
100
AcDbLine
 10
-81.00000047690933
 20
13.10000000000014
 30
0.0
 11
-81.00000047690945
 21
-13.10000000000002
 31
0.0
  0
LINE
  5
C60
330
C53
100
AcDbEntity
  8
241
100
AcDbLine
 10
-78.45947111310583
 20
13.72461436121426
 30
0.0
 11
-78.45947111310635
 21
-0.0000000000000568
 31
0.0
  0
LINE
  5
C61
330
C53
100
AcDbEntity
  8
241
100
AcDbLine
 10
-76.50000047690944
 20
14.00000000000003
 30
0.0
 11
-76.50000047690944
 21
0.0000000000000568
 31
0.0
  0
LINE
  5
C62
330
C53
100
AcDbEntity
  8
241
100
AcDbLine
 10
-78.45947111310583
 20
-13.72461436121415
 30
0.0
 11
-78.45947111310635
 21
0.0000000000001705
 31
0.0
  0
LINE
  5
C63
330
C53
100
AcDbEntity
  8
241
100
AcDbLine
 10
-76.50000047690944
 20
-13.99999999999991
 30
0.0
 11
-76.50000047690944
 21
0.0000000000000568
 31
0.0
  0
LINE
  5
C64
330
C53
100
AcDbEntity
  8
240
100
AcDbLine
 10
-78.45947111310583
 20
-13.72461436121415
 30
0.0
 11
-79.9437171170092
 21
-13.98632697771103
 31
0.0
  0
ARC
  5
C65
330
C53
100
AcDbEntity
  8
240
100
AcDbCircle
 10
-80.10000047690942
 20
-13.10000000000002
 30
0.0
 40
0.9000000000000088
100
AcDbArc
 50
179.9999999999997
 51
279.9999999999986
  0
LINE
  5
C66
330
C53
100
AcDbEntity
  8
240
100
AcDbLine
 10
-78.45947111310583
 20
-13.72461436121415
 30
0.0
 11
-76.50000047690979
 21
-13.99999999999991
 31
0.0
  0
LINE
  5
C67
330
C53
100
AcDbEntity
  8
240
100
AcDbLine
 10
-78.45947111310583
 20
13.72461436121426
 30
0.0
 11
-79.9437171170092
 21
13.98632697771114
 31
0.0
  0
ARC
  5
C68
330
C53
100
AcDbEntity
  8
240
100
AcDbCircle
 10
-80.10000047690942
 20
13.10000000000013
 30
0.0
 40
0.9000000000000088
100
AcDbArc
 50
79.99999999999819
 51
179.9999999999997
  0
LINE
  5
C69
330
C53
100
AcDbEntity
  8
240
100
AcDbLine
 10
-78.45947111310583
 20
13.72461436121426
 30
0.0
 11
-76.50000047690956
 21
14.00000000000008
 31
0.0
  0
LINE
  5
C6A
330
C53
100
AcDbEntity
  8
240
100
AcDbLine
 10
-33.58879118339059
 20
-19.36734619898339
 30
0.0
 11
-25.86138457307795
 21
-13.33003448417315
 31
0.0
  0
LINE
  5
C6B
330
C53
100
AcDbEntity
  8
247
100
AcDbLine
 10
-45.79113493808679
 20
-18.93170248483018
 30
0.0
 11
-47.06460114657923
 21
-17.65823627633769
 31
0.0
  0
LINE
  5
C6C
330
C53
100
AcDbEntity
  8
247
100
AcDbLine
 10
-47.79762824323106
 20
-17.44804884404261
 30
0.0
 11
-46.75789407987397
 21
-17.74618114374033
 31
0.0
  0
ARC
  5
C6D
330
C53
100
AcDbEntity
  8
247
100
AcDbCircle
 10
-47.29781596397072
 20
-17.66705596719315
 30
0.0
 40
0.545688953974843
100
AcDbArc
 50
351.6626016879293
 51
156.3381550951897
  0
LINE
  5
C6E
330
C53
100
AcDbEntity
  8
247
100
AcDbLine
 10
-46.22222342468245
 20
-17.69228991945696
 30
0.0
 11
-47.52408398603321
 21
-16.39042935810615
 31
0.0
  0
LINE
  5
C6F
330
C53
100
AcDbEntity
  8
247
100
AcDbLine
 10
-46.92442512457566
 20
-18.60673637711891
 30
0.0
 11
-48.17093992236749
 21
-17.36022157932709
 31
0.0
  0
LINE
  5
C70
330
C53
100
AcDbEntity
  8
247
100
AcDbLine
 10
-48.17093992236763
 20
-18.43854368749172
 30
0.0
 11
-48.17093992236749
 21
-17.26493275183863
 31
0.0
  0
LINE
  5
C71
330
C53
100
AcDbEntity
  8
247
100
AcDbLine
 10
-46.35778003133128
 20
-18.76921943097453
 30
0.0
 11
-47.63124087670488
 21
-17.49575858560087
 31
0.0
  0
LINE
  5
C72
330
C53
100
AcDbEntity
  8
247
100
AcDbLine
 10
-45.22448984484245
 20
-19.09418553868575
 30
0.0
 11
-46.76377759747007
 21
-17.55489778605811
 31
0.0
  0
ARC
  5
C73
330
C53
100
AcDbEntity
  8
247
100
AcDbCircle
 10
-45.80623549674657
 20
-17.67845570741227
 30
0.0
 40
0.9094932500839236
100
AcDbArc
 50
0.0
 51
130.3298406541675
  0
LINE
  5
C74
330
C53
100
AcDbEntity
  8
247
100
AcDbLine
 10
-44.8967418174555
 20
-17.80528540851747
 30
0.0
 11
-45.92524482509396
 21
-16.7767824008791
 31
0.0
  0
LINE
  5
C75
330
C53
100
AcDbEntity
  8
247
100
AcDbLine
 10
-44.89674181745556
 20
-18.2094474479063
 30
0.0
 11
-46.23161698382577
 21
-16.87457228153606
 31
0.0
  0
ARC
  5
C76
330
C53
100
AcDbEntity
  8
247
100
AcDbCircle
 10
-45.84261852306036
 20
-18.08432766309311
 30
0.0
 40
0.5457045663826169
100
AcDbArc
 50
351.6628542111504
 51
156.3381921591102
  0
LINE
  5
C77
330
C53
100
AcDbEntity
  8
247
100
AcDbLine
 10
-44.71484042051343
 20
-19.37906345944933
 30
0.0
 11
-44.71484042051343
 21
-11.9939134413295
 31
0.0
1001
ACAD
1000
ASC_BOUNDS
1002
{
1070
    19
1005
0
1002
}
  0
LINE
  5
C78
330
C53
100
AcDbEntity
  8
247
100
AcDbLine
 10
-44.35103763599201
 20
-19.37906345944933
 30
0.0
 11
-44.35103763599201
 21
-11.9939134413295
 31
0.0
1001
ACAD
1000
ASC_BOUNDS
1002
{
1070
    19
1005
0
1002
}
  0
INSERT
  5
C79
330
C53
100
AcDbEntity
  8
247
  6
CONTINUOUS
100
AcDbBlockReference
  2
*X3
 10
-50.00000047690926
 20
2.69386390390327
 30
0.0
 41
1.714499999999986
 42
1.714500000000001
 43
1.7145
1001
ACAD
1000
HATCH
1002
{
1070
    19
1000
ANSI31
1040
0.0525
1040
1.570796326794895
1002
}
  0
LINE
  5
C7A
330
C53
100
AcDbEntity
  8
240
100
AcDbLine
 10
-50.00000047690932
 20
-13.99999991977988
 30
0.0
 11
-50.00000047690933
 21
-24.69999999999953
 31
0.0
  0
LINE
  5
C7B
330
C53
100
AcDbEntity
  8
241
100
AcDbLine
 10
-33.58879118339014
 20
8.088886892360108
 30
0.0
 11
-33.58879118339062
 21
-19.36734619898339
 31
0.0
  0
LINE
  5
C7C
330
C53
100
AcDbEntity
  8
240
100
AcDbLine
 10
-40.79825928304241
 20
-25.00000000000005
 30
0.0
 11
-49.70000047690901
 21
-25.00000000000054
 31
0.0
  0
LINE
  5
C7D
330
C53
100
AcDbEntity
  8
240
100
AcDbLine
 10
-49.70000047690932
 20
-24.99999999999948
 30
0.0
 11
-50.00000047690933
 21
-24.69999999999953
 31
0.0
  0
LINE
  5
C7E
330
C53
100
AcDbEntity
  8
247
100
AcDbLine
 10
-44.89674181745556
 20
-19.18816588197275
 30
0.0
 11
-47.80713712848225
 21
-18.3536224901733
 31
0.0
  0
ARC
  5
C7F
330
C53
100
AcDbEntity
  8
247
100
AcDbCircle
 10
-46.26098898910194
 20
-19.37906345944933
 30
0.0
 40
1.909950933265685
100
AcDbArc
 50
180.0
 51
0.0
1001
ACAD
1000
ASC_BOUNDS
1002
{
1070
    19
1005
0
1002
}
  0
ARC
  5
C80
330
C53
100
AcDbEntity
  8
247
100
AcDbCircle
 10
-46.26098898910194
 20
-19.37906345944933
 30
0.0
 40
1.546148139381408
100
AcDbArc
 50
180.0
 51
0.0
1001
ACAD
1000
ASC_BOUNDS
1002
{
1070
    19
1005
0
1002
}
  0
LINE
  5
C81
330
C53
100
AcDbEntity
  8
247
100
AcDbLine
 10
-46.34244594515743
 20
-17.86531619788969
 30
0.0
 11
-45.30268094224635
 21
-18.16345340224051
 31
0.0
  0
LINE
  5
C82
330
C53
100
AcDbEntity
  8
247
100
AcDbLine
 10
-44.89674181745556
 20
-19.01777152668389
 30
0.0
 11
-45.93131001033694
 21
-17.98320333380248
 31
0.0
  0
LINE
  5
C83
330
C53
100
AcDbEntity
  8
247
100
AcDbLine
 10
-48.17093992236763
 20
-19.37906345944933
 30
0.0
 11
-48.17093992236763
 21
-18.62776564050245
 31
0.0
1001
ACAD
1000
ASC_BOUNDS
1002
{
1070
    19
1005
0
1002
}
  0
LINE
  5
C84
330
C53
100
AcDbEntity
  8
247
100
AcDbLine
 10
-47.80713712848333
 20
-19.37906345944933
 30
0.0
 11
-47.80713712848333
 21
-18.73208013082078
 31
0.0
1001
ACAD
1000
ASC_BOUNDS
1002
{
1070
    19
1005
0
1002
}
  0
LINE
  5
C85
330
C53
100
AcDbEntity
  8
247
100
AcDbLine
 10
-47.80713712848327
 20
-18.53234845198891
 30
0.0
 11
-48.17093992236753
 21
-18.16854565810464
 31
0.0
  0
LINE
  5
C86
330
C53
100
AcDbEntity
  8
247
100
AcDbLine
 10
-48.17093992236763
 20
-18.62776564050245
 30
0.0
 11
-47.80713712848333
 21
-18.73208013082078
 31
0.0
1001
ACAD
1000
ASC_BOUNDS
1002
{
1070
    19
1005
0
1002
}
  0
LINE
  5
C87
330
C53
100
AcDbEntity
  8
247
100
AcDbLine
 10
-48.17093992236763
 20
-18.43854368749172
 30
0.0
 11
-47.80713712848333
 21
-18.5428581778106
 31
0.0
  0
LINE
  5
C88
330
C53
100
AcDbEntity
  8
247
100
AcDbLine
 10
-47.80713712848333
 20
-18.5428581778106
 30
0.0
 11
-47.80713712848225
 21
-18.3536224901733
 31
0.0
  0
LINE
  5
C89
330
C53
100
AcDbEntity
  8
247
100
AcDbLine
 10
-47.49107021782006
 20
-18.4442533232633
 30
0.0
 11
-48.17093992236753
 21
-17.76438361871583
 31
0.0
  0
LINE
  5
C8A
330
C53
100
AcDbEntity
  8
247
100
AcDbLine
 10
-44.89674181745556
 20
-19.18816588197275
 30
0.0
 11
-44.89674181745556
 21
-17.67845570741227
 31
0.0
  0
LINE
  5
C8B
330
C53
100
AcDbEntity
  8
247
100
AcDbLine
 10
-44.89674181745556
 20
-18.61360948729508
 30
0.0
 11
-45.36467328922495
 21
-18.14567801552564
 31
0.0
  0
LINE
  5
C8C
330
C53
100
AcDbEntity
  8
240
100
AcDbLine
 10
-33.58879118339059
 20
-19.36734619898339
 30
0.0
 11
-35.5845292272531
 21
-20.92658764692584
 31
0.0
  0
LINE
  5
C8D
330
C53
100
AcDbEntity
  8
240
100
AcDbLine
 10
-35.5845292272531
 20
-20.92658764692578
 30
0.0
 11
-40.79825928304241
 21
-25.00000000000005
 31
0.0
  0
CIRCLE
  5
C8E
330
C53
100
AcDbEntity
  8
241
100
AcDbCircle
 10
-64.00000047690942
 20
-0.0000000000001137
 30
0.0
 40
4.0
  0
SPLINE
  5
C8F
330
C53
100
AcDbEntity
  8
241
100
AcDbSpline
210
0.0
220
0.0
230
1.0
 70
    11
 71
     3
 72
    70
 73
    66
 74
     0
 42
0.0000000001
 43
0.0000000001
 40
0.0
 40
0.0
 40
0.0
 40
0.0
 40
0.9197496568304652
 40
0.9197496568304652
 40
1.83949931366093
 40
1.83949931366093
 40
2.759248970491396
 40
2.759248970491396
 40
3.678998627321861
 40
3.678998627321861
 40
4.631875395981221
 40
4.631875395981221
 40
5.584752164640583
 40
5.584752164640583
 40
6.537628933299944
 40
6.537628933299944
 40
7.490505701959305
 40
7.490505701959305
 40
8.443382470618661
 40
8.443382470618661
 40
9.39625923927802
 40
9.39625923927802
 40
10.34913600793737
 40
10.34913600793737
 40
11.30201277659673
 40
11.30201277659673
 40
12.2217624334272
 40
12.2217624334272
 40
13.14151209025766
 40
13.14151209025766
 40
14.06126174708813
 40
14.06126174708813
 40
14.9810114039186
 40
14.9810114039186
 40
15.91208227998781
 40
15.91208227998781
 40
16.84315315605702
 40
16.84315315605702
 40
17.77422403212622
 40
17.77422403212622
 40
18.70529490819543
 40
18.70529490819543
 40
19.64673146562238
 40
19.64673146562238
 40
20.58816802304932
 40
20.58816802304932
 40
21.52960458047627
 40
21.52960458047627
 40
22.47104113790322
 40
22.47104113790322
 40
23.41247769533016
 40
23.41247769533016
 40
24.3539142527571
 40
24.3539142527571
 40
25.29535081018405
 40
25.29535081018405
 40
26.23678736761099
 40
26.23678736761099
 40
27.1678582436802
 40
27.1678582436802
 40
28.0989291197494
 40
28.0989291197494
 40
29.0299999958186
 40
29.0299999958186
 40
29.96107087188781
 40
29.96107087188781
 40
29.96107087188781
 40
29.96107087188781
 10
-64.00000047690942
 20
4.813238667570772
 30
0.0
 10
-63.69341725796592
 20
4.813238667570772
 30
0.0
 10
-63.37626133173448
 20
4.786140626473866
 30
0.0
 10
-62.74440724895014
 20
4.67179873036747
 30
0.0
 10
-62.42970186126708
 20
4.584583114443717
 30
0.0
 10
-61.82426275040906
 20
4.353455323821776
 30
0.0
 10
-61.53307003668674
 20
4.20937930669811
 30
0.0
 10
-60.99166764925168
 20
3.875324214317231
 30
0.0
 10
-60.74146057380191
 20
3.685312193028607
 30
0.0
 10
-60.28684692920667
 20
3.271009973575303
 30
0.0
 10
-60.06785632904011
 20
3.030604788970208
 30
0.0
 10
-59.67913346294638
 20
2.502017360458637
 30
0.0
 10
-59.50937642128259
 20
2.21383198860434
 30
0.0
 10
-59.23491579145771
 20
1.607725564508257
 30
0.0
 10
-59.12996859799965
 20
1.289204275586882
 30
0.0
 10
-58.99153433848882
 20
0.6441601606742325
 30
0.0
 10
-58.95809031988754
 20
0.3176255895530176
 30
0.0
 10
-58.95809031988754
 20
-0.3176255895531881
 30
0.0
 10
-58.99153433848882
 20
-0.644160160674403
 30
0.0
 10
-59.12996859799965
 20
-1.289204275587053
 30
0.0
 10
-59.23491579145768
 20
-1.607725564508427
 30
0.0
 10
-59.50937642128259
 20
-2.213831988604511
 30
0.0
 10
-59.67913346294638
 20
-2.502017360458808
 30
0.0
 10
-60.06785632904009
 20
-3.030604788970379
 30
0.0
 10
-60.28684692920667
 20
-3.271009973575473
 30
0.0
 10
-60.74146057380191
 20
-3.685312193028778
 30
0.0
 10
-60.99166764925168
 20
-3.875324214317402
 30
0.0
 10
-61.53307003668671
 20
-4.209379306698281
 30
0.0
 10
-61.82426275040903
 20
-4.353455323821947
 30
0.0
 10
-62.42970186126708
 20
-4.584583114443887
 30
0.0
 10
-62.74440724895014
 20
-4.67179873036764
 30
0.0
 10
-63.37626133173445
 20
-4.786140626474093
 30
0.0
 10
-63.69341725796592
 20
-4.813238667570942
 30
0.0
 10
-64.31035743559916
 20
-4.813238667570942
 30
0.0
 10
-64.63129281895387
 20
-4.785470431102169
 30
0.0
 10
-65.27026981568543
 20
-4.668421595239351
 30
0.0
 10
-65.58831921985298
 20
-4.579171023034689
 30
0.0
 10
-66.19963324513303
 20
-4.342762119793064
 30
0.0
 10
-66.49337033065966
 20
-4.195433199442277
 30
0.0
 10
-67.03879743213251
 20
-3.853899818125512
 30
0.0
 10
-67.29048422747142
 20
-3.659660585884296
 30
0.0
 10
-67.74130707882052
 20
-3.24130802163944
 30
0.0
 10
-67.95583279170564
 20
-3.00199285530482
 30
0.0
 10
-68.33652431724416
 20
-2.476737516738353
 30
0.0
 10
-68.50271296356836
 20
-2.19079354102962
 30
0.0
 10
-68.77130281465885
 20
-1.590081060246802
 30
0.0
 10
-68.87393795443133
 20
-1.27472779216896
 30
0.0
 10
-69.00926250458032
 20
-0.6365989058257356
 30
0.0
 10
-69.04191063393129
 20
-0.3138121858090699
 30
0.0
 10
-69.04191063393129
 20
0.3138121858088994
 30
0.0
 10
-69.00926250458032
 20
0.6365989058256219
 30
0.0
 10
-68.87393795443133
 20
1.274727792168846
 30
0.0
 10
-68.77130281465882
 20
1.590081060246689
 30
0.0
 10
-68.50271296356833
 20
2.190793541029506
 30
0.0
 10
-68.33652431724416
 20
2.476737516738239
 30
0.0
 10
-67.95583279170561
 20
3.001992855304649
 30
0.0
 10
-67.74130707882052
 20
3.24130802163927
 30
0.0
 10
-67.29048422747142
 20
3.659660585884125
 30
0.0
 10
-67.03879743213248
 20
3.853899818125341
 30
0.0
 10
-66.49337033065963
 20
4.195433199442049
 30
0.0
 10
-66.19963324513303
 20
4.342762119792894
 30
0.0
 10
-65.58831921985298
 20
4.579171023034518
 30
0.0
 10
-65.27026981568543
 20
4.66842159523918
 30
0.0
 10
-64.63129281895387
 20
4.785470431101998
 30
0.0
 10
-64.31035743559916
 20
4.813238667570772
 30
0.0
 10
-64.00000047690942
 20
4.813238667570772
 30
0.0
  0
LINE
  5
C90
330
C53
100
AcDbEntity
  8
241
100
AcDbLine
 10
-50.00000047690932
 20
13.99999999998793
 30
0.0
 11
-50.00000047690932
 21
-13.99999991977988
 31
0.0
  0
LINE
  5
C91
330
C53
100
AcDbEntity
  8
245
100
AcDbLine
 10
-64.00000047690882
 20
-6.585300982583589
 30
0.0
 11
-64.00000047690928
 21
6.535064604361423
 31
0.0
  0
LINE
  5
C92
330
C53
100
AcDbEntity
  8
247
100
AcDbLine
 10
-45.11013671358137
 20
-13.19481426759295
 30
0.0
 11
-44.89674181745556
 21
-12.98140563684037
 31
0.0
1001
ACAD
1000
ASC_BOUNDS
1002
{
1070
    19
1005
0
1002
}
  0
ARC
  5
C93
330
C53
100
AcDbEntity
  8
247
100
AcDbCircle
 10
-47.38876666244178
 20
-13.42113344750932
 30
0.0
 40
0.3819927511654794
100
AcDbArc
 50
91.7101213820627
 51
253.9983983544487
1001
ACAD
1000
ASC_BOUNDS
1002
{
1070
    19
1005
0
1002
}
  0
ARC
  5
C94
330
C53
100
AcDbEntity
  8
247
100
AcDbCircle
 10
-46.98859457687049
 20
-13.61157778230241
 30
0.0
 40
1.182347062325477
100
AcDbArc
 50
143.4440121970577
 51
254.0001843876854
1001
ACAD
1000
ASC_BOUNDS
1002
{
1070
    19
1005
0
1002
}
  0
LINE
  5
C95
330
C53
100
AcDbEntity
  8
247
100
AcDbLine
 10
-46.75212550777106
 20
-13.50907626271776
 30
0.0
 11
-46.75212550777106
 21
-12.44938113427689
 31
0.0
1001
ACAD
1000
ASC_BOUNDS
1002
{
1070
    19
1005
0
1002
}
  0
INSERT
  5
C96
330
C53
100
AcDbEntity
  8
247
  6
CONTINUOUS
100
AcDbBlockReference
  2
*X5
 10
-50.00000047690926
 20
2.69386390390327
 30
0.0
 41
1.714499999999986
 42
1.714500000000001
 43
1.7145
1001
ACAD
1000
HATCH
1002
{
1070
    19
1000
ANSI31
1040
0.0525
1040
1.570796326794895
1002
}
  0
ARC
  5
C97
330
C53
100
AcDbEntity
  8
247
100
AcDbCircle
 10
-46.26098898910194
 20
-11.9939134413295
 30
0.0
 40
1.546148139381408
100
AcDbArc
 50
0.0
 51
194.1274364964119
1001
ACAD
1000
ASC_BOUNDS
1002
{
1070
    19
1005
0
1002
}
  0
ARC
  5
C98
330
C53
100
AcDbEntity
  8
247
100
AcDbCircle
 10
-46.26098898910194
 20
-11.9939134413295
 30
0.0
 40
1.909950933265685
100
AcDbArc
 50
0.0
 51
194.770793966094
1001
ACAD
1000
ASC_BOUNDS
1002
{
1070
    19
1005
0
1002
}
  0
LINE
  5
C99
330
C53
100
AcDbEntity
  8
247
100
AcDbLine
 10
-44.89674181745556
 20
-15.76309333119919
 30
0.0
 11
-48.17093992236763
 21
-14.82423544908096
 31
0.0
  0
ARC
  5
C9A
330
C53
100
AcDbEntity
  8
247
100
AcDbCircle
 10
-45.67891550658851
 20
-13.91143215394549
 30
0.0
 40
0.3819924829110504
100
AcDbArc
 50
254.0002730571841
 51
74.00027305718409
1001
ACAD
1000
ASC_BOUNDS
1002
{
1070
    19
1005
0
1002
}
  0
ARC
  5
C9B
330
C53
100
AcDbEntity
  8
247
100
AcDbCircle
 10
-46.07908759215982
 20
-13.87237087541154
 30
0.0
 40
1.182359080123901
100
AcDbArc
 50
253.9997507017292
 51
34.96387329163151
1001
ACAD
1000
ASC_BOUNDS
1002
{
1070
    19
1005
0
1002
}
  0
INSERT
  5
C9C
330
C53
100
AcDbEntity
  8
247
  6
CONTINUOUS
100
AcDbBlockReference
  2
*X4
 10
-50.00000047690926
 20
2.69386390390327
 30
0.0
 41
1.714499999999986
 42
1.714500000000001
 43
1.7145
1001
ACAD
1000
HATCH
1002
{
1070
    19
1000
ANSI31
1040
0.0525
1040
1.570796326794895
1002
}
  0
POLYLINE
  5
C9D
330
C53
100
AcDbEntity
  8
247
100
AcDb2dPolyline
 66
     1
 10
0.0
 20
0.0
 30
0.0
 70
     1
  0
VERTEX
  5
C9E
330
C9D
100
AcDbEntity
  8
247
100
AcDbVertex
100
AcDb2dVertex
 10
-48.17093992236763
 20
-15.77038641801409
 30
0.0
  0
VERTEX
  5
C9F
330
C9D
100
AcDbEntity
  8
247
100
AcDbVertex
100
AcDb2dVertex
 10
-47.77076783679635
 20
-15.88513922467759
 30
0.0
  0
VERTEX
  5
CA0
330
C9D
100
AcDbEntity
  8
247
100
AcDbVertex
100
AcDb2dVertex
 10
-47.77076783679635
 20
-15.75266874948075
 30
0.0
  0
VERTEX
  5
CA1
330
C9D
100
AcDbEntity
  8
247
100
AcDbVertex
100
AcDb2dVertex
 10
-44.89674181745556
 20
-16.57678755956225
 30
0.0
  0
VERTEX
  5
CA2
330
C9D
100
AcDbEntity
  8
247
100
AcDbVertex
100
AcDb2dVertex
 10
-44.89674181745556
 20
-15.76309333119919
 30
0.0
  0
VERTEX
  5
CA3
330
C9D
100
AcDbEntity
  8
247
100
AcDbVertex
100
AcDb2dVertex
 10
-48.17093992236763
 20
-14.82423544908096
 30
0.0
  0
SEQEND
  5
CA4
330
C9D
100
AcDbEntity
  8
247
  0
POLYLINE
  5
CA5
330
C53
100
AcDbEntity
  8
247
100
AcDb2dPolyline
 66
     1
 10
0.0
 20
0.0
 30
0.0
 70
     1
1001
HATCH_DISTANCE
1040
1.0
1001
HATCH_DISPLAY
1070
     0
1001
HATCH_TYPE
1070
     7
  0
VERTEX
  5
CA6
330
CA5
100
AcDbEntity
  8
247
100
AcDbVertex
100
AcDb2dVertex
 10
-48.17093992236763
 20
-15.77038641801409
 30
0.0
  0
VERTEX
  5
CA7
330
CA5
100
AcDbEntity
  8
247
100
AcDbVertex
100
AcDb2dVertex
 10
-47.77076783679635
 20
-15.88513922467759
 30
0.0
  0
VERTEX
  5
CA8
330
CA5
100
AcDbEntity
  8
247
100
AcDbVertex
100
AcDb2dVertex
 10
-47.77076783679635
 20
-15.75266874948075
 30
0.0
  0
VERTEX
  5
CA9
330
CA5
100
AcDbEntity
  8
247
100
AcDbVertex
100
AcDb2dVertex
 10
-44.89674181745556
 20
-16.57678755956225
 30
0.0
  0
VERTEX
  5
CAA
330
CA5
100
AcDbEntity
  8
247
100
AcDbVertex
100
AcDb2dVertex
 10
-44.89674181745556
 20
-15.76309333119919
 30
0.0
  0
VERTEX
  5
CAB
330
CA5
100
AcDbEntity
  8
247
100
AcDbVertex
100
AcDb2dVertex
 10
-48.17093992236763
 20
-14.82423544908096
 30
0.0
  0
SEQEND
  5
CAC
330
CA5
100
AcDbEntity
  8
247
  0
LINE
  5
CAD
330
C53
100
AcDbEntity
  8
247
100
AcDbLine
 10
-44.89674181745556
 20
-16.57678755956225
 30
0.0
 11
-47.77076783679635
 21
-15.75266874948075
 31
0.0
  0
LINE
  5
CAE
330
C53
100
AcDbEntity
  8
247
100
AcDbLine
 10
-45.7842051554075
 20
-14.27862740064193
 30
0.0
 11
-47.49407004588753
 21
-13.78832869420579
 31
0.0
1001
ACAD
1000
ASC_BOUNDS
1002
{
1070
    19
1005
0
1002
}
  0
ARC
  5
CAF
330
C53
100
AcDbEntity
  8
247
100
AcDbCircle
 10
-46.01692467139869
 20
-11.93927709603836
 30
0.0
 40
3.094081780242919
100
AcDbArc
 50
245.2051773698406
 51
262.7948259620521
1001
ACAD
1000
ASC_BOUNDS
1002
{
1070
    19
1005
0
1002
}
  0
LINE
  5
CB0
330
C53
100
AcDbEntity
  8
247
100
AcDbLine
 10
-47.77076783679635
 20
-15.88513922467759
 30
0.0
 11
-48.17093992236763
 21
-15.77038641801409
 31
0.0
  0
LINE
  5
CB1
330
C53
100
AcDbEntity
  8
247
100
AcDbLine
 10
-48.17093992236763
 20
-15.77038641801409
 30
0.0
 11
-48.17093992236763
 21
-14.82423544908096
 31
0.0
  0
LINE
  5
CB2
330
C53
100
AcDbEntity
  8
247
100
AcDbLine
 10
-47.77076783679635
 20
-15.88513922467759
 30
0.0
 11
-47.77076783679635
 21
-15.75266874948075
 31
0.0
  0
LINE
  5
CB3
330
C53
100
AcDbEntity
  8
247
100
AcDbLine
 10
-46.38832271388679
 20
-13.61339075303605
 30
0.0
 11
-46.38832271388679
 21
-13.31062464051773
 31
0.0
1001
ACAD
1000
ASC_BOUNDS
1002
{
1070
    19
1005
0
1002
}
  0
LINE
  5
CB4
330
C53
100
AcDbEntity
  8
247
100
AcDbLine
 10
-46.38832271388679
 20
-13.61339075303605
 30
0.0
 11
-46.75212550777106
 21
-13.50907626271776
 31
0.0
1001
ACAD
1000
ASC_BOUNDS
1002
{
1070
    19
1005
0
1002
}
  0
LINE
  5
CB5
330
C53
100
AcDbEntity
  8
247
100
AcDbLine
 10
-45.57362585776951
 20
-13.544236907249
 30
0.0
 11
-46.38832271388679
 21
-13.31062464051773
 31
0.0
1001
ACAD
1000
ASC_BOUNDS
1002
{
1070
    19
1005
0
1002
}
  0
LINE
  5
CB6
330
C53
100
AcDbEntity
  8
247
100
AcDbLine
 10
-47.18565778283564
 20
-17.13301760069256
 30
0.0
 11
-47.79444663701048
 21
-16.52422874651772
 31
0.0
  0
LINE
  5
CB7
330
C53
100
AcDbEntity
  8
247
100
AcDbLine
 10
-47.75612882915161
 20
-17.37087063315417
 30
0.0
 11
-48.13132869883467
 21
-16.99567076347104
 31
0.0
  0
LINE
  5
CB8
330
C53
100
AcDbEntity
  8
247
100
AcDbLine
 10
-47.54319063313366
 20
-17.17964678978334
 30
0.0
 11
-47.99682583069784
 21
-16.72601159221917
 31
0.0
  0
ARC
  5
CB9
330
C53
100
AcDbEntity
  8
247
100
AcDbCircle
 10
-47.2614466722837
 20
-17.26118401151229
 30
0.0
 40
0.9095009758114816
100
AcDbArc
 50
17.66957754739823
 51
180.2361598426716
  0
LINE
  5
CBA
330
C53
100
AcDbEntity
  8
247
100
AcDbLine
 10
-45.95914243800331
 20
-17.55120886674733
 30
0.0
 11
-47.1520671460724
 21
-16.35828415867822
 31
0.0
  0
LINE
  5
CBB
330
C53
100
AcDbEntity
  8
247
100
AcDbLine
 10
-44.9649314091038
 20
-17.33293377748044
 30
0.0
 11
-45.46071356681466
 21
-16.83715161976953
 31
0.0
  0
LINE
  5
CBC
330
C53
100
AcDbEntity
  8
247
100
AcDbLine
 10
-44.89674181745556
 20
-16.57678755956225
 30
0.0
 11
-44.89674181745556
 21
-15.76309333119919
 31
0.0
  0
LINE
  5
CBD
330
C53
100
AcDbEntity
  8
247
100
AcDbLine
 10
-44.89674181745556
 20
-12.98140563684037
 30
0.0
 11
-46.75212550777106
 21
-12.44938113427689
 31
0.0
1001
ACAD
1000
ASC_BOUNDS
1002
{
1070
    19
1005
0
1002
}
  0
LINE
  5
CBE
330
C53
100
AcDbEntity
  8
247
100
AcDbLine
 10
-47.76038445895821
 20
-12.37129978108932
 30
0.0
 11
-48.10782931235937
 21
-12.48086089883377
 31
0.0
1001
ACAD
1000
ASC_BOUNDS
1002
{
1070
    19
1005
0
1002
}
  0
POLYLINE
  5
CBF
330
C53
100
AcDbEntity
  8
247
100
AcDb2dPolyline
 66
     1
 10
0.0
 20
0.0
 30
0.0
 70
     1
  0
VERTEX
  5
CC0
330
CBF
100
AcDbEntity
  8
247
100
AcDbVertex
100
AcDb2dVertex
 10
-47.76038445895821
 20
-12.37129978108932
 30
0.0
  0
VERTEX
  5
CC1
330
CBF
100
AcDbEntity
  8
247
100
AcDbVertex
100
AcDb2dVertex
 10
-48.10782931235937
 20
-12.48086089883377
 30
0.0
  0
VERTEX
  5
CC2
330
CBF
100
AcDbEntity
  8
247
100
AcDbVertex
100
AcDb2dVertex
 10
-48.10782931235937
 20
-12.48086089883377
 30
0.0
  0
VERTEX
  5
CC3
330
CBF
100
AcDbEntity
  8
247
100
AcDbVertex
100
AcDb2dVertex
 10
-47.76038445895821
 20
-12.37129978108932
 30
0.0
  0
SEQEND
  5
CC4
330
CBF
100
AcDbEntity
  8
247
  0
POLYLINE
  5
CC5
330
C53
100
AcDbEntity
  8
247
100
AcDb2dPolyline
 66
     1
 10
0.0
 20
0.0
 30
0.0
 70
     1
1001
HATCH_DISTANCE
1040
1.0
1001
HATCH_DISPLAY
1070
     0
1001
HATCH_TYPE
1070
     7
  0
VERTEX
  5
CC6
330
CC5
100
AcDbEntity
  8
247
100
AcDbVertex
100
AcDb2dVertex
 10
-47.76038445895821
 20
-12.37129978108932
 30
0.0
  0
VERTEX
  5
CC7
330
CC5
100
AcDbEntity
  8
247
100
AcDbVertex
100
AcDb2dVertex
 10
-48.10782931235937
 20
-12.48086089883377
 30
0.0
  0
VERTEX
  5
CC8
330
CC5
100
AcDbEntity
  8
247
100
AcDbVertex
100
AcDb2dVertex
 10
-48.10782931235937
 20
-12.48086089883377
 30
0.0
  0
VERTEX
  5
CC9
330
CC5
100
AcDbEntity
  8
247
100
AcDbVertex
100
AcDb2dVertex
 10
-47.76038445895821
 20
-12.37129978108932
 30
0.0
  0
SEQEND
  5
CCA
330
CC5
100
AcDbEntity
  8
247
  0
POLYLINE
  5
CCB
330
C53
100
AcDbEntity
  8
247
100
AcDb2dPolyline
 66
     1
 10
0.0
 20
0.0
 30
0.0
 70
     1
  0
VERTEX
  5
CCC
330
CCB
100
AcDbEntity
  8
247
100
AcDbVertex
100
AcDb2dVertex
 10
-47.76038445895821
 20
-12.37129978108932
 30
0.0
  0
VERTEX
  5
CCD
330
CCB
100
AcDbEntity
  8
247
100
AcDbVertex
100
AcDb2dVertex
 10
-48.10782931235937
 20
-12.48086089883377
 30
0.0
  0
VERTEX
  5
CCE
330
CCB
100
AcDbEntity
  8
247
100
AcDbVertex
100
AcDb2dVertex
 10
-48.10782931235937
 20
-12.48086089883377
 30
0.0
  0
VERTEX
  5
CCF
330
CCB
100
AcDbEntity
  8
247
100
AcDbVertex
100
AcDb2dVertex
 10
-47.76038445895821
 20
-12.37129978108932
 30
0.0
  0
SEQEND
  5
CD0
330
CCB
100
AcDbEntity
  8
247
  0
POLYLINE
  5
CD1
330
C53
100
AcDbEntity
  8
247
100
AcDb2dPolyline
 66
     1
 10
0.0
 20
0.0
 30
0.0
 70
     1
1001
HATCH_DISTANCE
1040
1.0
1001
HATCH_DISPLAY
1070
     0
1001
HATCH_TYPE
1070
     7
  0
VERTEX
  5
CD2
330
CD1
100
AcDbEntity
  8
247
100
AcDbVertex
100
AcDb2dVertex
 10
-47.76038445895821
 20
-12.37129978108932
 30
0.0
  0
VERTEX
  5
CD3
330
CD1
100
AcDbEntity
  8
247
100
AcDbVertex
100
AcDb2dVertex
 10
-48.10782931235937
 20
-12.48086089883377
 30
0.0
  0
VERTEX
  5
CD4
330
CD1
100
AcDbEntity
  8
247
100
AcDbVertex
100
AcDb2dVertex
 10
-48.10782931235937
 20
-12.48086089883377
 30
0.0
  0
VERTEX
  5
CD5
330
CD1
100
AcDbEntity
  8
247
100
AcDbVertex
100
AcDb2dVertex
 10
-47.76038445895821
 20
-12.37129978108932
 30
0.0
  0
SEQEND
  5
CD6
330
CD1
100
AcDbEntity
  8
247
  0
LINE
  5
CD7
330
C53
100
AcDbEntity
  8
247
100
AcDbLine
 10
-47.70567944053323
 20
-12.54478185182144
 30
0.0
 11
-48.05312429393436
 21
-12.65434296956591
 31
0.0
1001
ACAD
1000
ASC_BOUNDS
1002
{
1070
    19
1005
0
1002
}
  0
ARC
  5
CD8
330
C53
100
AcDbEntity
  8
247
100
AcDbCircle
 10
-46.26098898910194
 20
-11.9939134413295
 30
0.0
 40
1.909951791679857
100
AcDbArc
 50
200.2296450633198
 51
208.5716889237171
1001
ACAD
1000
ASC_BOUNDS
1002
{
1070
    19
1005
0
1002
}
  0
ARC
  5
CD9
330
C53
100
AcDbEntity
  8
247
100
AcDbCircle
 10
-46.26098898910194
 20
-11.9939134413295
 30
0.0
 40
1.546152431452272
100
AcDbArc
 50
200.8721834020773
 51
222.5419489373864
1001
ACAD
1000
ASC_BOUNDS
1002
{
1070
    19
1005
0
1002
}
  0
ELLIPSE
  5
CDA
330
C53
100
AcDbEntity
  8
241
100
AcDbEllipse
 10
-27.16751004993989
 20
0.0000015500419579
 30
0.0
 11
-0.8331717266192548
 21
0.0000000000000149
 31
0.0
210
0.0
220
0.0
230
1.0
 40
0.9601862070453893
 41
5.029668201006523
 42
7.536702413352652
  0
LINE
  5
CDB
330
C53
100
AcDbEntity
  8
241
100
AcDbLine
 10
-27.42744524755218
 20
-0.7600686658106213
 30
0.0
 11
-14.66447470331749
 21
-4.784217820906177
 31
0.0
  0
LINE
  5
CDC
330
C53
100
AcDbEntity
  8
240
100
AcDbLine
 10
-16.16353918678102
 20
-5.753247275774867
 30
0.0
 11
-25.86138457307795
 21
-13.33003448417315
 31
0.0
  0
LINE
  5
CDD
330
C53
100
AcDbEntity
  8
241
100
AcDbLine
 10
-25.86138457307795
 20
-13.33003448417315
 30
0.0
 11
-25.86138457307775
 21
-1.382860465519399
 31
0.0
  0
LINE
  5
CDE
330
C53
100
AcDbEntity
  8
241
100
AcDbLine
 10
-25.86138457307795
 20
-13.33003448417315
 30
0.0
 11
-25.86138457307775
 21
-1.382860465519399
 31
0.0
  0
ARC
  5
CDF
330
C53
100
AcDbEntity
  8
240
100
AcDbCircle
 10
-10.00692443352444
 20
-13.63335481184208
 30
0.0
 40
9.999999999999998
100
AcDbArc
 50
117.7590970474972
 51
127.999999999998
  0
ARC
  5
CE0
330
C53
100
AcDbEntity
  8
240
100
AcDbCircle
 10
-10.00692443352444
 20
-13.63335481184208
 30
0.0
 40
9.999999999999998
100
AcDbArc
 50
118.7432938170173
 51
127.9999999999995
  0
LINE
  5
CE1
330
C53
100
AcDbEntity
  8
240
100
AcDbLine
 10
-14.66447470331745
 20
-4.784217820906191
 30
0.0
 11
-14.23999010680009
 21
-4.918057300085905
 31
0.0
  0
ELLIPSE
  5
CE2
330
C53
100
AcDbEntity
  8
240
100
AcDbEllipse
 10
-14.00034088827874
 20
-4.15159093959474
 30
0.0
 11
-0.0000000000000131
 21
-0.8033590290028653
 31
0.0
210
0.0
220
0.0
230
1.0
 40
0.9958187698381447
 41
5.978952268594853
 42
6.587418345764318
  0
LINE
  5
CE3
330
C53
100
AcDbEntity
  8
241
100
AcDbLine
 10
-14.66447908597843
 20
4.784219541477319
 30
0.0
 11
-27.42744524755213
 21
0.7600717658943666
 31
0.0
  0
SPLINE
  5
CE4
330
C53
100
AcDbEntity
  8
241
100
AcDbSpline
210
0.0
220
0.0
230
1.0
 70
     8
 71
     3
 72
    26
 73
    22
 74
     0
 42
0.0000000001
 43
0.0000000001
 40
15.36415833866581
 40
15.36415833866581
 40
15.36415833866581
 40
15.36415833866581
 40
15.61404750539336
 40
15.61404750539336
 40
16.55140608827976
 40
16.55140608827976
 40
17.48876467116617
 40
17.48876467116617
 40
18.42612325405257
 40
18.42612325405257
 40
19.36348183693898
 40
19.36348183693898
 40
20.30084041982539
 40
20.30084041982539
 40
21.2381990027118
 40
21.2381990027118
 40
22.17555758559821
 40
22.17555758559821
 40
23.11291616848462
 40
23.11291616848462
 40
23.36280533521722
 40
23.36280533521722
 40
23.36280533521722
 40
23.36280533521722
 10
-33.58879118339
 20
15.95274366798236
 30
0.0
 10
-33.57612990779749
 20
15.88314506131951
 30
0.0
 10
-33.56346419347274
 20
15.8133714639066
 30
0.0
 10
-33.50374382253558
 20
15.48206918712247
 30
0.0
 10
-33.45378983734225
 20
15.19837969901863
 30
0.0
 10
-33.35863860619481
 20
14.60009962499856
 30
0.0
 10
-33.31356939347161
 20
14.28549146477729
 30
0.0
 10
-33.23823378120358
 20
13.64190630970341
 30
0.0
 10
-33.2080382633401
 20
13.31260211400928
 30
0.0
 10
-33.16812334110962
 20
12.65828457779361
 30
0.0
 10
-33.15843518090825
 20
12.33326814113337
 30
0.0
 10
-33.15843518090825
 20
11.70836241920909
 30
0.0
 10
-33.16812334110965
 20
11.3833459825488
 30
0.0
 10
-33.20803826334016
 20
10.72902844633307
 30
0.0
 10
-33.23823378120364
 20
10.39972425063893
 30
0.0
 10
-33.31356939347169
 20
9.75613909556506
 30
0.0
 10
-33.35863860619493
 20
9.441530935343791
 30
0.0
 10
-33.4537898373424
 20
8.843250861323781
 30
0.0
 10
-33.50374382253569
 20
8.559561373219935
 30
0.0
 10
-33.56346419347314
 20
8.228259096434385
 30
0.0
 10
-33.57612990779735
 20
8.158485499024322
 30
0.0
 10
-33.58879118339014
 20
8.088886892360108
 30
0.0
  0
LINE
  5
CE5
330
C53
100
AcDbEntity
  8
241
100
AcDbLine
 10
-33.80000047690948
 20
16.91660448889405
 30
0.0
 11
-33.80000047690943
 21
7.125026071449156
 31
0.0
  0
ELLIPSE
  5
CE6
330
C53
100
AcDbEntity
  8
241
100
AcDbEllipse
 10
-35.05078143354607
 20
12.02081528017123
 30
0.0
 11
0.000000000000118
 21
6.87918776648979
 31
0.0
210
0.0
220
0.0
230
1.0
 40
0.2588190451025213
 41
5.504277581471998
 42
10.20368568647714
  0
ELLIPSE
  5
CE7
330
C53
100
AcDbEntity
  8
241
100
AcDbEllipse
 10
-35.1405834658655
 20
12.02081528017123
 30
0.0
 11
0.0000000000001084
 21
6.999999999999997
 31
0.0
210
0.0
220
0.0
230
1.0
 40
0.2679491924311232
 41
3.937833463166385
 42
4.115944932937962
  0
ELLIPSE
  5
CE8
330
C53
100
AcDbEntity
  8
241
100
AcDbEllipse
 10
-35.1405834658655
 20
12.02081528017123
 30
0.0
 11
0.0000000000001084
 21
6.999999999999997
 31
0.0
210
0.0
220
0.0
230
1.0
 40
0.2679491924311232
 41
5.308833027831422
 42
5.486944497603165
  0
LINE
  5
CE9
330
C53
100
AcDbEntity
  8
241
100
AcDbLine
 10
-25.86138457307747
 20
13.33003389802456
 30
0.0
 11
-25.8613845730777
 21
1.253848800153707
 31
0.0
  0
LINE
  5
CEA
330
C53
100
AcDbEntity
  8
240
100
AcDbLine
 10
-25.8613845730775
 20
13.33003389802456
 30
0.0
 11
-16.16353918678099
 21
5.753246689626621
 31
0.0
  0
ARC
  5
CEB
330
C53
100
AcDbEntity
  8
240
100
AcDbCircle
 10
-10.00692443352438
 20
13.63335422569383
 30
0.0
 40
10.0
100
AcDbArc
 50
232.0000000000004
 51
241.2567061829826
  0
LINE
  5
CEC
330
C53
100
AcDbEntity
  8
240
100
AcDbLine
 10
-14.24090553553543
 20
4.91777176901067
 30
0.0
 11
-14.6644790859784
 21
4.784219541477327
 31
0.0
  0
ARC
  5
CED
330
C53
100
AcDbEntity
  8
240
100
AcDbCircle
 10
-10.00692443352438
 20
13.63335422569383
 30
0.0
 40
10.0
100
AcDbArc
 50
241.2567061829826
 51
242.2408569758554
  0
ARC
  5
CEE
330
C53
100
AcDbEntity
  8
240
100
AcDbCircle
 10
-14.00034089593202
 20
4.154798208412074
 30
0.0
 40
0.8
100
AcDbArc
 50
72.50000000000011
 51
107.4999999999999
  0
LINE
  5
CEF
330
C53
100
AcDbEntity
  8
240
100
AcDbLine
 10
-40.79826003327776
 20
24.99999999999994
 30
0.0
 11
-49.7000004769093
 21
24.99999999999906
 31
0.0
  0
LINE
  5
CF0
330
C53
100
AcDbEntity
  8
240
100
AcDbLine
 10
-49.7000004769093
 20
24.99999999999906
 30
0.0
 11
-50.00000047690931
 21
24.6999999999991
 31
0.0
  0
LINE
  5
CF1
330
C53
100
AcDbEntity
  8
240
100
AcDbLine
 10
-35.58452940925455
 20
20.92658720297271
 30
0.0
 11
-33.58879118338994
 21
19.36734561283464
 31
0.0
  0
LINE
  5
CF2
330
C53
100
AcDbEntity
  8
240
100
AcDbLine
 10
-40.79826003327776
 20
24.99999999999994
 30
0.0
 11
-35.58452940925455
 21
20.92658720297271
 31
0.0
  0
ELLIPSE
  5
CF3
330
C53
100
AcDbEntity
  8
240
100
AcDbEllipse
 10
-0.8331717266177065
 20
0.0000015500413895
 30
0.0
 11
0.8331717266192551
 21
-0.0000000000000141
 31
0.0
210
0.0
220
0.0
230
1.0
 40
0.9601862070453883
 41
5.029668201006521
 42
7.536702413352649
  0
ENDBLK
  5
CF5
330
C53
100
AcDbEntity
  8
0
100
AcDbBlockEnd
  0
ENDSEC
  0
SECTION
  2
ENTITIES
  0
TEXT
  5
9FF
330
1A
100
AcDbEntity
  8
241
100
AcDbText
 10
-78.0
 20
49.00000000000002
 30
0.0
 40
5.0
  1
S50-SVQBN-0050-16
  7
YOKO
 11
-78.0
 21
49.00000000000002
 31
0.0
100
AcDbText
 73
     1
  0
DIMENSION
  5
A02
330
1A
100
AcDbEntity
  8
250
  6
CONTINUOUS
100
AcDbDimension
  2
*D1
 10
0.0000004769093089
 20
35.0
 30
0.0
 11
-24.99999976154534
 21
37.5
 31
0.0
 70
    32
  3
BIGT
100
AcDbAlignedDimension
 13
-50.0
 23
24.69999999999911
 33
0.0
 14
0.0000004769093067
 24
0.0000000000000071
 34
0.0
100
AcDbRotatedDimension
1001
ACAD
1000
DSTYLE
1002
{
1070
    78
1070
     8
1070
   140
1040
3.0
1002
}
  0
DIMENSION
  5
A11
330
1A
100
AcDbEntity
  8
250
  6
CONTINUOUS
100
AcDbDimension
  2
*D2
 10
14.00000047690929
 20
24.99999999999993
 30
0.0
 11
11.50000047690928
 21
-0.0000000000000645
 31
0.0
 70
    32
  1
{\H3;\U+2205}<>
  3
BIGT
100
AcDbAlignedDimension
 13
-40.7982588061331
 23
-25.00000000000005
 33
0.0
 14
-40.79825955636846
 24
24.99999999999995
 34
0.0
 50
90.0
100
AcDbRotatedDimension
1001
ACAD
1000
DSTYLE
1002
{
1070
    78
1070
     8
1070
   140
1040
3.0
1002
}
  0
INSERT
  5
CF6
330
1A
100
AcDbEntity
  8
240
100
AcDbBlockReference
  2
A$C0FFB75DA
 10
0.0
 20
0.0
 30
0.0
  0
VIEWPORT
  5
22
330
17
100
AcDbEntity
 67
     1
  8
0
100
AcDbViewport
 10
261.5176991150442
 20
148.5
 30
0.0
 40
523.0353982300885
 41
297.0
 68
     1
 69
     1
1001
ACAD
1000
MVIEW
1002
{
1070
    16
1010
0.0
1020
0.0
1030
0.0
1010
0.0
1020
0.0
1030
1.0
1040
0.0
1040
297.0
1040
261.5176991150442
1040
148.5
1040
50.0
1040
0.0
1040
0.0
1070
     0
1070
   100
1070
     1
1070
     1
1070
     0
1070
     0
1070
     0
1070
     0
1040
0.0
1040
0.0
1040
0.0
1040
1.0
1040
1.0
1040
10.0
1040
10.0
1070
     0
1002
{
1002
}
1002
}
  0
ENDSEC
  0
SECTION
  2
OBJECTS
  0
DICTIONARY
  5
C
330
0
100
AcDbDictionary
  3
ACAD_GROUP
350
D
  3
ACAD_LAYOUT
350
565
  3
ACAD_MLINESTYLE
350
E
  3
ACAD_PLOTSETTINGS
350
566
  3
ACAD_PLOTSTYLENAME
350
563
  3
ACDBHEADERROUNDTRIPXREC
350
D04
  3
ACDBVARIABLEDICTIONARY
350
68E
  3
GRADE_DWG
350
540
  0
DICTIONARY
  5
D27
330
1A
100
AcDbDictionary
280
     1
  3
ACAD_LAYOUTSELFREF
360
D28
  0
DICTIONARY
  5
D25
330
17
100
AcDbDictionary
280
     1
  3
ACAD_LAYOUTSELFREF
360
D26
  0
DICTIONARY
  5
D
102
{ACAD_REACTORS
330
C
102
}
330
C
100
AcDbDictionary
  3
DREC-1
350
5FC
  3
DREC-2
350
654
  3
DREC-3
350
673
  0
DICTIONARY
  5
565
102
{ACAD_REACTORS
330
C
102
}
330
C
100
AcDbDictionary
  0
DICTIONARY
  5
E
102
{ACAD_REACTORS
330
C
102
}
330
C
100
AcDbDictionary
  3
STANDARD
350
13
  0
DICTIONARY
  5
566
102
{ACAD_REACTORS
330
C
102
}
330
C
100
AcDbDictionary
  0
ACDBDICTIONARYWDFLT
  5
563
102
{ACAD_REACTORS
330
C
102
}
330
C
100
AcDbDictionary
281
     1
  3
Normal
350
564
100
AcDbDictionaryWithDefault
340
564
  0
DICTIONARY
  5
D04
102
{ACAD_REACTORS
330
C
102
}
330
C
100
AcDbDictionary
  3
CEPSNTYPE
350
D0E
  3
DIMSTYLEDATA
350
D12
  3
FINGERPRINTGUID
350
D0F
  3
HYPERLINKBASE
350
D07
  3
INSUNITS
350
D0D
  3
LAYOUTDICT
350
D09
  3
LWETCUNION
350
D0C
  3
PLOTSETDICT
350
D0A
  3
PLOTSTYLNAMDICT
350
D0B
  3
PSVPSCALE
350
D11
  3
PUCSBASE
350
D15
  3
PUCSORGBACK
350
D1B
  3
PUCSORGBOTTOM
350
D17
  3
PUCSORGFRONT
350
D1A
  3
PUCSORGLEFT
350
D18
  3
PUCSORGRIGHT
350
D19
  3
PUCSORGTOP
350
D16
  3
PUCSORTHOREF
350
D13
  3
PUCSORTHOVIEW
350
D14
  3
STYLESHEET
350
D08
  3
TSTACKALIGN
350
D05
  3
TSTACKSIZE
350
D06
  3
UCSBASE
350
D1E
  3
UCSORGBACK
350
D24
  3
UCSORGBOTTOM
350
D20
  3
UCSORGFRONT
350
D23
  3
UCSORGLEFT
350
D21
  3
UCSORGRIGHT
350
D22
  3
UCSORGTOP
350
D1F
  3
UCSORTHOREF
350
D1C
  3
UCSORTHOVIEW
350
D1D
  3
VERSIONGUID
350
D10
  0
DICTIONARY
  5
68E
102
{ACAD_REACTORS
330
C
102
}
330
C
100
AcDbDictionary
  3
DIMASSOC
350
68F
  3
SORTENTS
350
894
  0
DICTIONARY
  5
540
102
{ACAD_REACTORS
330
C
102
}
330
C
100
AcDbDictionary
  3
VERSION
350
560
  0
XRECORD
  5
D28
102
{ACAD_REACTORS
330
D27
102
}
330
D27
100
AcDbXrecord
340
1A
  0
XRECORD
  5
D26
102
{ACAD_REACTORS
330
D25
102
}
330
D25
100
AcDbXrecord
340
17
  0
GROUP
  5
5FC
102
{ACAD_REACTORS
330
D
102
}
330
D
100
AcDbGroup
300

 70
     0
 71
     1
1001
GRPNAME
1000
DREC-
1001
GPARA
1000
xsiz
1000
44.182
1000
ysiz
1000
40.677
1000
angl
1000
0
1000
ctyp
1000
0
1000
csiz
1000
5
1000
lfnt
1000
cont
1000
hcnt
1000
hoff
1000
vcnt
1000
voff
1000
opnt
1000
4
1000
dxpt
1000
0
1000
dypt
1000
0
  0
GROUP
  5
654
102
{ACAD_REACTORS
330
D
102
}
330
D
100
AcDbGroup
300

 70
     0
 71
     1
1001
GRPNAME
1000
DREC-
1001
GPARA
1000
xsiz
1000
54.592
1000
ysiz
1000
53.036
1000
angl
1000
0
1000
ctyp
1000
0
1000
csiz
1000
5
1000
lfnt
1000
cont
1000
hcnt
1000
hoff
1000
vcnt
1000
voff
1000
opnt
1000
4
1000
dxpt
1000
0
1000
dypt
1000
0
  0
GROUP
  5
673
102
{ACAD_REACTORS
330
D
102
}
330
D
100
AcDbGroup
300

 70
     0
 71
     1
1001
GRPNAME
1000
DREC-
1001
GPARA
1000
xsiz
1000
30.363
1000
ysiz
1000
36.175
1000
angl
1000
0
1000
ctyp
1000
0
1000
csiz
1000
5
1000
lfnt
1000
cont
1000
hcnt
1000
hoff
1000
vcnt
1000
voff
1000
opnt
1000
4
1000
dxpt
1000
0
1000
dypt
1000
0
  0
MLINESTYLE
  5
13
102
{ACAD_REACTORS
330
E
102
}
330
E
100
AcDbMlineStyle
  2
STANDARD
 70
     0
  3

 62
     0
 51
90.0
 52
90.0
 71
     2
 49
0.5
 62
   256
  6
BYLAYER
 49
-0.5
 62
   256
  6
BYLAYER
  0
ACDBPLACEHOLDER
  5
564
102
{ACAD_REACTORS
330
563
102
}
330
563
100
AcDbPlaceHolder
280
     0
  0
XRECORD
  5
D0E
102
{ACAD_REACTORS
330
D04
102
}
330
D04
100
AcDbXrecord
 90
        0
  0
XRECORD
  5
D12
102
{ACAD_REACTORS
330
D04
102
}
330
D04
100
AcDbXrecord
1000
DSTYLE
1002
{
1070
    79
 70
     2
1070
   179
 70
     3
1070
   289
 70
     2
1070
   341
340
594
1070
   342
340
594
1070
   371
 70
    -1
1070
   372
 70
    -1
1002
}
  0
XRECORD
  5
D0F
102
{ACAD_REACTORS
330
D04
102
}
330
D04
100
AcDbXrecord
  1
{51294030-9CB4-11D3-8E18-00A0C925D94D}
  0
XRECORD
  5
D07
102
{ACAD_REACTORS
330
D04
102
}
330
D04
100
AcDbXrecord
  1

  0
XRECORD
  5
D0D
102
{ACAD_REACTORS
330
D04
102
}
330
D04
100
AcDbXrecord
 90
        0
  0
XRECORD
  5
D09
102
{ACAD_REACTORS
330
D04
102
}
330
D04
100
AcDbXrecord
340
565
  0
XRECORD
  5
D0C
102
{ACAD_REACTORS
330
D04
102
}
330
D04
100
AcDbXrecord
 90
    10781
  0
XRECORD
  5
D0A
102
{ACAD_REACTORS
330
D04
102
}
330
D04
100
AcDbXrecord
340
566
  0
XRECORD
  5
D0B
102
{ACAD_REACTORS
330
D04
102
}
330
D04
100
AcDbXrecord
340
563
  0
XRECORD
  5
D11
102
{ACAD_REACTORS
330
D04
102
}
330
D04
100
AcDbXrecord
 40
0.0
  0
XRECORD
  5
D15
102
{ACAD_REACTORS
330
D04
102
}
330
D04
100
AcDbXrecord
340
0
  0
XRECORD
  5
D1B
102
{ACAD_REACTORS
330
D04
102
}
330
D04
100
AcDbXrecord
 10
0.0
 20
0.0
 30
0.0
  0
XRECORD
  5
D17
102
{ACAD_REACTORS
330
D04
102
}
330
D04
100
AcDbXrecord
 10
0.0
 20
0.0
 30
0.0
  0
XRECORD
  5
D1A
102
{ACAD_REACTORS
330
D04
102
}
330
D04
100
AcDbXrecord
 10
0.0
 20
0.0
 30
0.0
  0
XRECORD
  5
D18
102
{ACAD_REACTORS
330
D04
102
}
330
D04
100
AcDbXrecord
 10
0.0
 20
0.0
 30
0.0
  0
XRECORD
  5
D19
102
{ACAD_REACTORS
330
D04
102
}
330
D04
100
AcDbXrecord
 10
0.0
 20
0.0
 30
0.0
  0
XRECORD
  5
D16
102
{ACAD_REACTORS
330
D04
102
}
330
D04
100
AcDbXrecord
 10
0.0
 20
0.0
 30
0.0
  0
XRECORD
  5
D13
102
{ACAD_REACTORS
330
D04
102
}
330
D04
100
AcDbXrecord
340
0
  0
XRECORD
  5
D14
102
{ACAD_REACTORS
330
D04
102
}
330
D04
100
AcDbXrecord
 70
     0
  0
XRECORD
  5
D08
102
{ACAD_REACTORS
330
D04
102
}
330
D04
100
AcDbXrecord
  1
technical_osaka.ctb
  0
XRECORD
  5
D05
102
{ACAD_REACTORS
330
D04
102
}
330
D04
100
AcDbXrecord
 90
        1
  0
XRECORD
  5
D06
102
{ACAD_REACTORS
330
D04
102
}
330
D04
100
AcDbXrecord
 90
       70
  0
XRECORD
  5
D1E
102
{ACAD_REACTORS
330
D04
102
}
330
D04
100
AcDbXrecord
340
0
  0
XRECORD
  5
D24
102
{ACAD_REACTORS
330
D04
102
}
330
D04
100
AcDbXrecord
 10
0.0
 20
0.0
 30
0.0
  0
XRECORD
  5
D20
102
{ACAD_REACTORS
330
D04
102
}
330
D04
100
AcDbXrecord
 10
0.0
 20
0.0
 30
0.0
  0
XRECORD
  5
D23
102
{ACAD_REACTORS
330
D04
102
}
330
D04
100
AcDbXrecord
 10
0.0
 20
0.0
 30
0.0
  0
XRECORD
  5
D21
102
{ACAD_REACTORS
330
D04
102
}
330
D04
100
AcDbXrecord
 10
0.0
 20
0.0
 30
0.0
  0
XRECORD
  5
D22
102
{ACAD_REACTORS
330
D04
102
}
330
D04
100
AcDbXrecord
 10
0.0
 20
0.0
 30
0.0
  0
XRECORD
  5
D1F
102
{ACAD_REACTORS
330
D04
102
}
330
D04
100
AcDbXrecord
 10
0.0
 20
0.0
 30
0.0
  0
XRECORD
  5
D1C
102
{ACAD_REACTORS
330
D04
102
}
330
D04
100
AcDbXrecord
340
0
  0
XRECORD
  5
D1D
102
{ACAD_REACTORS
330
D04
102
}
330
D04
100
AcDbXrecord
 70
     0
  0
XRECORD
  5
D10
102
{ACAD_REACTORS
330
D04
102
}
330
D04
100
AcDbXrecord
  1
{DC13A5C7-BA77-11D6-9637-006094EB2375}
  0
DICTIONARYVAR
  5
68F
102
{ACAD_REACTORS
330
68E
102
}
330
68E
100
DictionaryVariables
280
     0
  1
1
  0
DICTIONARYVAR
  5
894
102
{ACAD_REACTORS
330
68E
102
}
330
68E
100
DictionaryVariables
280
     0
  1
96
  0
XRECORD
  5
560
102
{ACAD_REACTORS
330
540
102
}
330
540
100
AcDbXrecord
  1
2.0.0
  0
ENDSEC
  0
EOF
