  0
SECTION
  2
HEADER
  9
$ACADVER
  1
AC1015
  9
$ACADMAINTVER
 70
     6
  9
$DWGCODEPAGE
  3
ANSI_932
  9
$INSBASE
 10
0.0
 20
0.0
 30
0.0
  9
$EXTMIN
 10
-95.0
 20
-42.99999999999984
 30
-0.0000000000000001
  9
$EXTMAX
 10
60.5
 20
68.0
 30
0.0000000000000001
  9
$LIMMIN
 10
0.0
 20
0.0
  9
$LIMMAX
 10
297.0
 20
210.0
  9
$ORTHOMODE
 70
     1
  9
$REGENMODE
 70
     1
  9
$FILLMODE
 70
     1
  9
$QTEXTMODE
 70
     0
  9
$MIRRTEXT
 70
     1
  9
$LTSCALE
 40
10.0
  9
$ATTMODE
 70
     1
  9
$TEXTSIZE
 40
3.0
  9
$TRACEWID
 40
1.0
  9
$TEXTSTYLE
  7
YOKO
  9
$CLAYER
  8
250
  9
$CELTYPE
  6
Continuous
  9
$CECOLOR
 62
   256
  9
$CELTSCALE
 40
1.0
  9
$DISPSILH
 70
     0
  9
$DIMSCALE
 40
1.0
  9
$DIMASZ
 40
2.0
  9
$DIMEXO
 40
0.5
  9
$DIMDLI
 40
2.5
  9
$DIMRND
 40
0.0
  9
$DIMDLE
 40
0.0
  9
$DIMEXE
 40
1.0
  9
$DIMTP
 40
0.0
  9
$DIMTM
 40
0.0
  9
$DIMTXT
 40
2.799999999999999
  9
$DIMCEN
 40
0.0
  9
$DIMTSZ
 40
0.0
  9
$DIMTOL
 70
     0
  9
$DIMLIM
 70
     0
  9
$DIMTIH
 70
     0
  9
$DIMTOH
 70
     0
  9
$DIMSE1
 70
     0
  9
$DIMSE2
 70
     0
  9
$DIMTAD
 70
     0
  9
$DIMZIN
 70
     8
  9
$DIMBLK
  1

  9
$DIMASO
 70
     1
  9
$DIMSHO
 70
     1
  9
$DIMPOST
  1

  9
$DIMAPOST
  1

  9
$DIMALT
 70
     0
  9
$DIMALTD
 70
     2
  9
$DIMALTF
 40
25.4
  9
$DIMLFAC
 40
1.0
  9
$DIMTOFL
 70
     1
  9
$DIMTVP
 40
0.0
  9
$DIMTIX
 70
     1
  9
$DIMSOXD
 70
     0
  9
$DIMSAH
 70
     1
  9
$DIMBLK1
  1
OPEN
  9
$DIMBLK2
  1
OPEN
  9
$DIMSTYLE
  2
BIGT
  9
$DIMCLRD
 70
   256
  9
$DIMCLRE
 70
   256
  9
$DIMCLRT
 70
    40
  9
$DIMTFAC
 40
1.0
  9
$DIMGAP
 40
1.0
  9
$DIMJUST
 70
     0
  9
$DIMSD1
 70
     0
  9
$DIMSD2
 70
     0
  9
$DIMTOLJ
 70
     1
  9
$DIMTZIN
 70
     8
  9
$DIMALTZ
 70
     0
  9
$DIMALTTZ
 70
     0
  9
$DIMUPT
 70
     0
  9
$DIMDEC
 70
     3
  9
$DIMTDEC
 70
     3
  9
$DIMALTU
 70
     2
  9
$DIMALTTD
 70
     2
  9
$DIMTXSTY
  7
Standard
  9
$DIMAUNIT
 70
     0
  9
$DIMADEC
 70
     3
  9
$DIMALTRND
 40
0.0
  9
$DIMAZIN
 70
     2
  9
$DIMDSEP
 70
    46
  9
$DIMATFIT
 70
     3
  9
$DIMFRAC
 70
     0
  9
$DIMLDRBLK
  1
OPEN
  9
$DIMLUNIT
 70
     2
  9
$DIMLWD
 70
    -1
  9
$DIMLWE
 70
    -1
  9
$DIMTMOVE
 70
     0
  9
$LUNITS
 70
     2
  9
$LUPREC
 70
     3
  9
$SKETCHINC
 40
1.0
  9
$FILLETRAD
 40
0.5
  9
$AUNITS
 70
     0
  9
$AUPREC
 70
     3
  9
$MENU
  1
.
  9
$ELEVATION
 40
0.0
  9
$PELEVATION
 40
0.0
  9
$THICKNESS
 40
0.0
  9
$LIMCHECK
 70
     0
  9
$CHAMFERA
 40
10.0
  9
$CHAMFERB
 40
10.0
  9
$CHAMFERC
 40
0.0
  9
$CHAMFERD
 40
0.0
  9
$SKPOLY
 70
     0
  9
$TDCREATE
 40
2453353.508792488
  9
$TDUCREATE
 40
2453353.717125822
  9
$TDUPDATE
 40
2454820.226801215
  9
$TDUUPDATE
 40
2454820.435134549
  9
$TDINDWG
 40
0.1348323495
  9
$TDUSRTIMER
 40
0.1347976157
  9
$USRTIMER
 70
     1
  9
$ANGBASE
 50
0.0
  9
$ANGDIR
 70
     0
  9
$PDMODE
 70
     1
  9
$PDSIZE
 40
-5.0
  9
$PLINEWID
 40
0.0
  9
$SPLFRAME
 70
     0
  9
$SPLINETYPE
 70
     6
  9
$SPLINESEGS
 70
     8
  9
$HANDSEED
  5
195C
  9
$SURFTAB1
 70
     6
  9
$SURFTAB2
 70
     6
  9
$SURFTYPE
 70
     6
  9
$SURFU
 70
     6
  9
$SURFV
 70
     6
  9
$UCSBASE
  2

  9
$UCSNAME
  2

  9
$UCSORG
 10
0.0
 20
0.0
 30
0.0
  9
$UCSXDIR
 10
1.0
 20
0.0
 30
0.0
  9
$UCSYDIR
 10
0.0
 20
1.0
 30
0.0
  9
$UCSORTHOREF
  2

  9
$UCSORTHOVIEW
 70
     0
  9
$UCSORGTOP
 10
0.0
 20
0.0
 30
0.0
  9
$UCSORGBOTTOM
 10
0.0
 20
0.0
 30
0.0
  9
$UCSORGLEFT
 10
0.0
 20
0.0
 30
0.0
  9
$UCSORGRIGHT
 10
0.0
 20
0.0
 30
0.0
  9
$UCSORGFRONT
 10
0.0
 20
0.0
 30
0.0
  9
$UCSORGBACK
 10
0.0
 20
0.0
 30
0.0
  9
$PUCSBASE
  2

  9
$PUCSNAME
  2

  9
$PUCSORG
 10
0.0
 20
0.0
 30
0.0
  9
$PUCSXDIR
 10
1.0
 20
0.0
 30
0.0
  9
$PUCSYDIR
 10
0.0
 20
1.0
 30
0.0
  9
$PUCSORTHOREF
  2

  9
$PUCSORTHOVIEW
 70
     0
  9
$PUCSORGTOP
 10
0.0
 20
0.0
 30
0.0
  9
$PUCSORGBOTTOM
 10
0.0
 20
0.0
 30
0.0
  9
$PUCSORGLEFT
 10
0.0
 20
0.0
 30
0.0
  9
$PUCSORGRIGHT
 10
0.0
 20
0.0
 30
0.0
  9
$PUCSORGFRONT
 10
0.0
 20
0.0
 30
0.0
  9
$PUCSORGBACK
 10
0.0
 20
0.0
 30
0.0
  9
$USERI1
 70
     1
  9
$USERI2
 70
     0
  9
$USERI3
 70
     0
  9
$USERI4
 70
     0
  9
$USERI5
 70
     0
  9
$USERR1
 40
0.0
  9
$USERR2
 40
0.0
  9
$USERR3
 40
0.0
  9
$USERR4
 40
0.0
  9
$USERR5
 40
0.0
  9
$WORLDVIEW
 70
     1
  9
$SHADEDGE
 70
     3
  9
$SHADEDIF
 70
    70
  9
$TILEMODE
 70
     1
  9
$MAXACTVP
 70
    16
  9
$PINSBASE
 10
0.0
 20
0.0
 30
0.0
  9
$PLIMCHECK
 70
     0
  9
$PEXTMIN
 10
0.0
 20
0.0
 30
0.0
  9
$PEXTMAX
 10
0.0
 20
0.0
 30
0.0
  9
$PLIMMIN
 10
0.0
 20
0.0
  9
$PLIMMAX
 10
12.0
 20
9.0
  9
$UNITMODE
 70
     0
  9
$VISRETAIN
 70
     0
  9
$PLINEGEN
 70
     0
  9
$PSLTSCALE
 70
     1
  9
$TREEDEPTH
 70
  3020
  9
$CMLSTYLE
  2
Standard
  9
$CMLJUST
 70
     0
  9
$CMLSCALE
 40
1.0
  9
$PROXYGRAPHICS
 70
     1
  9
$MEASUREMENT
 70
     1
  9
$CELWEIGHT
370
    -3
  9
$ENDCAPS
280
     0
  9
$JOINSTYLE
280
     0
  9
$LWDISPLAY
290
     0
  9
$INSUNITS
 70
     0
  9
$HYPERLINKBASE
  1

  9
$STYLESHEET
  1

  9
$XEDIT
290
     0
  9
$CEPSNTYPE
380
     0
  9
$PSTYLEMODE
290
     1
  9
$FINGERPRINTGUID
  2
{9430112F-0C1B-437E-856D-8A9E004AF8C7}
  9
$VERSIONGUID
  2
{71392EFF-EDBA-45AF-85B8-B73543D5DBB2}
  9
$EXTNAMES
290
     1
  9
$PSVPSCALE
 40
0.0
  9
$OLESTARTUP
290
     0
  0
ENDSEC
  0
SECTION
  2
CLASSES
  0
CLASS
  1
ACDBDICTIONARYWDFLT
  2
AcDbDictionaryWithDefault
  3
ObjectDBX Classes
 90
        0
280
     0
281
     0
  0
CLASS
  1
ACDBPLACEHOLDER
  2
AcDbPlaceHolder
  3
ObjectDBX Classes
 90
        0
280
     0
281
     0
  0
CLASS
  1
LAYOUT
  2
AcDbLayout
  3
ObjectDBX Classes
 90
        0
280
     0
281
     0
  0
CLASS
  1
DICTIONARYVAR
  2
AcDbDictionaryVar
  3
ObjectDBX Classes
 90
        0
280
     0
281
     0
  0
CLASS
  1
TABLESTYLE
  2
AcDbTableStyle
  3
ObjectDBX Classes
 90
     4095
280
     0
281
     0
  0
CLASS
  1
SCALE
  2
AcDbScale
  3
ObjectDBX Classes
 90
     1153
280
     0
281
     0
  0
CLASS
  1
MATERIAL
  2
AcDbMaterial
  3
ObjectDBX Classes
 90
     1153
280
     0
281
     0
  0
CLASS
  1
MLEADERSTYLE
  2
AcDbMLeaderStyle
  3
ACDB_MLEADERSTYLE_CLASS
 90
     4095
280
     0
281
     0
  0
CLASS
  1
PLOTSETTINGS
  2
AcDbPlotSettings
  3
ObjectDBX Classes
 90
        0
280
     0
281
     0
  0
CLASS
  1
VISUALSTYLE
  2
AcDbVisualStyle
  3
ObjectDBX Classes
 90
     4095
280
     0
281
     0
  0
CLASS
  1
SORTENTSTABLE
  2
AcDbSortentsTable
  3
ObjectDBX Classes
 90
        0
280
     0
281
     0
  0
CLASS
  1
XRECORD
  2
AcDbXrecord
  3
AutoCAD 2000
 90
        0
280
     0
281
     0
  0
ENDSEC
  0
SECTION
  2
TABLES
  0
TABLE
  2
VPORT
  5
8
330
0
100
AcDbSymbolTable
 70
     2
  0
VPORT
  5
97
330
8
100
AcDbSymbolTableRecord
100
AcDbViewportTableRecord
  2
*Active
 70
     0
 10
0.0
 20
0.0
 11
1.0
 21
1.0
 12
-28.22038509316769
 22
17.14131677018641
 13
0.0
 23
0.0
 14
7.0
 24
7.0
 15
7.0
 25
7.0
 16
0.0
 26
0.0
 36
1.0
 17
0.0
 27
0.0
 37
0.0
 40
161.7428571428569
 41
1.894348894348894
 42
50.0
 43
0.0
 44
0.0
 50
0.0
 51
0.0
 71
    16
 72
 20000
 73
     1
 74
     0
 75
     0
 76
     0
 77
     0
 78
     0
281
     0
 65
     0
110
0.0
120
0.0
130
0.0
111
1.0
121
0.0
131
0.0
112
0.0
122
1.0
132
0.0
 79
     0
146
0.0
  0
ENDTAB
  0
TABLE
  2
LTYPE
  5
5
330
0
100
AcDbSymbolTable
 70
     3
  0
LTYPE
  5
14
330
5
100
AcDbSymbolTableRecord
100
AcDbLinetypeTableRecord
  2
ByBlock
 70
     0
  3

 72
    65
 73
     0
 40
0.0
  0
LTYPE
  5
15
330
5
100
AcDbSymbolTableRecord
100
AcDbLinetypeTableRecord
  2
ByLayer
 70
     0
  3

 72
    65
 73
     0
 40
0.0
  0
LTYPE
  5
16
330
5
100
AcDbSymbolTableRecord
100
AcDbLinetypeTableRecord
  2
Continuous
 70
     0
  3
Solid line
 72
    65
 73
     0
 40
0.0
  0
LTYPE
  5
1908
330
5
100
AcDbSymbolTableRecord
100
AcDbLinetypeTableRecord
  2
CENTER2
 70
     0
  3
___ _ ___ _ ___ _ ___ _ ___ _ ___ _ ___ _ ___ _
 72
    65
 73
     4
 40
1.125
 49
0.75
 74
     4
 75
     0
340
0
 46
1.0
 50
0.0
 44
0.0
 45
0.0
 49
-0.125
 74
     4
 75
     0
340
0
 46
1.0
 50
0.0
 44
0.0
 45
0.0
 49
0.125
 74
     4
 75
     0
340
0
 46
1.0
 50
0.0
 44
0.0
 45
0.0
 49
-0.125
 74
     4
 75
     0
340
0
 46
1.0
 50
0.0
 44
0.0
 45
0.0
  0
LTYPE
  5
1909
330
5
100
AcDbSymbolTableRecord
100
AcDbLinetypeTableRecord
  2
PHANTOM2
 70
     0
  3
___ _ _ ___ _ _ ___ _ _ ___ _ _ ___ _ _ ___ _ _
 72
    65
 73
     6
 40
1.25
 49
0.625
 74
     4
 75
     0
340
0
 46
1.0
 50
0.0
 44
0.0
 45
0.0
 49
-0.125
 74
     4
 75
     0
340
0
 46
1.0
 50
0.0
 44
0.0
 45
0.0
 49
0.125
 74
     4
 75
     0
340
0
 46
1.0
 50
0.0
 44
0.0
 45
0.0
 49
-0.125
 74
     4
 75
     0
340
0
 46
1.0
 50
0.0
 44
0.0
 45
0.0
 49
0.125
 74
     4
 75
     0
340
0
 46
1.0
 50
0.0
 44
0.0
 45
0.0
 49
-0.125
 74
     4
 75
     0
340
0
 46
1.0
 50
0.0
 44
0.0
 45
0.0
  0
ENDTAB
  0
TABLE
  2
LAYER
  5
2
330
0
100
AcDbSymbolTable
 70
     9
  0
LAYER
  5
10
102
{ACAD_XDICTIONARY
360
190A
102
}
330
2
100
AcDbSymbolTableRecord
100
AcDbLayerTableRecord
  2
0
 70
     0
 62
     7
  6
Continuous
370
    -3
390
F
  0
LAYER
  5
1AA
102
{ACAD_XDICTIONARY
360
190B
102
}
330
2
100
AcDbSymbolTableRecord
100
AcDbLayerTableRecord
  2
240
 70
     0
 62
     4
  6
Continuous
370
    -3
390
F
  0
LAYER
  5
1AB
102
{ACAD_XDICTIONARY
360
190C
102
}
330
2
100
AcDbSymbolTableRecord
100
AcDbLayerTableRecord
  2
241
 70
     0
 62
   211
  6
Continuous
370
    -3
390
F
  0
LAYER
  5
1AC
102
{ACAD_XDICTIONARY
360
190D
102
}
330
2
100
AcDbSymbolTableRecord
100
AcDbLayerTableRecord
  2
242
 70
     0
 62
     3
  6
Continuous
370
    -3
390
F
  0
LAYER
  5
1AF
102
{ACAD_XDICTIONARY
360
190E
102
}
330
2
100
AcDbSymbolTableRecord
100
AcDbLayerTableRecord
  2
245
 70
     0
 62
     2
  6
CENTER2
370
    -3
390
F
  0
LAYER
  5
21A
102
{ACAD_XDICTIONARY
360
190F
102
}
330
2
100
AcDbSymbolTableRecord
100
AcDbLayerTableRecord
  2
246
 70
     0
 62
     3
  6
PHANTOM2
370
    -3
390
F
  0
LAYER
  5
21E
102
{ACAD_XDICTIONARY
360
1910
102
}
330
2
100
AcDbSymbolTableRecord
100
AcDbLayerTableRecord
  2
250
 70
     0
 62
     3
  6
Continuous
370
    -3
390
F
  0
LAYER
  5
21F
102
{ACAD_XDICTIONARY
360
1911
102
}
330
2
100
AcDbSymbolTableRecord
100
AcDbLayerTableRecord
  2
251
 70
     0
 62
    40
  6
Continuous
370
    -3
390
F
  0
LAYER
  5
5C4
330
2
100
AcDbSymbolTableRecord
100
AcDbLayerTableRecord
  2
Defpoints
 70
     0
 62
     7
  6
Continuous
290
     0
370
    -3
390
F
  0
ENDTAB
  0
TABLE
  2
STYLE
  5
3
330
0
100
AcDbSymbolTable
 70
     2
  0
STYLE
  5
11
330
3
100
AcDbSymbolTableRecord
100
AcDbTextStyleTableRecord
  2
Standard
 70
     0
 40
0.0
 41
1.0
 50
0.0
 71
     0
 42
2.799999999999999
  3
romans.shx
  4
BIGFONT.SHX
  0
STYLE
  5
339
330
3
100
AcDbSymbolTableRecord
100
AcDbTextStyleTableRecord
  2
YOKO
 70
     0
 40
0.0
 41
1.0
 50
0.0
 71
     0
 42
3.0
  3
romans.shx
  4
extfont.shx
  0
ENDTAB
  0
TABLE
  2
VIEW
  5
6
330
0
100
AcDbSymbolTable
 70
     0
  0
ENDTAB
  0
TABLE
  2
UCS
  5
7
330
0
100
AcDbSymbolTable
 70
     0
  0
ENDTAB
  0
TABLE
  2
APPID
  5
9
330
0
100
AcDbSymbolTable
 70
    43
  0
APPID
  5
12
330
9
100
AcDbSymbolTableRecord
100
AcDbRegAppTableRecord
  2
ACAD
 70
     0
  0
APPID
  5
18DE
330
9
100
AcDbSymbolTableRecord
100
AcDbRegAppTableRecord
  2
GLOBAL
 70
     0
  0
APPID
  5
18DF
330
9
100
AcDbSymbolTableRecord
100
AcDbRegAppTableRecord
  2
DETAIL
 70
     0
  0
APPID
  5
18E0
330
9
100
AcDbSymbolTableRecord
100
AcDbRegAppTableRecord
  2
GRPNAME
 70
     0
  0
APPID
  5
18E1
330
9
100
AcDbSymbolTableRecord
100
AcDbRegAppTableRecord
  2
GPARA
 70
     0
  0
APPID
  5
18E2
330
9
100
AcDbSymbolTableRecord
100
AcDbRegAppTableRecord
  2
DCO15
 70
     0
  0
APPID
  5
18E3
330
9
100
AcDbSymbolTableRecord
100
AcDbRegAppTableRecord
  2
ITEMNAME
 70
     0
  0
APPID
  5
18E4
330
9
100
AcDbSymbolTableRecord
100
AcDbRegAppTableRecord
  2
GRADE_0
 70
     0
  0
APPID
  5
18E5
330
9
100
AcDbSymbolTableRecord
100
AcDbRegAppTableRecord
  2
ACAD_MLEADERVER
 70
     0
  0
APPID
  5
18E6
330
9
100
AcDbSymbolTableRecord
100
AcDbRegAppTableRecord
  2
DRAWING
 70
     0
  0
APPID
  5
18E7
330
9
100
AcDbSymbolTableRecord
100
AcDbRegAppTableRecord
  2
HATCH_TYPE
 70
     0
  0
APPID
  5
18E8
330
9
100
AcDbSymbolTableRecord
100
AcDbRegAppTableRecord
  2
HATCH_DISPLAY
 70
     0
  0
APPID
  5
18E9
330
9
100
AcDbSymbolTableRecord
100
AcDbRegAppTableRecord
  2
HATCH_DISTANCE
 70
     0
  0
APPID
  5
18EA
330
9
100
AcDbSymbolTableRecord
100
AcDbRegAppTableRecord
  2
INSERT_PATH
 70
     0
  0
APPID
  5
18EB
330
9
100
AcDbSymbolTableRecord
100
AcDbRegAppTableRecord
  2
GMODEL
 70
     0
  0
APPID
  5
18EC
330
9
100
AcDbSymbolTableRecord
100
AcDbRegAppTableRecord
  2
MCAD_NO_VIS
 70
     0
  0
APPID
  5
18ED
330
9
100
AcDbSymbolTableRecord
100
AcDbRegAppTableRecord
  2
ACAD_TEMP_GRAPHIC
 70
     0
  0
APPID
  5
18EE
330
9
100
AcDbSymbolTableRecord
100
AcDbRegAppTableRecord
  2
ACATTRIBSERVICES
 70
     0
  0
APPID
  5
18EF
330
9
100
AcDbSymbolTableRecord
100
AcDbRegAppTableRecord
  2
GENIUS_GENDTOL_13
 70
     0
  0
APPID
  5
18F0
330
9
100
AcDbSymbolTableRecord
100
AcDbRegAppTableRecord
  2
GENIUS_GENDIMSH_14
 70
     0
  0
APPID
  5
18F1
330
9
100
AcDbSymbolTableRecord
100
AcDbRegAppTableRecord
  2
GENIUS_GENODEF_13
 70
     0
  0
APPID
  5
18F2
330
9
100
AcDbSymbolTableRecord
100
AcDbRegAppTableRecord
  2
GENIUS_GENOLIS_13
 70
     0
  0
APPID
  5
18F3
330
9
100
AcDbSymbolTableRecord
100
AcDbRegAppTableRecord
  2
GENIUS_GENOENT_13
 70
     0
  0
APPID
  5
18F4
330
9
100
AcDbSymbolTableRecord
100
AcDbRegAppTableRecord
  2
GENIUS_GENOBJ-F-SHCL_13
 70
     0
  0
APPID
  5
18F5
330
9
100
AcDbSymbolTableRecord
100
AcDbRegAppTableRecord
  2
GENIUS_GENOREF_13
 70
     0
  0
APPID
  5
18F6
330
9
100
AcDbSymbolTableRecord
100
AcDbRegAppTableRecord
  2
GENIUS_GEFMSH_13
 70
     0
  0
APPID
  5
18F7
330
9
100
AcDbSymbolTableRecord
100
AcDbRegAppTableRecord
  2
GENIUS_GEFSH_13
 70
     0
  0
APPID
  5
18F8
330
9
100
AcDbSymbolTableRecord
100
AcDbRegAppTableRecord
  2
GENIUS_GEFSHP_13
 70
     0
  0
APPID
  5
18F9
330
9
100
AcDbSymbolTableRecord
100
AcDbRegAppTableRecord
  2
GENIUS_GENOBJ-F-SHS_13
 70
     0
  0
APPID
  5
18FA
330
9
100
AcDbSymbolTableRecord
100
AcDbRegAppTableRecord
  2
GENIUS_GENBH_13
 70
     0
  0
APPID
  5
18FB
330
9
100
AcDbSymbolTableRecord
100
AcDbRegAppTableRecord
  2
GENIUS_GENOBJ-NBEHI-BHF_13
 70
     0
  0
APPID
  5
18FC
330
9
100
AcDbSymbolTableRecord
100
AcDbRegAppTableRecord
  2
GENIUS_GENOBJ-NBEHI-BHB_13
 70
     0
  0
APPID
  5
18FD
330
9
100
AcDbSymbolTableRecord
100
AcDbRegAppTableRecord
  2
GENIUS_GENOBJ-F-SHSV_13
 70
     0
  0
APPID
  5
18FE
330
9
100
AcDbSymbolTableRecord
100
AcDbRegAppTableRecord
  2
GENIUS_GENOBJ-N-DIM_13
 70
     0
  0
APPID
  5
18FF
330
9
100
AcDbSymbolTableRecord
100
AcDbRegAppTableRecord
  2
GENIUS_GENDIM_13
 70
     0
  0
APPID
  5
1900
330
9
100
AcDbSymbolTableRecord
100
AcDbRegAppTableRecord
  2
GENIUS_GENOBJ-N-FIL_13
 70
     0
  0
APPID
  5
1901
330
9
100
AcDbSymbolTableRecord
100
AcDbRegAppTableRecord
  2
GENIUS_GENOBJ-N-TIT_13
 70
     0
  0
APPID
  5
1902
330
9
100
AcDbSymbolTableRecord
100
AcDbRegAppTableRecord
  2
GENIUS_GENTITLE_13
 70
     0
  0
APPID
  5
1903
330
9
100
AcDbSymbolTableRecord
100
AcDbRegAppTableRecord
  2
GENIUS_GENSCREG_15
 70
     0
  0
APPID
  5
1904
330
9
100
AcDbSymbolTableRecord
100
AcDbRegAppTableRecord
  2
GENIUS_GENOBJ-N-SDF_13
 70
     0
  0
APPID
  5
1905
330
9
100
AcDbSymbolTableRecord
100
AcDbRegAppTableRecord
  2
GENIUS_GENOBJ-N-CEN_13
 70
     0
  0
APPID
  5
1906
330
9
100
AcDbSymbolTableRecord
100
AcDbRegAppTableRecord
  2
Layer_Scale
 70
     0
  0
APPID
  5
1907
330
9
100
AcDbSymbolTableRecord
100
AcDbRegAppTableRecord
  2
ACAD_DSTYLE_DIMRADIAL_EXTENSION
 70
     0
  0
ENDTAB
  0
TABLE
  2
DIMSTYLE
  5
A
330
0
100
AcDbSymbolTable
 70
     5
100
AcDbDimStyleTable
  0
DIMSTYLE
105
27
330
A
100
AcDbSymbolTableRecord
100
AcDbDimStyleTableRecord
  2
Standard
 70
     0
278
     0
340
11
  0
DIMSTYLE
105
725
330
A
100
AcDbSymbolTableRecord
100
AcDbDimStyleTableRecord
  2
BIGT
 70
     0
 41
2.229999999999999
 42
0.5
 43
2.5
 44
1.0
 73
     0
 74
     0
 77
     3
 78
     8
 79
     2
140
2.799999999999999
141
0.0
147
1.0
172
     1
173
     1
174
     1
176
   256
177
   256
178
    40
179
     3
271
     3
272
     3
284
     8
289
     2
340
11
341
1912
343
1912
344
1912
371
    -1
372
    -1
  0
DIMSTYLE
105
A55
102
{ACAD_REACTORS
330
186F
330
187B
102
}
330
A
100
AcDbSymbolTableRecord
100
AcDbDimStyleTableRecord
  2
BIGT$0
 70
     0
  4
"
 41
2.229999999999999
 42
0.5
 43
7.0
 44
1.0
 47
0.1
 48
0.1
 73
     0
 74
     0
 77
     3
 78
     8
 79
     2
140
3.0
141
0.0
143
0.0393701
146
0.71
147
1.0
172
     1
176
     3
177
     3
178
    40
179
     3
271
     3
272
     3
284
     8
289
     2
340
11
341
1912
342
1912
371
    -1
372
    -1
  0
DIMSTYLE
105
A56
330
A
100
AcDbSymbolTableRecord
100
AcDbDimStyleTableRecord
  2
BIGT$2
 70
     0
  4
"
 41
2.229999999999999
 42
0.5
 43
7.0
 44
1.0
 47
0.1
 48
0.1
 73
     0
 74
     0
 77
     3
 78
     8
 79
     2
140
3.0
141
0.0
143
0.0393701
146
0.71
147
1.0
172
     1
176
     3
177
     3
178
    40
179
     3
271
     3
272
     3
284
     8
289
     2
340
11
341
1912
342
1912
371
    -1
372
    -1
  0
DIMSTYLE
105
A5A
330
A
100
AcDbSymbolTableRecord
100
AcDbDimStyleTableRecord
  2
BIGT$7
 70
     0
  4
"
 41
2.5
 42
0.5
 43
7.0
 44
1.0
 47
0.1
 48
0.1
 73
     0
 74
     0
 77
     3
 78
     8
 79
     2
140
5.0
141
0.0
143
0.0393701
146
0.71
147
1.5
172
     1
176
     3
177
     3
178
    40
179
     3
271
     3
272
     3
284
     8
289
     2
340
11
341
1912
342
1912
371
    -1
372
    -1
  0
ENDTAB
  0
TABLE
  2
BLOCK_RECORD
  5
1
330
0
100
AcDbSymbolTable
 70
    10
  0
BLOCK_RECORD
  5
1F
102
{ACAD_XDICTIONARY
360
192B
102
}
330
1
100
AcDbSymbolTableRecord
100
AcDbBlockTableRecord
  2
*Model_Space
340
22
  0
BLOCK_RECORD
  5
73
330
1
100
AcDbSymbolTableRecord
100
AcDbBlockTableRecord
  2
*Paper_Space
340
568
  0
BLOCK_RECORD
  5
1912
330
1
100
AcDbSymbolTableRecord
100
AcDbBlockTableRecord
  2
_OPEN
340
0
102
{BLKREFS
331
173D
331
173E
331
1761
331
1762
331
1769
331
176A
331
1876
331
1877
331
1882
331
1883
331
18CD
331
18CE
331
18D8
331
18D9
102
}
  0
BLOCK_RECORD
  5
6E3
330
1
100
AcDbSymbolTableRecord
100
AcDbBlockTableRecord
  2
\U+77E2\U+5370\U+306A\U+3057
340
0
102
{BLKREFS
331
6E6
102
}
  0
BLOCK_RECORD
  5
1297
330
1
100
AcDbSymbolTableRecord
100
AcDbBlockTableRecord
  2
*D2
340
0
  0
BLOCK_RECORD
  5
12F5
330
1
100
AcDbSymbolTableRecord
100
AcDbBlockTableRecord
  2
*D3
340
0
  0
BLOCK_RECORD
  5
13CF
330
1
100
AcDbSymbolTableRecord
100
AcDbBlockTableRecord
  2
*D4
340
0
  0
BLOCK_RECORD
  5
1773
330
1
100
AcDbSymbolTableRecord
100
AcDbBlockTableRecord
  2
A
340
0
  0
BLOCK_RECORD
  5
187A
330
1
100
AcDbSymbolTableRecord
100
AcDbBlockTableRecord
  2
*D6
340
0
  0
BLOCK_RECORD
  5
1886
330
1
100
AcDbSymbolTableRecord
100
AcDbBlockTableRecord
  2
*D7
340
0
  0
BLOCK_RECORD
  5
18D1
330
1
100
AcDbSymbolTableRecord
100
AcDbBlockTableRecord
  2
*D8
340
0
  0
BLOCK_RECORD
  5
18DC
330
1
100
AcDbSymbolTableRecord
100
AcDbBlockTableRecord
  2
*D9
340
0
  0
ENDTAB
  0
ENDSEC
  0
SECTION
  2
BLOCKS
  0
BLOCK
  5
20
330
1F
100
AcDbEntity
  8
0
100
AcDbBlockBegin
  2
*Model_Space
 70
     0
 10
0.0
 20
0.0
 30
0.0
  3
*Model_Space
  1

  0
ENDBLK
  5
21
330
1F
100
AcDbEntity
  8
0
100
AcDbBlockEnd
  0
BLOCK
  5
75
330
73
100
AcDbEntity
 67
     1
  8
0
100
AcDbBlockBegin
  2
*Paper_Space
 70
     0
 10
0.0
 20
0.0
 30
0.0
  3
*Paper_Space
  1

  0
ENDBLK
  5
76
330
73
100
AcDbEntity
 67
     1
  8
0
100
AcDbBlockEnd
  0
BLOCK
  5
1913
330
1912
100
AcDbEntity
  8
0
100
AcDbBlockBegin
  2
_OPEN
 70
     0
 10
0.0
 20
0.0
 30
0.0
  3
_OPEN
  1

  0
LINE
  5
595
330
1912
100
AcDbEntity
  8
0
  6
ByBlock
 62
     0
370
    -2
100
AcDbLine
 10
-1.0
 20
0.1666666666666666
 30
0.0
 11
0.0
 21
0.0
 31
0.0
  0
LINE
  5
596
330
1912
100
AcDbEntity
  8
0
  6
ByBlock
 62
     0
370
    -2
100
AcDbLine
 10
-1.0
 20
-0.1666666666666666
 30
0.0
 11
0.0
 21
0.0
 31
0.0
  0
LINE
  5
597
330
1912
100
AcDbEntity
  8
0
  6
ByBlock
 62
     0
370
    -2
100
AcDbLine
 10
0.0
 20
0.0
 30
0.0
 11
-1.0
 21
0.0
 31
0.0
  0
ENDBLK
  5
1914
330
1912
100
AcDbEntity
  8
0
100
AcDbBlockEnd
  0
BLOCK
  5
1919
330
6E3
100
AcDbEntity
  8
0
100
AcDbBlockBegin
  2
\U+77E2\U+5370\U+306A\U+3057
 70
     0
 10
0.0
 20
0.0
 30
0.0
  3
\U+77E2\U+5370\U+306A\U+3057
  1

  0
ENDBLK
  5
191A
330
6E3
100
AcDbEntity
  8
0
100
AcDbBlockEnd
  0
BLOCK
  5
191B
330
1297
100
AcDbEntity
  8
0
100
AcDbBlockBegin
  2
*D2
 70
     1
 10
0.0
 20
0.0
 30
0.0
  3
*D2
  1

  0
LINE
  5
173A
330
1297
100
AcDbEntity
  8
250
  6
Continuous
 62
     3
100
AcDbLine
 10
-0.0000000000001137
 20
-25.49999999999994
 30
0.0
 11
-0.0000000000001148
 21
-43.0
 31
0.0
  0
LINE
  5
173B
330
1297
100
AcDbEntity
  8
250
  6
Continuous
 62
     3
100
AcDbLine
 10
74.98099190253951
 20
31.19894562422718
 30
0.0
 11
74.98099190253951
 21
-43.0
 31
0.0
  0
LINE
  5
173C
330
1297
100
AcDbEntity
  8
250
  6
Continuous
 62
     3
100
AcDbLine
 10
1.999999999999885
 20
-42.0
 30
0.0
 11
72.98099190253953
 21
-42.0
 31
0.0
  0
INSERT
  5
173D
330
1297
100
AcDbEntity
  8
250
  6
Continuous
 62
     3
100
AcDbBlockReference
  2
_OPEN
 10
-0.0000000000001147
 20
-42.0
 30
0.0
 41
2.0
 42
2.0
 43
2.0
 50
180.0
  0
INSERT
  5
173E
330
1297
100
AcDbEntity
  8
250
  6
Continuous
 62
     3
100
AcDbBlockReference
  2
_OPEN
 10
74.98099190253951
 20
-42.0
 30
0.0
 41
2.0
 42
2.0
 43
2.0
  0
MTEXT
  5
173F
330
1297
100
AcDbEntity
  8
250
  6
Continuous
 62
    40
370
    -3
100
AcDbMText
 10
37.49049595126971
 20
-39.5
 30
0.0
 40
3.0
 41
0.0
 71
     5
 72
     1
  1
\A1;75
 73
     1
 44
1.0
  0
POINT
  5
1740
330
1297
100
AcDbEntity
  8
Defpoints
  6
Continuous
 62
     0
370
    -3
100
AcDbPoint
 10
-0.0000000000001137
 20
-24.99999999999995
 30
0.0
  0
POINT
  5
1741
330
1297
100
AcDbEntity
  8
Defpoints
  6
Continuous
 62
     0
370
    -3
100
AcDbPoint
 10
74.98099190253951
 20
31.69894562422718
 30
0.0
  0
POINT
  5
1742
330
1297
100
AcDbEntity
  8
Defpoints
  6
Continuous
 62
     0
370
    -3
100
AcDbPoint
 10
74.98099190253951
 20
-42.0
 30
0.0
  0
ENDBLK
  5
191C
330
1297
100
AcDbEntity
  8
0
100
AcDbBlockEnd
  0
BLOCK
  5
191D
330
12F5
100
AcDbEntity
  8
0
100
AcDbBlockBegin
  2
*D3
 70
     1
 10
0.0
 20
0.0
 30
0.0
  3
*D3
  1

  0
LINE
  5
175E
330
12F5
100
AcDbEntity
  8
250
  6
Continuous
 62
     3
100
AcDbLine
 10
40.85438901273938
 20
-0.0000000000000001
 30
0.0
 11
91.99999999999999
 21
-0.0000000000000146
 31
0.0
  0
LINE
  5
175F
330
12F5
100
AcDbEntity
  8
250
  6
Continuous
 62
     3
100
AcDbLine
 10
74.6809919025395
 20
32.99894562422719
 30
0.0
 11
92.0
 21
32.99894562422718
 31
0.0
  0
LINE
  5
1760
330
12F5
100
AcDbEntity
  8
250
  6
Continuous
 62
     3
100
AcDbLine
 10
90.99999999999999
 20
1.999999999999985
 30
0.0
 11
90.99999999999999
 21
30.99894562422718
 31
0.0
  0
INSERT
  5
1761
330
12F5
100
AcDbEntity
  8
250
  6
Continuous
 62
     3
100
AcDbBlockReference
  2
_OPEN
 10
90.99999999999999
 20
-0.0000000000000143
 30
0.0
 41
2.0
 42
2.0
 43
2.0
 50
270.0
  0
INSERT
  5
1762
330
12F5
100
AcDbEntity
  8
250
  6
Continuous
 62
     3
100
AcDbBlockReference
  2
_OPEN
 10
91.0
 20
32.99894562422718
 30
0.0
 41
2.0
 42
2.0
 43
2.0
 50
90.0
  0
MTEXT
  5
1763
330
12F5
100
AcDbEntity
  8
250
  6
Continuous
 62
    40
370
    -3
100
AcDbMText
 10
88.49999999999999
 20
16.4994728121136
 30
0.0
 40
3.0
 41
0.0
 71
     5
 72
     1
  1
\A1;33
 11
1.000000000000000E-16
 21
1.0
 31
0.0
 73
     1
 44
1.0
  0
POINT
  5
1764
330
12F5
100
AcDbEntity
  8
Defpoints
  6
Continuous
 62
     0
370
    -3
100
AcDbPoint
 10
40.35438901273937
 20
0.0
 30
0.0
  0
POINT
  5
1765
330
12F5
100
AcDbEntity
  8
Defpoints
  6
Continuous
 62
     0
370
    -3
100
AcDbPoint
 10
74.1809919025395
 20
32.99894562422719
 30
0.0
  0
POINT
  5
1766
330
12F5
100
AcDbEntity
  8
Defpoints
  6
Continuous
 62
     0
370
    -3
100
AcDbPoint
 10
91.0
 20
32.99894562422718
 30
0.0
  0
ENDBLK
  5
191E
330
12F5
100
AcDbEntity
  8
0
100
AcDbBlockEnd
  0
BLOCK
  5
191F
330
13CF
100
AcDbEntity
  8
0
100
AcDbBlockBegin
  2
*D4
 70
     1
 10
0.0
 20
0.0
 30
0.0
  3
*D4
  1

  0
LINE
  5
1767
330
13CF
100
AcDbEntity
  8
250
  6
Continuous
 62
     3
100
AcDbLine
 10
63.7271694767424
 20
22.38282125088196
 30
0.0
 11
55.0596210829531
 21
15.10988459044204
 31
0.0
  0
ARC
  5
1768
330
13CF
100
AcDbEntity
  8
250
  6
Continuous
 62
     3
100
AcDbCircle
 10
74.98099190253956
 20
31.82589949770305
 30
0.0
 40
25.00550268137963
100
AcDbArc
 50
224.5838760688559
 51
265.4161239311443
  0
INSERT
  5
1769
330
13CF
100
AcDbEntity
  8
250
  6
Continuous
 62
     3
100
AcDbBlockReference
  2
_OPEN
 10
55.82566552607207
 20
15.75267220012858
 30
0.0
 41
2.0
 42
2.0
 43
2.0
 50
132.2919380344281
  0
INSERT
  5
176A
330
13CF
100
AcDbEntity
  8
250
  6
Continuous
 62
     3
100
AcDbBlockReference
  2
_OPEN
 10
74.98099190253954
 20
6.820396816323416
 30
0.0
 41
2.0
 42
2.0
 43
2.0
 50
357.7080619655721
  0
MTEXT
  5
176B
330
13CF
100
AcDbEntity
  8
250
  6
Continuous
 62
    40
370
    -3
100
AcDbMText
 10
65.66086066836691
 20
11.34095857224794
 30
0.0
 40
3.0
 41
0.0
 71
     5
 72
     1
  1
\A1;50%%d
 11
0.9102192124063829
 21
-0.414126774510299
 31
0.0
 73
     1
 44
1.0
  0
POINT
  5
176C
330
13CF
100
AcDbEntity
  8
Defpoints
  6
Continuous
 62
     0
370
    -3
100
AcDbPoint
 10
61.2402436779479
 20
10.93410678915681
 30
0.0
  0
POINT
  5
176D
330
13CF
100
AcDbEntity
  8
Defpoints
  6
Continuous
 62
     0
370
    -3
100
AcDbPoint
 10
74.69522199028881
 20
31.58611006973189
 30
0.0
  0
POINT
  5
176E
330
13CF
100
AcDbEntity
  8
Defpoints
  6
Continuous
 62
     0
370
    -3
100
AcDbPoint
 10
74.98099190253954
 20
-42.0
 30
0.0
  0
POINT
  5
176F
330
13CF
100
AcDbEntity
  8
Defpoints
  6
Continuous
 62
     0
370
    -3
100
AcDbPoint
 10
74.98099190253954
 20
31.19894562422718
 30
0.0
  0
POINT
  5
1770
330
13CF
100
AcDbEntity
  8
Defpoints
  6
Continuous
 62
     0
370
    -3
100
AcDbPoint
 10
64.11019169830189
 20
22.70421505572523
 30
0.0
  0
ENDBLK
  5
1920
330
13CF
100
AcDbEntity
  8
0
100
AcDbBlockEnd
  0
BLOCK
  5
1921
330
1773
100
AcDbEntity
  8
0
100
AcDbBlockBegin
  2
A
 70
     0
 10
0.0
 20
0.0
 30
0.0
  3
A
  1

  0
LINE
  5
1776
330
1773
100
AcDbEntity
  8
245
100
AcDbLine
 10
-35.14133873650258
 20
0.0
 30
0.0
 11
40.35438901273937
 21
0.0
 31
0.0
  0
SPLINE
  5
1777
330
1773
100
AcDbEntity
  8
241
100
AcDbSpline
210
0.0
220
0.0
230
1.0
 70
     8
 71
     3
 72
    10
 73
     6
 74
     0
 42
0.0000000001
 43
0.0000000001
 40
91.9925486833404
 40
91.9925486833404
 40
91.9925486833404
 40
91.9925486833404
 40
96.54707185544623
 40
96.54707185544623
 40
102.4106315657392
 40
102.4106315657392
 40
102.4106315657392
 40
102.4106315657392
 10
34.18291471929763
 20
5.164607966898131
 30
0.0
 10
32.72421187815905
 20
4.385389900346183
 30
0.0
 10
31.26516864823759
 20
3.610374333289939
 30
0.0
 10
27.9784486317983
 20
1.869348933235016
 30
0.0
 10
26.16535711639347
 20
0.9124056356272944
 30
0.0
 10
24.43687107103949
 20
-0.0000000000000568
 30
0.0
  0
LINE
  5
1778
330
1773
100
AcDbEntity
  8
241
100
AcDbLine
 10
32.59674472005077
 20
23.90761889907594
 30
0.0
 11
21.23673019291539
 21
23.90761889907594
 31
0.0
  0
SPLINE
  5
1779
330
1773
100
AcDbEntity
  8
241
100
AcDbSpline
210
0.0
220
0.0
230
1.0
 70
     8
 71
     3
 72
    16
 73
    12
 74
     0
 42
0.0000000001
 43
0.0000000001
 40
33.93328527809226
 40
33.93328527809226
 40
33.93328527809226
 40
33.93328527809226
 40
35.43582036528512
 40
35.43582036528512
 40
37.93728263679353
 40
37.93728263679353
 40
40.43874490830193
 40
40.43874490830193
 40
42.45626772257544
 40
42.45626772257544
 40
43.12883414798117
 40
43.12883414798117
 40
43.12883414798117
 40
43.12883414798117
 10
33.01431698266743
 20
28.60581549403281
 30
0.0
 10
32.52093299992561
 20
28.42059904642752
 30
0.0
 10
32.03194730625779
 20
28.23594164785283
 30
0.0
 10
30.744174501771
 20
27.74563199016223
 30
0.0
 10
29.95559929051899
 20
27.44127117910347
 30
0.0
 10
28.42401971974948
 20
26.83598230220054
 30
0.0
 10
27.68080865764535
 20
26.53515635377932
 30
0.0
 10
26.39669763211987
 20
25.99166939201694
 30
0.0
 10
25.78177410243825
 20
25.72242930031331
 30
0.0
 10
25.02004348510662
 20
25.3598293067451
 30
0.0
 10
24.83446079069063
 20
25.26885560213987
 30
0.0
 10
24.65693162617208
 20
25.17839713457636
 30
0.0
  0
LINE
  5
177A
330
1773
100
AcDbEntity
  8
240
100
AcDbLine
 10
24.6569316261722
 20
25.60307379214089
 30
0.0
 11
34.06756675220473
 21
29.02826486355704
 31
0.0
  0
LINE
  5
177B
330
1773
100
AcDbEntity
  8
240
100
AcDbLine
 10
-26.5
 20
-13.99999999999983
 30
0.0
 11
-1.600000000000022
 21
-13.99999999999983
 31
0.0
  0
LINE
  5
177C
330
1773
100
AcDbEntity
  8
240
100
AcDbLine
 10
-26.5
 20
14.00000000000017
 30
0.0
 11
-1.600000000000022
 21
14.00000000000017
 31
0.0
  0
LINE
  5
177D
330
1773
100
AcDbEntity
  8
240
100
AcDbLine
 10
-31.00000000000006
 20
-13.37875259485621
 30
0.0
 11
-31.0
 21
13.37875259486958
 31
0.0
  0
SPLINE
  5
177E
330
1773
100
AcDbEntity
  8
241
100
AcDbSpline
210
0.0
220
0.0
230
1.0
 70
    11
 71
     3
 72
    70
 73
    66
 74
     0
 42
0.0000000001
 43
0.0000000001
 40
0.0
 40
0.0
 40
0.0
 40
0.0
 40
0.9197496568304652
 40
0.9197496568304652
 40
1.83949931366093
 40
1.83949931366093
 40
2.759248970491396
 40
2.759248970491396
 40
3.678998627321861
 40
3.678998627321861
 40
4.631875395981221
 40
4.631875395981221
 40
5.584752164640583
 40
5.584752164640583
 40
6.537628933299944
 40
6.537628933299944
 40
7.490505701959305
 40
7.490505701959305
 40
8.44338247061866
 40
8.44338247061866
 40
9.39625923927802
 40
9.39625923927802
 40
10.34913600793737
 40
10.34913600793737
 40
11.30201277659673
 40
11.30201277659673
 40
12.2217624334272
 40
12.2217624334272
 40
13.14151209025767
 40
13.14151209025767
 40
14.06126174708813
 40
14.06126174708813
 40
14.9810114039186
 40
14.9810114039186
 40
15.91208227998781
 40
15.91208227998781
 40
16.84315315605702
 40
16.84315315605702
 40
17.77422403212623
 40
17.77422403212623
 40
18.70529490819543
 40
18.70529490819543
 40
19.64673146562238
 40
19.64673146562238
 40
20.58816802304933
 40
20.58816802304933
 40
21.52960458047628
 40
21.52960458047628
 40
22.47104113790322
 40
22.47104113790322
 40
23.41247769533016
 40
23.41247769533016
 40
24.35391425275711
 40
24.35391425275711
 40
25.29535081018405
 40
25.29535081018405
 40
26.236787367611
 40
26.236787367611
 40
27.1678582436802
 40
27.1678582436802
 40
28.09892911974941
 40
28.09892911974941
 40
29.02999999581861
 40
29.02999999581861
 40
29.96107087188781
 40
29.96107087188781
 40
29.96107087188781
 40
29.96107087188781
 10
-13.5
 20
-4.813238667570772
 30
0.0
 10
-13.1934167810565
 20
-4.813238667570772
 30
0.0
 10
-12.87626085482509
 20
-4.786140626473923
 30
0.0
 10
-12.24440677204075
 20
-4.671798730367527
 30
0.0
 10
-11.92970138435771
 20
-4.584583114443773
 30
0.0
 10
-11.32426227349964
 20
-4.353455323821833
 30
0.0
 10
-11.03306955977734
 20
-4.209379306698167
 30
0.0
 10
-10.49166717234232
 20
-3.875324214317231
 30
0.0
 10
-10.24146009689252
 20
-3.685312193028607
 30
0.0
 10
-9.786846452297254
 20
-3.27100997357536
 30
0.0
 10
-9.56785585213072
 20
-3.030604788970265
 30
0.0
 10
-9.179132986036961
 20
-2.502017360458637
 30
0.0
 10
-9.009375944373232
 20
-2.21383198860434
 30
0.0
 10
-8.734915314548289
 20
-1.607725564508314
 30
0.0
 10
-8.6299681210902
 20
-1.289204275586882
 30
0.0
 10
-8.491533861579398
 20
-0.6441601606742893
 30
0.0
 10
-8.458089842978097
 20
-0.3176255895530744
 30
0.0
 10
-8.458089842978097
 20
0.3176255895531881
 30
0.0
 10
-8.491533861579398
 20
0.644160160674403
 30
0.0
 10
-8.6299681210902
 20
1.289204275586996
 30
0.0
 10
-8.734915314548289
 20
1.607725564508371
 30
0.0
 10
-9.009375944373232
 20
2.213831988604454
 30
0.0
 10
-9.179132986036961
 20
2.502017360458751
 30
0.0
 10
-9.56785585213072
 20
3.030604788970379
 30
0.0
 10
-9.786846452297254
 20
3.271009973575417
 30
0.0
 10
-10.24146009689252
 20
3.685312193028721
 30
0.0
 10
-10.49166717234232
 20
3.875324214317345
 30
0.0
 10
-11.03306955977734
 20
4.209379306698281
 30
0.0
 10
-11.32426227349964
 20
4.35345532382189
 30
0.0
 10
-11.92970138435771
 20
4.58458311444383
 30
0.0
 10
-12.24440677204075
 20
4.671798730367584
 30
0.0
 10
-12.87626085482509
 20
4.786140626474036
 30
0.0
 10
-13.1934167810565
 20
4.813238667570885
 30
0.0
 10
-13.81035695868979
 20
4.813238667570885
 30
0.0
 10
-14.1312923420445
 20
4.785470431102112
 30
0.0
 10
-14.77026933877602
 20
4.668421595239294
 30
0.0
 10
-15.08831874294356
 20
4.579171023034632
 30
0.0
 10
-15.69963276822363
 20
4.342762119793007
 30
0.0
 10
-15.99336985375021
 20
4.19543319944222
 30
0.0
 10
-16.53879695522312
 20
3.853899818125512
 30
0.0
 10
-16.79048375056203
 20
3.659660585884296
 30
0.0
 10
-17.2413066019111
 20
3.241308021639383
 30
0.0
 10
-17.45583231479622
 20
3.001992855304763
 30
0.0
 10
-17.83652384033473
 20
2.476737516738296
 30
0.0
 10
-18.00271248665893
 20
2.19079354102962
 30
0.0
 10
-18.27130233774943
 20
1.590081060246745
 30
0.0
 10
-18.3739374775219
 20
1.274727792168903
 30
0.0
 10
-18.50926202767096
 20
0.6365989058256787
 30
0.0
 10
-18.5419101570219
 20
0.313812185809013
 30
0.0
 10
-18.5419101570219
 20
-0.3138121858089562
 30
0.0
 10
-18.50926202767096
 20
-0.636598905825622
 30
0.0
 10
-18.3739374775219
 20
-1.274727792168846
 30
0.0
 10
-18.27130233774943
 20
-1.590081060246689
 30
0.0
 10
-18.00271248665893
 20
-2.190793541029506
 30
0.0
 10
-17.83652384033473
 20
-2.476737516738239
 30
0.0
 10
-17.45583231479622
 20
-3.001992855304706
 30
0.0
 10
-17.2413066019111
 20
-3.241308021639326
 30
0.0
 10
-16.79048375056197
 20
-3.659660585884182
 30
0.0
 10
-16.53879695522312
 20
-3.853899818125398
 30
0.0
 10
-15.99336985375021
 20
-4.195433199442106
 30
0.0
 10
-15.69963276822363
 20
-4.342762119792894
 30
0.0
 10
-15.08831874294356
 20
-4.579171023034518
 30
0.0
 10
-14.77026933877602
 20
-4.668421595239237
 30
0.0
 10
-14.1312923420445
 20
-4.785470431101998
 30
0.0
 10
-13.81035695868979
 20
-4.813238667570772
 30
0.0
 10
-13.5
 20
-4.813238667570772
 30
0.0
  0
CIRCLE
  5
177F
330
1773
100
AcDbEntity
  8
241
100
AcDbCircle
 10
-13.5
 20
0.0000000000000568
 30
0.0
 40
4.0
  0
LINE
  5
1780
330
1773
100
AcDbEntity
  8
241
100
AcDbLine
 10
-28.51999999999998
 20
13.7161075139013
 30
0.0
 11
-28.51999999999998
 21
-13.71610751390102
 31
0.0
  0
LINE
  5
1781
330
1773
100
AcDbEntity
  8
241
100
AcDbLine
 10
-26.5
 20
14.00000000000017
 30
0.0
 11
-26.5
 21
-13.99999999999983
 31
0.0
  0
LINE
  5
1782
330
1773
100
AcDbEntity
  8
240
100
AcDbLine
 10
-31.0
 20
13.37875259486958
 30
0.0
 11
-30.87416452474852
 21
13.59670603139966
 31
0.0
  0
LINE
  5
1783
330
1773
100
AcDbEntity
  8
240
100
AcDbLine
 10
-28.51999999999998
 20
13.7161075139013
 30
0.0
 11
-26.5
 21
14.00000000000011
 31
0.0
  0
ARC
  5
1784
330
1773
100
AcDbEntity
  8
240
100
AcDbCircle
 10
-30.18134420172098
 20
13.19670603139968
 30
0.0
 40
0.8
100
AcDbArc
 50
80.0000000000014
 51
149.9999999999992
  0
LINE
  5
1785
330
1773
100
AcDbEntity
  8
240
100
AcDbLine
 10
-28.51999999999998
 20
13.7161075139013
 30
0.0
 11
-30.04242565958745
 21
13.98455223380944
 31
0.0
  0
LINE
  5
1786
330
1773
100
AcDbEntity
  8
240
100
AcDbLine
 10
-31.00000000000006
 20
-13.37875259485621
 30
0.0
 11
-30.87416452474855
 21
-13.59670603139943
 31
0.0
  0
LINE
  5
1787
330
1773
100
AcDbEntity
  8
240
100
AcDbLine
 10
-28.51999999999998
 20
-13.71610751390102
 30
0.0
 11
-26.5
 21
-13.99999999999983
 31
0.0
  0
ARC
  5
1788
330
1773
100
AcDbEntity
  8
240
100
AcDbCircle
 10
-30.18134420172098
 20
-13.1967060313994
 30
0.0
 40
0.8
100
AcDbArc
 50
210.000000000002
 51
279.9999999999986
  0
LINE
  5
1789
330
1773
100
AcDbEntity
  8
240
100
AcDbLine
 10
-28.51999999999998
 20
-13.71610751390102
 30
0.0
 11
-30.04242565958745
 21
-13.98455223380915
 31
0.0
  0
LINE
  5
178A
330
1773
100
AcDbEntity
  8
241
100
AcDbLine
 10
-1.600000000000022
 20
0.0
 30
0.0
 11
-1.599999999999965
 21
14.00000000000017
 31
0.0
  0
LINE
  5
178B
330
1773
100
AcDbEntity
  8
240
100
AcDbLine
 10
-0.0000000000001137
 20
-24.99999999999995
 30
0.0
 11
0.0000000000001137
 21
24.50000000000006
 31
0.0
  0
LINE
  5
178C
330
1773
100
AcDbEntity
  8
240
100
AcDbLine
 10
21.23673019291544
 20
24.99999999999995
 30
0.0
 11
0.5000000000001137
 21
25.00000000000006
 31
0.0
  0
ARC
  5
178D
330
1773
100
AcDbEntity
  8
240
100
AcDbCircle
 10
0.5000000000001137
 20
24.50000000000006
 30
0.0
 40
0.5
100
AcDbArc
 50
90.0
 51
180.0
  0
LINE
  5
178E
330
1773
100
AcDbEntity
  8
240
100
AcDbLine
 10
-0.336516303737767
 20
13.66145056393662
 30
0.0
 11
-1.600000000000022
 21
13.99999999999994
 31
0.0
  0
ARC
  5
178F
330
1773
100
AcDbEntity
  8
240
100
AcDbCircle
 10
-0.2071067811865532
 20
14.14441347708117
 30
0.0
 40
0.5000000000000001
100
AcDbArc
 50
254.9999999999988
 51
294.4698005207065
  0
ARC
  5
1790
330
1773
100
AcDbEntity
  8
240
100
AcDbCircle
 10
21.2367301929155
 20
34.99999999999995
 30
0.0
 40
10.0
100
AcDbArc
 50
270.0
 51
290.0000000000001
  0
SPLINE
  5
1791
330
1773
100
AcDbEntity
  8
241
100
AcDbSpline
210
0.0
220
0.0
230
1.0
 70
     8
 71
     3
 72
    10
 73
     6
 74
     0
 42
0.0000000001
 43
0.0000000001
 40
-4.474585843366369
 40
-4.474585843366369
 40
-4.474585843366369
 40
-4.474585843366369
 40
0.0
 40
0.0
 40
0.0176007989327708
 40
0.0176007989327708
 40
0.0176007989327708
 40
0.0176007989327708
 10
24.65693162617208
 20
25.17839713457636
 30
0.0
 10
23.55020771769114
 20
24.61447543163485
 30
0.0
 10
22.38934629151623
 20
24.19348175059798
 30
0.0
 10
21.24569208218725
 20
23.90983543194426
 30
0.0
 10
21.24121113699334
 20
23.90872613672883
 30
0.0
 10
21.2367301929155
 20
23.90761889907583
 30
0.0
  0
LINE
  5
1792
330
1773
100
AcDbEntity
  8
241
100
AcDbLine
 10
21.2367301929155
 20
24.99999999999995
 30
0.0
 11
21.2367301929155
 21
23.90761889907583
 31
0.0
  0
LINE
  5
1793
330
1773
100
AcDbEntity
  8
241
100
AcDbLine
 10
24.65693162617197
 20
25.17839713457636
 30
0.0
 11
24.65693162617197
 21
25.60307379214157
 31
0.0
  0
LINE
  5
1794
330
1773
100
AcDbEntity
  8
240
100
AcDbLine
 10
6.538999753814664
 20
-25.0
 30
0.0
 11
63.11442491453823
 21
22.47241838606125
 31
0.0
  0
LINE
  5
1795
330
1773
100
AcDbEntity
  8
241
100
AcDbLine
 10
-1.600000000000022
 20
-13.99999999999983
 30
0.0
 11
-1.600000000000022
 21
0.0000000000001705
 31
0.0
  0
LINE
  5
1796
330
1773
100
AcDbEntity
  8
240
100
AcDbLine
 10
-0.3365163037378807
 20
-13.66145056393668
 30
0.0
 11
-1.600000000000022
 21
-14.0
 31
0.0
  0
ARC
  5
1797
330
1773
100
AcDbEntity
  8
240
100
AcDbCircle
 10
-0.2071067811865532
 20
-14.14441347708117
 30
0.0
 40
0.5
100
AcDbArc
 50
65.53019947930073
 51
105.0000000000011
  0
LINE
  5
1798
330
1773
100
AcDbEntity
  8
240
100
AcDbLine
 10
6.538999753814664
 20
-24.99999999999995
 30
0.0
 11
-0.0000000000001137
 21
-24.99999999999995
 31
0.0
  0
SPLINE
  5
1799
330
1773
100
AcDbEntity
  8
241
100
AcDbSpline
210
0.0
220
0.0
230
1.0
 70
     8
 71
     3
 72
    16
 73
    12
 74
     0
 42
0.0000000001
 43
0.0000000001
 40
0.0
 40
0.0
 40
0.0
 40
0.0
 40
1.461119247149322
 40
1.461119247149322
 40
2.922238494298644
 40
2.922238494298644
 40
5.844476988597289
 40
5.844476988597289
 40
8.766715482895934
 40
8.766715482895934
 40
11.25984926073466
 40
11.25984926073466
 40
11.25984926073466
 40
11.25984926073466
 10
24.43687107103949
 20
-0.0000000000000568
 30
0.0
 10
24.38573708694503
 20
-0.4843480492632466
 30
0.0
 10
24.33348759695264
 20
-0.9794096206067592
 30
0.0
 10
24.22574851203967
 20
-1.983079217667182
 30
0.0
 10
24.17025319336733
 20
-2.491686530900722
 30
0.0
 10
23.9969606652628
 20
-4.026088855987779
 30
0.0
 10
23.87229271639512
 20
-5.060410511925169
 30
0.0
 10
23.593735949245
 20
-7.09162938789467
 30
0.0
 10
23.43953516136173
 20
-8.08922735520531
 30
0.0
 10
23.11972357559387
 20
-9.854355460421573
 30
0.0
 10
22.95905973975198
 20
-10.63425216435928
 30
0.0
 10
22.78573303498024
 20
-11.36737209593826
 30
0.0
  0
LINE
  5
179A
330
1773
100
AcDbEntity
  8
240
100
AcDbLine
 10
34.06756675220473
 20
29.02826486355704
 30
0.0
 11
59.47805397339192
 21
31.25139443008152
 31
0.0
  0
LINE
  5
179B
330
1773
100
AcDbEntity
  8
241
100
AcDbLine
 10
63.66737768235362
 20
22.5207954847105
 30
0.0
 11
49.90218278963277
 21
21.31649698037239
 31
0.0
  0
LINE
  5
179C
330
1773
100
AcDbEntity
  8
241
100
AcDbLine
 10
49.3182281076854
 20
22.72628829334093
 30
0.0
 11
59.90325839967295
 21
31.60818330734827
 31
0.0
  0
CIRCLE
  5
179D
330
1773
100
AcDbEntity
  8
246
100
AcDbCircle
 10
62.00672504898739
 20
27.15619918153681
 30
0.0
 40
4.7625
  0
LINE
  5
179E
330
1773
100
AcDbEntity
  8
241
100
AcDbLine
 10
39.04790024643387
 20
29.46398758488067
 30
0.0
 11
49.62129212653031
 21
11.15033564021752
 31
0.0
  0
LINE
  5
179F
330
1773
100
AcDbEntity
  8
241
100
AcDbLine
 10
43.98143365148212
 20
6.417932473912514
 30
0.0
 11
42.0205915077654
 21
9.814210692452036
 31
0.0
  0
LINE
  5
17A0
330
1773
100
AcDbEntity
  8
241
100
AcDbLine
 10
39.80907478126062
 20
13.64467002454677
 30
0.0
 11
33.25340197462504
 21
24.99942840343726
 31
0.0
  0
ELLIPSE
  5
17A1
330
1773
100
AcDbEntity
  8
241
100
AcDbEllipse
 10
50.33547213602265
 20
-0.0000000000001705
 30
0.0
 11
17.4893878797108
 21
-24.1029798297555
 31
2.000000000000000E-16
210
3.944237796727076E-18
220
-5.435746791833633E-18
230
-1.0
 40
0.3794725963790727
 41
2.047570114432287
 42
3.11357778933291
  0
SPLINE
  5
17A2
330
1773
100
AcDbEntity
  8
241
100
AcDbSpline
210
0.0
220
0.0
230
1.0
 70
     8
 71
     3
 72
    16
 73
    12
 74
     0
 42
0.0000000001
 43
0.0000000001
 40
15.83558480367313
 40
15.83558480367313
 40
15.83558480367313
 40
15.83558480367313
 40
17.18428342275421
 40
17.18428342275421
 40
18.80712799006173
 40
18.80712799006173
 40
19.88999722031201
 40
19.88999722031201
 40
20.9728664505623
 40
20.9728664505623
 40
21.38620753970849
 40
21.38620753970849
 40
21.38620753970849
 40
21.38620753970849
 10
33.25340197462504
 20
24.99942840343726
 30
0.0
 10
33.32397021001941
 20
25.25054975010352
 30
0.0
 10
33.4149031582279
 20
25.5288320813138
 30
0.0
 10
33.64939638014141
 20
26.18320264395561
 30
0.0
 10
33.79995198328186
 20
26.56784499855354
 30
0.0
 10
34.06985493711966
 20
27.22100749469035
 30
0.0
 10
34.19056360351931
 20
27.50402721026535
 30
0.0
 10
34.45295944368922
 20
28.10029612192801
 30
0.0
 10
34.59461087388365
 20
28.41355401323762
 30
0.0
 10
34.80060559554534
 20
28.855804047243
 30
0.0
 10
34.85860274940672
 20
28.97897777138098
 30
0.0
 10
34.91751774086288
 20
29.1026259396175
 30
0.0
  0
ELLIPSE
  5
17A3
330
1773
100
AcDbEntity
  8
241
100
AcDbEllipse
 10
25.50125375366202
 20
33.47066645870626
 30
0.0
 11
-6.995755151883925
 21
9.641191931902457
 31
-2.000000000000000E-16
210
9.860594491817175E-18
220
-1.358936697958450E-17
230
-1.0
 40
0.3794725963790738
 41
2.850036617925015
 42
3.113577789332337
  0
SPLINE
  5
17A4
330
1773
100
AcDbEntity
  8
241
100
AcDbSpline
210
0.0
220
0.0
230
1.0
 70
     8
 71
     3
 72
     8
 73
     4
 74
     0
 42
0.0000000001
 43
0.0000000001
 40
67.85912242761881
 40
67.85912242761881
 40
67.85912242761881
 40
67.85912242761881
 40
69.0227216274014
 40
69.0227216274014
 40
69.0227216274014
 40
69.0227216274014
 10
33.01431698266743
 20
28.60581549403281
 30
0.0
 10
33.39640678051683
 20
28.74925208196288
 30
0.0
 10
33.78113033635225
 20
28.89301951800553
 30
0.0
 10
34.16790520807405
 20
29.0370433409762
 30
0.0
  0
ELLIPSE
  5
17A5
330
1773
100
AcDbEntity
  8
241
100
AcDbEllipse
 10
35.73551275784126
 20
11.29864168680177
 30
0.0
 11
4.609813097708084
 21
-9.374376777472662
 31
0.0
210
0.0
220
0.0
230
-0.9999999999999999
 40
0.4423716976844264
 41
0.3741527121717935
 42
1.091293068938474
  0
SPLINE
  5
17A6
330
1773
100
AcDbEntity
  8
241
100
AcDbSpline
210
0.0
220
0.0
230
1.0
 70
     8
 71
     3
 72
    31
 73
    27
 74
     0
 42
0.0000000001
 43
0.0000000001
 40
13.18353116721398
 40
13.18353116721398
 40
13.18353116721398
 40
13.18353116721398
 40
13.55432721495118
 40
13.55432721495118
 40
14.11781398024172
 40
14.11781398024172
 40
14.60624057127967
 40
14.60624057127967
 40
15.09466716231762
 40
15.09466716231762
 40
15.58309375335557
 40
15.58309375335557
 40
16.07152034439352
 40
16.07152034439352
 40
16.07152034439352
 40
16.55024822232659
 40
16.55024822232659
 40
17.02897610025967
 40
17.02897610025967
 40
17.50770397819275
 40
17.50770397819275
 40
17.98643185612583
 40
17.98643185612583
 40
18.54550597106178
 40
18.54550597106178
 40
18.91249299351752
 40
18.91249299351752
 40
18.91249299351752
 40
18.91249299351752
 10
42.0205915077654
 20
9.814210692452036
 30
0.0
 10
42.03692669245447
 20
9.887169808225792
 30
0.0
 10
42.05096026719661
 20
9.96616967019321
 30
0.0
 10
42.07937554543889
 20
10.17686375280783
 30
0.0
 10
42.09010458847865
 20
10.31460272873278
 30
0.0
 10
42.095612023346
 20
10.57956696968398
 30
0.0
 10
42.09255025244317
 20
10.71484009920954
 30
0.0
 10
42.06888930268087
 20
11.00111228742344
 30
0.0
 10
42.04824343041548
 20
11.15209412982761
 30
0.0
 10
41.98387250132237
 20
11.45904455172348
 30
0.0
 10
41.93998472541767
 20
11.61527308353965
 30
0.0
 10
41.82621058797713
 20
11.92125753361864
 30
0.0
 10
41.75621552729762
 20
12.07098541136173
 30
0.0
 10
41.67481109545792
 20
12.21198202326928
 30
0.0
 10
41.5950231158024
 20
12.3501788578659
 30
0.0
 10
41.50234736614016
 20
12.4832595027276
 30
0.0
 10
41.29845833245821
 20
12.72962905802723
 30
0.0
 10
41.18731869160768
 20
12.84299295791794
 30
0.0
 10
40.95823932162477
 20
13.04580540110004
 30
0.0
 10
40.84012063803391
 20
13.13557243182282
 30
0.0
 10
40.60874872663527
 20
13.29133646591316
 30
0.0
 10
40.49553629714887
 20
13.35737653213385
 30
0.0
 10
40.26709903356937
 20
13.47658811924253
 30
0.0
 10
40.14437489160672
 20
13.53110167879094
 30
0.0
 10
39.95185046598919
 20
13.6026859181805
 30
0.0
 10
39.87836467560965
 20
13.62620152628023
 30
0.0
 10
39.80907478126062
 20
13.64467002454677
 30
0.0
  0
ELLIPSE
  5
17A7
330
1773
100
AcDbEntity
  8
241
100
AcDbEllipse
 10
40.41448966505595
 20
11.40997288677584
 30
0.0
 11
-1.217488135428311
 21
2.186163546725573
 31
0.0
210
0.0
220
0.0
230
-0.9999999999999999
 40
0.5069778544744664
 41
4.630734083538823
 42
6.7389268187191
  0
ELLIPSE
  5
17A8
330
1773
100
AcDbEntity
  8
241
100
AcDbEllipse
 10
40.41448966505595
 20
11.40997288677584
 30
0.0
 11
-1.217488135428311
 21
2.186163546725573
 31
0.0
210
0.0
220
0.0
230
-0.9999999999999999
 40
0.5069778544744664
 41
2.624841903810597
 42
4.630734083538823
  0
ARC
  5
17A9
330
1773
100
AcDbEntity
  8
241
100
AcDbCircle
 10
52.31808676017999
 20
21.84110735353244
 30
0.0
 40
1.499999999999999
100
AcDbArc
 50
274.9999999999998
 51
352.9927118565504
  0
ARC
  5
17AA
330
1773
100
AcDbEntity
  8
241
100
AcDbCircle
 10
49.83245819543469
 20
22.11345273884575
 30
0.0
 40
0.8
100
AcDbArc
 50
129.9999999999955
 51
275.0000000000031
  0
ARC
  5
17AB
330
1773
100
AcDbEntity
  8
241
100
AcDbCircle
 10
48.33330796781308
 20
21.49248438254188
 30
0.0
 40
1.5
100
AcDbArc
 50
94.99999999999982
 51
274.9999999999998
  0
LINE
  5
17AC
330
1773
100
AcDbEntity
  8
241
100
AcDbLine
 10
48.2025743536916
 20
22.98677642967948
 30
0.0
 11
49.79466499810968
 21
23.12606631237583
 31
0.0
  0
LINE
  5
17AD
330
1773
100
AcDbEntity
  8
241
100
AcDbLine
 10
52.44882037430148
 20
20.34681530639483
 30
0.0
 11
48.4640415819345
 21
19.99819233540427
 31
0.0
  0
LINE
  5
17AE
330
1773
100
AcDbEntity
  8
241
100
AcDbLine
 10
49.62129212653031
 20
11.15033564021752
 30
0.0
 11
49.10017733046448
 21
10.71306840703766
 31
0.0
  0
SPLINE
  5
17AF
330
1773
100
AcDbEntity
  8
241
100
AcDbSpline
210
0.0
220
0.0
230
1.0
 70
     8
 71
     3
 72
    18
 73
    14
 74
     0
 42
0.0000000001
 43
0.0000000001
 40
54.03523590447893
 40
54.03523590447893
 40
54.03523590447893
 40
54.03523590447893
 40
55.04359532637571
 40
55.04359532637571
 40
56.82301734829158
 40
56.82301734829158
 40
58.60243937020745
 40
58.60243937020745
 40
60.38186139212331
 40
60.38186139212331
 40
61.30027199107864
 40
61.30027199107864
 40
61.67312996562582
 40
61.67312996562582
 40
61.67312996562582
 40
61.67312996562582
 10
49.10017733046561
 20
10.71306840703727
 30
0.0
 10
48.80482666153352
 20
10.54176235799269
 30
0.0
 10
48.50850235205143
 20
10.36879236750741
 30
0.0
 10
47.69898335811626
 20
9.891277061505491
 30
0.0
 10
47.19317323855688
 20
9.587316682356345
 30
0.0
 10
46.25816368293579
 20
8.982377855298237
 30
0.0
 10
45.82814284652431
 20
8.680334997578141
 30
0.0
 10
45.09764885412926
 20
8.06229754758374
 30
0.0
 10
44.7978539701021
 20
7.745446243968217
 30
0.0
 10
44.46856522063945
 20
7.241368379445134
 30
0.0
 10
44.37319504204197
 20
7.057537521827953
 30
0.0
 10
44.27246872776925
 20
6.785151721175054
 30
0.0
 10
44.24729665132804
 20
6.704850837568471
 30
0.0
 10
44.22603007416762
 20
6.623173241978861
 30
0.0
  0
LINE
  5
17B0
330
1773
100
AcDbEntity
  8
241
100
AcDbLine
 10
60.34607241562134
 20
31.79160287836288
 30
0.0
 11
74.11126730834133
 21
32.99590138270054
 31
0.0
  0
LINE
  5
17B1
330
1773
100
AcDbEntity
  8
241
100
AcDbLine
 10
74.69522199028881
 20
31.58611006973189
 30
0.0
 11
64.11019169830189
 21
22.70421505572523
 31
0.0
  0
ELLIPSE
  5
17B2
330
1773
100
AcDbEntity
  8
241
100
AcDbEllipse
 10
60.41797938527219
 20
30.99177051003943
 30
0.0
 11
-0.3074321906403103
 21
0.7422069641538858
 31
0.0
210
0.0
220
0.0
230
-1.0
 40
0.9958187698381442
 41
5.978952268594854
 42
6.587418345764315
  0
CIRCLE
  5
17B3
330
1773
100
AcDbEntity
  8
242
100
AcDbCircle
 10
62.00672504898012
 20
27.15619918154499
 30
0.0
 40
1.750000000000001
  0
ELLIPSE
  5
17B4
330
1773
100
AcDbEntity
  8
241
100
AcDbEllipse
 10
63.59547071270253
 20
23.32062785303407
 30
0.0
 11
0.3074321906403099
 21
-0.7422069641538852
 31
0.0
210
0.0
220
0.0
230
-0.9999999999999999
 40
0.9958187698381445
 41
5.978952268594854
 42
6.587418345764317
  0
ARC
  5
17B5
330
1773
100
AcDbEntity
  8
241
100
AcDbCircle
 10
74.1809919025395
 20
32.19894562422718
 30
0.0
 40
0.8
100
AcDbArc
 50
309.9999999999996
 51
94.99999999999982
  0
LINE
  5
17B6
330
1773
100
AcDbEntity
  8
245
100
AcDbLine
 10
-13.5
 20
-5.808192285169653
 30
0.0
 11
-13.5
 21
5.825042539288361
 31
0.0
  0
ENDBLK
  5
1922
330
1773
100
AcDbEntity
  8
0
100
AcDbBlockEnd
  0
BLOCK
  5
1923
330
187A
100
AcDbEntity
  8
0
100
AcDbBlockBegin
  2
*D6
 70
     1
 10
0.0
 20
0.0
 30
0.0
  3
*D6
  1

  0
POINT
  5
1871
330
187A
100
AcDbEntity
  8
Defpoints
  6
ByBlock
 62
     3
370
    -3
100
AcDbPoint
 10
209.3680904506116
 20
-24.99999999999995
 30
0.0
  0
POINT
  5
1872
330
187A
100
AcDbEntity
  8
Defpoints
  6
ByBlock
 62
     3
370
    -3
100
AcDbPoint
 10
134.3870985480719
 20
31.69894562422718
 30
0.0
  0
LINE
  5
1873
330
187A
100
AcDbEntity
  8
0
  6
ByBlock
 62
     3
100
AcDbLine
 10
209.3680904506116
 20
-25.49999999999995
 30
0.0
 11
209.3680904506116
 21
-43.0
 31
0.0
  0
LINE
  5
1874
330
187A
100
AcDbEntity
  8
0
  6
ByBlock
 62
     3
100
AcDbLine
 10
134.3870985480719
 20
31.19894562422718
 30
0.0
 11
134.3870985480719
 21
-43.0
 31
0.0
  0
LINE
  5
1875
330
187A
100
AcDbEntity
  8
0
  6
ByBlock
 62
     3
100
AcDbLine
 10
207.3680904506116
 20
-42.0
 30
0.0
 11
136.3870985480719
 21
-42.0
 31
0.0
  0
INSERT
  5
1876
330
187A
100
AcDbEntity
  8
0
  6
ByBlock
 62
     3
100
AcDbBlockReference
  2
_OPEN
 10
209.3680904506116
 20
-42.0
 30
0.0
 41
2.0
 42
2.0
 43
2.0
  0
INSERT
  5
1877
330
187A
100
AcDbEntity
  8
0
  6
ByBlock
 62
     3
100
AcDbBlockReference
  2
_OPEN
 10
134.3870985480719
 20
-42.0
 30
0.0
 41
2.0
 42
2.0
 43
2.0
 50
180.0
  0
MTEXT
  5
1878
330
187A
100
AcDbEntity
  8
0
  6
ByBlock
 62
    40
370
    -3
100
AcDbMText
 10
171.8775944993417
 20
-39.5
 30
0.0
 40
3.0
 41
0.0
 71
     5
 72
     1
  1
75
 73
     1
 44
1.0
  0
ENDBLK
  5
1924
330
187A
100
AcDbEntity
  8
250
100
AcDbBlockEnd
  0
BLOCK
  5
1925
330
1886
100
AcDbEntity
  8
0
100
AcDbBlockBegin
  2
*D7
 70
     1
 10
0.0
 20
0.0
 30
0.0
  3
*D7
  1

  0
POINT
  5
187D
330
1886
100
AcDbEntity
  8
Defpoints
  6
ByBlock
 62
     3
370
    -3
100
AcDbPoint
 10
169.0137014378721
 20
0.0
 30
0.0
  0
POINT
  5
187E
330
1886
100
AcDbEntity
  8
Defpoints
  6
ByBlock
 62
     3
370
    -3
100
AcDbPoint
 10
135.187098548072
 20
32.99894562422719
 30
0.0
  0
LINE
  5
187F
330
1886
100
AcDbEntity
  8
0
  6
ByBlock
 62
     3
100
AcDbLine
 10
168.5137014378721
 20
0.0
 30
0.0
 11
117.3680904506114
 21
0.0
 31
0.0
  0
LINE
  5
1880
330
1886
100
AcDbEntity
  8
0
  6
ByBlock
 62
     3
100
AcDbLine
 10
134.687098548072
 20
32.99894562422719
 30
0.0
 11
117.3680904506114
 21
32.99894562422719
 31
0.0
  0
LINE
  5
1881
330
1886
100
AcDbEntity
  8
0
  6
ByBlock
 62
     3
100
AcDbLine
 10
118.3680904506114
 20
2.229999999999999
 30
0.0
 11
118.3680904506114
 21
30.76894562422719
 31
0.0
  0
INSERT
  5
1882
330
1886
100
AcDbEntity
  8
0
  6
ByBlock
 62
     3
100
AcDbBlockReference
  2
_OPEN
 10
118.3680904506114
 20
0.0
 30
0.0
 41
2.229999999999999
 42
2.229999999999999
 43
2.229999999999999
 50
270.0
  0
INSERT
  5
1883
330
1886
100
AcDbEntity
  8
0
  6
ByBlock
 62
     3
100
AcDbBlockReference
  2
_OPEN
 10
118.3680904506114
 20
32.99894562422719
 30
0.0
 41
2.229999999999999
 42
2.229999999999999
 43
2.229999999999999
 50
90.0
  0
MTEXT
  5
1884
330
1886
100
AcDbEntity
  8
0
  6
ByBlock
 62
    40
370
    -3
100
AcDbMText
 10
115.8680904506114
 20
16.49947281211359
 30
0.0
 40
3.0
 41
0.0
 71
     5
 72
     1
  1
33
 11
-1.608142872339124E-16
 21
1.0
 31
0.0
 73
     1
 44
1.0
  0
ENDBLK
  5
1926
330
1886
100
AcDbEntity
  8
250
100
AcDbBlockEnd
  0
BLOCK
  5
1927
330
18D1
100
AcDbEntity
  8
0
100
AcDbBlockBegin
  2
*D8
 70
     1
 10
0.0
 20
0.0
 30
0.0
  3
*D8
  1

  0
POINT
  5
18C8
330
18D1
100
AcDbEntity
  8
Defpoints
  6
ByBlock
 62
     3
370
    -3
100
AcDbPoint
 10
0.0000000000001137
 20
-24.99999999999979
 30
0.0
  0
POINT
  5
18C9
330
18D1
100
AcDbEntity
  8
Defpoints
  6
ByBlock
 62
     3
370
    -3
100
AcDbPoint
 10
-74.9809919025395
 20
31.69894562422734
 30
0.0
  0
LINE
  5
18CA
330
18D1
100
AcDbEntity
  8
0
  6
ByBlock
 62
     3
100
AcDbLine
 10
0.0000000000001137
 20
-25.49999999999979
 30
0.0
 11
0.0000000000001137
 21
-42.99999999999984
 31
0.0
  0
LINE
  5
18CB
330
18D1
100
AcDbEntity
  8
0
  6
ByBlock
 62
     3
100
AcDbLine
 10
-74.9809919025395
 20
31.19894562422734
 30
0.0
 11
-74.9809919025395
 21
-42.99999999999984
 31
0.0
  0
LINE
  5
18CC
330
18D1
100
AcDbEntity
  8
0
  6
ByBlock
 62
     3
100
AcDbLine
 10
-1.999999999999886
 20
-41.99999999999984
 30
0.0
 11
-72.9809919025395
 21
-41.99999999999984
 31
0.0
  0
INSERT
  5
18CD
330
18D1
100
AcDbEntity
  8
0
  6
ByBlock
 62
     3
100
AcDbBlockReference
  2
_OPEN
 10
0.0000000000001137
 20
-41.99999999999984
 30
0.0
 41
2.0
 42
2.0
 43
2.0
  0
INSERT
  5
18CE
330
18D1
100
AcDbEntity
  8
0
  6
ByBlock
 62
     3
100
AcDbBlockReference
  2
_OPEN
 10
-74.9809919025395
 20
-41.99999999999984
 30
0.0
 41
2.0
 42
2.0
 43
2.0
 50
180.0
  0
MTEXT
  5
18CF
330
18D1
100
AcDbEntity
  8
0
  6
ByBlock
 62
    40
370
    -3
100
AcDbMText
 10
-37.49049595126969
 20
-39.49999999999984
 30
0.0
 40
3.0
 41
0.0
 71
     5
 72
     1
  1
75
 73
     1
 44
1.0
  0
ENDBLK
  5
1928
330
18D1
100
AcDbEntity
  8
250
100
AcDbBlockEnd
  0
BLOCK
  5
1929
330
18DC
100
AcDbEntity
  8
0
100
AcDbBlockBegin
  2
*D9
 70
     1
 10
0.0
 20
0.0
 30
0.0
  3
*D9
  1

  0
POINT
  5
18D3
330
18DC
100
AcDbEntity
  8
Defpoints
  6
ByBlock
 62
     3
370
    -3
100
AcDbPoint
 10
-40.35438901273938
 20
0.0000000000001599
 30
0.0
  0
POINT
  5
18D4
330
18DC
100
AcDbEntity
  8
Defpoints
  6
ByBlock
 62
     3
370
    -3
100
AcDbPoint
 10
-74.18099190253949
 20
32.99894562422735
 30
0.0
  0
LINE
  5
18D5
330
18DC
100
AcDbEntity
  8
0
  6
ByBlock
 62
     3
100
AcDbLine
 10
-40.85438901273938
 20
0.0000000000001599
 30
0.0
 11
-92.0
 21
0.0000000000001599
 31
0.0
  0
LINE
  5
18D6
330
18DC
100
AcDbEntity
  8
0
  6
ByBlock
 62
     3
100
AcDbLine
 10
-74.68099190253949
 20
32.99894562422735
 30
0.0
 11
-92.0
 21
32.99894562422735
 31
0.0
  0
LINE
  5
18D7
330
18DC
100
AcDbEntity
  8
0
  6
ByBlock
 62
     3
100
AcDbLine
 10
-91.0
 20
2.230000000000159
 30
0.0
 11
-91.0
 21
30.76894562422735
 31
0.0
  0
INSERT
  5
18D8
330
18DC
100
AcDbEntity
  8
0
  6
ByBlock
 62
     3
100
AcDbBlockReference
  2
_OPEN
 10
-91.0
 20
0.0000000000001599
 30
0.0
 41
2.229999999999999
 42
2.229999999999999
 43
2.229999999999999
 50
270.0
  0
INSERT
  5
18D9
330
18DC
100
AcDbEntity
  8
0
  6
ByBlock
 62
     3
100
AcDbBlockReference
  2
_OPEN
 10
-91.0
 20
32.99894562422735
 30
0.0
 41
2.229999999999999
 42
2.229999999999999
 43
2.229999999999999
 50
90.0
  0
MTEXT
  5
18DA
330
18DC
100
AcDbEntity
  8
0
  6
ByBlock
 62
    40
370
    -3
100
AcDbMText
 10
-93.5
 20
16.49947281211375
 30
0.0
 40
3.0
 41
0.0
 71
     5
 72
     1
  1
33
 11
-1.608142872339124E-16
 21
1.0
 31
0.0
 73
     1
 44
1.0
  0
ENDBLK
  5
192A
330
18DC
100
AcDbEntity
  8
250
100
AcDbBlockEnd
  0
ENDSEC
  0
SECTION
  2
ENTITIES
  0
INSERT
  5
6E6
330
1F
100
AcDbEntity
  8
245
100
AcDbBlockReference
  2
\U+77E2\U+5370\U+306A\U+3057
 10
175.6238269664377
 20
90.55123571690598
 30
0.0
  0
TEXT
  5
1771
330
1F
100
AcDbEntity
  8
251
  6
Continuous
 62
    40
370
    -3
100
AcDbText
 10
-28.0
 20
63.0
 30
0.0
 40
5.0
  1
S50-SVLBR-33075-16
  7
YOKO
 11
-28.0
 21
63.0
 31
0.0
100
AcDbText
 73
     1
  0
DIMENSION
  5
186F
330
1F
100
AcDbEntity
  8
250
  6
Continuous
370
    -3
100
AcDbDimension
  2
*D8
 10
-74.9809919025395
 20
-41.99999999999984
 30
0.0
 11
-37.49049595126969
 21
-39.49999999999984
 31
0.0
 70
    32
  1
75
 71
     0
 72
     0
 41
0.0
 42
-1.0
  3
BIGT$0
100
AcDbAlignedDimension
 13
0.0000000000001137
 23
-24.99999999999979
 33
0.0
 14
-74.9809919025395
 24
31.69894562422734
 34
0.0
 50
180.0
100
AcDbRotatedDimension
1001
ACAD
1000
DSTYLE
1002
{
1070
    41
1040
2.0
1002
}
  0
DIMENSION
  5
187B
330
1F
100
AcDbEntity
  8
250
  6
Continuous
370
    -3
100
AcDbDimension
  2
*D9
 10
-91.0
 20
32.99894562422735
 30
0.0
 11
-93.5
 21
16.49947281211375
 31
0.0
 70
    32
  1
33
 71
     0
 72
     0
 41
0.0
 42
-1.0
  3
BIGT$0
100
AcDbAlignedDimension
 13
-40.35438901273938
 23
0.0000000000001599
 33
0.0
 14
-74.18099190253949
 24
32.99894562422735
 34
0.0
 50
90.00000000000001
100
AcDbRotatedDimension
  0
LINE
  5
1887
330
1F
100
AcDbEntity
  8
245
100
AcDbLine
 10
35.14133873650258
 20
0.0000000000001599
 30
0.0
 11
-40.35438901273938
 21
0.0000000000001599
 31
0.0
  0
SPLINE
  5
1888
330
1F
100
AcDbEntity
  8
241
100
AcDbSpline
210
0.0
220
0.0
230
1.0
 70
     8
 71
     3
 72
    10
 73
     6
 74
     0
 42
0.0000000001
 43
0.0000000001
 40
91.9925486833404
 40
91.9925486833404
 40
91.9925486833404
 40
91.9925486833404
 40
96.54707185544623
 40
96.54707185544623
 40
102.4106315657392
 40
102.4106315657392
 40
102.4106315657392
 40
102.4106315657392
 10
-34.18291471929763
 20
5.16460796689829
 30
0.0
 10
-32.72421187815905
 20
4.385389900346343
 30
0.0
 10
-31.26516864823759
 20
3.610374333290099
 30
0.0
 10
-27.9784486317983
 20
1.869348933235176
 30
0.0
 10
-26.16535711639347
 20
0.9124056356274542
 30
0.0
 10
-24.43687107103949
 20
0.0000000000001031
 30
0.0
  0
LINE
  5
1889
330
1F
100
AcDbEntity
  8
241
100
AcDbLine
 10
-32.59674472005076
 20
23.9076188990761
 30
0.0
 11
-21.23673019291539
 21
23.9076188990761
 31
0.0
  0
SPLINE
  5
188A
330
1F
100
AcDbEntity
  8
241
100
AcDbSpline
210
0.0
220
0.0
230
1.0
 70
     8
 71
     3
 72
    16
 73
    12
 74
     0
 42
0.0000000001
 43
0.0000000001
 40
33.93328527809226
 40
33.93328527809226
 40
33.93328527809226
 40
33.93328527809226
 40
35.43582036528512
 40
35.43582036528512
 40
37.93728263679353
 40
37.93728263679353
 40
40.43874490830193
 40
40.43874490830193
 40
42.45626772257544
 40
42.45626772257544
 40
43.12883414798117
 40
43.12883414798117
 40
43.12883414798117
 40
43.12883414798117
 10
-33.01431698266742
 20
28.60581549403297
 30
0.0
 10
-32.52093299992561
 20
28.42059904642768
 30
0.0
 10
-32.03194730625779
 20
28.23594164785299
 30
0.0
 10
-30.744174501771
 20
27.74563199016239
 30
0.0
 10
-29.95559929051899
 20
27.44127117910363
 30
0.0
 10
-28.42401971974948
 20
26.8359823022007
 30
0.0
 10
-27.68080865764534
 20
26.53515635377948
 30
0.0
 10
-26.39669763211987
 20
25.9916693920171
 30
0.0
 10
-25.78177410243825
 20
25.72242930031347
 30
0.0
 10
-25.02004348510661
 20
25.35982930674526
 30
0.0
 10
-24.83446079069063
 20
25.26885560214003
 30
0.0
 10
-24.65693162617208
 20
25.17839713457652
 30
0.0
  0
LINE
  5
188B
330
1F
100
AcDbEntity
  8
240
100
AcDbLine
 10
-24.6569316261722
 20
25.60307379214105
 30
0.0
 11
-34.06756675220473
 21
29.0282648635572
 31
0.0
  0
LINE
  5
188C
330
1F
100
AcDbEntity
  8
240
100
AcDbLine
 10
26.5
 20
-13.99999999999967
 30
0.0
 11
1.600000000000023
 21
-13.99999999999967
 31
0.0
  0
LINE
  5
188D
330
1F
100
AcDbEntity
  8
240
100
AcDbLine
 10
26.5
 20
14.00000000000033
 30
0.0
 11
1.600000000000023
 21
14.00000000000033
 31
0.0
  0
LINE
  5
188E
330
1F
100
AcDbEntity
  8
240
100
AcDbLine
 10
31.00000000000006
 20
-13.37875259485605
 30
0.0
 11
31.0
 21
13.37875259486974
 31
0.0
  0
SPLINE
  5
188F
330
1F
100
AcDbEntity
  8
241
100
AcDbSpline
210
0.0
220
0.0
230
1.0
 70
    11
 71
     3
 72
    70
 73
    66
 74
     0
 42
0.0000000001
 43
0.0000000001
 40
0.0
 40
0.0
 40
0.0
 40
0.0
 40
0.9197496568304652
 40
0.9197496568304652
 40
1.83949931366093
 40
1.83949931366093
 40
2.759248970491396
 40
2.759248970491396
 40
3.678998627321861
 40
3.678998627321861
 40
4.631875395981221
 40
4.631875395981221
 40
5.584752164640583
 40
5.584752164640583
 40
6.537628933299944
 40
6.537628933299944
 40
7.490505701959305
 40
7.490505701959305
 40
8.44338247061866
 40
8.44338247061866
 40
9.39625923927802
 40
9.39625923927802
 40
10.34913600793737
 40
10.34913600793737
 40
11.30201277659673
 40
11.30201277659673
 40
12.2217624334272
 40
12.2217624334272
 40
13.14151209025767
 40
13.14151209025767
 40
14.06126174708813
 40
14.06126174708813
 40
14.9810114039186
 40
14.9810114039186
 40
15.91208227998781
 40
15.91208227998781
 40
16.84315315605702
 40
16.84315315605702
 40
17.77422403212623
 40
17.77422403212623
 40
18.70529490819543
 40
18.70529490819543
 40
19.64673146562238
 40
19.64673146562238
 40
20.58816802304933
 40
20.58816802304933
 40
21.52960458047628
 40
21.52960458047628
 40
22.47104113790322
 40
22.47104113790322
 40
23.41247769533016
 40
23.41247769533016
 40
24.35391425275711
 40
24.35391425275711
 40
25.29535081018405
 40
25.29535081018405
 40
26.236787367611
 40
26.236787367611
 40
27.1678582436802
 40
27.1678582436802
 40
28.09892911974941
 40
28.09892911974941
 40
29.02999999581861
 40
29.02999999581861
 40
29.96107087188781
 40
29.96107087188781
 40
29.96107087188781
 40
29.96107087188781
 10
13.5
 20
-4.813238667570612
 30
0.0
 10
13.1934167810565
 20
-4.813238667570612
 30
0.0
 10
12.87626085482509
 20
-4.786140626473763
 30
0.0
 10
12.24440677204075
 20
-4.671798730367367
 30
0.0
 10
11.92970138435771
 20
-4.584583114443613
 30
0.0
 10
11.32426227349964
 20
-4.353455323821673
 30
0.0
 10
11.03306955977735
 20
-4.209379306698007
 30
0.0
 10
10.49166717234232
 20
-3.875324214317071
 30
0.0
 10
10.24146009689252
 20
-3.685312193028447
 30
0.0
 10
9.786846452297254
 20
-3.2710099735752
 30
0.0
 10
9.56785585213072
 20
-3.030604788970105
 30
0.0
 10
9.179132986036961
 20
-2.502017360458477
 30
0.0
 10
9.009375944373232
 20
-2.21383198860418
 30
0.0
 10
8.734915314548289
 20
-1.607725564508154
 30
0.0
 10
8.6299681210902
 20
-1.289204275586722
 30
0.0
 10
8.491533861579398
 20
-0.6441601606741294
 30
0.0
 10
8.458089842978097
 20
-0.3176255895529145
 30
0.0
 10
8.458089842978097
 20
0.317625589553348
 30
0.0
 10
8.491533861579398
 20
0.6441601606745628
 30
0.0
 10
8.6299681210902
 20
1.289204275587156
 30
0.0
 10
8.734915314548289
 20
1.607725564508531
 30
0.0
 10
9.009375944373232
 20
2.213831988604614
 30
0.0
 10
9.179132986036961
 20
2.502017360458911
 30
0.0
 10
9.56785585213072
 20
3.030604788970539
 30
0.0
 10
9.786846452297254
 20
3.271009973575577
 30
0.0
 10
10.24146009689252
 20
3.685312193028881
 30
0.0
 10
10.49166717234232
 20
3.875324214317505
 30
0.0
 10
11.03306955977735
 20
4.209379306698441
 30
0.0
 10
11.32426227349964
 20
4.353455323822049
 30
0.0
 10
11.92970138435771
 20
4.58458311444399
 30
0.0
 10
12.24440677204075
 20
4.671798730367744
 30
0.0
 10
12.87626085482509
 20
4.786140626474196
 30
0.0
 10
13.1934167810565
 20
4.813238667571045
 30
0.0
 10
13.81035695868979
 20
4.813238667571045
 30
0.0
 10
14.1312923420445
 20
4.785470431102272
 30
0.0
 10
14.77026933877602
 20
4.668421595239454
 30
0.0
 10
15.08831874294356
 20
4.579171023034792
 30
0.0
 10
15.69963276822364
 20
4.342762119793167
 30
0.0
 10
15.99336985375021
 20
4.195433199442379
 30
0.0
 10
16.53879695522312
 20
3.853899818125672
 30
0.0
 10
16.79048375056203
 20
3.659660585884456
 30
0.0
 10
17.24130660191111
 20
3.241308021639543
 30
0.0
 10
17.45583231479623
 20
3.001992855304923
 30
0.0
 10
17.83652384033473
 20
2.476737516738456
 30
0.0
 10
18.00271248665894
 20
2.19079354102978
 30
0.0
 10
18.27130233774943
 20
1.590081060246905
 30
0.0
 10
18.37393747752191
 20
1.274727792169063
 30
0.0
 10
18.50926202767096
 20
0.6365989058258386
 30
0.0
 10
18.5419101570219
 20
0.3138121858091729
 30
0.0
 10
18.5419101570219
 20
-0.3138121858087963
 30
0.0
 10
18.50926202767096
 20
-0.6365989058254621
 30
0.0
 10
18.37393747752191
 20
-1.274727792168686
 30
0.0
 10
18.27130233774943
 20
-1.590081060246529
 30
0.0
 10
18.00271248665894
 20
-2.190793541029346
 30
0.0
 10
17.83652384033473
 20
-2.476737516738079
 30
0.0
 10
17.45583231479623
 20
-3.001992855304546
 30
0.0
 10
17.24130660191111
 20
-3.241308021639166
 30
0.0
 10
16.79048375056198
 20
-3.659660585884022
 30
0.0
 10
16.53879695522312
 20
-3.853899818125238
 30
0.0
 10
15.99336985375021
 20
-4.195433199441946
 30
0.0
 10
15.69963276822364
 20
-4.342762119792734
 30
0.0
 10
15.08831874294356
 20
-4.579171023034358
 30
0.0
 10
14.77026933877602
 20
-4.668421595239077
 30
0.0
 10
14.1312923420445
 20
-4.785470431101838
 30
0.0
 10
13.81035695868979
 20
-4.813238667570612
 30
0.0
 10
13.5
 20
-4.813238667570612
 30
0.0
  0
CIRCLE
  5
1890
330
1F
100
AcDbEntity
  8
241
100
AcDbCircle
 10
13.5
 20
0.0000000000002167
 30
0.0
 40
4.0
  0
LINE
  5
1891
330
1F
100
AcDbEntity
  8
241
100
AcDbLine
 10
28.51999999999998
 20
13.71610751390146
 30
0.0
 11
28.51999999999998
 21
-13.71610751390086
 31
0.0
  0
LINE
  5
1892
330
1F
100
AcDbEntity
  8
241
100
AcDbLine
 10
26.5
 20
14.00000000000033
 30
0.0
 11
26.5
 21
-13.99999999999967
 31
0.0
  0
LINE
  5
1893
330
1F
100
AcDbEntity
  8
240
100
AcDbLine
 10
31.0
 20
13.37875259486974
 30
0.0
 11
30.87416452474852
 21
13.59670603139982
 31
0.0
  0
LINE
  5
1894
330
1F
100
AcDbEntity
  8
240
100
AcDbLine
 10
28.51999999999998
 20
13.71610751390146
 30
0.0
 11
26.5
 21
14.00000000000027
 31
0.0
  0
ARC
  5
1895
330
1F
100
AcDbEntity
  8
240
100
AcDbCircle
 10
30.18134420172098
 20
13.19670603139984
 30
0.0
 40
0.8
100
AcDbArc
 50
30.00000000000071
 51
99.99999999999848
  0
LINE
  5
1896
330
1F
100
AcDbEntity
  8
240
100
AcDbLine
 10
28.51999999999998
 20
13.71610751390146
 30
0.0
 11
30.04242565958745
 21
13.9845522338096
 31
0.0
  0
LINE
  5
1897
330
1F
100
AcDbEntity
  8
240
100
AcDbLine
 10
31.00000000000006
 20
-13.37875259485605
 30
0.0
 11
30.87416452474855
 21
-13.59670603139927
 31
0.0
  0
LINE
  5
1898
330
1F
100
AcDbEntity
  8
240
100
AcDbLine
 10
28.51999999999998
 20
-13.71610751390086
 30
0.0
 11
26.5
 21
-13.99999999999967
 31
0.0
  0
ARC
  5
1899
330
1F
100
AcDbEntity
  8
240
100
AcDbCircle
 10
30.18134420172098
 20
-13.19670603139924
 30
0.0
 40
0.8
100
AcDbArc
 50
260.0000000000015
 51
329.9999999999981
  0
LINE
  5
189A
330
1F
100
AcDbEntity
  8
240
100
AcDbLine
 10
28.51999999999998
 20
-13.71610751390086
 30
0.0
 11
30.04242565958745
 21
-13.98455223380899
 31
0.0
  0
LINE
  5
189B
330
1F
100
AcDbEntity
  8
241
100
AcDbLine
 10
1.600000000000023
 20
0.0000000000001599
 30
0.0
 11
1.599999999999966
 21
14.00000000000033
 31
0.0
  0
LINE
  5
189C
330
1F
100
AcDbEntity
  8
240
100
AcDbLine
 10
0.0000000000001137
 20
-24.99999999999979
 30
0.0
 11
-0.0000000000001137
 21
24.50000000000022
 31
0.0
  0
LINE
  5
189D
330
1F
100
AcDbEntity
  8
240
100
AcDbLine
 10
-21.23673019291545
 20
25.00000000000011
 30
0.0
 11
-0.5000000000001137
 21
25.00000000000022
 31
0.0
  0
ARC
  5
189E
330
1F
100
AcDbEntity
  8
240
100
AcDbCircle
 10
-0.5000000000001137
 20
24.50000000000022
 30
0.0
 40
0.5
100
AcDbArc
 50
0.0
 51
90.0
  0
LINE
  5
189F
330
1F
100
AcDbEntity
  8
240
100
AcDbLine
 10
0.336516303737767
 20
13.66145056393678
 30
0.0
 11
1.600000000000023
 21
14.0000000000001
 31
0.0
  0
ARC
  5
18A0
330
1F
100
AcDbEntity
  8
240
100
AcDbCircle
 10
0.2071067811865532
 20
14.14441347708133
 30
0.0
 40
0.5000000000000001
100
AcDbArc
 50
245.5301994792935
 51
285.0000000000013
  0
ARC
  5
18A1
330
1F
100
AcDbEntity
  8
240
100
AcDbCircle
 10
-21.2367301929155
 20
35.00000000000011
 30
0.0
 40
10.0
100
AcDbArc
 50
250.0
 51
270.0000000000001
  0
SPLINE
  5
18A2
330
1F
100
AcDbEntity
  8
241
100
AcDbSpline
210
0.0
220
0.0
230
1.0
 70
     8
 71
     3
 72
    10
 73
     6
 74
     0
 42
0.0000000001
 43
0.0000000001
 40
-4.474585843366369
 40
-4.474585843366369
 40
-4.474585843366369
 40
-4.474585843366369
 40
0.0
 40
0.0
 40
0.0176007989327708
 40
0.0176007989327708
 40
0.0176007989327708
 40
0.0176007989327708
 10
-24.65693162617208
 20
25.17839713457652
 30
0.0
 10
-23.55020771769114
 20
24.61447543163501
 30
0.0
 10
-22.38934629151623
 20
24.19348175059814
 30
0.0
 10
-21.24569208218725
 20
23.90983543194442
 30
0.0
 10
-21.24121113699334
 20
23.90872613672899
 30
0.0
 10
-21.2367301929155
 20
23.90761889907599
 30
0.0
  0
LINE
  5
18A3
330
1F
100
AcDbEntity
  8
241
100
AcDbLine
 10
-21.2367301929155
 20
25.00000000000011
 30
0.0
 11
-21.2367301929155
 21
23.90761889907599
 31
0.0
  0
LINE
  5
18A4
330
1F
100
AcDbEntity
  8
241
100
AcDbLine
 10
-24.65693162617197
 20
25.17839713457652
 30
0.0
 11
-24.65693162617197
 21
25.60307379214173
 31
0.0
  0
LINE
  5
18A5
330
1F
100
AcDbEntity
  8
240
100
AcDbLine
 10
-6.538999753814664
 20
-24.99999999999984
 30
0.0
 11
-63.11442491453823
 21
22.47241838606141
 31
0.0
  0
LINE
  5
18A6
330
1F
100
AcDbEntity
  8
241
100
AcDbLine
 10
1.600000000000023
 20
-13.99999999999967
 30
0.0
 11
1.600000000000023
 21
0.0000000000003304
 31
0.0
  0
LINE
  5
18A7
330
1F
100
AcDbEntity
  8
240
100
AcDbLine
 10
0.3365163037378807
 20
-13.66145056393652
 30
0.0
 11
1.600000000000023
 21
-13.99999999999984
 31
0.0
  0
ARC
  5
18A8
330
1F
100
AcDbEntity
  8
240
100
AcDbCircle
 10
0.2071067811865532
 20
-14.14441347708101
 30
0.0
 40
0.5
100
AcDbArc
 50
74.99999999999878
 51
114.4698005206991
  0
LINE
  5
18A9
330
1F
100
AcDbEntity
  8
240
100
AcDbLine
 10
-6.538999753814664
 20
-24.99999999999979
 30
0.0
 11
0.0000000000001137
 21
-24.99999999999979
 31
0.0
  0
SPLINE
  5
18AA
330
1F
100
AcDbEntity
  8
241
100
AcDbSpline
210
0.0
220
0.0
230
1.0
 70
     8
 71
     3
 72
    16
 73
    12
 74
     0
 42
0.0000000001
 43
0.0000000001
 40
0.0
 40
0.0
 40
0.0
 40
0.0
 40
1.461119247149322
 40
1.461119247149322
 40
2.922238494298644
 40
2.922238494298644
 40
5.844476988597289
 40
5.844476988597289
 40
8.766715482895934
 40
8.766715482895934
 40
11.25984926073466
 40
11.25984926073466
 40
11.25984926073466
 40
11.25984926073466
 10
-24.43687107103949
 20
0.0000000000001031
 30
0.0
 10
-24.38573708694503
 20
-0.4843480492630867
 30
0.0
 10
-24.33348759695264
 20
-0.9794096206065993
 30
0.0
 10
-24.22574851203967
 20
-1.983079217667022
 30
0.0
 10
-24.17025319336733
 20
-2.491686530900562
 30
0.0
 10
-23.9969606652628
 20
-4.026088855987619
 30
0.0
 10
-23.87229271639512
 20
-5.060410511925009
 30
0.0
 10
-23.593735949245
 20
-7.09162938789451
 30
0.0
 10
-23.43953516136173
 20
-8.08922735520515
 30
0.0
 10
-23.11972357559387
 20
-9.854355460421413
 30
0.0
 10
-22.95905973975198
 20
-10.63425216435912
 30
0.0
 10
-22.78573303498024
 20
-11.3673720959381
 30
0.0
  0
LINE
  5
18AB
330
1F
100
AcDbEntity
  8
240
100
AcDbLine
 10
-34.06756675220473
 20
29.0282648635572
 30
0.0
 11
-59.47805397339192
 21
31.25139443008168
 31
0.0
  0
LINE
  5
18AC
330
1F
100
AcDbEntity
  8
241
100
AcDbLine
 10
-63.66737768235362
 20
22.52079548471066
 30
0.0
 11
-49.90218278963277
 21
21.31649698037255
 31
0.0
  0
LINE
  5
18AD
330
1F
100
AcDbEntity
  8
241
100
AcDbLine
 10
-49.3182281076854
 20
22.72628829334109
 30
0.0
 11
-59.90325839967295
 21
31.60818330734843
 31
0.0
  0
CIRCLE
  5
18AE
330
1F
100
AcDbEntity
  8
246
100
AcDbCircle
 10
-62.00672504898739
 20
27.15619918153697
 30
0.0
 40
4.7625
  0
LINE
  5
18AF
330
1F
100
AcDbEntity
  8
241
100
AcDbLine
 10
-39.04790024643387
 20
29.46398758488083
 30
0.0
 11
-49.62129212653031
 21
11.15033564021768
 31
0.0
  0
LINE
  5
18B0
330
1F
100
AcDbEntity
  8
241
100
AcDbLine
 10
-43.98143365148212
 20
6.417932473912674
 30
0.0
 11
-42.0205915077654
 21
9.814210692452196
 31
0.0
  0
LINE
  5
18B1
330
1F
100
AcDbEntity
  8
241
100
AcDbLine
 10
-39.80907478126062
 20
13.64467002454693
 30
0.0
 11
-33.25340197462504
 21
24.99942840343742
 31
0.0
  0
ELLIPSE
  5
18B2
330
1F
100
AcDbEntity
  8
241
100
AcDbEllipse
 10
-50.33547213602264
 20
-0.0000000000000106
 30
0.0
 11
-17.48938787971079
 21
-24.1029798297555
 31
2.000000000000000E-16
210
-1.360413067846258E-18
220
-7.310598499621153E-18
230
-1.0
 40
0.3794725963790727
 41
3.169607517846676
 42
4.235615192747298
  0
SPLINE
  5
18B3
330
1F
100
AcDbEntity
  8
241
100
AcDbSpline
210
0.0
220
0.0
230
1.0
 70
     8
 71
     3
 72
    16
 73
    12
 74
     0
 42
0.0000000001
 43
0.0000000001
 40
15.83558480367313
 40
15.83558480367313
 40
15.83558480367313
 40
15.83558480367313
 40
17.18428342275421
 40
17.18428342275421
 40
18.80712799006173
 40
18.80712799006173
 40
19.88999722031201
 40
19.88999722031201
 40
20.9728664505623
 40
20.9728664505623
 40
21.38620753970849
 40
21.38620753970849
 40
21.38620753970849
 40
21.38620753970849
 10
-33.25340197462504
 20
24.99942840343742
 30
0.0
 10
-33.32397021001941
 20
25.25054975010368
 30
0.0
 10
-33.4149031582279
 20
25.52883208131396
 30
0.0
 10
-33.64939638014141
 20
26.18320264395577
 30
0.0
 10
-33.79995198328186
 20
26.5678449985537
 30
0.0
 10
-34.06985493711966
 20
27.22100749469051
 30
0.0
 10
-34.19056360351931
 20
27.50402721026551
 30
0.0
 10
-34.45295944368922
 20
28.10029612192817
 30
0.0
 10
-34.59461087388365
 20
28.41355401323778
 30
0.0
 10
-34.80060559554533
 20
28.85580404724316
 30
0.0
 10
-34.85860274940671
 20
28.97897777138114
 30
0.0
 10
-34.91751774086288
 20
29.10262593961766
 30
0.0
  0
ELLIPSE
  5
18B4
330
1F
100
AcDbEntity
  8
241
100
AcDbEllipse
 10
-25.50125375366201
 20
33.47066645870642
 30
0.0
 11
6.995755151883913
 21
9.641191931902455
 31
-2.000000000000000E-16
210
-3.401032669615095E-18
220
-1.827649624905294E-17
230
-0.9999999999999999
 40
0.3794725963790738
 41
3.169607517847249
 42
3.43314868925457
  0
SPLINE
  5
18B5
330
1F
100
AcDbEntity
  8
241
100
AcDbSpline
210
0.0
220
0.0
230
1.0
 70
     8
 71
     3
 72
     8
 73
     4
 74
     0
 42
0.0000000001
 43
0.0000000001
 40
67.85912242761881
 40
67.85912242761881
 40
67.85912242761881
 40
67.85912242761881
 40
69.0227216274014
 40
69.0227216274014
 40
69.0227216274014
 40
69.0227216274014
 10
-33.01431698266742
 20
28.60581549403297
 30
0.0
 10
-33.39640678051683
 20
28.74925208196304
 30
0.0
 10
-33.78113033635225
 20
28.89301951800569
 30
0.0
 10
-34.16790520807405
 20
29.03704334097636
 30
0.0
  0
ELLIPSE
  5
18B6
330
1F
100
AcDbEntity
  8
241
100
AcDbEllipse
 10
-35.73551275784126
 20
11.29864168680193
 30
0.0
 11
-4.609813097708098
 21
-9.37437677747266
 31
0.0
210
0.0
220
0.0
230
-1.0
 40
0.4423716976844264
 41
5.191892238241111
 42
5.909032595007793
  0
SPLINE
  5
18B7
330
1F
100
AcDbEntity
  8
241
100
AcDbSpline
210
0.0
220
0.0
230
1.0
 70
     8
 71
     3
 72
    31
 73
    27
 74
     0
 42
0.0000000001
 43
0.0000000001
 40
13.18353116721398
 40
13.18353116721398
 40
13.18353116721398
 40
13.18353116721398
 40
13.55432721495118
 40
13.55432721495118
 40
14.11781398024172
 40
14.11781398024172
 40
14.60624057127967
 40
14.60624057127967
 40
15.09466716231762
 40
15.09466716231762
 40
15.58309375335557
 40
15.58309375335557
 40
16.07152034439352
 40
16.07152034439352
 40
16.07152034439352
 40
16.55024822232659
 40
16.55024822232659
 40
17.02897610025967
 40
17.02897610025967
 40
17.50770397819275
 40
17.50770397819275
 40
17.98643185612583
 40
17.98643185612583
 40
18.54550597106178
 40
18.54550597106178
 40
18.91249299351752
 40
18.91249299351752
 40
18.91249299351752
 40
18.91249299351752
 10
-42.0205915077654
 20
9.814210692452196
 30
0.0
 10
-42.03692669245447
 20
9.887169808225952
 30
0.0
 10
-42.05096026719661
 20
9.96616967019337
 30
0.0
 10
-42.07937554543889
 20
10.17686375280799
 30
0.0
 10
-42.09010458847865
 20
10.31460272873294
 30
0.0
 10
-42.09561202334601
 20
10.57956696968414
 30
0.0
 10
-42.09255025244317
 20
10.7148400992097
 30
0.0
 10
-42.06888930268087
 20
11.0011122874236
 30
0.0
 10
-42.04824343041548
 20
11.15209412982777
 30
0.0
 10
-41.98387250132237
 20
11.45904455172364
 30
0.0
 10
-41.93998472541767
 20
11.61527308353981
 30
0.0
 10
-41.82621058797713
 20
11.9212575336188
 30
0.0
 10
-41.75621552729763
 20
12.07098541136189
 30
0.0
 10
-41.67481109545793
 20
12.21198202326944
 30
0.0
 10
-41.59502311580241
 20
12.35017885786606
 30
0.0
 10
-41.50234736614016
 20
12.48325950272776
 30
0.0
 10
-41.29845833245821
 20
12.72962905802739
 30
0.0
 10
-41.18731869160769
 20
12.8429929579181
 30
0.0
 10
-40.95823932162477
 20
13.0458054011002
 30
0.0
 10
-40.84012063803391
 20
13.13557243182298
 30
0.0
 10
-40.60874872663527
 20
13.29133646591332
 30
0.0
 10
-40.49553629714887
 20
13.35737653213401
 30
0.0
 10
-40.26709903356937
 20
13.47658811924269
 30
0.0
 10
-40.1443748916067
 20
13.5311016787911
 30
0.0
 10
-39.9518504659892
 20
13.60268591818066
 30
0.0
 10
-39.87836467560965
 20
13.62620152628039
 30
0.0
 10
-39.80907478126062
 20
13.64467002454693
 30
0.0
  0
ELLIPSE
  5
18B8
330
1F
100
AcDbEntity
  8
241
100
AcDbEllipse
 10
-40.41448966505595
 20
11.409972886776
 30
0.0
 11
1.217488135428312
 21
2.186163546725574
 31
0.0
210
0.0
220
0.0
230
-1.0
 40
0.5069778544744663
 41
-0.4557415115395145
 42
1.652451223640763
  0
ELLIPSE
  5
18B9
330
1F
100
AcDbEntity
  8
241
100
AcDbEllipse
 10
-40.41448966505595
 20
11.409972886776
 30
0.0
 11
1.217488135428312
 21
2.186163546725574
 31
0.0
210
0.0
220
0.0
230
-1.0
 40
0.5069778544744663
 41
1.652451223640763
 42
3.658343403368988
  0
ARC
  5
18BA
330
1F
100
AcDbEntity
  8
241
100
AcDbCircle
 10
-52.31808676017999
 20
21.8411073535326
 30
0.0
 40
1.499999999999999
100
AcDbArc
 50
187.0072881434497
 51
265.0000000000003
  0
ARC
  5
18BB
330
1F
100
AcDbEntity
  8
241
100
AcDbCircle
 10
-49.8324581954347
 20
22.11345273884591
 30
0.0
 40
0.8
100
AcDbArc
 50
264.9999999999973
 51
50.00000000000498
  0
ARC
  5
18BC
330
1F
100
AcDbEntity
  8
241
100
AcDbCircle
 10
-48.33330796781308
 20
21.49248438254204
 30
0.0
 40
1.5
100
AcDbArc
 50
265.0000000000002
 51
85.00000000000016
  0
LINE
  5
18BD
330
1F
100
AcDbEntity
  8
241
100
AcDbLine
 10
-48.2025743536916
 20
22.98677642967964
 30
0.0
 11
-49.79466499810968
 21
23.12606631237599
 31
0.0
  0
LINE
  5
18BE
330
1F
100
AcDbEntity
  8
241
100
AcDbLine
 10
-52.44882037430148
 20
20.34681530639499
 30
0.0
 11
-48.46404158193451
 21
19.99819233540443
 31
0.0
  0
LINE
  5
18BF
330
1F
100
AcDbEntity
  8
241
100
AcDbLine
 10
-49.62129212653031
 20
11.15033564021768
 30
0.0
 11
-49.10017733046448
 21
10.71306840703782
 31
0.0
  0
SPLINE
  5
18C0
330
1F
100
AcDbEntity
  8
241
100
AcDbSpline
210
0.0
220
0.0
230
1.0
 70
     8
 71
     3
 72
    18
 73
    14
 74
     0
 42
0.0000000001
 43
0.0000000001
 40
54.03523590447893
 40
54.03523590447893
 40
54.03523590447893
 40
54.03523590447893
 40
55.04359532637571
 40
55.04359532637571
 40
56.82301734829158
 40
56.82301734829158
 40
58.60243937020745
 40
58.60243937020745
 40
60.38186139212331
 40
60.38186139212331
 40
61.30027199107864
 40
61.30027199107864
 40
61.67312996562582
 40
61.67312996562582
 40
61.67312996562582
 40
61.67312996562582
 10
-49.10017733046561
 20
10.71306840703743
 30
0.0
 10
-48.80482666153353
 20
10.54176235799285
 30
0.0
 10
-48.50850235205144
 20
10.36879236750757
 30
0.0
 10
-47.69898335811627
 20
9.891277061505651
 30
0.0
 10
-47.19317323855688
 20
9.587316682356505
 30
0.0
 10
-46.25816368293579
 20
8.982377855298397
 30
0.0
 10
-45.82814284652432
 20
8.680334997578301
 30
0.0
 10
-45.09764885412926
 20
8.0622975475839
 30
0.0
 10
-44.7978539701021
 20
7.745446243968376
 30
0.0
 10
-44.46856522063945
 20
7.241368379445293
 30
0.0
 10
-44.37319504204197
 20
7.057537521828113
 30
0.0
 10
-44.27246872776925
 20
6.785151721175214
 30
0.0
 10
-44.24729665132804
 20
6.704850837568631
 30
0.0
 10
-44.22603007416762
 20
6.623173241979021
 30
0.0
  0
LINE
  5
18C1
330
1F
100
AcDbEntity
  8
241
100
AcDbLine
 10
-60.34607241562134
 20
31.79160287836304
 30
0.0
 11
-74.11126730834133
 21
32.99590138270069
 31
0.0
  0
LINE
  5
18C2
330
1F
100
AcDbEntity
  8
241
100
AcDbLine
 10
-74.69522199028881
 20
31.58611006973205
 30
0.0
 11
-64.11019169830189
 21
22.70421505572539
 31
0.0
  0
ELLIPSE
  5
18C3
330
1F
100
AcDbEntity
  8
241
100
AcDbEllipse
 10
-60.41797938527219
 20
30.99177051003959
 30
0.0
 11
0.3074321906402986
 21
0.7422069641538869
 31
0.0
210
0.0
220
0.0
230
-1.0
 40
0.9958187698381442
 41
-0.3042330385847292
 42
0.3042330385847309
  0
CIRCLE
  5
18C4
330
1F
100
AcDbEntity
  8
242
100
AcDbCircle
 10
-62.00672504898012
 20
27.15619918154515
 30
0.0
 40
1.750000000000001
  0
ELLIPSE
  5
18C5
330
1F
100
AcDbEntity
  8
241
100
AcDbEllipse
 10
-63.59547071270254
 20
23.32062785303423
 30
0.0
 11
-0.3074321906402986
 21
-0.7422069641538869
 31
0.0
210
0.0
220
0.0
230
-0.9999999999999999
 40
0.9958187698381448
 41
-0.3042330385847319
 42
0.3042330385847319
  0
ARC
  5
18C6
330
1F
100
AcDbEntity
  8
241
100
AcDbCircle
 10
-74.18099190253949
 20
32.19894562422733
 30
0.0
 40
0.8
100
AcDbArc
 50
85.00000000000142
 51
230.0000000000016
  0
VIEWPORT
  5
1858
330
73
100
AcDbEntity
 67
     1
  8
0
100
AcDbViewport
 10
261.5176991150442
 20
148.5
 30
0.0
 40
523.0353982300885
 41
297.0
 68
     1
 69
     1
 12
261.5176991150442
 22
148.5
 13
0.0
 23
0.0
 14
1.0
 24
1.0
 15
10.0
 25
10.0
 16
0.0
 26
0.0
 36
1.0
 17
0.0
 27
0.0
 37
0.0
 42
50.0
 43
0.0
 44
0.0
 45
297.0
 50
0.0
 51
0.0
 72
   100
 90
   557088
  1

281
     0
 71
     1
 74
     0
110
0.0
120
0.0
130
0.0
111
1.0
121
0.0
131
0.0
112
0.0
122
1.0
132
0.0
 79
     0
146
0.0
  0
ENDSEC
  0
SECTION
  2
OBJECTS
  0
DICTIONARY
  5
C
330
0
100
AcDbDictionary
281
     1
  3
ACAD_COLOR
350
6C
  3
ACAD_GROUP
350
D
  3
ACAD_LAYOUT
350
1A
  3
ACAD_MATERIAL
350
6B
  3
ACAD_MLEADERSTYLE
350
7CB
  3
ACAD_MLINESTYLE
350
17
  3
ACAD_PLOTSETTINGS
350
19
  3
ACAD_PLOTSTYLENAME
350
E
  3
ACAD_SCALELIST
350
99
  3
ACAD_TABLESTYLE
350
92
  3
ACAD_VISUALSTYLE
350
795
  3
ACDB_RECOMPOSE_DATA
350
1063
  3
ACDBHEADERROUNDTRIPXREC
350
192F
  3
AcDbVariableDictionary
350
59
  3
DWGPROPS
350
1932
  3
GRADE_DWG
350
540
  0
DICTIONARY
  5
190A
330
10
100
AcDbDictionary
280
     1
281
     1
  3
ADSK_XREC_LAYER_RECONCILED
360
C81
  0
DICTIONARY
  5
190B
330
1AA
100
AcDbDictionary
280
     1
281
     1
  3
ADSK_XREC_LAYER_RECONCILED
360
C91
  0
DICTIONARY
  5
190C
330
1AB
100
AcDbDictionary
280
     1
281
     1
  3
ADSK_XREC_LAYER_RECONCILED
360
C93
  0
DICTIONARY
  5
190D
330
1AC
100
AcDbDictionary
280
     1
281
     1
  3
ADSK_XREC_LAYER_RECONCILED
360
C95
  0
DICTIONARY
  5
190E
330
1AF
100
AcDbDictionary
280
     1
281
     1
  3
ADSK_XREC_LAYER_RECONCILED
360
C9B
  0
DICTIONARY
  5
190F
330
21A
100
AcDbDictionary
280
     1
281
     1
  3
ADSK_XREC_LAYER_RECONCILED
360
C9D
  0
DICTIONARY
  5
1910
330
21E
100
AcDbDictionary
280
     1
281
     1
  3
ADSK_XREC_LAYER_RECONCILED
360
CA3
  0
DICTIONARY
  5
1911
330
21F
100
AcDbDictionary
280
     1
281
     1
  3
ADSK_XREC_LAYER_RECONCILED
360
CA5
  0
DICTIONARY
  5
192B
330
1F
100
AcDbDictionary
280
     1
281
     1
  3
ACAD_SORTENTS
360
192C
  0
DICTIONARY
  5
6C
102
{ACAD_REACTORS
330
C
102
}
330
C
100
AcDbDictionary
281
     1
  0
DICTIONARY
  5
D
102
{ACAD_REACTORS
330
C
102
}
330
C
100
AcDbDictionary
281
     1
  0
DICTIONARY
  5
1A
102
{ACAD_REACTORS
330
C
102
}
330
C
100
AcDbDictionary
281
     1
  3
Model
350
22
  3
\U+FF9A\U+FF72\U+FF71\U+FF73\U+FF841
350
568
  0
DICTIONARY
  5
6B
102
{ACAD_REACTORS
330
C
102
}
330
C
100
AcDbDictionary
281
     1
  3
BYBLOCK
350
785
  3
BYLAYER
350
77D
  3
GLOBAL
350
78D
  0
DICTIONARY
  5
7CB
102
{ACAD_REACTORS
330
C
102
}
330
C
100
AcDbDictionary
281
     1
  3
STANDARD
350
7CC
  0
DICTIONARY
  5
17
102
{ACAD_REACTORS
330
C
102
}
330
C
100
AcDbDictionary
281
     1
  3
Standard
350
18
  0
DICTIONARY
  5
19
102
{ACAD_REACTORS
330
C
102
}
330
C
100
AcDbDictionary
281
     1
  3
A3(0.5\U+500D)
350
772
  3
A3(1\U+500D)
350
773
  3
A3(1\U+500D)(2000)
350
774
  3
A3(2\U+500D)
350
775
  3
A4(0.5\U+500D)
350
776
  3
A4(1\U+500D)
350
777
  3
A4(1\U+500D)(2000)
350
778
  3
A4(2\U+500D)
350
779
  0
ACDBDICTIONARYWDFLT
  5
E
102
{ACAD_REACTORS
330
C
102
}
330
C
100
AcDbDictionary
281
     1
  3
Normal
350
F
100
AcDbDictionaryWithDefault
340
F
  0
DICTIONARY
  5
99
102
{ACAD_REACTORS
330
C
102
}
330
C
100
AcDbDictionary
281
     1
  3
A0
350
7AA
  3
A1
350
7AB
  3
A2
350
7AC
  3
A3
350
7AD
  3
A4
350
7AE
  3
A5
350
7AF
  3
A6
350
7B0
  3
A7
350
7B1
  3
A8
350
7B2
  3
A9
350
7B3
  3
B0
350
7B4
  3
B1
350
7B5
  3
B2
350
7B6
  3
B3
350
7B7
  3
B4
350
7B8
  3
B5
350
7B9
  3
B6
350
7BA
  3
B7
350
7BB
  3
B8
350
7BC
  3
B9
350
7BD
  3
C0
350
7BE
  3
C1
350
7BF
  3
C2
350
7C0
  3
C3
350
7C1
  3
C4
350
7C2
  3
C5
350
7C3
  3
C6
350
7C4
  3
C7
350
7C5
  3
C8
350
7C6
  3
C9
350
7C7
  3
D0
350
7C8
  3
D1
350
7C9
  3
D2
350
7CA
  0
DICTIONARY
  5
92
102
{ACAD_REACTORS
330
C
102
}
330
C
100
AcDbDictionary
281
     1
  3
Standard
350
93
  0
DICTIONARY
  5
795
102
{ACAD_REACTORS
330
C
102
}
330
C
100
AcDbDictionary
281
     1
  3
2DWIREFRAME
350
79B
  3
3D HIDDEN
350
79D
  3
3DWIREFRAME
350
79C
  3
BASIC
350
79A
  3
BRIGHTEN
350
7A1
  3
COLORCHANGE
350
7A5
  3
CONCEPTUAL
350
79E
  3
DIM
350
7A0
  3
FACEPATTERN
350
7A4
  3
FLAT
350
796
  3
FLATWITHEDGES
350
797
  3
GOURAUD
350
798
  3
GOURAUDWITHEDGES
350
799
  3
LINEPATTERN
350
7A3
  3
REALISTIC
350
79F
  3
THICKEN
350
7A2
  0
XRECORD
  5
1063
102
{ACAD_REACTORS
330
C
102
}
330
C
100
AcDbXrecord
280
     1
 90
        1
330
0
  0
DICTIONARY
  5
192F
102
{ACAD_REACTORS
330
C
102
}
330
C
100
AcDbDictionary
281
     1
  3
COLORDICT
350
1930
  3
MATERIALDICT
350
1931
  0
DICTIONARY
  5
59
102
{ACAD_REACTORS
330
C
102
}
330
C
100
AcDbDictionary
281
     1
  3
CANNOSCALE
350
192E
  3
CTABLESTYLE
350
98
  3
DIMASSOC
350
10EC
  3
HIDETEXT
350
1918
  3
INDEXCTL
350
10EB
  3
SORTENTS
350
10EA
  3
XCLIPFRAME
350
192D
  0
XRECORD
  5
1932
102
{ACAD_REACTORS
330
C
102
}
330
C
100
AcDbXrecord
280
     1
  1
DWGPROPS COOKIE
  2

  3

  4

  6

  7

  8
Alan
  9

300
=
301
=
302
=
303
=
304
=
305
=
306
=
307
=
308
=
309
=
 40
0.0
 41
2453353.717125822
 42
2454820.435134549
  1

 90
        0
  0
DICTIONARY
  5
540
102
{ACAD_REACTORS
330
C
102
}
330
C
100
AcDbDictionary
281
     1
  3
VERSION
350
560
  0
XRECORD
  5
C81
102
{ACAD_REACTORS
330
190A
102
}
330
190A
100
AcDbXrecord
280
     1
290
     1
  0
XRECORD
  5
C91
102
{ACAD_REACTORS
330
190B
102
}
330
190B
100
AcDbXrecord
280
     1
290
     1
  0
XRECORD
  5
C93
102
{ACAD_REACTORS
330
190C
102
}
330
190C
100
AcDbXrecord
280
     1
290
     1
  0
XRECORD
  5
C95
102
{ACAD_REACTORS
330
190D
102
}
330
190D
100
AcDbXrecord
280
     1
290
     1
  0
XRECORD
  5
C9B
102
{ACAD_REACTORS
330
190E
102
}
330
190E
100
AcDbXrecord
280
     1
290
     1
  0
XRECORD
  5
C9D
102
{ACAD_REACTORS
330
190F
102
}
330
190F
100
AcDbXrecord
280
     1
290
     1
  0
XRECORD
  5
CA3
102
{ACAD_REACTORS
330
1910
102
}
330
1910
100
AcDbXrecord
280
     1
290
     1
  0
XRECORD
  5
CA5
102
{ACAD_REACTORS
330
1911
102
}
330
1911
100
AcDbXrecord
280
     1
290
     1
  0
SORTENTSTABLE
  5
192C
102
{ACAD_REACTORS
330
192B
330
192B
330
192B
102
}
330
192B
100
AcDbSortentsTable
330
1F
  0
LAYOUT
  5
22
102
{ACAD_REACTORS
330
1A
102
}
330
1A
100
AcDbPlotSettings
  1

  2
none_device
  4
ISO_A3_(297.00_x_420.00_MM)
  6

 40
5.873749732971191
 41
5.873747825622558
 42
5.873748779296875
 43
5.873748779296875
 44
297.0
 45
420.0
 46
136.5
 47
184.0
 48
0.0
 49
0.0
140
0.0
141
0.0
142
1.0
143
1.0
 70
 11956
 72
     0
 73
     1
 74
     2
  7
big.ctb
 75
    16
147
1.0
148
0.0
149
0.0
100
AcDbLayout
  1
Model
 70
     1
 71
     0
 10
0.0
 20
0.0
 11
297.0
 21
210.0
 12
0.0
 22
0.0
 32
0.0
 14
-95.0
 24
-42.99999999999984
 34
-0.0000000000000001
 15
60.5
 25
68.0
 35
0.0000000000000001
146
0.0
 13
0.0
 23
0.0
 33
0.0
 16
1.0
 26
0.0
 36
0.0
 17
0.0
 27
1.0
 37
0.0
 76
     0
330
1F
331
97
  0
LAYOUT
  5
568
102
{ACAD_REACTORS
330
1A
102
}
330
1A
100
AcDbPlotSettings
  1

  2
none_device
  4
ISO_C5_(229.00_x_162.00_MM)
  6

 40
0.0
 41
0.0
 42
0.0
 43
0.0
 44
229.0
 45
162.0
 46
0.0
 47
0.0
 48
0.0
 49
0.0
140
0.0
141
0.0
142
1.0
143
1.0
 70
   688
 72
     0
 73
     0
 74
     5
  7
big.ctb
 75
    16
147
1.0
148
0.0
149
0.0
100
AcDbLayout
  1
\U+FF9A\U+FF72\U+FF71\U+FF73\U+FF841
 70
     1
 71
     1
 10
0.0
 20
0.0
 11
420.0
 21
297.0
 12
0.0
 22
0.0
 32
0.0
 14
1.000000000000000E+20
 24
1.000000000000000E+20
 34
1.000000000000000E+20
 15
-1.000000000000000E+20
 25
-1.000000000000000E+20
 35
-1.000000000000000E+20
146
0.0
 13
0.0
 23
0.0
 33
0.0
 16
1.0
 26
0.0
 36
0.0
 17
0.0
 27
1.0
 37
0.0
 76
     0
330
73
331
1858
  0
MATERIAL
  5
785
102
{ACAD_REACTORS
330
6B
102
}
102
{ACAD_XDICTIONARY
360
1933
102
}
330
6B
100
AcDbMaterial
  1
ByBlock
  0
MATERIAL
  5
77D
102
{ACAD_REACTORS
330
6B
102
}
102
{ACAD_XDICTIONARY
360
1936
102
}
330
6B
100
AcDbMaterial
  1
ByLayer
  0
MATERIAL
  5
78D
102
{ACAD_REACTORS
330
6B
102
}
102
{ACAD_XDICTIONARY
360
1939
102
}
330
6B
100
AcDbMaterial
  1
Global
  0
MLEADERSTYLE
  5
7CC
102
{ACAD_REACTORS
330
7CB
102
}
330
7CB
100
AcDbMLeaderStyle
170
     2
171
     1
172
     0
 90
        2
 40
0.0
 41
0.0
173
     1
 91
-1056964608
340
14
 92
       -2
290
     1
 42
2.0
291
     1
 43
0.36
  3
Standard
341
0
 44
4.0
300

342
11
174
     1
178
     6
175
     1
176
     0
 93
-1056964608
 45
4.0
292
     1
297
     1
 46
4.0
343
0
 94
-1056964608
 47
1.0
 49
1.0
140
1.0
293
     1
141
0.0
294
     1
177
     0
142
1.0
295
     1
296
     1
143
0.125
1001
ACAD_MLEADERVER
1070
     2
  0
MLINESTYLE
  5
18
102
{ACAD_REACTORS
330
17
102
}
330
17
100
AcDbMlineStyle
  2
Standard
 70
     0
  3

 62
     0
 51
90.0
 52
90.0
 71
     2
 49
0.5
 62
   256
  6
BYLAYER
 49
-0.5
 62
   256
  6
BYLAYER
  0
PLOTSETTINGS
  5
772
102
{ACAD_REACTORS
330
19
102
}
330
19
100
AcDbPlotSettings
  1
A3(0.5倍)
  2
none_device
  4
ISO_A3_(297.00_x_420.00_MM)
  6

 40
0.0
 41
0.0
 42
0.0
 43
0.0
 44
297.0
 45
420.0
 46
90.09
 47
129.85
 48
0.0
 49
0.0
140
0.0
141
0.0
142
1.0
143
0.5
 70
  1712
 72
     1
 73
     1
 74
     5
  7

 75
    17
147
0.5
148
0.0
149
0.0
  0
PLOTSETTINGS
  5
773
102
{ACAD_REACTORS
330
19
102
}
330
19
100
AcDbPlotSettings
  1
A3(1倍)
  2
none_device
  4
ISO_A3_(297.00_x_420.00_MM)
  6

 40
0.0
 41
0.0
 42
0.0
 43
0.0
 44
297.0
 45
420.0
 46
37.59
 47
55.6
 48
0.0
 49
0.0
140
0.0
141
0.0
142
1.0
143
1.0
 70
  1712
 72
     1
 73
     1
 74
     5
  7

 75
    16
147
1.0
148
0.0
149
0.0
  0
PLOTSETTINGS
  5
774
102
{ACAD_REACTORS
330
19
102
}
330
19
100
AcDbPlotSettings
  1
A3(1倍)(2000)
  2
none_device
  4
ISO_A3_(297.00_x_420.00_MM)
  6

 40
0.0
 41
0.0
 42
0.0
 43
0.0
 44
297.0
 45
420.0
 46
37.59
 47
55.6
 48
0.0
 49
0.0
140
0.0
141
0.0
142
1.0
143
1.0
 70
  1712
 72
     1
 73
     1
 74
     5
  7

 75
    16
147
1.0
148
0.0
149
0.0
  0
PLOTSETTINGS
  5
775
102
{ACAD_REACTORS
330
19
102
}
330
19
100
AcDbPlotSettings
  1
A3(2倍)
  2
none_device
  4
ISO_A3_(297.00_x_420.00_MM)
  6

 40
0.0
 41
0.0
 42
0.0
 43
0.0
 44
297.0
 45
420.0
 46
-67.41
 47
-92.9
 48
0.0
 49
0.0
140
0.0
141
0.0
142
1.0
143
2.0
 70
  1712
 72
     1
 73
     1
 74
     5
  7

 75
    27
147
2.0
148
0.0
149
0.0
  0
PLOTSETTINGS
  5
776
102
{ACAD_REACTORS
330
19
102
}
330
19
100
AcDbPlotSettings
  1
A4(0.5倍)
  2
none_device
  4
ISO_A3_(297.00_x_420.00_MM)
  6

 40
0.0
 41
0.0
 42
0.0
 43
0.0
 44
297.0
 45
420.0
 46
90.09
 47
129.85
 48
0.0
 49
0.0
140
0.0
141
0.0
142
1.0
143
0.5
 70
  1712
 72
     1
 73
     1
 74
     5
  7

 75
    17
147
0.5
148
0.0
149
0.0
  0
PLOTSETTINGS
  5
777
102
{ACAD_REACTORS
330
19
102
}
330
19
100
AcDbPlotSettings
  1
A4(1倍)
  2
none_device
  4
ISO_A3_(297.00_x_420.00_MM)
  6

 40
0.0
 41
0.0
 42
0.0
 43
0.0
 44
297.0
 45
420.0
 46
37.59
 47
55.6
 48
0.0
 49
0.0
140
0.0
141
0.0
142
1.0
143
1.0
 70
  1712
 72
     1
 73
     1
 74
     5
  7

 75
    16
147
1.0
148
0.0
149
0.0
  0
PLOTSETTINGS
  5
778
102
{ACAD_REACTORS
330
19
102
}
330
19
100
AcDbPlotSettings
  1
A4(1倍)(2000)
  2
none_device
  4
ISO_A3_(297.00_x_420.00_MM)
  6

 40
0.0
 41
0.0
 42
0.0
 43
0.0
 44
297.0
 45
420.0
 46
37.59
 47
55.6
 48
0.0
 49
0.0
140
0.0
141
0.0
142
1.0
143
1.0
 70
  1712
 72
     1
 73
     1
 74
     5
  7

 75
    16
147
1.0
148
0.0
149
0.0
  0
PLOTSETTINGS
  5
779
102
{ACAD_REACTORS
330
19
102
}
330
19
100
AcDbPlotSettings
  1
A4(2倍)
  2
none_device
  4
ISO_A3_(297.00_x_420.00_MM)
  6

 40
0.0
 41
0.0
 42
0.0
 43
0.0
 44
297.0
 45
420.0
 46
-67.41
 47
-92.9
 48
0.0
 49
0.0
140
0.0
141
0.0
142
1.0
143
2.0
 70
  1712
 72
     1
 73
     1
 74
     5
  7

 75
    27
147
2.0
148
0.0
149
0.0
  0
ACDBPLACEHOLDER
  5
F
102
{ACAD_REACTORS
330
E
102
}
330
E
  0
SCALE
  5
7AA
102
{ACAD_REACTORS
330
99
102
}
330
99
100
AcDbScale
 70
     0
300
1:1
140
1.0
141
1.0
290
     1
  0
SCALE
  5
7AB
102
{ACAD_REACTORS
330
99
102
}
330
99
100
AcDbScale
 70
     0
300
1:2
140
1.0
141
2.0
290
     1
  0
SCALE
  5
7AC
102
{ACAD_REACTORS
330
99
102
}
330
99
100
AcDbScale
 70
     0
300
1:4
140
1.0
141
4.0
290
     1
  0
SCALE
  5
7AD
102
{ACAD_REACTORS
330
99
102
}
330
99
100
AcDbScale
 70
     0
300
1:5
140
1.0
141
5.0
290
     1
  0
SCALE
  5
7AE
102
{ACAD_REACTORS
330
99
102
}
330
99
100
AcDbScale
 70
     0
300
1:8
140
1.0
141
8.0
290
     1
  0
SCALE
  5
7AF
102
{ACAD_REACTORS
330
99
102
}
330
99
100
AcDbScale
 70
     0
300
1:10
140
1.0
141
10.0
290
     1
  0
SCALE
  5
7B0
102
{ACAD_REACTORS
330
99
102
}
330
99
100
AcDbScale
 70
     0
300
1:16
140
1.0
141
16.0
290
     1
  0
SCALE
  5
7B1
102
{ACAD_REACTORS
330
99
102
}
330
99
100
AcDbScale
 70
     0
300
1:20
140
1.0
141
20.0
290
     1
  0
SCALE
  5
7B2
102
{ACAD_REACTORS
330
99
102
}
330
99
100
AcDbScale
 70
     0
300
1:30
140
1.0
141
30.0
290
     1
  0
SCALE
  5
7B3
102
{ACAD_REACTORS
330
99
102
}
330
99
100
AcDbScale
 70
     0
300
1:40
140
1.0
141
40.0
290
     1
  0
SCALE
  5
7B4
102
{ACAD_REACTORS
330
99
102
}
330
99
100
AcDbScale
 70
     0
300
1:50
140
1.0
141
50.0
290
     1
  0
SCALE
  5
7B5
102
{ACAD_REACTORS
330
99
102
}
330
99
100
AcDbScale
 70
     0
300
1:100
140
1.0
141
100.0
290
     1
  0
SCALE
  5
7B6
102
{ACAD_REACTORS
330
99
102
}
330
99
100
AcDbScale
 70
     0
300
2:1
140
2.0
141
1.0
290
     1
  0
SCALE
  5
7B7
102
{ACAD_REACTORS
330
99
102
}
330
99
100
AcDbScale
 70
     0
300
4:1
140
4.0
141
1.0
290
     1
  0
SCALE
  5
7B8
102
{ACAD_REACTORS
330
99
102
}
330
99
100
AcDbScale
 70
     0
300
8:1
140
8.0
141
1.0
290
     1
  0
SCALE
  5
7B9
102
{ACAD_REACTORS
330
99
102
}
330
99
100
AcDbScale
 70
     0
300
10:1
140
10.0
141
1.0
290
     1
  0
SCALE
  5
7BA
102
{ACAD_REACTORS
330
99
102
}
330
99
100
AcDbScale
 70
     0
300
100:1
140
100.0
141
1.0
290
     1
  0
SCALE
  5
7BB
102
{ACAD_REACTORS
330
99
102
}
330
99
100
AcDbScale
 70
     0
300
1/128" = 1'-0"
140
0.0078125
141
12.0
290
     1
  0
SCALE
  5
7BC
102
{ACAD_REACTORS
330
99
102
}
330
99
100
AcDbScale
 70
     0
300
1/64" = 1'-0"
140
0.015625
141
12.0
290
     1
  0
SCALE
  5
7BD
102
{ACAD_REACTORS
330
99
102
}
330
99
100
AcDbScale
 70
     0
300
1/32" = 1'-0"
140
0.03125
141
12.0
290
     1
  0
SCALE
  5
7BE
102
{ACAD_REACTORS
330
99
102
}
330
99
100
AcDbScale
 70
     0
300
1/16" = 1'-0"
140
0.0625
141
12.0
290
     1
  0
SCALE
  5
7BF
102
{ACAD_REACTORS
330
99
102
}
330
99
100
AcDbScale
 70
     0
300
3/32" = 1'-0"
140
0.09375
141
12.0
290
     1
  0
SCALE
  5
7C0
102
{ACAD_REACTORS
330
99
102
}
330
99
100
AcDbScale
 70
     0
300
1/8" = 1'-0"
140
0.125
141
12.0
290
     1
  0
SCALE
  5
7C1
102
{ACAD_REACTORS
330
99
102
}
330
99
100
AcDbScale
 70
     0
300
3/16" = 1'-0"
140
0.1875
141
12.0
290
     1
  0
SCALE
  5
7C2
102
{ACAD_REACTORS
330
99
102
}
330
99
100
AcDbScale
 70
     0
300
1/4" = 1'-0"
140
0.25
141
12.0
290
     1
  0
SCALE
  5
7C3
102
{ACAD_REACTORS
330
99
102
}
330
99
100
AcDbScale
 70
     0
300
3/8" = 1'-0"
140
0.375
141
12.0
290
     1
  0
SCALE
  5
7C4
102
{ACAD_REACTORS
330
99
102
}
330
99
100
AcDbScale
 70
     0
300
1/2" = 1'-0"
140
0.5
141
12.0
290
     1
  0
SCALE
  5
7C5
102
{ACAD_REACTORS
330
99
102
}
330
99
100
AcDbScale
 70
     0
300
3/4" = 1'-0"
140
0.75
141
12.0
290
     1
  0
SCALE
  5
7C6
102
{ACAD_REACTORS
330
99
102
}
330
99
100
AcDbScale
 70
     0
300
1" = 1'-0"
140
1.0
141
12.0
290
     1
  0
SCALE
  5
7C7
102
{ACAD_REACTORS
330
99
102
}
330
99
100
AcDbScale
 70
     0
300
1-1/2" = 1'-0"
140
1.5
141
12.0
290
     1
  0
SCALE
  5
7C8
102
{ACAD_REACTORS
330
99
102
}
330
99
100
AcDbScale
 70
     0
300
3" = 1'-0"
140
3.0
141
12.0
290
     1
  0
SCALE
  5
7C9
102
{ACAD_REACTORS
330
99
102
}
330
99
100
AcDbScale
 70
     0
300
6" = 1'-0"
140
6.0
141
12.0
290
     1
  0
SCALE
  5
7CA
102
{ACAD_REACTORS
330
99
102
}
330
99
100
AcDbScale
 70
     0
300
1'-0" = 1'-0"
140
12.0
141
12.0
290
     1
  0
TABLESTYLE
  5
93
102
{ACAD_REACTORS
330
92
102
}
330
92
100
AcDbTableStyle
  3
Standard
 70
     0
 71
     0
 40
0.06
 41
0.06
280
     0
281
     0
  7
Standard
140
0.18
170
     2
 62
     0
 63
   257
283
     0
274
    -2
284
     1
 64
     0
275
    -2
285
     1
 65
     0
276
    -2
286
     1
 66
     0
277
    -2
287
     1
 67
     0
278
    -2
288
     1
 68
     0
279
    -2
289
     1
 69
     0
  7
Standard
140
0.25
170
     5
 62
     0
 63
   257
283
     0
274
    -2
284
     1
 64
     0
275
    -2
285
     1
 65
     0
276
    -2
286
     1
 66
     0
277
    -2
287
     1
 67
     0
278
    -2
288
     1
 68
     0
279
    -2
289
     1
 69
     0
  7
Standard
140
0.18
170
     5
 62
     0
 63
   257
283
     0
274
    -2
284
     1
 64
     0
275
    -2
285
     1
 65
     0
276
    -2
286
     1
 66
     0
277
    -2
287
     1
 67
     0
278
    -2
288
     1
 68
     0
279
    -2
289
     1
 69
     0
  0
VISUALSTYLE
  5
79B
102
{ACAD_REACTORS
330
795
102
}
102
{ACAD_XDICTIONARY
360
193C
102
}
330
795
100
AcDbVisualStyle
  2
2dWireframe
 70
     4
 71
     0
 72
     2
 73
     0
 90
        0
 40
-0.6
 41
-30.0
 62
     5
 63
     7
 74
     1
 91
        4
 64
     7
 65
   257
 75
     1
175
     1
 42
1.0
 92
        0
 66
   257
 43
1.0
 76
     1
 77
     6
 78
     2
 67
     7
 79
     5
170
     0
171
     0
290
     1
174
     0
 93
        1
 44
0.0
173
     0
291
     1
 45
0.0
1001
ACAD
1000
AcDbSavedByObjectVersion
1070
     0
  0
VISUALSTYLE
  5
79D
102
{ACAD_REACTORS
330
795
102
}
102
{ACAD_XDICTIONARY
360
193E
102
}
330
795
100
AcDbVisualStyle
  2
3D Hidden
 70
     6
 71
     1
 72
     2
 73
     2
 90
        0
 40
-0.6
 41
-30.0
 62
     5
 63
     7
 74
     2
 91
        2
 64
     7
 65
   257
 75
     2
175
     1
 42
40.0
 92
        0
 66
   257
 43
1.0
 76
     1
 77
     6
 78
     2
 67
     7
 79
     3
170
     0
171
     0
290
     1
174
     0
 93
        1
 44
0.0
173
     0
291
     1
 45
0.0
1001
ACAD
1000
AcDbSavedByObjectVersion
1070
     0
  0
VISUALSTYLE
  5
79C
102
{ACAD_REACTORS
330
795
102
}
102
{ACAD_XDICTIONARY
360
1940
102
}
330
795
100
AcDbVisualStyle
  2
3dWireframe
 70
     5
 71
     0
 72
     2
 73
     0
 90
        0
 40
-0.6
 41
-30.0
 62
     5
 63
     7
 74
     1
 91
        4
 64
     7
 65
   257
 75
     1
175
     1
 42
1.0
 92
        0
 66
   257
 43
1.0
 76
     1
 77
     6
 78
     2
 67
     7
 79
     5
170
     0
171
     0
290
     1
174
     0
 93
        1
 44
0.0
173
     0
291
     1
 45
0.0
1001
ACAD
1000
AcDbSavedByObjectVersion
1070
     0
  0
VISUALSTYLE
  5
79A
102
{ACAD_REACTORS
330
795
102
}
102
{ACAD_XDICTIONARY
360
1942
102
}
330
795
100
AcDbVisualStyle
  2
Basic
 70
     7
 71
     1
 72
     0
 73
     1
 90
        0
 40
-0.6
 41
-30.0
 62
     5
 63
     7
 74
     0
 91
        4
 64
     7
 65
   257
 75
     1
175
     1
 42
1.0
 92
        8
 66
     7
 43
1.0
 76
     1
 77
     6
 78
     2
 67
     7
 79
     5
170
     0
171
     0
290
     1
174
     0
 93
        1
 44
0.0
173
     0
291
     1
 45
0.0
1001
ACAD
1000
AcDbSavedByObjectVersion
1070
     0
  0
VISUALSTYLE
  5
7A1
102
{ACAD_REACTORS
330
795
102
}
102
{ACAD_XDICTIONARY
360
1944
102
}
330
795
100
AcDbVisualStyle
  2
Brighten
 70
    12
 71
     2
 72
     2
 73
     0
 90
        0
 40
-0.6
 41
-30.0
 62
     5
 63
     7
 74
     1
 91
        4
 64
     7
 65
   257
 75
     1
175
     1
 42
1.0
 92
        8
 66
     7
 43
1.0
 76
     1
 77
     6
 78
     2
 67
     7
 79
     5
170
     0
171
     0
290
     1
174
     0
 93
        1
 44
50.0
173
     0
291
     1
 45
0.0
1001
ACAD
1000
AcDbSavedByObjectVersion
1070
     0
  0
VISUALSTYLE
  5
7A5
102
{ACAD_REACTORS
330
795
102
}
102
{ACAD_XDICTIONARY
360
1946
102
}
330
795
100
AcDbVisualStyle
  2
ColorChange
 70
    16
 71
     2
 72
     2
 73
     3
 90
        0
 40
-0.6
 41
-30.0
 62
     5
 63
     8
 74
     1
 91
        4
 64
     7
 65
   257
 75
     1
175
     1
 42
1.0
 92
        8
 66
     8
 43
1.0
 76
     1
 77
     6
 78
     2
 67
     7
 79
     5
170
     0
171
     0
290
     1
174
     0
 93
        1
 44
0.0
173
     0
291
     1
 45
0.0
1001
ACAD
1000
AcDbSavedByObjectVersion
1070
     0
  0
VISUALSTYLE
  5
79E
102
{ACAD_REACTORS
330
795
102
}
102
{ACAD_XDICTIONARY
360
1948
102
}
330
795
100
AcDbVisualStyle
  2
Conceptual
 70
     9
 71
     3
 72
     2
 73
     0
 90
        0
 40
-0.6
 41
-30.0
 62
     5
 63
     7
 74
     2
 91
        2
 64
     7
 65
   257
 75
     1
175
     1
 42
40.0
 92
        8
 66
     7
 43
1.0
 76
     1
 77
     6
 78
     2
 67
     7
 79
     3
170
     0
171
     0
290
     1
174
     0
 93
        1
 44
0.0
173
     0
291
     1
 45
0.0
1001
ACAD
1000
AcDbSavedByObjectVersion
1070
     0
  0
VISUALSTYLE
  5
7A0
102
{ACAD_REACTORS
330
795
102
}
102
{ACAD_XDICTIONARY
360
194A
102
}
330
795
100
AcDbVisualStyle
  2
Dim
 70
    11
 71
     2
 72
     2
 73
     0
 90
        0
 40
-0.6
 41
-30.0
 62
     5
 63
     7
 74
     1
 91
        4
 64
     7
 65
   257
 75
     1
175
     1
 42
1.0
 92
        8
 66
     7
 43
1.0
 76
     1
 77
     6
 78
     2
 67
     7
 79
     5
170
     0
171
     0
290
     1
174
     0
 93
        1
 44
-50.0
173
     0
291
     1
 45
0.0
1001
ACAD
1000
AcDbSavedByObjectVersion
1070
     0
  0
VISUALSTYLE
  5
7A4
102
{ACAD_REACTORS
330
795
102
}
102
{ACAD_XDICTIONARY
360
194C
102
}
330
795
100
AcDbVisualStyle
  2
Facepattern
 70
    15
 71
     2
 72
     2
 73
     0
 90
        0
 40
-0.6
 41
-30.0
 62
     5
 63
     7
 74
     1
 91
        4
 64
     7
 65
   257
 75
     1
175
     1
 42
1.0
 92
        8
 66
     7
 43
1.0
 76
     1
 77
     6
 78
     2
 67
     7
 79
     5
170
     0
171
     0
290
     1
174
     0
 93
        1
 44
0.0
173
     0
291
     1
 45
0.0
1001
ACAD
1000
AcDbSavedByObjectVersion
1070
     0
  0
VISUALSTYLE
  5
796
102
{ACAD_REACTORS
330
795
102
}
102
{ACAD_XDICTIONARY
360
194E
102
}
330
795
100
AcDbVisualStyle
  2
Flat
 70
     0
 71
     2
 72
     1
 73
     1
 90
        2
 40
-0.6
 41
30.0
 62
     5
 63
     7
 74
     0
 91
        4
 64
     7
 65
   257
 75
     1
175
     1
 42
1.0
 92
        8
 66
     7
 43
1.0
 76
     1
 77
     6
 78
     2
 67
     7
 79
     5
170
     0
171
     0
290
     1
174
     0
 93
       13
 44
0.0
173
     0
291
     1
 45
0.0
1001
ACAD
1000
AcDbSavedByObjectVersion
1070
     0
  0
VISUALSTYLE
  5
797
102
{ACAD_REACTORS
330
795
102
}
102
{ACAD_XDICTIONARY
360
1950
102
}
330
795
100
AcDbVisualStyle
  2
FlatWithEdges
 70
     1
 71
     2
 72
     1
 73
     1
 90
        2
 40
-0.6
 41
30.0
 62
     5
 63
     7
 74
     1
 91
        4
 64
     7
 65
   257
 75
     1
175
     1
 42
1.0
 92
        0
 66
   257
 43
1.0
 76
     1
 77
     6
 78
     2
 67
     7
 79
     5
170
     0
171
     0
290
     1
174
     0
 93
       13
 44
0.0
173
     0
291
     1
 45
0.0
1001
ACAD
1000
AcDbSavedByObjectVersion
1070
     0
  0
VISUALSTYLE
  5
798
102
{ACAD_REACTORS
330
795
102
}
102
{ACAD_XDICTIONARY
360
1952
102
}
330
795
100
AcDbVisualStyle
  2
Gouraud
 70
     2
 71
     2
 72
     2
 73
     1
 90
        2
 40
-0.6
 41
30.0
 62
     5
 63
     7
 74
     0
 91
        4
 64
     7
 65
   257
 75
     1
175
     1
 42
1.0
 92
        0
 66
     7
 43
1.0
 76
     1
 77
     6
 78
     2
 67
     7
 79
     5
170
     0
171
     0
290
     1
174
     0
 93
       13
 44
0.0
173
     0
291
     1
 45
0.0
1001
ACAD
1000
AcDbSavedByObjectVersion
1070
     0
  0
VISUALSTYLE
  5
799
102
{ACAD_REACTORS
330
795
102
}
102
{ACAD_XDICTIONARY
360
1954
102
}
330
795
100
AcDbVisualStyle
  2
GouraudWithEdges
 70
     3
 71
     2
 72
     2
 73
     1
 90
        2
 40
-0.6
 41
30.0
 62
     5
 63
     7
 74
     1
 91
        4
 64
     7
 65
   257
 75
     1
175
     1
 42
1.0
 92
        0
 66
   257
 43
1.0
 76
     1
 77
     6
 78
     2
 67
     7
 79
     5
170
     0
171
     0
290
     1
174
     0
 93
       13
 44
0.0
173
     0
291
     1
 45
0.0
1001
ACAD
1000
AcDbSavedByObjectVersion
1070
     0
  0
VISUALSTYLE
  5
7A3
102
{ACAD_REACTORS
330
795
102
}
102
{ACAD_XDICTIONARY
360
1956
102
}
330
795
100
AcDbVisualStyle
  2
Linepattern
 70
    14
 71
     2
 72
     2
 73
     0
 90
        0
 40
-0.6
 41
-30.0
 62
     5
 63
     7
 74
     1
 91
        4
 64
     7
 65
   257
 75
     7
175
     7
 42
1.0
 92
        8
 66
     7
 43
1.0
 76
     1
 77
     6
 78
     2
 67
     7
 79
     5
170
     0
171
     0
290
     1
174
     0
 93
        1
 44
0.0
173
     0
291
     1
 45
0.0
1001
ACAD
1000
AcDbSavedByObjectVersion
1070
     0
  0
VISUALSTYLE
  5
79F
102
{ACAD_REACTORS
330
795
102
}
102
{ACAD_XDICTIONARY
360
1958
102
}
330
795
100
AcDbVisualStyle
  2
Realistic
 70
     8
 71
     2
 72
     2
 73
     0
 90
        0
 40
-0.6
 41
-30.0
 62
     5
 63
     7
 74
     1
 91
        0
 64
     7
 65
   257
 75
     1
175
     1
 42
1.0
 92
        8
 66
     8
 43
1.0
 76
     1
 77
     6
 78
     2
 67
     7
 79
     5
170
     0
171
     0
290
     1
174
     0
 93
       13
 44
0.0
173
     0
291
     1
 45
0.0
1001
ACAD
1000
AcDbSavedByObjectVersion
1070
     0
  0
VISUALSTYLE
  5
7A2
102
{ACAD_REACTORS
330
795
102
}
102
{ACAD_XDICTIONARY
360
195A
102
}
330
795
100
AcDbVisualStyle
  2
Thicken
 70
    13
 71
     2
 72
     2
 73
     0
 90
        0
 40
-0.6
 41
-30.0
 62
     5
 63
     7
 74
     1
 91
        4
 64
     7
 65
   257
 75
     1
175
     1
 42
1.0
 92
       12
 66
     7
 43
1.0
 76
     1
 77
     6
 78
     2
 67
     7
 79
     5
170
     0
171
     0
290
     1
174
     0
 93
        1
 44
0.0
173
     0
291
     1
 45
0.0
1001
ACAD
1000
AcDbSavedByObjectVersion
1070
     0
  0
XRECORD
  5
1930
102
{ACAD_REACTORS
330
192F
102
}
330
192F
100
AcDbXrecord
280
     1
340
6C
  0
XRECORD
  5
1931
102
{ACAD_REACTORS
330
192F
102
}
330
192F
100
AcDbXrecord
280
     1
340
6B
  0
DICTIONARYVAR
  5
192E
102
{ACAD_REACTORS
330
59
102
}
330
59
100
DictionaryVariables
280
     0
  1
1:1
  0
DICTIONARYVAR
  5
98
102
{ACAD_REACTORS
330
59
102
}
330
59
100
DictionaryVariables
280
     0
  1
Standard
  0
DICTIONARYVAR
  5
10EC
102
{ACAD_REACTORS
330
59
102
}
330
59
100
DictionaryVariables
280
     0
  1
1
  0
DICTIONARYVAR
  5
1918
102
{ACAD_REACTORS
330
59
102
}
330
59
100
DictionaryVariables
280
     0
  1
1
  0
DICTIONARYVAR
  5
10EB
102
{ACAD_REACTORS
330
59
102
}
330
59
100
DictionaryVariables
280
     0
  1
0
  0
DICTIONARYVAR
  5
10EA
102
{ACAD_REACTORS
330
59
102
}
330
59
100
DictionaryVariables
280
     0
  1
127
  0
DICTIONARYVAR
  5
192D
102
{ACAD_REACTORS
330
59
102
}
330
59
100
DictionaryVariables
280
     0
  1
0
  0
XRECORD
  5
560
102
{ACAD_REACTORS
330
540
102
}
330
540
100
AcDbXrecord
280
     1
  1
2.0.0
  0
DICTIONARY
  5
1933
330
785
100
AcDbDictionary
280
     1
281
     1
  3
ACAD_XREC_ROUNDTRIP
360
1935
  3
ADVMATERIAL
360
1934
  0
DICTIONARY
  5
1936
330
77D
100
AcDbDictionary
280
     1
281
     1
  3
ACAD_XREC_ROUNDTRIP
360
1938
  3
ADVMATERIAL
360
1937
  0
DICTIONARY
  5
1939
330
78D
100
AcDbDictionary
280
     1
281
     1
  3
ACAD_XREC_ROUNDTRIP
360
193B
  3
ADVMATERIAL
360
193A
  0
DICTIONARY
  5
193C
330
79B
100
AcDbDictionary
280
     1
281
     1
  3
ACAD_XREC_ROUNDTRIP
360
193D
  0
DICTIONARY
  5
193E
330
79D
100
AcDbDictionary
280
     1
281
     1
  3
ACAD_XREC_ROUNDTRIP
360
193F
  0
DICTIONARY
  5
1940
330
79C
100
AcDbDictionary
280
     1
281
     1
  3
ACAD_XREC_ROUNDTRIP
360
1941
  0
DICTIONARY
  5
1942
330
79A
100
AcDbDictionary
280
     1
281
     1
  3
ACAD_XREC_ROUNDTRIP
360
1943
  0
DICTIONARY
  5
1944
330
7A1
100
AcDbDictionary
280
     1
281
     1
  3
ACAD_XREC_ROUNDTRIP
360
1945
  0
DICTIONARY
  5
1946
330
7A5
100
AcDbDictionary
280
     1
281
     1
  3
ACAD_XREC_ROUNDTRIP
360
1947
  0
DICTIONARY
  5
1948
330
79E
100
AcDbDictionary
280
     1
281
     1
  3
ACAD_XREC_ROUNDTRIP
360
1949
  0
DICTIONARY
  5
194A
330
7A0
100
AcDbDictionary
280
     1
281
     1
  3
ACAD_XREC_ROUNDTRIP
360
194B
  0
DICTIONARY
  5
194C
330
7A4
100
AcDbDictionary
280
     1
281
     1
  3
ACAD_XREC_ROUNDTRIP
360
194D
  0
DICTIONARY
  5
194E
330
796
100
AcDbDictionary
280
     1
281
     1
  3
ACAD_XREC_ROUNDTRIP
360
194F
  0
DICTIONARY
  5
1950
330
797
100
AcDbDictionary
280
     1
281
     1
  3
ACAD_XREC_ROUNDTRIP
360
1951
  0
DICTIONARY
  5
1952
330
798
100
AcDbDictionary
280
     1
281
     1
  3
ACAD_XREC_ROUNDTRIP
360
1953
  0
DICTIONARY
  5
1954
330
799
100
AcDbDictionary
280
     1
281
     1
  3
ACAD_XREC_ROUNDTRIP
360
1955
  0
DICTIONARY
  5
1956
330
7A3
100
AcDbDictionary
280
     1
281
     1
  3
ACAD_XREC_ROUNDTRIP
360
1957
  0
DICTIONARY
  5
1958
330
79F
100
AcDbDictionary
280
     1
281
     1
  3
ACAD_XREC_ROUNDTRIP
360
1959
  0
DICTIONARY
  5
195A
330
7A2
100
AcDbDictionary
280
     1
281
     1
  3
ACAD_XREC_ROUNDTRIP
360
195B
  0
XRECORD
  5
1935
102
{ACAD_REACTORS
330
1933
102
}
330
1933
100
AcDbXrecord
280
     1
102
MATERIAL
148
0.0
149
0.0
149
0.0
 93
        0
 94
      127
282
     0
 72
     1
 77
     1
171
     1
175
     1
179
     1
273
     0
  0
ACAD_PROXY_OBJECT
  5
1934
102
{ACAD_REACTORS
330
1933
102
}
330
1933
100
AcDbProxyObject
 90
      499
 91
      511
 95
       23
 70
     0
 93
      564
310
5133004000000000001650334040000000000016503380400000000000165033C040000000000016500880404380400034004000000000000000094040440040C0044040C01010
  0
XRECORD
  5
1938
102
{ACAD_REACTORS
330
1936
102
}
330
1936
100
AcDbXrecord
280
     1
102
MATERIAL
148
0.0
149
0.0
149
0.0
 93
        0
 94
      127
282
     0
 72
     1
 77
     1
171
     1
175
     1
179
     1
273
     0
  0
ACAD_PROXY_OBJECT
  5
1937
102
{ACAD_REACTORS
330
1936
102
}
330
1936
100
AcDbProxyObject
 90
      499
 91
      511
 95
       23
 70
     0
 93
      564
310
5133004000000000001650334040000000000016503380400000000000165033C040000000000016500880404380400034004000000000000000094040440040C0044040C01010
  0
XRECORD
  5
193B
102
{ACAD_REACTORS
330
1939
102
}
330
1939
100
AcDbXrecord
280
     1
102
MATERIAL
148
0.0
149
0.0
149
0.0
 93
        0
 94
      127
282
     0
 72
     1
 77
     1
171
     1
175
     1
179
     1
273
     0
  0
ACAD_PROXY_OBJECT
  5
193A
102
{ACAD_REACTORS
330
1939
102
}
330
1939
100
AcDbProxyObject
 90
      499
 91
      511
 95
       23
 70
     0
 93
      564
310
5133004000000000001650334040000000000016503380400000000000165033C040000000000016500880404380400034004000000000000000094040440040C0044040C01010
  0
XRECORD
  5
193D
102
{ACAD_REACTORS
330
193C
102
}
330
193C
100
AcDbXrecord
280
     1
102
RTVSPropertyOp0
 70
     1
102
RTVSPropertyOp1
 70
     1
102
RTVSPropertyOp2
 70
     1
102
RTVSPropertyOp3
 70
     1
102
RTVSPropertyOp4
 70
     1
102
RTVSPropertyOp5
 70
     1
102
RTVSPropertyOp6
 70
     1
102
RTVSPropertyOp7
 70
     1
102
RTVSPropertyOp8
 70
     1
102
RTVSPropertyOp9
 70
     1
102
RTVSPropertyOp10
 70
     1
102
RTVSPropertyOp11
 70
     1
102
RTVSPropertyOp12
 70
     1
102
RTVSPropertyOp13
 70
     1
102
RTVSPropertyOp14
 70
     1
102
RTVSPropertyOp15
 70
     1
102
RTVSPropertyOp16
 70
     1
102
RTVSPropertyOp17
 70
     1
102
RTVSPropertyOp18
 70
     1
102
RTVSPropertyOp19
 70
     1
102
RTVSPropertyOp20
 70
     1
102
RTVSPropertyOp21
 70
     1
102
RTVSPropertyOp22
 70
     1
102
RTVSPropertyOp23
 70
     1
102
RTVSPropertyOp24
 70
     1
102
RTVSPropertyOp25
 70
     1
102
RTVSPropertyOp26
 70
     1
102
RTVSPropertyOp27
 70
     1
  0
XRECORD
  5
193F
102
{ACAD_REACTORS
330
193E
102
}
330
193E
100
AcDbXrecord
280
     1
102
RTVSPropertyOp0
 70
     1
102
RTVSPropertyOp1
 70
     1
102
RTVSPropertyOp2
 70
     1
102
RTVSPropertyOp3
 70
     1
102
RTVSPropertyOp4
 70
     1
102
RTVSPropertyOp5
 70
     1
102
RTVSPropertyOp6
 70
     1
102
RTVSPropertyOp7
 70
     1
102
RTVSPropertyOp8
 70
     1
102
RTVSPropertyOp9
 70
     1
102
RTVSPropertyOp10
 70
     1
102
RTVSPropertyOp11
 70
     1
102
RTVSPropertyOp12
 70
     1
102
RTVSPropertyOp13
 70
     1
102
RTVSPropertyOp14
 70
     1
102
RTVSPropertyOp15
 70
     1
102
RTVSPropertyOp16
 70
     1
102
RTVSPropertyOp17
 70
     1
102
RTVSPropertyOp18
 70
     1
102
RTVSPropertyOp19
 70
     1
102
RTVSPropertyOp20
 70
     1
102
RTVSPropertyOp21
 70
     1
102
RTVSPropertyOp22
 70
     1
102
RTVSPropertyOp23
 70
     1
102
RTVSPropertyOp24
 70
     1
102
RTVSPropertyOp25
 70
     1
102
RTVSPropertyOp26
 70
     1
102
RTVSPropertyOp27
 70
     1
  0
XRECORD
  5
1941
102
{ACAD_REACTORS
330
1940
102
}
330
1940
100
AcDbXrecord
280
     1
102
RTVSPropertyOp0
 70
     1
102
RTVSPropertyOp1
 70
     1
102
RTVSPropertyOp2
 70
     1
102
RTVSPropertyOp3
 70
     1
102
RTVSPropertyOp4
 70
     1
102
RTVSPropertyOp5
 70
     1
102
RTVSPropertyOp6
 70
     1
102
RTVSPropertyOp7
 70
     1
102
RTVSPropertyOp8
 70
     1
102
RTVSPropertyOp9
 70
     1
102
RTVSPropertyOp10
 70
     1
102
RTVSPropertyOp11
 70
     1
102
RTVSPropertyOp12
 70
     1
102
RTVSPropertyOp13
 70
     1
102
RTVSPropertyOp14
 70
     1
102
RTVSPropertyOp15
 70
     1
102
RTVSPropertyOp16
 70
     1
102
RTVSPropertyOp17
 70
     1
102
RTVSPropertyOp18
 70
     1
102
RTVSPropertyOp19
 70
     1
102
RTVSPropertyOp20
 70
     1
102
RTVSPropertyOp21
 70
     1
102
RTVSPropertyOp22
 70
     1
102
RTVSPropertyOp23
 70
     1
102
RTVSPropertyOp24
 70
     1
102
RTVSPropertyOp25
 70
     1
102
RTVSPropertyOp26
 70
     1
102
RTVSPropertyOp27
 70
     1
  0
XRECORD
  5
1943
102
{ACAD_REACTORS
330
1942
102
}
330
1942
100
AcDbXrecord
280
     1
102
RTVSPropertyOp0
 70
     1
102
RTVSPropertyOp1
 70
     1
102
RTVSPropertyOp2
 70
     1
102
RTVSPropertyOp3
 70
     1
102
RTVSPropertyOp4
 70
     1
102
RTVSPropertyOp5
 70
     1
102
RTVSPropertyOp6
 70
     1
102
RTVSPropertyOp7
 70
     1
102
RTVSPropertyOp8
 70
     1
102
RTVSPropertyOp9
 70
     1
102
RTVSPropertyOp10
 70
     1
102
RTVSPropertyOp11
 70
     1
102
RTVSPropertyOp12
 70
     1
102
RTVSPropertyOp13
 70
     1
102
RTVSPropertyOp14
 70
     1
102
RTVSPropertyOp15
 70
     1
102
RTVSPropertyOp16
 70
     1
102
RTVSPropertyOp17
 70
     1
102
RTVSPropertyOp18
 70
     1
102
RTVSPropertyOp19
 70
     1
102
RTVSPropertyOp20
 70
     1
102
RTVSPropertyOp21
 70
     1
102
RTVSPropertyOp22
 70
     1
102
RTVSPropertyOp23
 70
     1
102
RTVSPropertyOp24
 70
     1
102
RTVSPropertyOp25
 70
     1
102
RTVSPropertyOp26
 70
     1
102
RTVSPropertyOp27
 70
     1
  0
XRECORD
  5
1945
102
{ACAD_REACTORS
330
1944
102
}
330
1944
100
AcDbXrecord
280
     1
102
RTVSPropertyOp0
 70
     1
102
RTVSPropertyOp1
 70
     1
102
RTVSPropertyOp2
 70
     1
102
RTVSPropertyOp3
 70
     1
102
RTVSPropertyOp4
 70
     1
102
RTVSPropertyOp5
 70
     1
102
RTVSPropertyOp6
 70
     1
102
RTVSPropertyOp7
 70
     1
102
RTVSPropertyOp8
 70
     1
102
RTVSPropertyOp9
 70
     1
102
RTVSPropertyOp10
 70
     1
102
RTVSPropertyOp11
 70
     1
102
RTVSPropertyOp12
 70
     1
102
RTVSPropertyOp13
 70
     1
102
RTVSPropertyOp14
 70
     1
102
RTVSPropertyOp15
 70
     1
102
RTVSPropertyOp16
 70
     1
102
RTVSPropertyOp17
 70
     1
102
RTVSPropertyOp18
 70
     1
102
RTVSPropertyOp19
 70
     1
102
RTVSPropertyOp20
 70
     1
102
RTVSPropertyOp21
 70
     1
102
RTVSPropertyOp22
 70
     1
102
RTVSPropertyOp23
 70
     1
102
RTVSPropertyOp24
 70
     1
102
RTVSPropertyOp25
 70
     1
102
RTVSPropertyOp26
 70
     1
102
RTVSPropertyOp27
 70
     1
  0
XRECORD
  5
1947
102
{ACAD_REACTORS
330
1946
102
}
330
1946
100
AcDbXrecord
280
     1
102
RTVSPropertyOp0
 70
     1
102
RTVSPropertyOp1
 70
     1
102
RTVSPropertyOp2
 70
     1
102
RTVSPropertyOp3
 70
     1
102
RTVSPropertyOp4
 70
     1
102
RTVSPropertyOp5
 70
     1
102
RTVSPropertyOp6
 70
     1
102
RTVSPropertyOp7
 70
     1
102
RTVSPropertyOp8
 70
     1
102
RTVSPropertyOp9
 70
     1
102
RTVSPropertyOp10
 70
     1
102
RTVSPropertyOp11
 70
     1
102
RTVSPropertyOp12
 70
     1
102
RTVSPropertyOp13
 70
     1
102
RTVSPropertyOp14
 70
     1
102
RTVSPropertyOp15
 70
     1
102
RTVSPropertyOp16
 70
     1
102
RTVSPropertyOp17
 70
     1
102
RTVSPropertyOp18
 70
     1
102
RTVSPropertyOp19
 70
     1
102
RTVSPropertyOp20
 70
     1
102
RTVSPropertyOp21
 70
     1
102
RTVSPropertyOp22
 70
     1
102
RTVSPropertyOp23
 70
     1
102
RTVSPropertyOp24
 70
     1
102
RTVSPropertyOp25
 70
     1
102
RTVSPropertyOp26
 70
     1
102
RTVSPropertyOp27
 70
     1
  0
XRECORD
  5
1949
102
{ACAD_REACTORS
330
1948
102
}
330
1948
100
AcDbXrecord
280
     1
102
RTVSPropertyOp0
 70
     1
102
RTVSPropertyOp1
 70
     1
102
RTVSPropertyOp2
 70
     1
102
RTVSPropertyOp3
 70
     1
102
RTVSPropertyOp4
 70
     1
102
RTVSPropertyOp5
 70
     1
102
RTVSPropertyOp6
 70
     1
102
RTVSPropertyOp7
 70
     1
102
RTVSPropertyOp8
 70
     1
102
RTVSPropertyOp9
 70
     1
102
RTVSPropertyOp10
 70
     1
102
RTVSPropertyOp11
 70
     1
102
RTVSPropertyOp12
 70
     1
102
RTVSPropertyOp13
 70
     1
102
RTVSPropertyOp14
 70
     1
102
RTVSPropertyOp15
 70
     1
102
RTVSPropertyOp16
 70
     1
102
RTVSPropertyOp17
 70
     1
102
RTVSPropertyOp18
 70
     1
102
RTVSPropertyOp19
 70
     1
102
RTVSPropertyOp20
 70
     1
102
RTVSPropertyOp21
 70
     1
102
RTVSPropertyOp22
 70
     1
102
RTVSPropertyOp23
 70
     1
102
RTVSPropertyOp24
 70
     1
102
RTVSPropertyOp25
 70
     1
102
RTVSPropertyOp26
 70
     1
102
RTVSPropertyOp27
 70
     1
  0
XRECORD
  5
194B
102
{ACAD_REACTORS
330
194A
102
}
330
194A
100
AcDbXrecord
280
     1
102
RTVSPropertyOp0
 70
     1
102
RTVSPropertyOp1
 70
     1
102
RTVSPropertyOp2
 70
     1
102
RTVSPropertyOp3
 70
     1
102
RTVSPropertyOp4
 70
     1
102
RTVSPropertyOp5
 70
     1
102
RTVSPropertyOp6
 70
     1
102
RTVSPropertyOp7
 70
     1
102
RTVSPropertyOp8
 70
     1
102
RTVSPropertyOp9
 70
     1
102
RTVSPropertyOp10
 70
     1
102
RTVSPropertyOp11
 70
     1
102
RTVSPropertyOp12
 70
     1
102
RTVSPropertyOp13
 70
     1
102
RTVSPropertyOp14
 70
     1
102
RTVSPropertyOp15
 70
     1
102
RTVSPropertyOp16
 70
     1
102
RTVSPropertyOp17
 70
     1
102
RTVSPropertyOp18
 70
     1
102
RTVSPropertyOp19
 70
     1
102
RTVSPropertyOp20
 70
     1
102
RTVSPropertyOp21
 70
     1
102
RTVSPropertyOp22
 70
     1
102
RTVSPropertyOp23
 70
     1
102
RTVSPropertyOp24
 70
     1
102
RTVSPropertyOp25
 70
     1
102
RTVSPropertyOp26
 70
     1
102
RTVSPropertyOp27
 70
     1
  0
XRECORD
  5
194D
102
{ACAD_REACTORS
330
194C
102
}
330
194C
100
AcDbXrecord
280
     1
102
RTVSPropertyOp0
 70
     1
102
RTVSPropertyOp1
 70
     1
102
RTVSPropertyOp2
 70
     1
102
RTVSPropertyOp3
 70
     1
102
RTVSPropertyOp4
 70
     1
102
RTVSPropertyOp5
 70
     1
102
RTVSPropertyOp6
 70
     1
102
RTVSPropertyOp7
 70
     1
102
RTVSPropertyOp8
 70
     1
102
RTVSPropertyOp9
 70
     1
102
RTVSPropertyOp10
 70
     1
102
RTVSPropertyOp11
 70
     1
102
RTVSPropertyOp12
 70
     1
102
RTVSPropertyOp13
 70
     1
102
RTVSPropertyOp14
 70
     1
102
RTVSPropertyOp15
 70
     1
102
RTVSPropertyOp16
 70
     1
102
RTVSPropertyOp17
 70
     1
102
RTVSPropertyOp18
 70
     1
102
RTVSPropertyOp19
 70
     1
102
RTVSPropertyOp20
 70
     1
102
RTVSPropertyOp21
 70
     1
102
RTVSPropertyOp22
 70
     1
102
RTVSPropertyOp23
 70
     1
102
RTVSPropertyOp24
 70
     1
102
RTVSPropertyOp25
 70
     1
102
RTVSPropertyOp26
 70
     1
102
RTVSPropertyOp27
 70
     1
  0
XRECORD
  5
194F
102
{ACAD_REACTORS
330
194E
102
}
330
194E
100
AcDbXrecord
280
     1
102
RTVSPropertyOp0
 70
     1
102
RTVSPropertyOp1
 70
     1
102
RTVSPropertyOp2
 70
     1
102
RTVSPropertyOp3
 70
     1
102
RTVSPropertyOp4
 70
     1
102
RTVSPropertyOp5
 70
     1
102
RTVSPropertyOp6
 70
     1
102
RTVSPropertyOp7
 70
     1
102
RTVSPropertyOp8
 70
     1
102
RTVSPropertyOp9
 70
     1
102
RTVSPropertyOp10
 70
     1
102
RTVSPropertyOp11
 70
     1
102
RTVSPropertyOp12
 70
     1
102
RTVSPropertyOp13
 70
     1
102
RTVSPropertyOp14
 70
     1
102
RTVSPropertyOp15
 70
     1
102
RTVSPropertyOp16
 70
     1
102
RTVSPropertyOp17
 70
     1
102
RTVSPropertyOp18
 70
     1
102
RTVSPropertyOp19
 70
     1
102
RTVSPropertyOp20
 70
     1
102
RTVSPropertyOp21
 70
     1
102
RTVSPropertyOp22
 70
     1
102
RTVSPropertyOp23
 70
     1
102
RTVSPropertyOp24
 70
     1
102
RTVSPropertyOp25
 70
     1
102
RTVSPropertyOp26
 70
     1
102
RTVSPropertyOp27
 70
     1
  0
XRECORD
  5
1951
102
{ACAD_REACTORS
330
1950
102
}
330
1950
100
AcDbXrecord
280
     1
102
RTVSPropertyOp0
 70
     1
102
RTVSPropertyOp1
 70
     1
102
RTVSPropertyOp2
 70
     1
102
RTVSPropertyOp3
 70
     1
102
RTVSPropertyOp4
 70
     1
102
RTVSPropertyOp5
 70
     1
102
RTVSPropertyOp6
 70
     1
102
RTVSPropertyOp7
 70
     1
102
RTVSPropertyOp8
 70
     1
102
RTVSPropertyOp9
 70
     1
102
RTVSPropertyOp10
 70
     1
102
RTVSPropertyOp11
 70
     1
102
RTVSPropertyOp12
 70
     1
102
RTVSPropertyOp13
 70
     1
102
RTVSPropertyOp14
 70
     1
102
RTVSPropertyOp15
 70
     1
102
RTVSPropertyOp16
 70
     1
102
RTVSPropertyOp17
 70
     1
102
RTVSPropertyOp18
 70
     1
102
RTVSPropertyOp19
 70
     1
102
RTVSPropertyOp20
 70
     1
102
RTVSPropertyOp21
 70
     1
102
RTVSPropertyOp22
 70
     1
102
RTVSPropertyOp23
 70
     1
102
RTVSPropertyOp24
 70
     1
102
RTVSPropertyOp25
 70
     1
102
RTVSPropertyOp26
 70
     1
102
RTVSPropertyOp27
 70
     1
  0
XRECORD
  5
1953
102
{ACAD_REACTORS
330
1952
102
}
330
1952
100
AcDbXrecord
280
     1
102
RTVSPropertyOp0
 70
     1
102
RTVSPropertyOp1
 70
     1
102
RTVSPropertyOp2
 70
     1
102
RTVSPropertyOp3
 70
     1
102
RTVSPropertyOp4
 70
     1
102
RTVSPropertyOp5
 70
     1
102
RTVSPropertyOp6
 70
     1
102
RTVSPropertyOp7
 70
     1
102
RTVSPropertyOp8
 70
     1
102
RTVSPropertyOp9
 70
     1
102
RTVSPropertyOp10
 70
     1
102
RTVSPropertyOp11
 70
     1
102
RTVSPropertyOp12
 70
     1
102
RTVSPropertyOp13
 70
     1
102
RTVSPropertyOp14
 70
     1
102
RTVSPropertyOp15
 70
     1
102
RTVSPropertyOp16
 70
     1
102
RTVSPropertyOp17
 70
     1
102
RTVSPropertyOp18
 70
     1
102
RTVSPropertyOp19
 70
     1
102
RTVSPropertyOp20
 70
     1
102
RTVSPropertyOp21
 70
     1
102
RTVSPropertyOp22
 70
     1
102
RTVSPropertyOp23
 70
     1
102
RTVSPropertyOp24
 70
     1
102
RTVSPropertyOp25
 70
     1
102
RTVSPropertyOp26
 70
     1
102
RTVSPropertyOp27
 70
     1
  0
XRECORD
  5
1955
102
{ACAD_REACTORS
330
1954
102
}
330
1954
100
AcDbXrecord
280
     1
102
RTVSPropertyOp0
 70
     1
102
RTVSPropertyOp1
 70
     1
102
RTVSPropertyOp2
 70
     1
102
RTVSPropertyOp3
 70
     1
102
RTVSPropertyOp4
 70
     1
102
RTVSPropertyOp5
 70
     1
102
RTVSPropertyOp6
 70
     1
102
RTVSPropertyOp7
 70
     1
102
RTVSPropertyOp8
 70
     1
102
RTVSPropertyOp9
 70
     1
102
RTVSPropertyOp10
 70
     1
102
RTVSPropertyOp11
 70
     1
102
RTVSPropertyOp12
 70
     1
102
RTVSPropertyOp13
 70
     1
102
RTVSPropertyOp14
 70
     1
102
RTVSPropertyOp15
 70
     1
102
RTVSPropertyOp16
 70
     1
102
RTVSPropertyOp17
 70
     1
102
RTVSPropertyOp18
 70
     1
102
RTVSPropertyOp19
 70
     1
102
RTVSPropertyOp20
 70
     1
102
RTVSPropertyOp21
 70
     1
102
RTVSPropertyOp22
 70
     1
102
RTVSPropertyOp23
 70
     1
102
RTVSPropertyOp24
 70
     1
102
RTVSPropertyOp25
 70
     1
102
RTVSPropertyOp26
 70
     1
102
RTVSPropertyOp27
 70
     1
  0
XRECORD
  5
1957
102
{ACAD_REACTORS
330
1956
102
}
330
1956
100
AcDbXrecord
280
     1
102
RTVSPropertyOp0
 70
     1
102
RTVSPropertyOp1
 70
     1
102
RTVSPropertyOp2
 70
     1
102
RTVSPropertyOp3
 70
     1
102
RTVSPropertyOp4
 70
     1
102
RTVSPropertyOp5
 70
     1
102
RTVSPropertyOp6
 70
     1
102
RTVSPropertyOp7
 70
     1
102
RTVSPropertyOp8
 70
     1
102
RTVSPropertyOp9
 70
     1
102
RTVSPropertyOp10
 70
     1
102
RTVSPropertyOp11
 70
     1
102
RTVSPropertyOp12
 70
     1
102
RTVSPropertyOp13
 70
     1
102
RTVSPropertyOp14
 70
     1
102
RTVSPropertyOp15
 70
     1
102
RTVSPropertyOp16
 70
     1
102
RTVSPropertyOp17
 70
     1
102
RTVSPropertyOp18
 70
     1
102
RTVSPropertyOp19
 70
     1
102
RTVSPropertyOp20
 70
     1
102
RTVSPropertyOp21
 70
     1
102
RTVSPropertyOp22
 70
     1
102
RTVSPropertyOp23
 70
     1
102
RTVSPropertyOp24
 70
     1
102
RTVSPropertyOp25
 70
     1
102
RTVSPropertyOp26
 70
     1
102
RTVSPropertyOp27
 70
     1
  0
XRECORD
  5
1959
102
{ACAD_REACTORS
330
1958
102
}
330
1958
100
AcDbXrecord
280
     1
102
RTVSPropertyOp0
 70
     1
102
RTVSPropertyOp1
 70
     1
102
RTVSPropertyOp2
 70
     1
102
RTVSPropertyOp3
 70
     1
102
RTVSPropertyOp4
 70
     1
102
RTVSPropertyOp5
 70
     1
102
RTVSPropertyOp6
 70
     1
102
RTVSPropertyOp7
 70
     1
102
RTVSPropertyOp8
 70
     1
102
RTVSPropertyOp9
 70
     1
102
RTVSPropertyOp10
 70
     1
102
RTVSPropertyOp11
 70
     1
102
RTVSPropertyOp12
 70
     1
102
RTVSPropertyOp13
 70
     1
102
RTVSPropertyOp14
 70
     1
102
RTVSPropertyOp15
 70
     1
102
RTVSPropertyOp16
 70
     1
102
RTVSPropertyOp17
 70
     1
102
RTVSPropertyOp18
 70
     1
102
RTVSPropertyOp19
 70
     1
102
RTVSPropertyOp20
 70
     1
102
RTVSPropertyOp21
 70
     1
102
RTVSPropertyOp22
 70
     1
102
RTVSPropertyOp23
 70
     1
102
RTVSPropertyOp24
 70
     1
102
RTVSPropertyOp25
 70
     1
102
RTVSPropertyOp26
 70
     1
102
RTVSPropertyOp27
 70
     1
  0
XRECORD
  5
195B
102
{ACAD_REACTORS
330
195A
102
}
330
195A
100
AcDbXrecord
280
     1
102
RTVSPropertyOp0
 70
     1
102
RTVSPropertyOp1
 70
     1
102
RTVSPropertyOp2
 70
     1
102
RTVSPropertyOp3
 70
     1
102
RTVSPropertyOp4
 70
     1
102
RTVSPropertyOp5
 70
     1
102
RTVSPropertyOp6
 70
     1
102
RTVSPropertyOp7
 70
     1
102
RTVSPropertyOp8
 70
     1
102
RTVSPropertyOp9
 70
     1
102
RTVSPropertyOp10
 70
     1
102
RTVSPropertyOp11
 70
     1
102
RTVSPropertyOp12
 70
     1
102
RTVSPropertyOp13
 70
     1
102
RTVSPropertyOp14
 70
     1
102
RTVSPropertyOp15
 70
     1
102
RTVSPropertyOp16
 70
     1
102
RTVSPropertyOp17
 70
     1
102
RTVSPropertyOp18
 70
     1
102
RTVSPropertyOp19
 70
     1
102
RTVSPropertyOp20
 70
     1
102
RTVSPropertyOp21
 70
     1
102
RTVSPropertyOp22
 70
     1
102
RTVSPropertyOp23
 70
     1
102
RTVSPropertyOp24
 70
     1
102
RTVSPropertyOp25
 70
     1
102
RTVSPropertyOp26
 70
     1
102
RTVSPropertyOp27
 70
     1
  0
ENDSEC
  0
EOF
