  0
SECTION
  2
HEADER
  9
$ACADVER
  1
AC1014
  9
$ACADMAINTVER
 70
     9
  9
$DWGCODEPAGE
  3
ANSI_932
  9
$INSBASE
 10
0.0
 20
0.0
 30
0.0
  9
$EXTMIN
 10
-32.81381731
 20
-25.00982591
 30
-0.00152582
  9
$EXTMAX
 10
75.00393132
 20
54.02108811
 30
0.00000003
  9
$LIMMIN
 10
0.0
 20
0.0
  9
$LIMMAX
 10
420.0
 20
297.0
  9
$ORTHOMODE
 70
     1
  9
$REGENMODE
 70
     1
  9
$FILLMODE
 70
     1
  9
$QTEXTMODE
 70
     0
  9
$MIRRTEXT
 70
     1
  9
$DRAGMODE
 70
     2
  9
$LTSCALE
 40
10.0
  9
$OSMODE
 70
   549
  9
$ATTMODE
 70
     1
  9
$TEXTSIZE
 40
3.0
  9
$TRACEWID
 40
1.0
  9
$TEXTSTYLE
  7
YOKO
  9
$CLAYER
  8
245
  9
$CELTYPE
  6
BYLAYER
  9
$CECOLOR
 62
   256
  9
$CELTSCALE
 40
1.0
  9
$DELOBJ
 70
     1
  9
$DISPSILH
 70
     0
  9
$DIMSCALE
 40
1.0
  9
$DIMASZ
 40
2.23
  9
$DIMEXO
 40
0.5
  9
$DIMDLI
 40
2.5
  9
$DIMRND
 40
0.0
  9
$DIMDLE
 40
0.0
  9
$DIMEXE
 40
1.0
  9
$DIMTP
 40
0.0
  9
$DIMTM
 40
0.0
  9
$DIMTXT
 40
2.8
  9
$DIMCEN
 40
0.0
  9
$DIMTSZ
 40
0.0
  9
$DIMTOL
 70
     0
  9
$DIMLIM
 70
     0
  9
$DIMTIH
 70
     0
  9
$DIMTOH
 70
     0
  9
$DIMSE1
 70
     0
  9
$DIMSE2
 70
     0
  9
$DIMTAD
 70
     3
  9
$DIMZIN
 70
     8
  9
$DIMBLK
  1

  9
$DIMASO
 70
     1
  9
$DIMSHO
 70
     1
  9
$DIMPOST
  1

  9
$DIMAPOST
  1

  9
$DIMALT
 70
     0
  9
$DIMALTD
 70
     2
  9
$DIMALTF
 40
25.4
  9
$DIMLFAC
 40
1.0
  9
$DIMTOFL
 70
     1
  9
$DIMTVP
 40
0.0
  9
$DIMTIX
 70
     1
  9
$DIMSOXD
 70
     0
  9
$DIMSAH
 70
     1
  9
$DIMBLK1
  1
OPEN
  9
$DIMBLK2
  1
OPEN
  9
$DIMSTYLE
  2
BIGT
  9
$DIMCLRD
 70
   256
  9
$DIMCLRE
 70
   256
  9
$DIMCLRT
 70
    40
  9
$DIMTFAC
 40
1.0
  9
$DIMGAP
 40
1.0
  9
$DIMJUST
 70
     0
  9
$DIMSD1
 70
     0
  9
$DIMSD2
 70
     0
  9
$DIMTOLJ
 70
     1
  9
$DIMTZIN
 70
     8
  9
$DIMALTZ
 70
     0
  9
$DIMALTTZ
 70
     0
  9
$DIMFIT
 70
     3
  9
$DIMUPT
 70
     0
  9
$DIMUNIT
 70
     2
  9
$DIMDEC
 70
     3
  9
$DIMTDEC
 70
     3
  9
$DIMALTU
 70
     2
  9
$DIMALTTD
 70
     2
  9
$DIMTXSTY
  7
STANDARD
  9
$DIMAUNIT
 70
     0
  9
$LUNITS
 70
     2
  9
$LUPREC
 70
     3
  9
$SKETCHINC
 40
1.0
  9
$FILLETRAD
 40
0.0
  9
$AUNITS
 70
     0
  9
$AUPREC
 70
     3
  9
$MENU
  1
.
  9
$ELEVATION
 40
0.0
  9
$PELEVATION
 40
0.0
  9
$THICKNESS
 40
0.0
  9
$LIMCHECK
 70
     0
  9
$BLIPMODE
 70
     0
  9
$CHAMFERA
 40
10.0
  9
$CHAMFERB
 40
10.0
  9
$CHAMFERC
 40
0.0
  9
$CHAMFERD
 40
0.0
  9
$SKPOLY
 70
     0
  9
$TDCREATE
 40
2455100.595292060
  9
$TDUPDATE
 40
2455300.387266701
  9
$TDINDWG
 40
0.0177701852
  9
$TDUSRTIMER
 40
0.0177698148
  9
$USRTIMER
 70
     1
  9
$ANGBASE
 50
0.0
  9
$ANGDIR
 70
     0
  9
$PDMODE
 70
     1
  9
$PDSIZE
 40
-5.0
  9
$PLINEWID
 40
0.0
  9
$COORDS
 70
     2
  9
$SPLFRAME
 70
     0
  9
$SPLINETYPE
 70
     6
  9
$SPLINESEGS
 70
     8
  9
$ATTDIA
 70
     0
  9
$ATTREQ
 70
     1
  9
$HANDLING
 70
-16383
  9
$HANDSEED
  5
E6A
  9
$SURFTAB1
 70
     6
  9
$SURFTAB2
 70
     6
  9
$SURFTYPE
 70
     6
  9
$SURFU
 70
     6
  9
$SURFV
 70
     6
  9
$UCSNAME
  2

  9
$UCSORG
 10
0.0
 20
0.0
 30
0.0
  9
$UCSXDIR
 10
1.0
 20
0.0
 30
0.0
  9
$UCSYDIR
 10
0.0
 20
1.0
 30
0.0
  9
$PUCSNAME
  2

  9
$PUCSORG
 10
0.0
 20
0.0
 30
0.0
  9
$PUCSXDIR
 10
1.0
 20
0.0
 30
0.0
  9
$PUCSYDIR
 10
0.0
 20
1.0
 30
0.0
  9
$USERI1
 70
     1
  9
$USERI2
 70
     0
  9
$USERI3
 70
     0
  9
$USERI4
 70
     0
  9
$USERI5
 70
     0
  9
$USERR1
 40
0.0
  9
$USERR2
 40
0.0
  9
$USERR3
 40
0.0
  9
$USERR4
 40
0.0
  9
$USERR5
 40
0.0
  9
$WORLDVIEW
 70
     1
  9
$SHADEDGE
 70
     3
  9
$SHADEDIF
 70
    70
  9
$TILEMODE
 70
     1
  9
$MAXACTVP
 70
    16
  9
$PINSBASE
 10
0.0
 20
0.0
 30
0.0
  9
$PLIMCHECK
 70
     0
  9
$PEXTMIN
 10
1.00000000E+20
 20
1.00000000E+20
 30
1.00000000E+20
  9
$PEXTMAX
 10
-1.00000000E+20
 20
-1.00000000E+20
 30
-1.00000000E+20
  9
$PLIMMIN
 10
0.0
 20
0.0
  9
$PLIMMAX
 10
420.0
 20
297.0
  9
$UNITMODE
 70
     0
  9
$VISRETAIN
 70
     0
  9
$PLINEGEN
 70
     0
  9
$PSLTSCALE
 70
     1
  9
$TREEDEPTH
 70
  3020
  9
$PICKSTYLE
 70
     0
  9
$CMLSTYLE
  2
STANDARD
  9
$CMLJUST
 70
     0
  9
$CMLSCALE
 40
1.0
  9
$PROXYGRAPHICS
 70
     1
  9
$MEASUREMENT
 70
     1
  0
ENDSEC
  0
SECTION
  2
CLASSES
  0
CLASS
  1
XRECORD
  2
AcDbXrecord
  3
AutoCAD 2000
 90
        0
280
     0
281
     0
  0
CLASS
  1
ACDBDICTIONARYWDFLT
  2
AcDbDictionaryWithDefault
  3
AutoCAD 2000
 90
        0
280
     0
281
     0
  0
CLASS
  1
ACDBPLACEHOLDER
  2
AcDbPlaceHolder
  3
AutoCAD 2000
 90
        0
280
     0
281
     0
  0
CLASS
  1
LAYOUT
  2
AcDbLayout
  3
AutoCAD 2000
 90
        0
280
     0
281
     0
  0
CLASS
  1
PLOTSETTINGS
  2
AcDbPlotSettings
  3
AutoCAD 2000
 90
        0
280
     0
281
     0
  0
CLASS
  1
LONG_TRANSACTION
  2
AcDbLongTransaction
  3
AutoCAD 2000
 90
        0
280
     0
281
     0
  0
CLASS
  1
LWPOLYLINE
  2
AcDbPolyline
  3
AutoCAD 2000
 90
        0
280
     0
281
     1
  0
CLASS
  1
HATCH
  2
AcDbHatch
  3
AutoCAD 2000
 90
        0
280
     0
281
     1
  0
CLASS
  1
XRECORD
  2
AcDbXrecord
  3
AutoCAD 2000
 90
        0
280
     0
281
     0
  0
CLASS
  1
LONG_TRANSACTION
  2
AcDbLongTransaction
  3
AutoCAD 2000
 90
        0
280
     0
281
     0
  0
CLASS
  1
LWPOLYLINE
  2
AcDbPolyline
  3
AutoCAD 2000
 90
        0
280
     0
281
     1
  0
CLASS
  1
HATCH
  2
AcDbHatch
  3
AutoCAD 2000
 90
        0
280
     0
281
     1
  0
CLASS
  1
XRECORD
  2
AcDbXrecord
  3
AutoCAD 2000
 90
        0
280
     0
281
     0
  0
ENDSEC
  0
SECTION
  2
TABLES
  0
TABLE
  2
VPORT
  5
8
330
0
100
AcDbSymbolTable
 70
     3
  0
VPORT
  5
E45
330
8
100
AcDbSymbolTableRecord
100
AcDbViewportTableRecord
  2
*ACTIVE
 70
     0
 10
0.0
 20
0.0
 11
1.0
 21
1.0
 12
21.09505701
 22
14.5056311
 13
0.0
 23
0.0
 14
7.0
 24
7.0
 15
7.0
 25
7.0
 16
0.0
 26
0.0
 36
1.0
 17
0.0
 27
0.0
 37
0.0
 40
79.63420344
 41
1.43184713
 42
50.0
 43
0.0
 44
0.0
 50
0.0
 51
0.0
 71
     0
 72
  2000
 73
     1
 74
     0
 75
     0
 76
     0
 77
     0
 78
     0
  0
ENDTAB
  0
TABLE
  2
LTYPE
  5
5
330
0
100
AcDbSymbolTable
 70
     2
  0
LTYPE
  5
14
330
5
100
AcDbSymbolTableRecord
100
AcDbLinetypeTableRecord
  2
BYBLOCK
 70
     0
  3

 72
    65
 73
     0
 40
0.0
  0
LTYPE
  5
15
330
5
100
AcDbSymbolTableRecord
100
AcDbLinetypeTableRecord
  2
BYLAYER
 70
     0
  3

 72
    65
 73
     0
 40
0.0
  0
LTYPE
  5
16
330
5
100
AcDbSymbolTableRecord
100
AcDbLinetypeTableRecord
  2
CONTINUOUS
 70
     0
  3
Solid line
 72
    65
 73
     0
 40
0.0
  0
LTYPE
  5
258
330
5
100
AcDbSymbolTableRecord
100
AcDbLinetypeTableRecord
  2
CENTER2
 70
     0
  3
___ _ ___ _ ___ _ ___ _ ___ _ ___ _ ___ _ ___ _
 72
    65
 73
     4
 40
1.125
 49
0.75
 74
     0
 49
-0.125
 74
     0
 49
0.125
 74
     0
 49
-0.125
 74
     0
  0
ENDTAB
  0
TABLE
  2
LAYER
  5
2
330
0
100
AcDbSymbolTable
 70
     9
  0
LAYER
  5
F
330
2
100
AcDbSymbolTableRecord
100
AcDbLayerTableRecord
  2
0
 70
     0
 62
     7
  6
CONTINUOUS
  0
LAYER
  5
1AA
330
2
100
AcDbSymbolTableRecord
100
AcDbLayerTableRecord
  2
240
 70
     0
 62
     4
  6
CONTINUOUS
  0
LAYER
  5
1AB
330
2
100
AcDbSymbolTableRecord
100
AcDbLayerTableRecord
  2
241
 70
     0
 62
   211
  6
CONTINUOUS
  0
LAYER
  5
1AF
330
2
100
AcDbSymbolTableRecord
100
AcDbLayerTableRecord
  2
245
 70
     0
 62
     2
  6
CENTER2
  0
LAYER
  5
21B
330
2
100
AcDbSymbolTableRecord
100
AcDbLayerTableRecord
  2
247
 70
     0
 62
    60
  6
CONTINUOUS
  0
LAYER
  5
21E
330
2
100
AcDbSymbolTableRecord
100
AcDbLayerTableRecord
  2
250
 70
     0
 62
     3
  6
CONTINUOUS
  0
LAYER
  5
21F
330
2
100
AcDbSymbolTableRecord
100
AcDbLayerTableRecord
  2
251
 70
     0
 62
    40
  6
CONTINUOUS
  0
LAYER
  5
5C4
330
2
100
AcDbSymbolTableRecord
100
AcDbLayerTableRecord
  2
DEFPOINTS
 70
     0
 62
     7
  6
CONTINUOUS
  0
ENDTAB
  0
TABLE
  2
STYLE
  5
3
330
0
100
AcDbSymbolTable
 70
     2
  0
STYLE
  5
10
330
3
100
AcDbSymbolTableRecord
100
AcDbTextStyleTableRecord
  2
STANDARD
 70
     0
 40
0.0
 41
1.0
 50
0.0
 71
     0
 42
3.0
  3
romans.shx
  4
BIGFONT.SHX
  0
STYLE
  5
339
330
3
100
AcDbSymbolTableRecord
100
AcDbTextStyleTableRecord
  2
YOKO
 70
     0
 40
0.0
 41
1.0
 50
0.0
 71
     0
 42
3.0
  3
romans.shx
  4
extfont.shx
  0
ENDTAB
  0
TABLE
  2
VIEW
  5
6
330
0
100
AcDbSymbolTable
 70
     0
  0
ENDTAB
  0
TABLE
  2
UCS
  5
7
330
0
100
AcDbSymbolTable
 70
     0
  0
ENDTAB
  0
TABLE
  2
APPID
  5
9
330
0
100
AcDbSymbolTable
 70
    12
  0
APPID
  5
11
330
9
100
AcDbSymbolTableRecord
100
AcDbRegAppTableRecord
  2
ACAD
 70
     0
  0
APPID
  5
1B1
330
9
100
AcDbSymbolTableRecord
100
AcDbRegAppTableRecord
  2
GLOBAL
 70
     0
  0
APPID
  5
2A4
330
9
100
AcDbSymbolTableRecord
100
AcDbRegAppTableRecord
  2
DETAIL
 70
     0
  0
APPID
  5
5FD
330
9
100
AcDbSymbolTableRecord
100
AcDbRegAppTableRecord
  2
GRPNAME
 70
     0
  0
APPID
  5
5FE
330
9
100
AcDbSymbolTableRecord
100
AcDbRegAppTableRecord
  2
GPARA
 70
     0
  0
APPID
  5
6C4
330
9
100
AcDbSymbolTableRecord
100
AcDbRegAppTableRecord
  2
DCO15
 70
     0
  0
APPID
  5
6C5
330
9
100
AcDbSymbolTableRecord
100
AcDbRegAppTableRecord
  2
ITEMNAME
 70
     0
  0
APPID
  5
6C6
330
9
100
AcDbSymbolTableRecord
100
AcDbRegAppTableRecord
  2
GRADE_0
 70
     0
  0
APPID
  5
7BB
330
9
100
AcDbSymbolTableRecord
100
AcDbRegAppTableRecord
  2
HATCH_TYPE
 70
     0
  0
APPID
  5
7BC
330
9
100
AcDbSymbolTableRecord
100
AcDbRegAppTableRecord
  2
HATCH_DISPLAY
 70
     0
  0
APPID
  5
7BD
330
9
100
AcDbSymbolTableRecord
100
AcDbRegAppTableRecord
  2
HATCH_DISTANCE
 70
     0
  0
APPID
  5
CEB
330
9
100
AcDbSymbolTableRecord
100
AcDbRegAppTableRecord
  2
CONTENTBLOCKICON
 70
     0
  0
ENDTAB
  0
TABLE
  2
DIMSTYLE
  5
A
330
0
100
AcDbSymbolTable
 70
     1
  0
DIMSTYLE
105
725
102
{ACAD_REACTORS
330
B3B
330
B61
102
}
330
A
100
AcDbSymbolTableRecord
100
AcDbDimStyleTableRecord
  2
BIGT
 70
     0
  3

  4

  5

  6
OPEN
  7
OPEN
 40
1.0
 41
2.23
 42
0.5
 43
2.5
 44
1.0
 45
0.0
 46
0.0
 47
0.0
 48
0.0
140
2.8
141
0.0
142
0.0
143
25.4
144
1.0
145
0.0
146
1.0
147
1.0
 71
     0
 72
     0
 73
     0
 74
     0
 75
     0
 76
     0
 77
     3
 78
     8
170
     0
171
     2
172
     1
173
     1
174
     1
175
     0
176
   256
177
   256
178
    40
270
     2
271
     3
272
     3
273
     2
274
     2
340
10
275
     0
280
     0
281
     0
282
     0
283
     1
284
     8
285
     0
286
     0
287
     3
288
     0
  0
ENDTAB
  0
TABLE
  2
BLOCK_RECORD
  5
1
330
0
100
AcDbSymbolTable
 70
     9
  0
BLOCK_RECORD
  5
1A
102
{ACAD_XDICTIONARY
360
CE9
102
}
330
1
100
AcDbSymbolTableRecord
100
AcDbBlockTableRecord
  2
*MODEL_SPACE
  0
BLOCK_RECORD
  5
17
102
{ACAD_XDICTIONARY
360
CE7
102
}
330
1
100
AcDbSymbolTableRecord
100
AcDbBlockTableRecord
  2
*PAPER_SPACE
  0
BLOCK_RECORD
  5
594
330
1
100
AcDbSymbolTableRecord
100
AcDbBlockTableRecord
  2
_OPEN
  0
BLOCK_RECORD
  5
6E3
330
1
100
AcDbSymbolTableRecord
100
AcDbBlockTableRecord
  2
矢印なし
  0
BLOCK_RECORD
  5
A1A
330
1
100
AcDbSymbolTableRecord
100
AcDbBlockTableRecord
  2
*X2
  0
BLOCK_RECORD
  5
A4A
330
1
100
AcDbSymbolTableRecord
100
AcDbBlockTableRecord
  2
*X3
  0
BLOCK_RECORD
  5
A56
330
1
100
AcDbSymbolTableRecord
100
AcDbBlockTableRecord
  2
*X4
  0
BLOCK_RECORD
  5
B3C
330
1
100
AcDbSymbolTableRecord
100
AcDbBlockTableRecord
  2
*D5
  0
BLOCK_RECORD
  5
B62
330
1
100
AcDbSymbolTableRecord
100
AcDbBlockTableRecord
  2
*D6
  0
BLOCK_RECORD
  5
B78
330
1
100
AcDbSymbolTableRecord
100
AcDbBlockTableRecord
  2
_DOT
  0
BLOCK_RECORD
  5
BE6
330
1
100
AcDbSymbolTableRecord
100
AcDbBlockTableRecord
  2
1
1001
CONTENTBLOCKICON
1071
        0
1004
2800000020000000200000000100080000000000000400000000000000000000000000000000000000000000000080000080000000808000800000008000800080800000C0C0C000C0DCC000F0CAA6000020400000206000002080000020A0000020C0000020E00000400000004020000040400000406000004080000040A0
1004
000040C0000040E00000600000006020000060400000606000006080000060A0000060C0000060E00000800000008020000080400000806000008080000080A0000080C0000080E00000A0000000A0200000A0400000A0600000A0800000A0A00000A0C00000A0E00000C0000000C0200000C0400000C0600000C0800000C0
1004
A00000C0C00000C0E00000E0000000E0200000E0400000E0600000E0800000E0A00000E0C00000E0E00040000000400020004000400040006000400080004000A0004000C0004000E00040200000402020004020400040206000402080004020A0004020C0004020E000404000004040200040404000404060004040800040
1004
40A0004040C0004040E00040600000406020004060400040606000406080004060A0004060C0004060E00040800000408020004080400040806000408080004080A0004080C0004080E00040A0000040A0200040A0400040A0600040A0800040A0A00040A0C00040A0E00040C0000040C0200040C0400040C0600040C08000
1004
40C0A00040C0C00040C0E00040E0000040E0200040E0400040E0600040E0800040E0A00040E0C00040E0E00080000000800020008000400080006000800080008000A0008000C0008000E00080200000802020008020400080206000802080008020A0008020C0008020E00080400000804020008040400080406000804080
1004
008040A0008040C0008040E00080600000806020008060400080606000806080008060A0008060C0008060E00080800000808020008080400080806000808080008080A0008080C0008080E00080A0000080A0200080A0400080A0600080A0800080A0A00080A0C00080A0E00080C0000080C0200080C0400080C0600080C0
1004
800080C0A00080C0C00080C0E00080E0000080E0200080E0400080E0600080E0800080E0A00080E0C00080E0E000C0000000C0002000C0004000C0006000C0008000C000A000C000C000C000E000C0200000C0202000C0204000C0206000C0208000C020A000C020C000C020E000C0400000C0402000C0404000C0406000C0
1004
408000C040A000C040C000C040E000C0600000C0602000C0604000C0606000C0608000C060A000C060C000C060E000C0800000C0802000C0804000C0806000C0808000C080A000C080C000C080E000C0A00000C0A02000C0A04000C0A06000C0A08000C0A0A000C0A0C000C0A0E000C0C00000C0C02000C0C04000C0C06000
1004
C0C08000C0C0A000F0FBFF00A4A0A000808080000000FF0000FF000000FFFF00FF000000FF00FF00FFFF0000FFFFFF0000000000000000000000000000000000000000000000000000000000000000000000000000000000000000000000000000000000000000000000000000000000000000000000000000000000000000
1004
00000000000000000000000000000000000000000000000000000000000000000000000000000000000000000000000000000000000000000000000000000000000000000000000000000000000000000000000000000000000000000000000000000000000000000000000000000000000000000000000000000000000000
1004
000000000000000000000000000000000000000000000000000000000000FEFEFEFEFEFEFEFE000000000000000000000000000000000000000000000000FE003E00E7E700FE000000000000000000000000000000000000000000000000FE3E3E00E700E700FE0000000000000000000000000000000000000000000000FE
1004
3E3E00E700E70000FEFE0000000000000000000000FEFEFEFEFEFEFEFEFEFEE73E3E00E7E700E7E70000FE00000000000000000000FE000000000000000000E73E3E00E7E7E700E7E7E700FE000000000000000000FE0000000000FB000000E73E3E00E7E7E7E7E7E7E7E7E7FEFE00000000000000FE00000000E7FBE70000
1004
E73E3E00E7E700E7E7E7E700E7E700FE000000000000FE000000E7E7FBE7E700E73E3E00E700E700E7E7E70000E7E7E7FEFE000000FBFEFBFBFBE7E7FBE7E7FBE73E3EFBE7E7FBE7E7FBFBFBFBFBE7FBFBFEFB000000FE00000000E7FBE70000E73E3E00E7E7E7E700E7E7E7E7E7E700FE0000000000FE0000000000FB0000
1004
00E73E3E00E7E700E7000000E70000FEFE000000000000FE000000000000000000E73E3E00E7E700E700000000E7FE0000000000000000FEFEFEFEFEFEFEFEFEFEFE3E3E00E7E700E700000000FE00000000000000000000000000000000000000FE3E3E00E70000E7000000FE000000000000000000000000000000000000
1004
0000FE3E3E00E70000E700FEFE000000000000000000000000000000000000000000FE3E3E00E7E7FEFEFE0000000000000000000000000000000000000000000000FEFEFEFEFEFEFE000000000000000000000000000000000000000000000000000000000000000000000000000000000000000000000000000000000000
1004
00000000000000000000000000000000000000000000000000000000000000000000000000000000000000000000000000000000000000000000000000000000000000000000000000000000000000000000000000000000000000000000000000000000000000000000000000000000000000000000000000000000000000
1004
0000000000000000000000000000000000000000000000000000000000000000000000000000000000000000000000000000000000000000
  0
ENDTAB
  0
ENDSEC
  0
SECTION
  2
BLOCKS
  0
BLOCK
  5
1B
330
1A
100
AcDbEntity
  8
0
100
AcDbBlockBegin
  2
*MODEL_SPACE
 70
     0
 10
0.0
 20
0.0
 30
0.0
  3
*MODEL_SPACE
  1

  0
ENDBLK
  5
1C
330
1A
100
AcDbEntity
  8
0
100
AcDbBlockEnd
  0
BLOCK
  5
18
330
17
100
AcDbEntity
 67
     1
  8
0
100
AcDbBlockBegin
  2
*PAPER_SPACE
 70
     0
 10
0.0
 20
0.0
 30
0.0
  3
*PAPER_SPACE
  1

  0
ENDBLK
  5
19
330
17
100
AcDbEntity
 67
     1
  8
0
100
AcDbBlockEnd
  0
BLOCK
  5
598
330
594
100
AcDbEntity
  8
0
100
AcDbBlockBegin
  2
_OPEN
 70
     0
 10
0.0
 20
0.0
 30
0.0
  3
_OPEN
  1

  0
LINE
  5
595
330
594
100
AcDbEntity
  8
0
  6
BYBLOCK
 62
     0
100
AcDbLine
 10
-1.0
 20
0.16666667
 30
0.0
 11
0.0
 21
0.0
 31
0.0
  0
LINE
  5
596
330
594
100
AcDbEntity
  8
0
  6
BYBLOCK
 62
     0
100
AcDbLine
 10
-1.0
 20
-0.16666667
 30
0.0
 11
0.0
 21
0.0
 31
0.0
  0
LINE
  5
597
330
594
100
AcDbEntity
  8
0
  6
BYBLOCK
 62
     0
100
AcDbLine
 10
0.0
 20
0.0
 30
0.0
 11
-1.0
 21
0.0
 31
0.0
  0
ENDBLK
  5
599
330
594
100
AcDbEntity
  8
0
100
AcDbBlockEnd
  0
BLOCK
  5
6E4
330
6E3
100
AcDbEntity
  8
0
100
AcDbBlockBegin
  2
矢印なし
 70
     0
 10
0.0
 20
0.0
 30
0.0
  3
矢印なし
  1

  0
ENDBLK
  5
6E5
330
6E3
100
AcDbEntity
  8
0
100
AcDbBlockEnd
  0
BLOCK
  5
A48
330
A1A
100
AcDbEntity
  8
0
100
AcDbBlockBegin
  2
*X2
 70
     1
 10
0.0
 20
0.0
 30
0.0
  3
*X2
  1

  0
LINE
  5
A1B
330
A1A
100
AcDbEntity
  8
0
 62
     0
100
AcDbLine
 10
3.23536413
 20
-8.20773857
 30
0.0
 11
2.53987813
 21
-7.51225257
 31
0.0
  0
LINE
  5
A1C
330
A1A
100
AcDbEntity
  8
0
 62
     0
100
AcDbLine
 10
2.52525541
 20
-7.73336158
 30
0.0
 11
2.24664067
 21
-7.45474683
 31
0.0
  0
LINE
  5
A1D
330
A1A
100
AcDbEntity
  8
0
 62
     0
100
AcDbLine
 10
3.29286987
 20
-8.50097603
 30
0.0
 11
3.01425512
 21
-8.22236129
 31
0.0
  0
LINE
  5
A1E
330
A1A
100
AcDbEntity
  8
0
 62
     0
100
AcDbLine
 10
2.22209975
 20
-7.66593764
 30
0.0
 11
2.02055126
 21
-7.46438915
 31
0.0
  0
LINE
  5
A1F
330
A1A
100
AcDbEntity
  8
0
 62
     0
100
AcDbLine
 10
3.29481647
 20
-8.73865436
 30
0.0
 11
3.08167906
 21
-8.52551695
 31
0.0
  0
LINE
  5
A20
330
A1A
100
AcDbEntity
  8
0
 62
     0
100
AcDbLine
 10
2.00310604
 20
-7.68267565
 30
0.0
 11
1.82993399
 21
-7.5095036
 31
0.0
  0
LINE
  5
A21
330
A1A
100
AcDbEntity
  8
0
 62
     0
100
AcDbLine
 10
3.29481647
 20
-8.97438608
 30
0.0
 11
3.0826247
 21
-8.76219432
 31
0.0
  0
LINE
  5
A22
330
A1A
100
AcDbEntity
  8
0
 62
     0
100
AcDbLine
 10
1.82350018
 20
-7.73880151
 30
0.0
 11
1.66441862
 21
-7.57971995
 31
0.0
  0
LINE
  5
A23
330
A1A
100
AcDbEntity
  8
0
 62
     0
100
AcDbLine
 10
3.29481647
 20
-9.21011781
 30
0.0
 11
3.0826247
 21
-8.99792604
 31
0.0
  0
LINE
  5
A24
330
A1A
100
AcDbEntity
  8
0
 62
     0
100
AcDbLine
 10
1.67153212
 20
-7.82256518
 30
0.0
 11
1.51938462
 21
-7.67041768
 31
0.0
  0
LINE
  5
A25
330
A1A
100
AcDbEntity
  8
0
 62
     0
100
AcDbLine
 10
3.29481647
 20
-9.44584953
 30
0.0
 11
3.0826247
 21
-9.23365776
 31
0.0
  0
LINE
  5
A26
330
A1A
100
AcDbEntity
  8
0
 62
     0
100
AcDbLine
 10
1.54275222
 20
-7.929517
 30
0.0
 11
1.39270995
 21
-7.77947474
 31
0.0
  0
LINE
  5
A27
330
A1A
100
AcDbEntity
  8
0
 62
     0
100
AcDbLine
 10
3.29481647
 20
-9.68158125
 30
0.0
 11
3.0826247
 21
-9.46938949
 31
0.0
  0
LINE
  5
A28
330
A1A
100
AcDbEntity
  8
0
 62
     0
100
AcDbLine
 10
1.43594765
 20
-8.05844416
 30
0.0
 11
1.28377138
 21
-7.90626789
 31
0.0
  0
LINE
  5
A29
330
A1A
100
AcDbEntity
  8
0
 62
     0
100
AcDbLine
 10
3.29481647
 20
-9.91731298
 30
0.0
 11
3.0826247
 21
-9.70512121
 31
0.0
  0
LINE
  5
A2A
330
A1A
100
AcDbEntity
  8
0
 62
     0
100
AcDbLine
 10
1.35234823
 20
-8.21057646
 30
0.0
 11
1.19320073
 21
-8.05142896
 31
0.0
  0
LINE
  5
A2B
330
A1A
100
AcDbEntity
  8
0
 62
     0
100
AcDbLine
 10
3.29481647
 20
-10.1530447
 30
0.0
 11
3.0826247
 21
-9.94085293
 31
0.0
  0
LINE
  5
A2C
330
A1A
100
AcDbEntity
  8
0
 62
     0
100
AcDbLine
 10
1.29643258
 20
-8.39039253
 30
0.0
 11
1.12313213
 21
-8.21709208
 31
0.0
  0
LINE
  5
A2D
330
A1A
100
AcDbEntity
  8
0
 62
     0
100
AcDbLine
 10
3.29481647
 20
-10.38877642
 30
0.0
 11
3.0826247
 21
-10.17658466
 31
0.0
  0
LINE
  5
A2E
330
A1A
100
AcDbEntity
  8
0
 62
     0
100
AcDbLine
 10
1.28003258
 20
-8.60972426
 30
0.0
 11
1.07820932
 21
-8.40790099
 31
0.0
  0
LINE
  5
A2F
330
A1A
100
AcDbEntity
  8
0
 62
     0
100
AcDbLine
 10
3.29481647
 20
-10.62450815
 30
0.0
 11
3.0826247
 21
-10.41231638
 31
0.0
  0
LINE
  5
A30
330
A1A
100
AcDbEntity
  8
0
 62
     0
100
AcDbLine
 10
1.24181743
 20
-8.80724082
 30
0.0
 11
1.06886485
 21
-8.63428825
 31
0.0
  0
LINE
  5
A31
330
A1A
100
AcDbEntity
  8
0
 62
     0
100
AcDbLine
 10
3.29481647
 20
-10.86023987
 30
0.0
 11
3.0826247
 21
-10.6480481
 31
0.0
  0
LINE
  5
A32
330
A1A
100
AcDbEntity
  8
0
 62
     0
100
AcDbLine
 10
3.29481647
 20
-11.09597159
 30
0.0
 11
3.0826247
 21
-10.88377983
 31
0.0
  0
LINE
  5
A33
330
A1A
100
AcDbEntity
  8
0
 62
     0
100
AcDbLine
 10
3.29481647
 20
-11.33170332
 30
0.0
 11
3.0826247
 21
-11.11951155
 31
0.0
  0
LINE
  5
A34
330
A1A
100
AcDbEntity
  8
0
 62
     0
100
AcDbLine
 10
3.29481647
 20
-11.56743504
 30
0.0
 11
3.0826247
 21
-11.35524327
 31
0.0
  0
LINE
  5
A35
330
A1A
100
AcDbEntity
  8
0
 62
     0
100
AcDbLine
 10
3.29481647
 20
-11.80316676
 30
0.0
 11
3.0826247
 21
-11.590975
 31
0.0
  0
LINE
  5
A36
330
A1A
100
AcDbEntity
  8
0
 62
     0
100
AcDbLine
 10
3.29481647
 20
-12.03889849
 30
0.0
 11
3.0826247
 21
-11.82670672
 31
0.0
  0
LINE
  5
A37
330
A1A
100
AcDbEntity
  8
0
 62
     0
100
AcDbLine
 10
3.29481647
 20
-12.27463021
 30
0.0
 11
3.0826247
 21
-12.06243844
 31
0.0
  0
LINE
  5
A38
330
A1A
100
AcDbEntity
  8
0
 62
     0
100
AcDbLine
 10
3.29481647
 20
-12.51036193
 30
0.0
 11
3.0826247
 21
-12.29817017
 31
0.0
  0
LINE
  5
A39
330
A1A
100
AcDbEntity
  8
0
 62
     0
100
AcDbLine
 10
3.29481647
 20
-12.74609366
 30
0.0
 11
3.0826247
 21
-12.53390189
 31
0.0
  0
LINE
  5
A3A
330
A1A
100
AcDbEntity
  8
0
 62
     0
100
AcDbLine
 10
3.29006231
 20
-12.97707122
 30
0.0
 11
3.0826247
 21
-12.76963361
 31
0.0
  0
LINE
  5
A3B
330
A1A
100
AcDbEntity
  8
0
 62
     0
100
AcDbLine
 10
3.253193
 20
-13.17593363
 30
0.0
 11
3.07423651
 21
-12.99697714
 31
0.0
  0
LINE
  5
A3C
330
A1A
100
AcDbEntity
  8
0
 62
     0
100
AcDbLine
 10
3.18921464
 20
-13.347687
 30
0.0
 11
3.02716455
 21
-13.18563691
 31
0.0
  0
LINE
  5
A3D
330
A1A
100
AcDbEntity
  8
0
 62
     0
100
AcDbLine
 10
3.10381489
 20
-13.49801897
 30
0.0
 11
2.95031117
 21
-13.34451525
 31
0.0
  0
LINE
  5
A3E
330
A1A
100
AcDbEntity
  8
0
 62
     0
100
AcDbLine
 10
2.99964906
 20
-13.62958486
 30
0.0
 11
2.84945598
 21
-13.47939178
 31
0.0
  0
LINE
  5
A3F
330
A1A
100
AcDbEntity
  8
0
 62
     0
100
AcDbLine
 10
2.87770282
 20
-13.74337034
 30
0.0
 11
2.72654053
 21
-13.59220805
 31
0.0
  0
LINE
  5
A40
330
A1A
100
AcDbEntity
  8
0
 62
     0
100
AcDbLine
 10
2.73769015
 20
-13.8390894
 30
0.0
 11
2.58101195
 21
-13.6824112
 31
0.0
  0
LINE
  5
A41
330
A1A
100
AcDbEntity
  8
0
 62
     0
100
AcDbLine
 10
1.27901041
 20
-12.61614138
 30
0.0
 11
1.11184125
 21
-12.44897222
 31
0.0
  0
LINE
  5
A42
330
A1A
100
AcDbEntity
  8
0
 62
     0
100
AcDbLine
 10
2.57794346
 20
-13.91507443
 30
0.0
 11
2.40947176
 21
-13.74660273
 31
0.0
  0
LINE
  5
A43
330
A1A
100
AcDbEntity
  8
0
 62
     0
100
AcDbLine
 10
1.27901041
 20
-12.8518731
 30
0.0
 11
1.06681864
 21
-12.63968133
 31
0.0
  0
LINE
  5
A44
330
A1A
100
AcDbEntity
  8
0
 62
     0
100
AcDbLine
 10
2.39468001
 20
-13.9675427
 30
0.0
 11
2.202938
 21
-13.77580069
 31
0.0
  0
LINE
  5
A45
330
A1A
100
AcDbEntity
  8
0
 62
     0
100
AcDbLine
 10
1.31382547
 20
-13.12241988
 30
0.0
 11
1.06681923
 21
-12.87541365
 31
0.0
  0
LINE
  5
A46
330
A1A
100
AcDbEntity
  8
0
 62
     0
100
AcDbLine
 10
2.1796688
 20
-13.98826321
 30
0.0
 11
1.93266256
 21
-13.74125698
 31
0.0
  0
LINE
  5
A47
330
A1A
100
AcDbEntity
  8
0
 62
     0
100
AcDbLine
 10
1.91069092
 20
-13.95501706
 30
0.0
 11
1.10006539
 21
-13.14439153
 31
0.0
  0
ENDBLK
  5
A49
330
A1A
100
AcDbEntity
  8
0
100
AcDbBlockEnd
  0
BLOCK
  5
A54
330
A4A
100
AcDbEntity
  8
0
100
AcDbBlockBegin
  2
*X3
 70
     1
 10
0.0
 20
0.0
 30
0.0
  3
*X3
  1

  0
LINE
  5
A4B
330
A4A
100
AcDbEntity
  8
0
 62
     0
100
AcDbLine
 10
2.97652882
 20
-10.77768394
 30
0.0
 11
2.95904392
 21
-10.76019904
 31
0.0
  0
LINE
  5
A4C
330
A4A
100
AcDbEntity
  8
0
 62
     0
100
AcDbLine
 10
2.97652882
 20
-11.01341566
 30
0.0
 11
2.62854288
 21
-10.66542973
 31
0.0
  0
LINE
  5
A4D
330
A4A
100
AcDbEntity
  8
0
 62
     0
100
AcDbLine
 10
2.96343527
 20
-11.23605384
 30
0.0
 11
2.29804185
 21
-10.57066041
 31
0.0
  0
LINE
  5
A4E
330
A4A
100
AcDbEntity
  8
0
 62
     0
100
AcDbLine
 10
2.63293294
 20
-11.14128324
 30
0.0
 11
1.96754081
 21
-10.4758911
 31
0.0
  0
LINE
  5
A4F
330
A4A
100
AcDbEntity
  8
0
 62
     0
100
AcDbLine
 10
2.30243062
 20
-11.04651263
 30
0.0
 11
1.63703978
 21
-10.38112179
 31
0.0
  0
LINE
  5
A50
330
A4A
100
AcDbEntity
  8
0
 62
     0
100
AcDbLine
 10
1.97192829
 20
-10.95174202
 30
0.0
 11
1.30653874
 21
-10.28635248
 31
0.0
  0
LINE
  5
A51
330
A4A
100
AcDbEntity
  8
0
 62
     0
100
AcDbLine
 10
1.64142596
 20
-10.85697142
 30
0.0
 11
1.06681864
 21
-10.2823641
 31
0.0
  0
LINE
  5
A52
330
A4A
100
AcDbEntity
  8
0
 62
     0
100
AcDbLine
 10
1.31092363
 20
-10.76220081
 30
0.0
 11
1.06681864
 21
-10.51809582
 31
0.0
  0
LINE
  5
A53
330
A4A
100
AcDbEntity
  8
0
 62
     0
100
AcDbLine
 10
1.08874524
 20
-10.77575415
 30
0.0
 11
1.06681864
 21
-10.75382754
 31
0.0
  0
ENDBLK
  5
A55
330
A4A
100
AcDbEntity
  8
0
100
AcDbBlockEnd
  0
BLOCK
  5
A67
330
A56
100
AcDbEntity
  8
0
100
AcDbBlockBegin
  2
*X4
 70
     1
 10
0.0
 20
0.0
 30
0.0
  3
*X4
  1

  0
LINE
  5
A57
330
A56
100
AcDbEntity
  8
0
 62
     0
100
AcDbLine
 10
2.86626776
 20
-9.25303254
 30
0.0
 11
2.66734118
 21
-9.05410596
 31
0.0
  0
LINE
  5
A58
330
A56
100
AcDbEntity
  8
0
 62
     0
100
AcDbLine
 10
2.97331102
 20
-9.59580752
 30
0.0
 11
2.33683922
 21
-8.95933573
 31
0.0
  0
LINE
  5
A59
330
A56
100
AcDbEntity
  8
0
 62
     0
100
AcDbLine
 10
2.6374685
 20
-9.49569673
 30
0.0
 11
2.00633727
 21
-8.8645655
 31
0.0
  0
LINE
  5
A5A
330
A56
100
AcDbEntity
  8
0
 62
     0
100
AcDbLine
 10
2.9589498
 20
-9.81717803
 30
0.0
 11
2.70983318
 21
-9.56806141
 31
0.0
  0
LINE
  5
A5B
330
A56
100
AcDbEntity
  8
0
 62
     0
100
AcDbLine
 10
2.29480762
 20
-9.38876757
 30
0.0
 11
1.89435694
 21
-8.98831689
 31
0.0
  0
LINE
  5
A5C
330
A56
100
AcDbEntity
  8
0
 62
     0
100
AcDbLine
 10
2.89456564
 20
-9.9885256
 30
0.0
 11
2.70928497
 21
-9.80324492
 31
0.0
  0
LINE
  5
A5D
330
A56
100
AcDbEntity
  8
0
 62
     0
100
AcDbLine
 10
2.10654871
 20
-9.43624039
 30
0.0
 11
1.89435694
 21
-9.22404861
 31
0.0
  0
LINE
  5
A5E
330
A56
100
AcDbEntity
  8
0
 62
     0
100
AcDbLine
 10
2.79692411
 20
-10.12661579
 30
0.0
 11
2.57219723
 21
-9.90188891
 31
0.0
  0
LINE
  5
A5F
330
A56
100
AcDbEntity
  8
0
 62
     0
100
AcDbLine
 10
1.34848665
 20
-8.91391005
 30
0.0
 11
1.32639418
 21
-8.89181758
 31
0.0
  0
LINE
  5
A60
330
A56
100
AcDbEntity
  8
0
 62
     0
100
AcDbLine
 10
2.67026268
 20
-10.23568608
 30
0.0
 11
2.28372683
 21
-9.84915023
 31
0.0
  0
LINE
  5
A61
330
A56
100
AcDbEntity
  8
0
 62
     0
100
AcDbLine
 10
1.40754788
 20
-9.208703
 30
0.0
 11
1.14717601
 21
-8.94833113
 31
0.0
  0
LINE
  5
A62
330
A56
100
AcDbEntity
  8
0
 62
     0
100
AcDbLine
 10
2.51283952
 20
-10.31399464
 30
0.0
 11
1.95322456
 21
-9.75437968
 31
0.0
  0
LINE
  5
A63
330
A56
100
AcDbEntity
  8
0
 62
     0
100
AcDbLine
 10
1.30717012
 20
-9.34405696
 30
0.0
 11
1.14828236
 21
-9.18516921
 31
0.0
  0
LINE
  5
A64
330
A56
100
AcDbEntity
  8
0
 62
     0
100
AcDbLine
 10
2.3146092
 20
-10.35149604
 30
0.0
 11
1.62272229
 21
-9.65960913
 31
0.0
  0
LINE
  5
A65
330
A56
100
AcDbEntity
  8
0
 62
     0
100
AcDbLine
 10
2.04547551
 20
-10.31809408
 30
0.0
 11
1.0841335
 21
-9.35675207
 31
0.0
  0
LINE
  5
A66
330
A56
100
AcDbEntity
  8
0
 62
     0
100
AcDbLine
 10
1.73148255
 20
-10.23983284
 30
0.0
 11
1.07020154
 21
-9.57855183
 31
0.0
  0
ENDBLK
  5
A68
330
A56
100
AcDbEntity
  8
0
100
AcDbBlockEnd
  0
BLOCK
  5
B46
330
B3C
100
AcDbEntity
  8
0
100
AcDbBlockBegin
  2
*D5
 70
     1
 10
0.0
 20
0.0
 30
0.0
  3
*D5
  1

  0
LINE
  5
D94
330
B3C
100
AcDbEntity
  8
250
  6
CONTINUOUS
100
AcDbLine
 10
0.0
 20
25.5
 30
0.0
 11
0.0
 21
36.0
 31
0.0
  0
LINE
  5
D95
330
B3C
100
AcDbEntity
  8
250
  6
CONTINUOUS
100
AcDbLine
 10
50.0
 20
0.5
 30
0.0
 11
50.0
 21
36.0
 31
0.0
  0
LINE
  5
D96
330
B3C
100
AcDbEntity
  8
250
  6
CONTINUOUS
100
AcDbLine
 10
2.23
 20
35.0
 30
0.0
 11
47.77
 21
35.0
 31
0.0
  0
INSERT
  5
D97
330
B3C
100
AcDbEntity
  8
250
  6
CONTINUOUS
100
AcDbBlockReference
  2
_OPEN
 10
0.0
 20
35.0
 30
0.0
 41
2.23
 42
2.23
 43
2.23
 50
180.0
  0
INSERT
  5
D98
330
B3C
100
AcDbEntity
  8
250
  6
CONTINUOUS
100
AcDbBlockReference
  2
_OPEN
 10
50.0
 20
35.0
 30
0.0
 41
2.23
 42
2.23
 43
2.23
  0
MTEXT
  5
D99
330
B3C
100
AcDbEntity
  8
250
  6
CONTINUOUS
 62
    40
100
AcDbMText
 10
25.0
 20
37.4
 30
0.0
 40
2.8
 41
0.0
 71
     5
 72
     1
  1
\A1;50
1001
ACAD
1000
MTEXTBEGIN
1070
    73
1070
     1
1070
    44
1040
1.0
1070
    74
1070
     0
1000
MTEXTEND
  0
POINT
  5
D9A
330
B3C
100
AcDbEntity
  8
DEFPOINTS
  6
CONTINUOUS
 62
     0
100
AcDbPoint
 10
0.0
 20
25.0
 30
0.0
  0
POINT
  5
D9B
330
B3C
100
AcDbEntity
  8
DEFPOINTS
  6
CONTINUOUS
 62
     0
100
AcDbPoint
 10
50.0
 20
0.0
 30
0.0
  0
POINT
  5
D9C
330
B3C
100
AcDbEntity
  8
DEFPOINTS
  6
CONTINUOUS
 62
     0
100
AcDbPoint
 10
50.0
 20
35.0
 30
0.0
  0
ENDBLK
  5
B47
330
B3C
100
AcDbEntity
  8
0
100
AcDbBlockEnd
  0
BLOCK
  5
B6C
330
B62
100
AcDbEntity
  8
0
100
AcDbBlockBegin
  2
*D6
 70
     1
 10
0.0
 20
0.0
 30
0.0
  3
*D6
  1

  0
LINE
  5
BDD
330
B62
100
AcDbEntity
  8
250
  6
CONTINUOUS
100
AcDbLine
 10
17.02163783
 20
-25.0
 30
0.0
 11
75.0
 21
-25.0
 31
0.0
  0
LINE
  5
BDE
330
B62
100
AcDbEntity
  8
250
  6
CONTINUOUS
100
AcDbLine
 10
15.59106108
 20
25.0
 30
0.0
 11
75.0
 21
25.0
 31
0.0
  0
LINE
  5
BDF
330
B62
100
AcDbEntity
  8
250
  6
CONTINUOUS
100
AcDbLine
 10
74.0
 20
-22.77
 30
0.0
 11
74.0
 21
22.77
 31
0.0
  0
INSERT
  5
BE0
330
B62
100
AcDbEntity
  8
250
  6
CONTINUOUS
100
AcDbBlockReference
  2
_OPEN
 10
74.0
 20
-25.0
 30
0.0
 41
2.23
 42
2.23
 43
2.23
 50
270.0
  0
INSERT
  5
BE1
330
B62
100
AcDbEntity
  8
250
  6
CONTINUOUS
100
AcDbBlockReference
  2
_OPEN
 10
74.0
 20
25.0
 30
0.0
 41
2.23
 42
2.23
 43
2.23
 50
90.0
  0
MTEXT
  5
BE2
330
B62
100
AcDbEntity
  8
250
  6
CONTINUOUS
 62
    40
100
AcDbMText
 10
71.6
 20
0.0
 30
0.0
 40
2.8
 41
0.0
 71
     5
 72
     1
  1
\A1;{\H2.8;\U+2205}50
 11
0.0
 21
1.0
 31
0.0
1001
ACAD
1000
MTEXTBEGIN
1070
    73
1070
     1
1070
    44
1040
1.0
1070
    74
1070
     0
1000
MTEXTEND
1000
MTEXTBEGIN
1070
    73
1070
     1
1070
    44
1040
1.0
1070
    74
1070
     0
1000
MTEXTEND
  0
POINT
  5
BE3
330
B62
100
AcDbEntity
  8
DEFPOINTS
  6
CONTINUOUS
 62
     0
100
AcDbPoint
 10
16.52163783
 20
-25.0
 30
0.0
  0
POINT
  5
BE4
330
B62
100
AcDbEntity
  8
DEFPOINTS
  6
CONTINUOUS
 62
     0
100
AcDbPoint
 10
15.09106108
 20
25.0
 30
0.0
  0
POINT
  5
BE5
330
B62
100
AcDbEntity
  8
DEFPOINTS
  6
CONTINUOUS
 62
     0
100
AcDbPoint
 10
74.0
 20
25.0
 30
0.0
  0
ENDBLK
  5
B6D
330
B62
100
AcDbEntity
  8
0
100
AcDbBlockEnd
  0
BLOCK
  5
B8A
330
B78
100
AcDbEntity
  8
0
100
AcDbBlockBegin
  2
_DOT
 70
     0
 10
0.0
 20
0.0
 30
0.0
  3
_DOT
  1

  0
LINE
  5
B8B
330
B78
100
AcDbEntity
  8
0
 62
     0
100
AcDbLine
 10
-1.0
 20
0.0
 30
0.0
 11
0.0
 21
0.0
 31
0.0
  0
LWPOLYLINE
  5
B8C
330
B78
100
AcDbEntity
  8
0
 62
     0
100
AcDbPolyline
 90
        3
 70
     0
 43
0.5
 10
0.125
 20
0.0
 42
1.0
 10
-0.125
 20
0.0
 42
1.0
 10
0.125
 20
0.0
 42
1.0
  0
ENDBLK
  5
B91
330
B78
100
AcDbEntity
  8
0
100
AcDbBlockEnd
  0
BLOCK
  5
BE7
330
BE6
100
AcDbEntity
  8
0
100
AcDbBlockBegin
  2
1
 70
     0
 10
0.0
 20
0.0
 30
0.0
  3
1
  1

  0
LINE
  5
D9D
330
BE6
100
AcDbEntity
  8
240
100
AcDbLine
 10
-31.0
 20
14.0
 30
0.0
 11
0.0
 21
14.0
 31
0.0
  0
LINE
  5
D9E
330
BE6
100
AcDbEntity
  8
240
100
AcDbLine
 10
-31.0
 20
-14.00000001
 30
0.0
 11
0.0
 21
-13.99999992
 31
0.0
  0
LINE
  5
D9F
330
BE6
100
AcDbEntity
  8
245
100
AcDbLine
 10
-32.8
 20
0.0
 30
0.0
 11
50.99936396
 21
0.0
 31
0.0
  0
LINE
  5
DA0
330
BE6
100
AcDbEntity
  8
240
100
AcDbLine
 10
-31.0
 20
14.0
 30
0.0
 11
-31.0
 21
0.0
 31
0.0
  0
LINE
  5
DA1
330
BE6
100
AcDbEntity
  8
240
100
AcDbLine
 10
-31.0
 20
-14.00000001
 30
0.0
 11
-31.0
 21
0.0
 31
0.0
  0
LINE
  5
DA2
330
BE6
100
AcDbEntity
  8
240
100
AcDbLine
 10
0.0
 20
-25.0
 30
0.0
 11
0.0
 21
-13.99999992
 31
0.0
  0
LINE
  5
DA3
330
BE6
100
AcDbEntity
  8
240
100
AcDbLine
 10
45.44677315
 20
-2.50841428
 30
0.0
 11
19.25865347
 21
-23.41899055
 31
0.0
  0
ARC
  5
DA4
330
BE6
100
AcDbEntity
  8
247
100
AcDbCircle
 10
3.98307581
 20
-11.9392771
 30
0.0
 40
3.094081780242917
100
AcDbArc
 50
245.20517737
 51
262.79482596
1001
ACAD
1000
ASC_BOUNDS
1002
{
1070
    19
1005
0
1002
}
  0
LINE
  5
DA5
330
BE6
100
AcDbEntity
  8
247
100
AcDbLine
 10
1.82906055
 20
-15.77038642
 30
0.0
 11
1.82906055
 21
-14.82423545
 31
0.0
  0
INSERT
  5
DA6
330
BE6
100
AcDbEntity
  8
247
  6
CONTINUOUS
100
AcDbBlockReference
  2
*X3
 10
0.0
 20
2.6938639
 30
0.0
 41
1.7145
 42
1.7145
 43
1.7145
1001
ACAD
1000
HATCH
1002
{
1070
    19
1000
ANSI31
1040
0.0525
1040
1.57079633
1002
}
  0
LINE
  5
DA7
330
BE6
100
AcDbEntity
  8
247
100
AcDbLine
 10
5.10325866
 20
-15.76309333
 30
0.0
 11
1.82906055
 21
-14.82423545
 31
0.0
  0
LWPOLYLINE
  5
DA8
330
BE6
100
AcDbEntity
  8
247
100
AcDbPolyline
 90
        6
 70
     1
 43
0.0
 10
1.82906055
 20
-15.77038642
 10
2.22923264
 20
-15.88513922
 10
2.22923264
 20
-15.75266875
 10
5.10325866
 20
-16.57678756
 10
5.10325866
 20
-15.76309333
 10
1.82906055
 20
-14.82423545
1001
HATCH_DISTANCE
1040
1.0
1001
HATCH_DISPLAY
1070
     0
1001
HATCH_TYPE
1070
     7
  0
LWPOLYLINE
  5
DA9
330
BE6
100
AcDbEntity
  8
247
100
AcDbPolyline
 90
        6
 70
     1
 43
0.0
 10
1.82906055
 20
-15.77038642
 10
2.22923264
 20
-15.88513922
 10
2.22923264
 20
-15.75266875
 10
5.10325866
 20
-16.57678756
 10
5.10325866
 20
-15.76309333
 10
1.82906055
 20
-14.82423545
  0
INSERT
  5
DAA
330
BE6
100
AcDbEntity
  8
247
  6
CONTINUOUS
100
AcDbBlockReference
  2
*X2
 10
0.0
 20
2.6938639
 30
0.0
 41
1.7145
 42
1.7145
 43
1.7145
1001
ACAD
1000
HATCH
1002
{
1070
    19
1000
ANSI31
1040
0.0525
1040
1.57079633
1002
}
  0
INSERT
  5
DAB
330
BE6
100
AcDbEntity
  8
247
  6
CONTINUOUS
100
AcDbBlockReference
  2
*X4
 10
0.0
 20
2.6938639
 30
0.0
 41
1.7145
 42
1.7145
 43
1.7145
1001
ACAD
1000
HATCH
1002
{
1070
    19
1000
ANSI31
1040
0.0525
1040
1.57079633
1002
}
  0
ARC
  5
DAC
330
BE6
100
AcDbEntity
  8
247
100
AcDbCircle
 10
3.92091288
 20
-13.87237088
 30
0.0
 40
1.182359080123901
100
AcDbArc
 50
253.9997507
 51
34.96387329
1001
ACAD
1000
ASC_BOUNDS
1002
{
1070
    19
1005
0
1002
}
  0
LINE
  5
DAD
330
BE6
100
AcDbEntity
  8
247
100
AcDbLine
 10
5.64896284
 20
-19.37906346
 30
0.0
 11
5.64896284
 21
-11.99391344
 31
0.0
1001
ACAD
1000
ASC_BOUNDS
1002
{
1070
    19
1005
0
1002
}
  0
LINE
  5
DAE
330
BE6
100
AcDbEntity
  8
247
100
AcDbLine
 10
5.28516006
 20
-19.37906346
 30
0.0
 11
5.28516006
 21
-11.99391344
 31
0.0
1001
ACAD
1000
ASC_BOUNDS
1002
{
1070
    19
1005
0
1002
}
  0
ELLIPSE
  5
DAF
330
BE6
100
AcDbEntity
  8
241
100
AcDbEllipse
 10
13.10775429
 20
0.0
 30
0.0
 11
0.0000000000000284
 21
-25.0
 31
0.0
210
0.0
220
0.0
230
-1.0
 40
0.11434226
 41
0.5667858266142738
 42
2.574806826975536
  0
ELLIPSE
  5
DB0
330
BE6
100
AcDbEntity
  8
241
100
AcDbEllipse
 10
21.50819213
 20
-24.88361969
 30
0.0
 11
-9.934055538548618
 21
18.56187601674124
 31
0.0
210
0.0
220
0.0
230
1.0
 40
0.06176823
 41
0.2287539340318512
 42
1.45894567221921
  0
ELLIPSE
  5
DB1
330
BE6
100
AcDbEntity
  8
240
100
AcDbEllipse
 10
48.52678075
 20
0.0
 30
0.0
 11
32.19083494393121
 21
24.93449488059507
 31
0.0
210
0.0
220
0.0
230
-0.9999999999999998
 40
0.0561831
 41
2.859800120302044
 42
3.069186164627935
  0
LWPOLYLINE
  5
DB2
330
BE6
100
AcDbEntity
  8
241
100
AcDbPolyline
 90
        8
 70
   128
 43
0.0
 10
11.5729288
 20
-21.09077736
 10
11.86775954
 20
-21.98239429
 10
12.41977269
 20
-22.73974026
 10
13.25036609
 20
-23.35302566
 10
14.34425141
 20
-23.82249163
 10
15.56637286
 20
-24.13550656
 10
16.95733656
 20
-24.35210916
 10
17.99515865
 20
-24.45396789
  0
LINE
  5
DB3
330
BE6
100
AcDbEntity
  8
240
100
AcDbLine
 10
16.52163783
 20
-25.0
 30
0.0
 11
0.0
 21
-25.0
 31
0.0
  0
ARC
  5
DB4
330
BE6
100
AcDbEntity
  8
247
100
AcDbCircle
 10
3.73901149
 20
-19.37906346
 30
0.0
 40
1.909950933265685
100
AcDbArc
 50
180.0
 51
0.0
1001
ACAD
1000
ASC_BOUNDS
1002
{
1070
    19
1005
0
1002
}
  0
ARC
  5
DB5
330
BE6
100
AcDbEntity
  8
247
100
AcDbCircle
 10
2.7385538
 20
-17.26118401
 30
0.0
 40
0.9095009758114816
100
AcDbArc
 50
17.66957755
 51
180.23615984
  0
LINE
  5
DB6
330
BE6
100
AcDbEntity
  8
247
100
AcDbLine
 10
3.64222045
 20
-18.76921943
 30
0.0
 11
2.3687596
 21
-17.49575859
 31
0.0
  0
LINE
  5
DB7
330
BE6
100
AcDbEntity
  8
247
100
AcDbLine
 10
3.77777705
 20
-17.69228992
 30
0.0
 11
2.47591649
 21
-16.39042936
 31
0.0
  0
ARC
  5
DB8
330
BE6
100
AcDbEntity
  8
247
100
AcDbCircle
 10
3.73901149
 20
-19.37906346
 30
0.0
 40
1.546148139381408
100
AcDbArc
 50
180.0
 51
0.0
1001
ACAD
1000
ASC_BOUNDS
1002
{
1070
    19
1005
0
1002
}
  0
LINE
  5
DB9
330
BE6
100
AcDbEntity
  8
247
100
AcDbLine
 10
5.10325866
 20
-19.18816588
 30
0.0
 11
2.19286335
 21
-18.35362249
 31
0.0
  0
LINE
  5
DBA
330
BE6
100
AcDbEntity
  8
247
100
AcDbLine
 10
5.10325866
 20
-16.57678756
 30
0.0
 11
2.22923264
 21
-15.75266875
 31
0.0
  0
LINE
  5
DBB
330
BE6
100
AcDbEntity
  8
247
100
AcDbLine
 10
4.77551063
 20
-19.09418554
 30
0.0
 11
3.23622288
 21
-17.55489779
 31
0.0
  0
LINE
  5
DBC
330
BE6
100
AcDbEntity
  8
247
100
AcDbLine
 10
4.04085804
 20
-17.55120887
 30
0.0
 11
2.84793333
 21
-16.35828416
 31
0.0
  0
LINE
  5
DBD
330
BE6
100
AcDbEntity
  8
247
100
AcDbLine
 10
4.20886554
 20
-18.93170248
 30
0.0
 11
2.93539933
 21
-17.65823628
 31
0.0
  0
LINE
  5
DBE
330
BE6
100
AcDbEntity
  8
247
100
AcDbLine
 10
3.07557535
 20
-18.60673638
 30
0.0
 11
1.82906055
 21
-17.36022158
 31
0.0
  0
ARC
  5
DBF
330
BE6
100
AcDbEntity
  8
247
100
AcDbCircle
 10
2.70218451
 20
-17.66705597
 30
0.0
 40
0.545688953974843
100
AcDbArc
 50
351.66260169
 51
156.3381551
  0
LINE
  5
DC0
330
BE6
100
AcDbEntity
  8
247
100
AcDbLine
 10
2.20237223
 20
-17.44804884
 30
0.0
 11
3.2421064
 21
-17.74618114
 31
0.0
  0
LINE
  5
DC1
330
BE6
100
AcDbEntity
  8
247
100
AcDbLine
 10
2.19286335
 20
-19.37906346
 30
0.0
 11
2.19286335
 21
-18.73208013
 31
0.0
1001
ACAD
1000
ASC_BOUNDS
1002
{
1070
    19
1005
0
1002
}
  0
LINE
  5
DC2
330
BE6
100
AcDbEntity
  8
247
100
AcDbLine
 10
1.82906055
 20
-19.37906346
 30
0.0
 11
1.82906055
 21
-18.62776564
 31
0.0
1001
ACAD
1000
ASC_BOUNDS
1002
{
1070
    19
1005
0
1002
}
  0
LINE
  5
DC3
330
BE6
100
AcDbEntity
  8
247
100
AcDbLine
 10
1.82906055
 20
-18.62776564
 30
0.0
 11
2.19286335
 21
-18.73208013
 31
0.0
1001
ACAD
1000
ASC_BOUNDS
1002
{
1070
    19
1005
0
1002
}
  0
LINE
  5
DC4
330
BE6
100
AcDbEntity
  8
247
100
AcDbLine
 10
2.19286335
 20
-18.53234845
 30
0.0
 11
1.82906055
 21
-18.16854566
 31
0.0
  0
LINE
  5
DC5
330
BE6
100
AcDbEntity
  8
247
100
AcDbLine
 10
2.50893026
 20
-18.44425332
 30
0.0
 11
1.82906055
 21
-17.76438362
 31
0.0
  0
LINE
  5
DC6
330
BE6
100
AcDbEntity
  8
247
100
AcDbLine
 10
1.82906055
 20
-18.43854369
 30
0.0
 11
1.82906055
 21
-17.26493275
 31
0.0
  0
LINE
  5
DC7
330
BE6
100
AcDbEntity
  8
247
100
AcDbLine
 10
2.19286335
 20
-18.54285818
 30
0.0
 11
2.19286335
 21
-18.35362249
 31
0.0
  0
LINE
  5
DC8
330
BE6
100
AcDbEntity
  8
247
100
AcDbLine
 10
1.82906055
 20
-18.43854369
 30
0.0
 11
2.19286335
 21
-18.54285818
 31
0.0
  0
LINE
  5
DC9
330
BE6
100
AcDbEntity
  8
247
100
AcDbLine
 10
2.81434269
 20
-17.1330176
 30
0.0
 11
2.20555384
 21
-16.52422875
 31
0.0
  0
LINE
  5
DCA
330
BE6
100
AcDbEntity
  8
247
100
AcDbLine
 10
2.45680984
 20
-17.17964679
 30
0.0
 11
2.00317465
 21
-16.72601159
 31
0.0
  0
LINE
  5
DCB
330
BE6
100
AcDbEntity
  8
247
100
AcDbLine
 10
2.24387165
 20
-17.37087063
 30
0.0
 11
1.86867178
 21
-16.99567076
 31
0.0
  0
LINE
  5
DCC
330
BE6
100
AcDbEntity
  8
247
100
AcDbLine
 10
2.22923264
 20
-15.88513922
 30
0.0
 11
2.22923264
 21
-15.75266875
 31
0.0
  0
LINE
  5
DCD
330
BE6
100
AcDbEntity
  8
247
100
AcDbLine
 10
2.22923264
 20
-15.88513922
 30
0.0
 11
1.82906055
 21
-15.77038642
 31
0.0
  0
LINE
  5
DCE
330
BE6
100
AcDbEntity
  8
247
100
AcDbLine
 10
5.10325866
 20
-19.01777153
 30
0.0
 11
4.06869047
 21
-17.98320333
 31
0.0
  0
LINE
  5
DCF
330
BE6
100
AcDbEntity
  8
247
100
AcDbLine
 10
5.10325866
 20
-17.80528541
 30
0.0
 11
4.07475565
 21
-16.7767824
 31
0.0
  0
LINE
  5
DD0
330
BE6
100
AcDbEntity
  8
247
100
AcDbLine
 10
5.10325866
 20
-19.18816588
 30
0.0
 11
5.10325866
 21
-17.67845571
 31
0.0
  0
LINE
  5
DD1
330
BE6
100
AcDbEntity
  8
247
100
AcDbLine
 10
5.10325866
 20
-18.61360949
 30
0.0
 11
4.63532719
 21
-18.14567802
 31
0.0
  0
LINE
  5
DD2
330
BE6
100
AcDbEntity
  8
247
100
AcDbLine
 10
5.10325866
 20
-16.57678756
 30
0.0
 11
5.10325866
 21
-15.76309333
 31
0.0
  0
LINE
  5
DD3
330
BE6
100
AcDbEntity
  8
247
100
AcDbLine
 10
5.03506907
 20
-17.33293378
 30
0.0
 11
4.53928691
 21
-16.83715162
 31
0.0
  0
LINE
  5
DD4
330
BE6
100
AcDbEntity
  8
247
100
AcDbLine
 10
3.65755453
 20
-17.8653162
 30
0.0
 11
4.69731953
 21
-18.1634534
 31
0.0
  0
LINE
  5
DD5
330
BE6
100
AcDbEntity
  8
247
100
AcDbLine
 10
5.10325866
 20
-18.20944745
 30
0.0
 11
3.76838349
 21
-16.87457228
 31
0.0
  0
ARC
  5
DD6
330
BE6
100
AcDbEntity
  8
247
100
AcDbCircle
 10
4.15738195
 20
-18.08432766
 30
0.0
 40
0.5457045663826169
100
AcDbArc
 50
351.66285421
 51
156.33819216
  0
ARC
  5
DD7
330
BE6
100
AcDbEntity
  8
247
100
AcDbCircle
 10
4.19376498
 20
-17.67845571
 30
0.0
 40
0.9094932500839234
100
AcDbArc
 50
0.0
 51
130.32984065
  0
ELLIPSE
  5
DD8
330
BE6
100
AcDbEntity
  8
240
100
AcDbEllipse
 10
21.50819213
 20
-22.79984068
 30
0.0
 11
9.983922649161655
 21
7.864675345049477
 31
0.0
210
0.0
220
0.0
230
-1.0
 40
0.07207204
 41
4.4101388794547
 42
4.542344934754234
  0
ELLIPSE
  5
DD9
330
BE6
100
AcDbEntity
  8
240
100
AcDbEllipse
 10
21.50819213
 20
21.25719453
 30
0.0
 11
9.978614327961537
 21
-8.879342009725176
 31
0.0
210
0.0
220
0.0
230
-1.0
 40
0.0736145
 41
1.661962086214216
 42
2.004589001469729
  0
ELLIPSE
  5
DDA
330
BE6
100
AcDbEntity
  8
241
100
AcDbEllipse
 10
21.50819213
 20
6.01104317
 30
0.0
 11
9.994540486770343
 21
5.348937800699754
 31
0.0
210
0.0
220
0.0
230
1.0
 40
0.06176823
 41
1.685702433719139
 42
2.700509020588675
  0
LINE
  5
DDB
330
BE6
100
AcDbEntity
  8
241
100
AcDbLine
 10
21.63284686
 20
0.99194158
 30
0.0
 11
15.32897439
 21
-2.56010801
 31
0.0
  0
LINE
  5
DDC
330
BE6
100
AcDbEntity
  8
241
100
AcDbLine
 10
14.7585093
 20
-4.60328435
 30
0.0
 11
19.66754684
 21
-13.31542247
 31
0.0
  0
LINE
  5
DDD
330
BE6
100
AcDbEntity
  8
241
100
AcDbLine
 10
0.0
 20
14.0
 30
0.0
 11
0.0
 21
-13.99999992
 31
0.0
  0
TEXT
  5
DDE
330
BE6
100
AcDbEntity
  8
247
100
AcDbText
 10
5.13026336
 20
-8.87505228
 30
0.0
 40
2.5
  1
S50-DTJNR-00050-22
 50
90.0
 41
0.7
  7
YOKO
 11
5.13026336
 21
-8.87505228
 31
0.0
100
AcDbText
 73
     1
  0
LWPOLYLINE
  5
DDF
330
BE6
100
AcDbEntity
  8
241
100
AcDbPolyline
 90
       26
 70
   128
 43
0.0
 10
12.35692874
 20
8.09091044
 10
12.62753358
 20
8.07923845
 10
12.93877538
 20
8.1602726
 10
13.28616875
 20
8.34174692
 10
13.65417546
 20
8.6402147
 10
13.99182478
 20
9.06517858
 10
14.19545727
 20
9.51513293
 10
14.27923642
 20
10.04833703
 10
14.23876471
 20
10.5098599
 10
14.02386999
 20
11.19136273
 10
13.76578942
 20
11.69506707
 10
13.4703729
 20
12.1451308
 10
13.14785752
 20
12.54941704
 10
12.82214804
 20
12.88344476
 10
12.55049295
 20
13.09985369
 10
12.29321019
 20
13.23281866
 10
11.96910686
 20
13.21574623
 10
11.77268292
 20
12.9542573
 10
11.6512549
 20
12.45390323
 10
11.59527476
 20
11.82599974
 10
11.57595482
 20
11.10124728
 10
11.58569887
 20
10.31554786
 10
11.63415266
 20
9.54022518
 10
11.74783645
 20
8.86281867
 10
11.96497513
 20
8.36174787
 10
12.35692874
 20
8.09091044
  0
CIRCLE
  5
DE0
330
BE6
100
AcDbEntity
  8
241
100
AcDbCircle
 10
-13.5
 20
0.0
 30
0.0
 40
4.0
  0
SPLINE
  5
DE1
330
BE6
100
AcDbEntity
  8
241
100
AcDbSpline
210
0.0
220
0.0
230
1.0
 70
    11
 71
     3
 72
    70
 73
    66
 74
     0
 42
0.0000000001
 43
0.0000000001
 40
0.0
 40
0.0
 40
0.0
 40
0.0
 40
0.9197496568304652
 40
0.9197496568304652
 40
1.839499313660929
 40
1.839499313660929
 40
2.759248970491396
 40
2.759248970491396
 40
3.678998627321861
 40
3.678998627321861
 40
4.631875395981221
 40
4.631875395981221
 40
5.584752164640582
 40
5.584752164640582
 40
6.537628933299942
 40
6.537628933299942
 40
7.490505701959304
 40
7.490505701959304
 40
8.443382470618661
 40
8.443382470618661
 40
9.39625923927802
 40
9.39625923927802
 40
10.34913600793736
 40
10.34913600793736
 40
11.30201277659673
 40
11.30201277659673
 40
12.2217624334272
 40
12.2217624334272
 40
13.14151209025766
 40
13.14151209025766
 40
14.06126174708813
 40
14.06126174708813
 40
14.9810114039186
 40
14.9810114039186
 40
15.9120822799878
 40
15.9120822799878
 40
16.84315315605702
 40
16.84315315605702
 40
17.77422403212622
 40
17.77422403212622
 40
18.70529490819543
 40
18.70529490819543
 40
19.64673146562238
 40
19.64673146562238
 40
20.58816802304932
 40
20.58816802304932
 40
21.52960458047627
 40
21.52960458047627
 40
22.47104113790321
 40
22.47104113790321
 40
23.41247769533016
 40
23.41247769533016
 40
24.3539142527571
 40
24.3539142527571
 40
25.29535081018405
 40
25.29535081018405
 40
26.23678736761099
 40
26.23678736761099
 40
27.1678582436802
 40
27.1678582436802
 40
28.09892911974939
 40
28.09892911974939
 40
29.0299999958186
 40
29.0299999958186
 40
29.9610708718878
 40
29.9610708718878
 40
29.9610708718878
 40
29.9610708718878
 10
-13.50000000000011
 20
4.813238667570771
 30
0.0
 10
-13.19341678105661
 20
4.813238667570771
 30
0.0
 10
-12.87626085482517
 20
4.786140626473866
 30
0.0
 10
-12.24440677204083
 20
4.671798730367469
 30
0.0
 10
-11.92970138435777
 20
4.584583114443717
 30
0.0
 10
-11.32426227349975
 20
4.353455323821776
 30
0.0
 10
-11.03306955977742
 20
4.209379306698109
 30
0.0
 10
-10.49166717234236
 20
3.875324214317231
 30
0.0
 10
-10.2414600968926
 20
3.685312193028606
 30
0.0
 10
-9.786846452297366
 20
3.271009973575302
 30
0.0
 10
-9.567855852130804
 20
3.030604788970208
 30
0.0
 10
-9.179132986037076
 20
2.502017360458636
 30
0.0
 10
-9.009375944373287
 20
2.21383198860434
 30
0.0
 10
-8.734915314548402
 20
1.607725564508256
 30
0.0
 10
-8.629968121090342
 20
1.289204275586881
 30
0.0
 10
-8.491533861579512
 20
0.6441601606742326
 30
0.0
 10
-8.458089842978237
 20
0.3176255895530176
 30
0.0
 10
-8.458089842978237
 20
-0.3176255895531881
 30
0.0
 10
-8.491533861579512
 20
-0.644160160674403
 30
0.0
 10
-8.629968121090342
 20
-1.289204275587052
 30
0.0
 10
-8.734915314548372
 20
-1.607725564508426
 30
0.0
 10
-9.009375944373287
 20
-2.21383198860451
 30
0.0
 10
-9.179132986037076
 20
-2.502017360458808
 30
0.0
 10
-9.567855852130774
 20
-3.030604788970378
 30
0.0
 10
-9.786846452297366
 20
-3.271009973575473
 30
0.0
 10
-10.2414600968926
 20
-3.685312193028778
 30
0.0
 10
-10.49166717234236
 20
-3.875324214317401
 30
0.0
 10
-11.0330695597774
 20
-4.209379306698281
 30
0.0
 10
-11.32426227349972
 20
-4.353455323821947
 30
0.0
 10
-11.92970138435777
 20
-4.584583114443886
 30
0.0
 10
-12.24440677204083
 20
-4.67179873036764
 30
0.0
 10
-12.87626085482514
 20
-4.786140626474092
 30
0.0
 10
-13.19341678105661
 20
-4.813238667570941
 30
0.0
 10
-13.81035695868985
 20
-4.813238667570941
 30
0.0
 10
-14.13129234204456
 20
-4.785470431102169
 30
0.0
 10
-14.77026933877613
 20
-4.668421595239351
 30
0.0
 10
-15.08831874294367
 20
-4.579171023034688
 30
0.0
 10
-15.69963276822372
 20
-4.342762119793063
 30
0.0
 10
-15.99336985375034
 20
-4.195433199442277
 30
0.0
 10
-16.5387969552232
 20
-3.853899818125512
 30
0.0
 10
-16.79048375056211
 20
-3.659660585884296
 30
0.0
 10
-17.24130660191121
 20
-3.24130802163944
 30
0.0
 10
-17.45583231479634
 20
-3.001992855304819
 30
0.0
 10
-17.83652384033485
 20
-2.476737516738352
 30
0.0
 10
-18.00271248665905
 20
-2.190793541029619
 30
0.0
 10
-18.27130233774953
 20
-1.590081060246801
 30
0.0
 10
-18.37393747752201
 20
-1.274727792168959
 30
0.0
 10
-18.50926202767101
 20
-0.6365989058257357
 30
0.0
 10
-18.54191015702198
 20
-0.3138121858090699
 30
0.0
 10
-18.54191015702198
 20
0.3138121858088994
 30
0.0
 10
-18.50926202767101
 20
0.636598905825622
 30
0.0
 10
-18.37393747752201
 20
1.274727792168846
 30
0.0
 10
-18.27130233774951
 20
1.590081060246689
 30
0.0
 10
-18.00271248665901
 20
2.190793541029505
 30
0.0
 10
-17.83652384033485
 20
2.476737516738239
 30
0.0
 10
-17.45583231479631
 20
3.001992855304648
 30
0.0
 10
-17.24130660191121
 20
3.24130802163927
 30
0.0
 10
-16.79048375056211
 20
3.659660585884125
 30
0.0
 10
-16.53879695522316
 20
3.853899818125341
 30
0.0
 10
-15.99336985375032
 20
4.195433199442049
 30
0.0
 10
-15.69963276822372
 20
4.342762119792893
 30
0.0
 10
-15.08831874294367
 20
4.579171023034517
 30
0.0
 10
-14.77026933877613
 20
4.66842159523918
 30
0.0
 10
-14.13129234204456
 20
4.785470431101997
 30
0.0
 10
-13.81035695868985
 20
4.813238667570771
 30
0.0
 10
-13.50000000000011
 20
4.813238667570771
 30
0.0
  0
LINE
  5
DE2
330
BE6
100
AcDbEntity
  8
245
100
AcDbLine
 10
-13.5
 20
-6.58530098
 30
0.0
 11
-13.5
 21
6.5350646
 31
0.0
  0
ELLIPSE
  5
DE3
330
BE6
100
AcDbEntity
  8
241
100
AcDbEllipse
 10
13.12492868
 20
-2.96477554
 30
0.0
 11
0.0000000000000284
 21
4.999999999999971
 31
0.0
210
0.0
220
0.0
230
1.0
 40
0.43892462
 41
0.7855057992199335
 42
2.064724505109309
  0
LINE
  5
DE4
330
BE6
100
AcDbEntity
  8
247
100
AcDbLine
 10
3.61167776
 20
-13.61339075
 30
0.0
 11
3.24787497
 21
-13.50907626
 31
0.0
1001
ACAD
1000
ASC_BOUNDS
1002
{
1070
    19
1005
0
1002
}
  0
ARC
  5
DE5
330
BE6
100
AcDbEntity
  8
247
100
AcDbCircle
 10
3.73901149
 20
-11.99391344
 30
0.0
 40
1.909950933265685
100
AcDbArc
 50
0.0
 51
194.77079397
1001
ACAD
1000
ASC_BOUNDS
1002
{
1070
    19
1005
0
1002
}
  0
LINE
  5
DE6
330
BE6
100
AcDbEntity
  8
247
100
AcDbLine
 10
5.10325866
 20
-12.98140564
 30
0.0
 11
3.24787497
 21
-12.44938113
 31
0.0
1001
ACAD
1000
ASC_BOUNDS
1002
{
1070
    19
1005
0
1002
}
  0
ARC
  5
DE7
330
BE6
100
AcDbEntity
  8
247
100
AcDbCircle
 10
3.73901149
 20
-11.99391344
 30
0.0
 40
1.546148139381408
100
AcDbArc
 50
0.0
 51
194.1274365
1001
ACAD
1000
ASC_BOUNDS
1002
{
1070
    19
1005
0
1002
}
  0
LINE
  5
DE8
330
BE6
100
AcDbEntity
  8
247
100
AcDbLine
 10
4.21579532
 20
-14.2786274
 30
0.0
 11
2.50593043
 21
-13.78832869
 31
0.0
1001
ACAD
1000
ASC_BOUNDS
1002
{
1070
    19
1005
0
1002
}
  0
ARC
  5
DE9
330
BE6
100
AcDbEntity
  8
247
100
AcDbCircle
 10
2.61123381
 20
-13.42113345
 30
0.0
 40
0.3819927511654794
100
AcDbArc
 50
91.71012138
 51
253.99839835
1001
ACAD
1000
ASC_BOUNDS
1002
{
1070
    19
1005
0
1002
}
  0
LWPOLYLINE
  5
DEA
330
BE6
100
AcDbEntity
  8
247
100
AcDbPolyline
 90
        4
 70
     1
 43
0.0
 10
2.23961602
 20
-12.37129978
 10
1.89217116
 20
-12.4808609
 10
1.89217116
 20
-12.4808609
 10
2.23961602
 20
-12.37129978
1001
HATCH_DISTANCE
1040
1.0
1001
HATCH_DISPLAY
1070
     0
1001
HATCH_TYPE
1070
     7
  0
LWPOLYLINE
  5
DEB
330
BE6
100
AcDbEntity
  8
247
100
AcDbPolyline
 90
        4
 70
     1
 43
0.0
 10
2.23961602
 20
-12.37129978
 10
1.89217116
 20
-12.4808609
 10
1.89217116
 20
-12.4808609
 10
2.23961602
 20
-12.37129978
  0
LWPOLYLINE
  5
DEC
330
BE6
100
AcDbEntity
  8
247
100
AcDbPolyline
 90
        4
 70
     1
 43
0.0
 10
2.23961602
 20
-12.37129978
 10
1.89217116
 20
-12.4808609
 10
1.89217116
 20
-12.4808609
 10
2.23961602
 20
-12.37129978
1001
HATCH_DISTANCE
1040
1.0
1001
HATCH_DISPLAY
1070
     0
1001
HATCH_TYPE
1070
     7
  0
LWPOLYLINE
  5
DED
330
BE6
100
AcDbEntity
  8
247
100
AcDbPolyline
 90
        4
 70
     1
 43
0.0
 10
2.23961602
 20
-12.37129978
 10
1.89217116
 20
-12.4808609
 10
1.89217116
 20
-12.4808609
 10
2.23961602
 20
-12.37129978
  0
LINE
  5
DEE
330
BE6
100
AcDbEntity
  8
247
100
AcDbLine
 10
2.23961602
 20
-12.37129978
 30
0.0
 11
1.89217116
 21
-12.4808609
 31
0.0
1001
ACAD
1000
ASC_BOUNDS
1002
{
1070
    19
1005
0
1002
}
  0
LINE
  5
DEF
330
BE6
100
AcDbEntity
  8
247
100
AcDbLine
 10
2.29432104
 20
-12.54478185
 30
0.0
 11
1.94687618
 21
-12.65434297
 31
0.0
1001
ACAD
1000
ASC_BOUNDS
1002
{
1070
    19
1005
0
1002
}
  0
ARC
  5
DF0
330
BE6
100
AcDbEntity
  8
247
100
AcDbCircle
 10
3.73901149
 20
-11.99391344
 30
0.0
 40
1.909951791679857
100
AcDbArc
 50
200.22964506
 51
208.57168892
1001
ACAD
1000
ASC_BOUNDS
1002
{
1070
    19
1005
0
1002
}
  0
ARC
  5
DF1
330
BE6
100
AcDbEntity
  8
247
100
AcDbCircle
 10
3.73901149
 20
-11.99391344
 30
0.0
 40
1.54615243145227
100
AcDbArc
 50
200.8721834
 51
222.54194894
1001
ACAD
1000
ASC_BOUNDS
1002
{
1070
    19
1005
0
1002
}
  0
LINE
  5
DF2
330
BE6
100
AcDbEntity
  8
247
100
AcDbLine
 10
3.24787497
 20
-13.50907626
 30
0.0
 11
3.24787497
 21
-12.44938113
 31
0.0
1001
ACAD
1000
ASC_BOUNDS
1002
{
1070
    19
1005
0
1002
}
  0
ARC
  5
DF3
330
BE6
100
AcDbEntity
  8
247
100
AcDbCircle
 10
3.0114059
 20
-13.61157778
 30
0.0
 40
1.182347062325477
100
AcDbArc
 50
143.4440122
 51
254.00018439
1001
ACAD
1000
ASC_BOUNDS
1002
{
1070
    19
1005
0
1002
}
  0
LINE
  5
DF4
330
BE6
100
AcDbEntity
  8
247
100
AcDbLine
 10
4.88986376
 20
-13.19481427
 30
0.0
 11
5.10325866
 21
-12.98140564
 31
0.0
1001
ACAD
1000
ASC_BOUNDS
1002
{
1070
    19
1005
0
1002
}
  0
LINE
  5
DF5
330
BE6
100
AcDbEntity
  8
247
100
AcDbLine
 10
3.61167776
 20
-13.61339075
 30
0.0
 11
3.61167776
 21
-13.31062464
 31
0.0
1001
ACAD
1000
ASC_BOUNDS
1002
{
1070
    19
1005
0
1002
}
  0
LINE
  5
DF6
330
BE6
100
AcDbEntity
  8
247
100
AcDbLine
 10
4.42637462
 20
-13.54423691
 30
0.0
 11
3.61167776
 21
-13.31062464
 31
0.0
1001
ACAD
1000
ASC_BOUNDS
1002
{
1070
    19
1005
0
1002
}
  0
ARC
  5
DF7
330
BE6
100
AcDbEntity
  8
247
100
AcDbCircle
 10
4.32108497
 20
-13.91143215
 30
0.0
 40
0.3819924829110504
100
AcDbArc
 50
254.00027306
 51
74.00027306
1001
ACAD
1000
ASC_BOUNDS
1002
{
1070
    19
1005
0
1002
}
  0
LINE
  5
DF8
330
BE6
100
AcDbEntity
  8
241
100
AcDbLine
 10
11.5729288
 20
-6.94443034
 30
0.0
 11
11.19261276
 21
-5.33521659
 31
0.0
  0
ARC
  5
DF9
330
BE6
100
AcDbEntity
  8
241
100
AcDbCircle
 10
16.06533002
 20
-3.86692872
 30
0.0
 40
1.5
100
AcDbArc
 50
119.4
 51
209.4
  0
LWPOLYLINE
  5
DFA
330
BE6
100
AcDbEntity
  8
241
100
AcDbPolyline
 90
        3
 70
   128
 43
0.0
 10
11.5729288
 20
0.57037779
 10
11.84343929
 20
0.99158017
 10
12.32918155
 20
1.43761122
  0
LINE
  5
DFB
330
BE6
100
AcDbEntity
  8
240
100
AcDbLine
 10
0.0
 20
25.0
 30
0.0
 11
0.0
 21
14.0
 31
0.0
  0
LWPOLYLINE
  5
DFC
330
BE6
100
AcDbEntity
  8
241
100
AcDbPolyline
 90
        8
 70
   128
 43
0.0
 10
16.72092259
 20
24.32278363
 10
15.45452871
 20
24.11281894
 10
14.33483736
 20
23.81940873
 10
13.33453477
 20
23.39961102
 10
12.54956543
 20
22.86199392
 10
11.98713103
 20
22.19530891
 10
11.64608071
 20
21.41219462
 10
11.5729288
 20
21.09077736
  0
LINE
  5
DFD
330
BE6
100
AcDbEntity
  8
240
100
AcDbLine
 10
0.0
 20
25.0
 30
0.0
 11
15.09106108
 21
25.0
 31
0.0
  0
ELLIPSE
  5
DFE
330
BE6
100
AcDbEntity
  8
240
100
AcDbEllipse
 10
43.46037739
 20
0.0
 30
0.0
 11
28.56732168144496
 21
-24.93138501826758
 31
0.0
210
0.0
220
0.0
230
-1.0
 40
0.0647928
 41
3.215698735119686
 42
3.448987592151861
  0
LINE
  5
DFF
330
BE6
100
AcDbEntity
  8
241
100
AcDbLine
 10
20.0340683
 20
6.01104317
 30
0.0
 11
20.0340683
 21
21.25755057
 31
0.0
  0
LINE
  5
E00
330
BE6
100
AcDbEntity
  8
240
100
AcDbLine
 10
35.02176263
 20
13.75783152
 30
0.0
 11
49.66523035
 21
0.71097769
 31
0.0
  0
LINE
  5
E01
330
BE6
100
AcDbEntity
  8
241
100
AcDbLine
 10
34.32278125
 20
13.34134337
 30
0.0
 11
32.47778009
 21
4.43216973
 31
0.0
  0
LINE
  5
E02
330
BE6
100
AcDbEntity
  8
241
100
AcDbLine
 10
34.40256343
 20
-5.91656963
 30
0.0
 11
45.37464224
 21
-2.2879015
 31
0.0
  0
LINE
  5
E03
330
BE6
100
AcDbEntity
  8
241
100
AcDbLine
 10
34.25935428
 20
-6.07435688
 30
0.0
 11
38.93657013
 21
0.45870909
 31
0.0
  0
LINE
  5
E04
330
BE6
100
AcDbEntity
  8
241
100
AcDbLine
 10
28.51120838
 20
4.12695867
 30
0.0
 11
36.52228365
 21
4.74337732
 31
0.0
  0
CIRCLE
  5
E05
330
BE6
100
AcDbEntity
  8
241
100
AcDbCircle
 10
24.18273856
 20
-5.03212338
 30
0.0
 40
4.25
  0
LINE
  5
E06
330
BE6
100
AcDbEntity
  8
241
100
AcDbLine
 10
26.49201301
 20
-5.05630693
 30
0.0
 11
25.31643222
 21
-7.04410549
 31
0.0
  0
LINE
  5
E07
330
BE6
100
AcDbEntity
  8
241
100
AcDbLine
 10
25.35831935
 20
-3.04432482
 30
0.0
 11
26.49201301
 21
-5.05630693
 31
0.0
  0
LINE
  5
E08
330
BE6
100
AcDbEntity
  8
241
100
AcDbLine
 10
21.71072318
 20
-13.88588755
 30
0.0
 11
28.01459565
 21
-10.33383797
 31
0.0
  0
ARC
  5
E09
330
BE6
100
AcDbEntity
  8
241
100
AcDbCircle
 10
20.97436755
 20
-12.57906683
 30
0.0
 40
1.5
100
AcDbArc
 50
209.4
 51
299.4
  0
LINE
  5
E0A
330
BE6
100
AcDbEntity
  8
241
100
AcDbLine
 10
23.00715776
 20
-7.01992194
 30
0.0
 11
21.87346411
 21
-5.00793983
 31
0.0
  0
LINE
  5
E0B
330
BE6
100
AcDbEntity
  8
241
100
AcDbLine
 10
21.87346411
 20
-5.00793983
 30
0.0
 11
23.0490449
 21
-3.02014127
 31
0.0
  0
LINE
  5
E0C
330
BE6
100
AcDbEntity
  8
241
100
AcDbLine
 10
23.0490449
 20
-3.02014127
 30
0.0
 11
25.35831935
 21
-3.04432482
 31
0.0
  0
LINE
  5
E0D
330
BE6
100
AcDbEntity
  8
241
100
AcDbLine
 10
25.31643222
 20
-7.04410549
 30
0.0
 11
23.00715776
 21
-7.01992194
 31
0.0
  0
LINE
  5
E0E
330
BE6
100
AcDbEntity
  8
241
100
AcDbLine
 10
28.01459565
 20
-10.33383797
 30
0.0
 11
31.83428457
 21
-8.18155387
 31
0.0
  0
ELLIPSE
  5
E0F
330
BE6
100
AcDbEntity
  8
241
100
AcDbEllipse
 10
30.36157331
 20
-5.56791244
 30
0.0
 11
4.424936868721554
 21
2.49332378646801
 31
0.0
210
0.0
220
0.0
230
1.0
 40
0.59066186
 41
4.712388980384688
 42
5.380673877756676
  0
ELLIPSE
  5
E10
330
BE6
100
AcDbEntity
  8
241
100
AcDbEllipse
 10
26.92524704
 20
0.53058424
 30
0.0
 11
4.424936868721802
 21
2.493323786468149
 31
0.0
210
0.0
220
0.0
230
1.0
 40
0.59066186
 41
0.9025114294229039
 42
1.570796326794896
  0
LINE
  5
E11
330
BE6
100
AcDbEntity
  8
241
100
AcDbLine
 10
21.63284686
 20
0.99194158
 30
0.0
 11
25.45253577
 21
3.14422567
 31
0.0
  0
LINE
  5
E12
330
BE6
100
AcDbEntity
  8
240
100
AcDbLine
 10
45.44677315
 20
-2.50841428
 30
0.0
 11
45.37464224
 21
-2.2879015
 31
0.0
  0
ARC
  5
E13
330
BE6
100
AcDbEntity
  8
241
100
AcDbCircle
 10
38.12215954
 20
2.82233668
 30
0.0
 40
2.5
100
AcDbArc
 50
337.12214853
 51
81.67785147
  0
SPLINE
  5
E14
330
BE6
100
AcDbEntity
  8
241
100
AcDbSpline
210
0.0
220
0.0
230
1.0
 70
     8
 71
     3
 72
    10
 73
     6
 74
     0
 42
0.0000000001
 43
0.0000000001
 40
0.0748239711148265
 40
0.0748239711148265
 40
0.0748239711148265
 40
0.0748239711148265
 40
0.0948476205291068
 40
0.0948476205291068
 40
0.0960354357143375
 40
0.0960354357143375
 40
0.0960354357143375
 40
0.0960354357143375
 10
40.42728494519443
 20
1.855482831323854
 30
0.0
 10
40.4268204044675
 20
1.853858342983869
 30
0.0
 10
40.42626398174993
 20
1.852262249761338
 30
0.0
 10
40.42557686061623
 20
1.850602674446519
 30
0.0
 10
40.42553805843796
 20
1.850509844587293
 30
0.0
 10
40.42549893189644
 20
1.850417119110487
 30
0.0
  0
ARC
  5
E15
330
BE6
100
AcDbEntity
  8
241
100
AcDbCircle
 10
38.12215954
 20
2.82233668
 30
0.0
 40
2.5
100
AcDbArc
 50
289.01186483
 51
337.12214853
  0
SPLINE
  5
E16
330
BE6
100
AcDbEntity
  8
241
100
AcDbSpline
210
0.0
220
0.0
230
1.0
 70
     8
 71
     3
 72
    10
 73
     6
 74
     0
 42
0.0000000001
 43
0.0000000001
 40
-0.0011877720231319
 40
-0.0011877720231319
 40
-0.0011877720231319
 40
-0.0011877720231319
 40
0.0
 40
0.0
 40
0.0200229904154141
 40
0.0200229904154141
 40
0.0200229904154141
 40
0.0200229904154141
 10
38.48400630118354
 20
5.296011457325561
 30
0.0
 10
38.48410588381702
 20
5.295996890473758
 30
0.0
 10
38.4842053877953
 20
5.295981992087432
 30
0.0
 10
38.48598088172163
 20
5.295710025312415
 30
0.0
 10
38.48763436453507
 20
5.295359149471663
 30
0.0
 10
38.48926453349034
 20
5.294914973520633
 30
0.0
  0
ARC
  5
E17
330
BE6
100
AcDbEntity
  8
241
100
AcDbCircle
 10
38.12215954
 20
2.82233668
 30
0.0
 40
2.499999999999999
100
AcDbArc
 50
81.67785147
 51
129.78811757
  0
LINE
  5
E18
330
BE6
100
AcDbEntity
  8
240
100
AcDbLine
 10
49.31399246
 20
-0.98508597
 30
0.0
 11
45.37464224
 21
-2.2879015
 31
0.0
  0
ARC
  5
E19
330
BE6
100
AcDbEntity
  8
240
100
AcDbCircle
 10
49.0
 20
-0.0356605
 30
0.0
 40
1.0
100
AcDbArc
 50
288.3
 51
48.3
  0
ARC
  5
E1A
330
BE6
100
AcDbEntity
  8
240
100
AcDbCircle
 10
34.75567049
 20
13.45917624
 30
0.0
 40
0.4
100
AcDbArc
 50
48.3
 51
168.3
  0
ARC
  5
E1B
330
BE6
100
AcDbEntity
  8
240
100
AcDbCircle
 10
36.43905501
 20
39.61338507
 30
0.0
 40
24.61829094892747
100
AcDbArc
 50
228.21218572
 51
259.72746705
  0
LINE
  5
E1C
330
BE6
100
AcDbEntity
  8
240
100
AcDbLine
 10
19.9488099
 20
21.33404544
 30
0.0
 11
20.0340683
 21
21.25755057
 31
0.0
  0
LINE
  5
E1D
330
BE6
100
AcDbEntity
  8
240
100
AcDbLine
 10
34.36398136
 20
13.54029116
 30
0.0
 11
34.32278125
 21
13.34134337
 31
0.0
  0
LINE
  5
E1E
330
BE6
100
AcDbEntity
  8
240
100
AcDbLine
 10
32.04886215
 20
15.38970954
 30
0.0
 11
34.32278125
 21
13.34134337
 31
0.0
  0
ENDBLK
  5
BE8
330
BE6
100
AcDbEntity
  8
0
100
AcDbBlockEnd
  0
ENDSEC
  0
SECTION
  2
ENTITIES
  0
INSERT
  5
6E6
330
1A
100
AcDbEntity
  8
245
100
AcDbBlockReference
  2
矢印なし
 10
175.62382697
 20
90.55123572
 30
0.0
  0
DIMENSION
  5
B3B
330
1A
100
AcDbEntity
  8
250
  6
CONTINUOUS
100
AcDbDimension
  2
*D5
 10
50.0
 20
35.0
 30
0.0
 11
25.0
 21
35.0
 31
0.0
 70
   160
  3
BIGT
100
AcDbAlignedDimension
 13
0.0
 23
25.0
 33
0.0
 14
50.0
 24
0.0
 34
0.0
100
AcDbRotatedDimension
  0
DIMENSION
  5
B61
330
1A
100
AcDbEntity
  8
250
  6
CONTINUOUS
100
AcDbDimension
  2
*D6
 10
74.0
 20
25.0
 30
0.0
 11
74.0
 21
0.0
 31
0.0
 70
   160
  1
{\H2.8;\U+2205}<>
  3
BIGT
100
AcDbAlignedDimension
 13
16.52163783
 23
-25.0
 33
0.0
 14
15.09106108
 24
25.0
 34
0.0
 50
90.0
100
AcDbRotatedDimension
  0
LEADER
  5
B7D
102
{ACAD_REACTORS
330
B82
102
}
330
1A
100
AcDbEntity
  8
250
  6
CONTINUOUS
100
AcDbLeader
  3
BIGT
 76
     2
 10
41.269312
 20
-1.85121841
 30
0.0
 10
48.38676718
 20
-14.1790124
 30
0.0
1001
ACAD
1000
DSTYLE
1002
{
1070
     6
1000
DOT
1070
   341
1005
B78
1070
   343
1005
B78
1002
}
  0
MTEXT
  5
B7E
102
{ACAD_REACTORS
330
B82
102
}
330
1A
100
AcDbEntity
  8
251
  6
CONTINUOUS
100
AcDbMText
 10
48.53879141
 20
-13.1790124
 30
0.0
 40
2.8
 41
0.0
 71
     7
 72
     1
  1
（TN2204）
  7
YOKO
1001
ITEMNAME
1000
LNSP3
1001
ACAD
1000
MTEXTBEGIN
1070
    73
1070
     1
1070
    44
1040
1.0
1070
    74
1070
     0
1000
MTEXTEND
1000
MTEXTBEGIN
1070
    73
1070
     1
1070
    44
1040
1.0
1070
    74
1070
     0
1000
MTEXTEND
  0
LINE
  5
B80
102
{ACAD_REACTORS
330
B82
102
}
330
1A
100
AcDbEntity
  8
250
  6
CONTINUOUS
100
AcDbLine
 10
48.38676718
 20
-14.1790124
 30
0.0
 11
70.3440394
 21
-14.1790124
 31
0.0
1001
ITEMNAME
1000
LNSP2
  0
TEXT
  5
BD3
330
1A
100
AcDbEntity
  8
241
100
AcDbText
 10
-31.0
 20
49.0
 30
0.0
 40
5.0
  1
S50-DTJNR-00050-22
  7
YOKO
 11
-31.0
 21
49.0
 31
0.0
100
AcDbText
 73
     1
  0
INSERT
  5
E1F
330
1A
100
AcDbEntity
  8
245
100
AcDbBlockReference
  2
1
 10
0.0
 20
0.0
 30
0.0
  0
VIEWPORT
  5
22
330
17
100
AcDbEntity
 67
     1
  8
0
100
AcDbViewport
 10
261.51769912
 20
148.5
 30
0.0
 40
523.03539823
 41
297.0
 68
     1
 69
     1
1001
ACAD
1000
MVIEW
1002
{
1070
    16
1010
0.0
1020
0.0
1030
0.0
1010
0.0
1020
0.0
1030
1.0
1040
0.0
1040
297.0
1040
261.51769912
1040
148.5
1040
50.0
1040
0.0
1040
0.0
1070
     0
1070
   100
1070
     1
1070
     1
1070
     0
1070
     0
1070
     0
1070
     0
1040
0.0
1040
0.0
1040
0.0
1040
1.0
1040
1.0
1040
10.0
1040
10.0
1070
     0
1002
{
1002
}
1002
}
  0
ENDSEC
  0
SECTION
  2
OBJECTS
  0
DICTIONARY
  5
C
330
0
100
AcDbDictionary
  3
ACAD_GROUP
350
D
  3
ACAD_LAYOUT
350
565
  3
ACAD_MLINESTYLE
350
E
  3
ACAD_PLOTSETTINGS
350
566
  3
ACAD_PLOTSTYLENAME
350
563
  3
ACDBHEADERROUNDTRIPXREC
350
E46
  3
GRADE_DWG
350
540
  0
DICTIONARY
  5
CE9
330
1A
100
AcDbDictionary
280
     1
  3
ACAD_LAYOUTSELFREF
360
E68
  0
DICTIONARY
  5
CE7
330
17
100
AcDbDictionary
280
     1
  3
ACAD_LAYOUTSELFREF
360
E67
  0
DICTIONARY
  5
D
102
{ACAD_REACTORS
330
C
102
}
330
C
100
AcDbDictionary
  3
*A1
350
6C7
  3
*A2
350
6C8
  3
*A3
350
6D4
  3
*A4
350
6D5
  3
DREC-1
350
5FC
  3
DREC-2
350
654
  3
DREC-3
350
673
  3
LNSP-1
350
B82
  0
DICTIONARY
  5
565
102
{ACAD_REACTORS
330
C
102
}
330
C
100
AcDbDictionary
  0
DICTIONARY
  5
E
102
{ACAD_REACTORS
330
C
102
}
330
C
100
AcDbDictionary
  3
STANDARD
350
13
  0
DICTIONARY
  5
566
102
{ACAD_REACTORS
330
C
102
}
330
C
100
AcDbDictionary
  3
A3_0_5倍_
350
758
  3
A3_1倍_
350
757
  3
A3_1倍__2000_
350
707
  3
A3_2倍_
350
759
  3
A4_0_5倍_
350
755
  3
A4_1倍_
350
754
  3
A4_1倍__2000_
350
708
  3
A4_2倍_
350
756
  0
ACDBDICTIONARYWDFLT
  5
563
102
{ACAD_REACTORS
330
C
102
}
330
C
100
AcDbDictionary
281
     1
  3
Normal
350
564
100
AcDbDictionaryWithDefault
340
564
  0
DICTIONARY
  5
E46
102
{ACAD_REACTORS
330
C
102
}
330
C
100
AcDbDictionary
  3
CEPSNTYPE
350
E50
  3
DIMSTYLEDATA
350
E54
  3
FINGERPRINTGUID
350
E51
  3
HYPERLINKBASE
350
E49
  3
INSUNITS
350
E4F
  3
LAYOUTDICT
350
E4B
  3
LWETCUNION
350
E4E
  3
PLOTSETDICT
350
E4C
  3
PLOTSTYLNAMDICT
350
E4D
  3
PSVPSCALE
350
E53
  3
PUCSBASE
350
E57
  3
PUCSORGBACK
350
E5D
  3
PUCSORGBOTTOM
350
E59
  3
PUCSORGFRONT
350
E5C
  3
PUCSORGLEFT
350
E5A
  3
PUCSORGRIGHT
350
E5B
  3
PUCSORGTOP
350
E58
  3
PUCSORTHOREF
350
E55
  3
PUCSORTHOVIEW
350
E56
  3
STYLESHEET
350
E4A
  3
TSTACKALIGN
350
E47
  3
TSTACKSIZE
350
E48
  3
UCSBASE
350
E60
  3
UCSORGBACK
350
E66
  3
UCSORGBOTTOM
350
E62
  3
UCSORGFRONT
350
E65
  3
UCSORGLEFT
350
E63
  3
UCSORGRIGHT
350
E64
  3
UCSORGTOP
350
E61
  3
UCSORTHOREF
350
E5E
  3
UCSORTHOVIEW
350
E5F
  3
VERSIONGUID
350
E52
  0
DICTIONARY
  5
540
102
{ACAD_REACTORS
330
C
102
}
330
C
100
AcDbDictionary
  3
VERSION
350
560
  0
XRECORD
  5
E68
102
{ACAD_REACTORS
330
CE9
102
}
330
CE9
100
AcDbXrecord
340
1A
  0
XRECORD
  5
E67
102
{ACAD_REACTORS
330
CE7
102
}
330
CE7
100
AcDbXrecord
340
17
  0
GROUP
  5
6C7
102
{ACAD_REACTORS
330
D
102
}
330
D
100
AcDbGroup
300

 70
     0
 71
     1
1001
GRPNAME
1000
DMA00
  0
GROUP
  5
6C8
102
{ACAD_REACTORS
330
D
102
}
330
D
100
AcDbGroup
300

 70
     0
 71
     1
1001
GRPNAME
1000
DMA00
  0
GROUP
  5
6D4
102
{ACAD_REACTORS
330
D
102
}
330
D
100
AcDbGroup
300

 70
     0
 71
     1
1001
GRPNAME
1000
DMA00
  0
GROUP
  5
6D5
102
{ACAD_REACTORS
330
D
102
}
330
D
100
AcDbGroup
300

 70
     0
 71
     1
1001
GRPNAME
1000
DMA00
  0
GROUP
  5
5FC
102
{ACAD_REACTORS
330
D
102
}
330
D
100
AcDbGroup
300

 70
     0
 71
     1
1001
GRPNAME
1000
DREC-
1001
GPARA
1000
xsiz
1000
44.182
1000
ysiz
1000
40.677
1000
angl
1000
0
1000
ctyp
1000
0
1000
csiz
1000
5
1000
lfnt
1000
cont
1000
hcnt
1000
hoff
1000
vcnt
1000
voff
1000
opnt
1000
4
1000
dxpt
1000
0
1000
dypt
1000
0
  0
GROUP
  5
654
102
{ACAD_REACTORS
330
D
102
}
330
D
100
AcDbGroup
300

 70
     0
 71
     1
1001
GRPNAME
1000
DREC-
1001
GPARA
1000
xsiz
1000
54.592
1000
ysiz
1000
53.036
1000
angl
1000
0
1000
ctyp
1000
0
1000
csiz
1000
5
1000
lfnt
1000
cont
1000
hcnt
1000
hoff
1000
vcnt
1000
voff
1000
opnt
1000
4
1000
dxpt
1000
0
1000
dypt
1000
0
  0
GROUP
  5
673
102
{ACAD_REACTORS
330
D
102
}
330
D
100
AcDbGroup
300

 70
     0
 71
     1
1001
GRPNAME
1000
DREC-
1001
GPARA
1000
xsiz
1000
30.363
1000
ysiz
1000
36.175
1000
angl
1000
0
1000
ctyp
1000
0
1000
csiz
1000
5
1000
lfnt
1000
cont
1000
hcnt
1000
hoff
1000
vcnt
1000
voff
1000
opnt
1000
4
1000
dxpt
1000
0
1000
dypt
1000
0
  0
GROUP
  5
B82
102
{ACAD_REACTORS
330
D
102
}
330
D
100
AcDbGroup
300

 70
     0
 71
     1
340
B7D
340
B7E
340
B80
1001
GRPNAME
1000
LNSP
  0
MLINESTYLE
  5
13
102
{ACAD_REACTORS
330
E
102
}
330
E
100
AcDbMlineStyle
  2
STANDARD
 70
     0
  3

 62
     0
 51
90.0
 52
90.0
 71
     2
 49
0.5
 62
   256
  6
BYLAYER
 49
-0.5
 62
   256
  6
BYLAYER
  0
PLOTSETTINGS
  5
758
102
{ACAD_REACTORS
330
566
102
}
330
566
100
AcDbPlotSettings
  1
A3(0.5倍)
  2
\\AWTECPC05\HP DeskJet 1120C
  4
A3
  6

 40
5.95841646
 41
13.49375153
 42
6.04309082
 43
3.67242432
 44
296.92599487
 45
419.94665527
 46
89.96
 47
127.14
 48
0.0
 49
0.0
140
0.0
141
0.0
142
1.0
143
2.0
 70
  1716
 72
     1
 73
     1
 74
     2
  7
big.ctb
 75
    17
147
0.5
148
0.0
149
0.0
  0
PLOTSETTINGS
  5
757
102
{ACAD_REACTORS
330
566
102
}
330
566
100
AcDbPlotSettings
  1
A3(1倍)
  2
\\AWTECPC05\HP DeskJet 1120C
  4
A3
  6

 40
5.95841646
 41
13.49375153
 42
6.04309082
 43
3.67242432
 44
296.92599487
 45
419.94665527
 46
37.46
 47
52.89
 48
0.0
 49
0.0
140
0.0
141
0.0
142
1.0
143
1.0
 70
  1716
 72
     1
 73
     1
 74
     2
  7
big.ctb
 75
    16
147
1.0
148
0.0
149
0.0
  0
PLOTSETTINGS
  5
707
102
{ACAD_REACTORS
330
566
102
}
330
566
100
AcDbPlotSettings
  1
A3(1倍)(2000)
  2
SII LS-1300 (D-SCAN)
  4
User258
  6

 40
3.17499995
 41
3.17499995
 42
3.17498779
 43
3.17498779
 44
419.98898315
 45
296.98950195
 46
58.32
 47
40.32
 48
0.0
 49
0.0
140
0.0
141
0.0
142
1.0
143
1.0
 70
  1716
 72
     1
 73
     0
 74
     2
  7
big.ctb
 75
    16
147
1.0
148
0.0
149
0.0
  0
PLOTSETTINGS
  5
759
102
{ACAD_REACTORS
330
566
102
}
330
566
100
AcDbPlotSettings
  1
A3(2倍)
  2
\\AWTECPC05\HP DeskJet 1120C
  4
A3
  6

 40
5.95841646
 41
13.49375153
 42
6.04309082
 43
3.67242432
 44
296.92599487
 45
419.94665527
 46
-67.54
 47
-95.61
 48
0.0
 49
0.0
140
0.0
141
0.0
142
1.0
143
0.5
 70
  1716
 72
     1
 73
     1
 74
     2
  7
big.ctb
 75
    27
147
2.0
148
0.0
149
0.0
  0
PLOTSETTINGS
  5
755
102
{ACAD_REACTORS
330
566
102
}
330
566
100
AcDbPlotSettings
  1
A4(0.5倍)
  2
\\AWTECPC05\HP DeskJet 1120C
  4
A4
  6

 40
4.18041658
 41
13.49374962
 42
4.18040466
 43
3.92642212
 44
209.97332764
 45
296.92599487
 46
48.31
 47
65.5
 48
0.0
 49
0.0
140
0.0
141
0.0
142
1.0
143
2.0
 70
  1716
 72
     1
 73
     1
 74
     2
  7
big.ctb
 75
    17
147
0.5
148
0.0
149
0.0
  0
PLOTSETTINGS
  5
754
102
{ACAD_REACTORS
330
566
102
}
330
566
100
AcDbPlotSettings
  1
A4(1倍)
  2
\\AWTECPC05\HP DeskJet 1120C
  4
A4
  6

 40
4.18041658
 41
13.49374962
 42
4.18040466
 43
3.92642212
 44
209.97332764
 45
296.92599487
 46
-4.19
 47
-8.75
 48
0.0
 49
0.0
140
0.0
141
0.0
142
1.0
143
1.0
 70
  1716
 72
     1
 73
     1
 74
     2
  7
big.ctb
 75
    16
147
1.0
148
0.0
149
0.0
  0
PLOTSETTINGS
  5
708
102
{ACAD_REACTORS
330
566
102
}
330
566
100
AcDbPlotSettings
  1
A4(1倍)(2000)
  2
SII LS-1300 (D-SCAN)
  4
User259
  6

 40
3.17499995
 41
3.17499995
 42
3.17498779
 43
3.17500305
 44
296.98950195
 45
209.99449158
 46
-3.18
 47
-3.18
 48
0.0
 49
0.0
140
0.0
141
0.0
142
1.0
143
1.0
 70
  1716
 72
     1
 73
     0
 74
     2
  7
big.ctb
 75
    16
147
1.0
148
0.0
149
0.0
  0
PLOTSETTINGS
  5
756
102
{ACAD_REACTORS
330
566
102
}
330
566
100
AcDbPlotSettings
  1
A4(2倍)
  2
\\AWTECPC05\HP DeskJet 1120C
  4
A4
  6

 40
4.18041658
 41
13.49374962
 42
4.18040466
 43
3.92642212
 44
209.97332764
 45
296.92599487
 46
-109.19
 47
-157.25
 48
0.0
 49
0.0
140
0.0
141
0.0
142
1.0
143
0.5
 70
  1716
 72
     1
 73
     1
 74
     2
  7
big.ctb
 75
    27
147
2.0
148
0.0
149
0.0
  0
ACDBPLACEHOLDER
  5
564
102
{ACAD_REACTORS
330
563
102
}
330
563
100
AcDbPlaceHolder
280
     0
  0
XRECORD
  5
E50
102
{ACAD_REACTORS
330
E46
102
}
330
E46
100
AcDbXrecord
 90
        0
  0
XRECORD
  5
E54
102
{ACAD_REACTORS
330
E46
102
}
330
E46
100
AcDbXrecord
1000
DSTYLE
1002
{
1070
    79
 70
     2
1070
   179
 70
     3
1070
   341
340
594
1070
   343
340
594
1070
   344
340
594
1070
   371
 70
    -1
1070
   372
 70
    -1
1002
}
  0
XRECORD
  5
E51
102
{ACAD_REACTORS
330
E46
102
}
330
E46
100
AcDbXrecord
  1
{51294030-9CB4-11D3-8E18-00A0C925D94D}
  0
XRECORD
  5
E49
102
{ACAD_REACTORS
330
E46
102
}
330
E46
100
AcDbXrecord
  1

  0
XRECORD
  5
E4F
102
{ACAD_REACTORS
330
E46
102
}
330
E46
100
AcDbXrecord
 90
        0
  0
XRECORD
  5
E4B
102
{ACAD_REACTORS
330
E46
102
}
330
E46
100
AcDbXrecord
340
565
  0
XRECORD
  5
E4E
102
{ACAD_REACTORS
330
E46
102
}
330
E46
100
AcDbXrecord
 90
    10781
  0
XRECORD
  5
E4C
102
{ACAD_REACTORS
330
E46
102
}
330
E46
100
AcDbXrecord
340
566
  0
XRECORD
  5
E4D
102
{ACAD_REACTORS
330
E46
102
}
330
E46
100
AcDbXrecord
340
563
  0
XRECORD
  5
E53
102
{ACAD_REACTORS
330
E46
102
}
330
E46
100
AcDbXrecord
 40
0.0
  0
XRECORD
  5
E57
102
{ACAD_REACTORS
330
E46
102
}
330
E46
100
AcDbXrecord
340
0
  0
XRECORD
  5
E5D
102
{ACAD_REACTORS
330
E46
102
}
330
E46
100
AcDbXrecord
 10
0.0
 20
0.0
 30
0.0
  0
XRECORD
  5
E59
102
{ACAD_REACTORS
330
E46
102
}
330
E46
100
AcDbXrecord
 10
0.0
 20
0.0
 30
0.0
  0
XRECORD
  5
E5C
102
{ACAD_REACTORS
330
E46
102
}
330
E46
100
AcDbXrecord
 10
0.0
 20
0.0
 30
0.0
  0
XRECORD
  5
E5A
102
{ACAD_REACTORS
330
E46
102
}
330
E46
100
AcDbXrecord
 10
0.0
 20
0.0
 30
0.0
  0
XRECORD
  5
E5B
102
{ACAD_REACTORS
330
E46
102
}
330
E46
100
AcDbXrecord
 10
0.0
 20
0.0
 30
0.0
  0
XRECORD
  5
E58
102
{ACAD_REACTORS
330
E46
102
}
330
E46
100
AcDbXrecord
 10
0.0
 20
0.0
 30
0.0
  0
XRECORD
  5
E55
102
{ACAD_REACTORS
330
E46
102
}
330
E46
100
AcDbXrecord
340
0
  0
XRECORD
  5
E56
102
{ACAD_REACTORS
330
E46
102
}
330
E46
100
AcDbXrecord
 70
     0
  0
XRECORD
  5
E4A
102
{ACAD_REACTORS
330
E46
102
}
330
E46
100
AcDbXrecord
  1
big.ctb
  0
XRECORD
  5
E47
102
{ACAD_REACTORS
330
E46
102
}
330
E46
100
AcDbXrecord
 90
        1
  0
XRECORD
  5
E48
102
{ACAD_REACTORS
330
E46
102
}
330
E46
100
AcDbXrecord
 90
       70
  0
XRECORD
  5
E60
102
{ACAD_REACTORS
330
E46
102
}
330
E46
100
AcDbXrecord
340
0
  0
XRECORD
  5
E66
102
{ACAD_REACTORS
330
E46
102
}
330
E46
100
AcDbXrecord
 10
0.0
 20
0.0
 30
0.0
  0
XRECORD
  5
E62
102
{ACAD_REACTORS
330
E46
102
}
330
E46
100
AcDbXrecord
 10
0.0
 20
0.0
 30
0.0
  0
XRECORD
  5
E65
102
{ACAD_REACTORS
330
E46
102
}
330
E46
100
AcDbXrecord
 10
0.0
 20
0.0
 30
0.0
  0
XRECORD
  5
E63
102
{ACAD_REACTORS
330
E46
102
}
330
E46
100
AcDbXrecord
 10
0.0
 20
0.0
 30
0.0
  0
XRECORD
  5
E64
102
{ACAD_REACTORS
330
E46
102
}
330
E46
100
AcDbXrecord
 10
0.0
 20
0.0
 30
0.0
  0
XRECORD
  5
E61
102
{ACAD_REACTORS
330
E46
102
}
330
E46
100
AcDbXrecord
 10
0.0
 20
0.0
 30
0.0
  0
XRECORD
  5
E5E
102
{ACAD_REACTORS
330
E46
102
}
330
E46
100
AcDbXrecord
340
0
  0
XRECORD
  5
E5F
102
{ACAD_REACTORS
330
E46
102
}
330
E46
100
AcDbXrecord
 70
     0
  0
XRECORD
  5
E52
102
{ACAD_REACTORS
330
E46
102
}
330
E46
100
AcDbXrecord
  1
{0B34CBC9-CFE6-4F88-A105-5C90E730AF37}
  0
XRECORD
  5
560
102
{ACAD_REACTORS
330
540
102
}
330
540
100
AcDbXrecord
  1
2.0.0
  0
ENDSEC
  0
EOF
