  0
SECTION
  2
HEADER
  9
$ACADVER
  1
AC1014
  9
$ACADMAINTVER
 70
     9
  9
$DWGCODEPAGE
  3
ANSI_932
  9
$INSBASE
 10
0.0
 20
0.0
 30
0.0
  9
$EXTMIN
 10
-82.79999999999544
 20
-25.00000000000083
 30
-0.0000000000000002
  9
$EXTMAX
 10
15.0
 20
53.99999999999971
 30
0.0000000000000002
  9
$LIMMIN
 10
0.0
 20
0.0
  9
$LIMMAX
 10
297.0
 20
210.0
  9
$ORTHOMODE
 70
     0
  9
$REGENMODE
 70
     1
  9
$FILLMODE
 70
     1
  9
$QTEXTMODE
 70
     0
  9
$MIRRTEXT
 70
     1
  9
$DRAGMODE
 70
     2
  9
$LTSCALE
 40
10.0
  9
$OSMODE
 70
   613
  9
$ATTMODE
 70
     1
  9
$TEXTSIZE
 40
3.0
  9
$TRACEWID
 40
1.0
  9
$TEXTSTYLE
  7
YOKO
  9
$CLAYER
  8
240
  9
$CELTYPE
  6
BYLAYER
  9
$CECOLOR
 62
   256
  9
$CELTSCALE
 40
1.0
  9
$DELOBJ
 70
     1
  9
$DISPSILH
 70
     0
  9
$DIMSCALE
 40
1.0
  9
$DIMASZ
 40
2.229999999999999
  9
$DIMEXO
 40
0.5
  9
$DIMDLI
 40
2.5
  9
$DIMRND
 40
0.0
  9
$DIMDLE
 40
0.0
  9
$DIMEXE
 40
1.0
  9
$DIMTP
 40
0.0
  9
$DIMTM
 40
0.0
  9
$DIMTXT
 40
3.0
  9
$DIMCEN
 40
0.0
  9
$DIMTSZ
 40
0.0
  9
$DIMTOL
 70
     0
  9
$DIMLIM
 70
     0
  9
$DIMTIH
 70
     0
  9
$DIMTOH
 70
     0
  9
$DIMSE1
 70
     0
  9
$DIMSE2
 70
     0
  9
$DIMTAD
 70
     3
  9
$DIMZIN
 70
     8
  9
$DIMBLK
  1
OPEN
  9
$DIMASO
 70
     1
  9
$DIMSHO
 70
     1
  9
$DIMPOST
  1

  9
$DIMAPOST
  1

  9
$DIMALT
 70
     0
  9
$DIMALTD
 70
     2
  9
$DIMALTF
 40
25.4
  9
$DIMLFAC
 40
1.0
  9
$DIMTOFL
 70
     1
  9
$DIMTVP
 40
0.0
  9
$DIMTIX
 70
     0
  9
$DIMSOXD
 70
     0
  9
$DIMSAH
 70
     0
  9
$DIMBLK1
  1

  9
$DIMBLK2
  1

  9
$DIMSTYLE
  2
BIGT
  9
$DIMCLRD
 70
   256
  9
$DIMCLRE
 70
   256
  9
$DIMCLRT
 70
    40
  9
$DIMTFAC
 40
1.0
  9
$DIMGAP
 40
1.0
  9
$DIMJUST
 70
     0
  9
$DIMSD1
 70
     0
  9
$DIMSD2
 70
     0
  9
$DIMTOLJ
 70
     1
  9
$DIMTZIN
 70
     8
  9
$DIMALTZ
 70
     0
  9
$DIMALTTZ
 70
     0
  9
$DIMFIT
 70
     2
  9
$DIMUPT
 70
     0
  9
$DIMUNIT
 70
     2
  9
$DIMDEC
 70
     3
  9
$DIMTDEC
 70
     3
  9
$DIMALTU
 70
     2
  9
$DIMALTTD
 70
     2
  9
$DIMTXSTY
  7
STANDARD
  9
$DIMAUNIT
 70
     0
  9
$LUNITS
 70
     2
  9
$LUPREC
 70
     3
  9
$SKETCHINC
 40
1.0
  9
$FILLETRAD
 40
0.8
  9
$AUNITS
 70
     0
  9
$AUPREC
 70
     3
  9
$MENU
  1
.
  9
$ELEVATION
 40
0.0
  9
$PELEVATION
 40
0.0
  9
$THICKNESS
 40
0.0
  9
$LIMCHECK
 70
     0
  9
$BLIPMODE
 70
     0
  9
$CHAMFERA
 40
10.0
  9
$CHAMFERB
 40
10.0
  9
$CHAMFERC
 40
0.0
  9
$CHAMFERD
 40
0.0
  9
$SKPOLY
 70
     0
  9
$TDCREATE
 40
2452510.403970810
  9
$TDUPDATE
 40
2452516.379319837
  9
$TDINDWG
 40
0.0608054630
  9
$TDUSRTIMER
 40
0.0608054630
  9
$USRTIMER
 70
     1
  9
$ANGBASE
 50
0.0
  9
$ANGDIR
 70
     0
  9
$PDMODE
 70
    35
  9
$PDSIZE
 40
2.0
  9
$PLINEWID
 40
0.0
  9
$COORDS
 70
     0
  9
$SPLFRAME
 70
     0
  9
$SPLINETYPE
 70
     6
  9
$SPLINESEGS
 70
     8
  9
$ATTDIA
 70
     0
  9
$ATTREQ
 70
     0
  9
$HANDLING
 70
-16383
  9
$HANDSEED
  5
1658
  9
$SURFTAB1
 70
     6
  9
$SURFTAB2
 70
     6
  9
$SURFTYPE
 70
     6
  9
$SURFU
 70
     6
  9
$SURFV
 70
     6
  9
$UCSNAME
  2

  9
$UCSORG
 10
0.0
 20
0.0
 30
0.0
  9
$UCSXDIR
 10
1.0
 20
0.0
 30
0.0
  9
$UCSYDIR
 10
0.0
 20
1.0
 30
0.0
  9
$PUCSNAME
  2

  9
$PUCSORG
 10
0.0
 20
0.0
 30
0.0
  9
$PUCSXDIR
 10
1.0
 20
0.0
 30
0.0
  9
$PUCSYDIR
 10
0.0
 20
1.0
 30
0.0
  9
$USERI1
 70
     1
  9
$USERI2
 70
     0
  9
$USERI3
 70
     0
  9
$USERI4
 70
     0
  9
$USERI5
 70
     0
  9
$USERR1
 40
0.0
  9
$USERR2
 40
0.0
  9
$USERR3
 40
0.0
  9
$USERR4
 40
0.0
  9
$USERR5
 40
0.0
  9
$WORLDVIEW
 70
     1
  9
$SHADEDGE
 70
     3
  9
$SHADEDIF
 70
    70
  9
$TILEMODE
 70
     1
  9
$MAXACTVP
 70
    16
  9
$PINSBASE
 10
0.0
 20
0.0
 30
0.0
  9
$PLIMCHECK
 70
     0
  9
$PEXTMIN
 10
1.000000000000000E+20
 20
1.000000000000000E+20
 30
1.000000000000000E+20
  9
$PEXTMAX
 10
-1.000000000000000E+20
 20
-1.000000000000000E+20
 30
-1.000000000000000E+20
  9
$PLIMMIN
 10
0.0
 20
0.0
  9
$PLIMMAX
 10
420.0
 20
297.0
  9
$UNITMODE
 70
     0
  9
$VISRETAIN
 70
     0
  9
$PLINEGEN
 70
     0
  9
$PSLTSCALE
 70
     1
  9
$TREEDEPTH
 70
  3020
  9
$PICKSTYLE
 70
     0
  9
$CMLSTYLE
  2
STANDARD
  9
$CMLJUST
 70
     0
  9
$CMLSCALE
 40
1.0
  9
$PROXYGRAPHICS
 70
     1
  9
$MEASUREMENT
 70
     1
  0
ENDSEC
  0
SECTION
  2
CLASSES
  0
CLASS
  1
XRECORD
  2
AcDbXrecord
  3
AutoCAD 2000
 90
        0
280
     0
281
     0
  0
CLASS
  1
ACDBDICTIONARYWDFLT
  2
AcDbDictionaryWithDefault
  3
AutoCAD 2000
 90
        0
280
     0
281
     0
  0
CLASS
  1
ACDBPLACEHOLDER
  2
AcDbPlaceHolder
  3
AutoCAD 2000
 90
        0
280
     0
281
     0
  0
CLASS
  1
LAYOUT
  2
AcDbLayout
  3
AutoCAD 2000
 90
        0
280
     0
281
     0
  0
CLASS
  1
DICTIONARYVAR
  2
AcDbDictionaryVar
  3
AutoCAD 2000
 90
        0
280
     0
281
     0
  0
CLASS
  1
LONG_TRANSACTION
  2
AcDbLongTransaction
  3
AutoCAD 2000
 90
        0
280
     0
281
     0
  0
CLASS
  1
LWPOLYLINE
  2
AcDbPolyline
  3
AutoCAD 2000
 90
        0
280
     0
281
     1
  0
CLASS
  1
HATCH
  2
AcDbHatch
  3
AutoCAD 2000
 90
        0
280
     0
281
     1
  0
CLASS
  1
XRECORD
  2
AcDbXrecord
  3
AutoCAD 2000
 90
        0
280
     0
281
     0
  0
ENDSEC
  0
SECTION
  2
TABLES
  0
TABLE
  2
VPORT
  5
8
330
0
100
AcDbSymbolTable
 70
     2
  0
VPORT
  5
1632
330
8
100
AcDbSymbolTableRecord
100
AcDbViewportTableRecord
  2
*ACTIVE
 70
     0
 10
0.0
 20
0.0
 11
1.0
 21
1.0
 12
-33.8993584107094
 22
14.49955032206949
 13
0.0
 23
0.0
 14
7.0
 24
7.0
 15
7.0
 25
7.0
 16
0.0
 26
0.0
 36
1.0
 17
0.0
 27
0.0
 37
0.0
 40
79.63714114059406
 41
1.53185955786736
 42
50.0
 43
0.0
 44
0.0
 50
0.0
 51
0.0
 71
     0
 72
  2000
 73
     1
 74
     0
 75
     0
 76
     0
 77
     0
 78
     0
  0
ENDTAB
  0
TABLE
  2
LTYPE
  5
5
330
0
100
AcDbSymbolTable
 70
     3
  0
LTYPE
  5
14
330
5
100
AcDbSymbolTableRecord
100
AcDbLinetypeTableRecord
  2
BYBLOCK
 70
     0
  3

 72
    65
 73
     0
 40
0.0
  0
LTYPE
  5
15
330
5
100
AcDbSymbolTableRecord
100
AcDbLinetypeTableRecord
  2
BYLAYER
 70
     0
  3

 72
    65
 73
     0
 40
0.0
  0
LTYPE
  5
16
330
5
100
AcDbSymbolTableRecord
100
AcDbLinetypeTableRecord
  2
CONTINUOUS
 70
     0
  3
Solid line
 72
    65
 73
     0
 40
0.0
  0
LTYPE
  5
258
330
5
100
AcDbSymbolTableRecord
100
AcDbLinetypeTableRecord
  2
CENTER2
 70
     0
  3
___ _ ___ _ ___ _ ___ _ ___ _ ___ _ ___ _ ___ _
 72
    65
 73
     4
 40
1.125
 49
0.75
 74
     0
 49
-0.125
 74
     0
 49
0.125
 74
     0
 49
-0.125
 74
     0
  0
LTYPE
  5
25D
330
5
100
AcDbSymbolTableRecord
100
AcDbLinetypeTableRecord
  2
PHANTOM2
 70
     0
  3
___ _ _ ___ _ _ ___ _ _ ___ _ _ ___ _ _ ___ _ _
 72
    65
 73
     6
 40
1.25
 49
0.625
 74
     0
 49
-0.125
 74
     0
 49
0.125
 74
     0
 49
-0.125
 74
     0
 49
0.125
 74
     0
 49
-0.125
 74
     0
  0
ENDTAB
  0
TABLE
  2
LAYER
  5
2
330
0
100
AcDbSymbolTable
 70
     8
  0
LAYER
  5
F
330
2
100
AcDbSymbolTableRecord
100
AcDbLayerTableRecord
  2
0
 70
     0
 62
     7
  6
CONTINUOUS
  0
LAYER
  5
1AA
330
2
100
AcDbSymbolTableRecord
100
AcDbLayerTableRecord
  2
240
 70
     0
 62
     4
  6
CONTINUOUS
  0
LAYER
  5
1AB
330
2
100
AcDbSymbolTableRecord
100
AcDbLayerTableRecord
  2
241
 70
     0
 62
   211
  6
CONTINUOUS
  0
LAYER
  5
1AF
330
2
100
AcDbSymbolTableRecord
100
AcDbLayerTableRecord
  2
245
 70
     0
 62
     2
  6
CENTER2
  0
LAYER
  5
21A
330
2
100
AcDbSymbolTableRecord
100
AcDbLayerTableRecord
  2
246
 70
     0
 62
     3
  6
PHANTOM2
  0
LAYER
  5
21E
330
2
100
AcDbSymbolTableRecord
100
AcDbLayerTableRecord
  2
250
 70
     0
 62
     3
  6
CONTINUOUS
  0
LAYER
  5
5C4
330
2
100
AcDbSymbolTableRecord
100
AcDbLayerTableRecord
  2
DEFPOINTS
 70
     0
 62
     7
  6
CONTINUOUS
  0
LAYER
  5
DE6
330
2
100
AcDbSymbolTableRecord
100
AcDbLayerTableRecord
  2
247
 70
     0
 62
    60
  6
CONTINUOUS
  0
ENDTAB
  0
TABLE
  2
STYLE
  5
3
330
0
100
AcDbSymbolTable
 70
     2
  0
STYLE
  5
10
330
3
100
AcDbSymbolTableRecord
100
AcDbTextStyleTableRecord
  2
STANDARD
 70
     0
 40
0.0
 41
1.0
 50
0.0
 71
     0
 42
3.0
  3
romans.shx
  4
BIGFONT.SHX
  0
STYLE
  5
339
330
3
100
AcDbSymbolTableRecord
100
AcDbTextStyleTableRecord
  2
YOKO
 70
     0
 40
0.0
 41
1.0
 50
0.0
 71
     0
 42
3.0
  3
romans.shx
  4
extfont.shx
  0
ENDTAB
  0
TABLE
  2
VIEW
  5
6
330
0
100
AcDbSymbolTable
 70
     0
  0
ENDTAB
  0
TABLE
  2
UCS
  5
7
330
0
100
AcDbSymbolTable
 70
     0
  0
ENDTAB
  0
TABLE
  2
APPID
  5
9
330
0
100
AcDbSymbolTable
 70
    11
  0
APPID
  5
11
330
9
100
AcDbSymbolTableRecord
100
AcDbRegAppTableRecord
  2
ACAD
 70
     0
  0
APPID
  5
1B1
330
9
100
AcDbSymbolTableRecord
100
AcDbRegAppTableRecord
  2
GLOBAL
 70
     0
  0
APPID
  5
2A4
330
9
100
AcDbSymbolTableRecord
100
AcDbRegAppTableRecord
  2
DETAIL
 70
     0
  0
APPID
  5
5FD
330
9
100
AcDbSymbolTableRecord
100
AcDbRegAppTableRecord
  2
GRPNAME
 70
     0
  0
APPID
  5
5FE
330
9
100
AcDbSymbolTableRecord
100
AcDbRegAppTableRecord
  2
GPARA
 70
     0
  0
APPID
  5
A4D
330
9
100
AcDbSymbolTableRecord
100
AcDbRegAppTableRecord
  2
ITEMNAME
 70
     0
  0
APPID
  5
A4F
330
9
100
AcDbSymbolTableRecord
100
AcDbRegAppTableRecord
  2
GRADE_0
 70
     0
  0
APPID
  5
A68
330
9
100
AcDbSymbolTableRecord
100
AcDbRegAppTableRecord
  2
GRADE_-10000
 70
     0
  0
APPID
  5
DE7
330
9
100
AcDbSymbolTableRecord
100
AcDbRegAppTableRecord
  2
HATCH_TYPE
 70
     0
  0
APPID
  5
DE8
330
9
100
AcDbSymbolTableRecord
100
AcDbRegAppTableRecord
  2
HATCH_DISPLAY
 70
     0
  0
APPID
  5
DE9
330
9
100
AcDbSymbolTableRecord
100
AcDbRegAppTableRecord
  2
HATCH_DISTANCE
 70
     0
  0
ENDTAB
  0
TABLE
  2
DIMSTYLE
  5
A
330
0
100
AcDbSymbolTable
 70
     2
  0
DIMSTYLE
105
48F
330
A
100
AcDbSymbolTableRecord
100
AcDbDimStyleTableRecord
  2
STANDARD
 70
     0
  3

  4

  5

  6

  7

 40
1.0
 41
2.0
 42
2.0
 43
3.75
 44
2.0
 45
0.0
 46
0.0
 47
0.0
 48
0.0
140
4.0
141
0.09
142
0.0
143
25.4
144
1.0
145
0.0
146
1.0
147
1.0
 71
     0
 72
     0
 73
     1
 74
     1
 75
     0
 76
     0
 77
     0
 78
     8
170
     0
171
     2
172
     0
173
     1
174
     0
175
     0
176
   256
177
   256
178
   256
270
     2
271
     3
272
     4
273
     2
274
     2
340
10
275
     0
280
     0
281
     0
282
     0
283
     1
284
     8
285
     0
286
     0
287
     3
288
     0
  0
DIMSTYLE
105
59A
102
{ACAD_REACTORS
330
BCE
330
D00
102
}
330
A
100
AcDbSymbolTableRecord
100
AcDbDimStyleTableRecord
  2
BIGT
 70
     0
  3

  4

  5
OPEN
  6

  7

 40
1.0
 41
2.229999999999999
 42
0.5
 43
2.5
 44
1.0
 45
0.0
 46
0.0
 47
0.0
 48
0.0
140
3.5
141
0.0
142
0.0
143
25.4
144
1.0
145
0.0
146
1.0
147
1.0
 71
     0
 72
     0
 73
     0
 74
     0
 75
     0
 76
     0
 77
     3
 78
     9
170
     0
171
     2
172
     1
173
     0
174
     0
175
     0
176
   256
177
   256
178
    40
270
     2
271
     3
272
     3
273
     2
274
     2
340
10
275
     0
280
     0
281
     0
282
     0
283
     1
284
     8
285
     0
286
     0
287
     2
288
     0
  0
ENDTAB
  0
TABLE
  2
BLOCK_RECORD
  5
1
330
0
100
AcDbSymbolTable
 70
     7
  0
BLOCK_RECORD
  5
1A
102
{ACAD_XDICTIONARY
360
1656
102
}
330
1
100
AcDbSymbolTableRecord
100
AcDbBlockTableRecord
  2
*MODEL_SPACE
  0
BLOCK_RECORD
  5
17
102
{ACAD_XDICTIONARY
360
1654
102
}
330
1
100
AcDbSymbolTableRecord
100
AcDbBlockTableRecord
  2
*PAPER_SPACE
  0
BLOCK_RECORD
  5
594
330
1
100
AcDbSymbolTableRecord
100
AcDbBlockTableRecord
  2
_OPEN
  0
BLOCK_RECORD
  5
BCF
330
1
100
AcDbSymbolTableRecord
100
AcDbBlockTableRecord
  2
*D1
  0
BLOCK_RECORD
  5
D01
330
1
100
AcDbSymbolTableRecord
100
AcDbBlockTableRecord
  2
*D2
  0
BLOCK_RECORD
  5
1521
330
1
100
AcDbSymbolTableRecord
100
AcDbBlockTableRecord
  2
*X3
  0
BLOCK_RECORD
  5
1551
330
1
100
AcDbSymbolTableRecord
100
AcDbBlockTableRecord
  2
*X4
  0
BLOCK_RECORD
  5
155D
330
1
100
AcDbSymbolTableRecord
100
AcDbBlockTableRecord
  2
*X5
  0
BLOCK_RECORD
  5
1570
330
1
100
AcDbSymbolTableRecord
100
AcDbBlockTableRecord
  2
A$C71AE15AF
  0
ENDTAB
  0
ENDSEC
  0
SECTION
  2
BLOCKS
  0
BLOCK
  5
1B
330
1A
100
AcDbEntity
  8
0
100
AcDbBlockBegin
  2
*MODEL_SPACE
 70
     0
 10
0.0
 20
0.0
 30
0.0
  3
*MODEL_SPACE
  1

  0
ENDBLK
  5
1C
330
1A
100
AcDbEntity
  8
0
100
AcDbBlockEnd
  0
BLOCK
  5
18
330
17
100
AcDbEntity
 67
     1
  8
0
100
AcDbBlockBegin
  2
*PAPER_SPACE
 70
     0
 10
0.0
 20
0.0
 30
0.0
  3
*PAPER_SPACE
  1

  0
ENDBLK
  5
19
330
17
100
AcDbEntity
 67
     1
  8
0
100
AcDbBlockEnd
  0
BLOCK
  5
598
330
594
100
AcDbEntity
  8
0
100
AcDbBlockBegin
  2
_OPEN
 70
     0
 10
0.0
 20
0.0
 30
0.0
  3
_OPEN
  1

  0
LINE
  5
595
330
594
100
AcDbEntity
  8
0
  6
BYBLOCK
 62
     0
100
AcDbLine
 10
-1.0
 20
0.1666666666666666
 30
0.0
 11
0.0
 21
0.0
 31
0.0
  0
LINE
  5
596
330
594
100
AcDbEntity
  8
0
  6
BYBLOCK
 62
     0
100
AcDbLine
 10
-1.0
 20
-0.1666666666666666
 30
0.0
 11
0.0
 21
0.0
 31
0.0
  0
LINE
  5
597
330
594
100
AcDbEntity
  8
0
  6
BYBLOCK
 62
     0
100
AcDbLine
 10
0.0
 20
0.0
 30
0.0
 11
-1.0
 21
0.0
 31
0.0
  0
ENDBLK
  5
599
330
594
100
AcDbEntity
  8
0
100
AcDbBlockEnd
  0
BLOCK
  5
BD9
330
BCF
100
AcDbEntity
  8
0
100
AcDbBlockBegin
  2
*D1
 70
     1
 10
0.0
 20
0.0
 30
0.0
  3
*D1
  1

  0
LINE
  5
150E
330
BCF
100
AcDbEntity
  8
250
  6
CONTINUOUS
100
AcDbLine
 10
-49.99999999999993
 20
25.19999999999924
 30
0.0
 11
-49.99999999999993
 21
35.99999999999971
 31
0.0
  0
LINE
  5
150F
330
BCF
100
AcDbEntity
  8
250
  6
CONTINUOUS
100
AcDbLine
 10
-0.000000000000003
 20
0.5
 30
0.0
 11
-0.0000000000000008
 21
35.99999999999971
 31
0.0
  0
LINE
  5
1510
330
BCF
100
AcDbEntity
  8
250
  6
CONTINUOUS
100
AcDbLine
 10
-47.76999999999993
 20
34.99999999999971
 30
0.0
 11
-2.23
 21
34.99999999999971
 31
0.0
  0
INSERT
  5
1511
330
BCF
100
AcDbEntity
  8
250
  6
CONTINUOUS
100
AcDbBlockReference
  2
_OPEN
 10
-49.99999999999993
 20
34.99999999999971
 30
0.0
 41
2.229999999999999
 42
2.229999999999999
 43
2.229999999999999
 50
180.0
  0
INSERT
  5
1512
330
BCF
100
AcDbEntity
  8
250
  6
CONTINUOUS
100
AcDbBlockReference
  2
_OPEN
 10
-0.0000000000000009
 20
34.99999999999971
 30
0.0
 41
2.229999999999999
 42
2.229999999999999
 43
2.229999999999999
  0
MTEXT
  5
1513
330
BCF
100
AcDbEntity
  8
250
  6
CONTINUOUS
 62
    40
100
AcDbMText
 10
-24.99999999999997
 20
37.49999999999971
 30
0.0
 40
3.0
 41
0.0
 71
     5
 72
     1
  1
\A1;50
1001
ACAD
1000
MTEXTBEGIN
1070
    73
1070
     1
1070
    44
1040
1.0
1070
    74
1070
     0
1000
MTEXTEND
  0
POINT
  5
1514
330
BCF
100
AcDbEntity
  8
DEFPOINTS
  6
CONTINUOUS
 62
     0
100
AcDbPoint
 10
-49.99999999999993
 20
24.69999999999925
 30
0.0
  0
POINT
  5
1515
330
BCF
100
AcDbEntity
  8
DEFPOINTS
  6
CONTINUOUS
 62
     0
100
AcDbPoint
 10
-0.000000000000003
 20
0.0
 30
0.0
  0
POINT
  5
1516
330
BCF
100
AcDbEntity
  8
DEFPOINTS
  6
CONTINUOUS
 62
     0
100
AcDbPoint
 10
-0.0000000000000009
 20
34.99999999999971
 30
0.0
  0
ENDBLK
  5
BDA
330
BCF
100
AcDbEntity
  8
0
100
AcDbBlockEnd
  0
BLOCK
  5
D0B
330
D01
100
AcDbEntity
  8
0
100
AcDbBlockBegin
  2
*D2
 70
     1
 10
0.0
 20
0.0
 30
0.0
  3
*D2
  1

  0
LINE
  5
1517
330
D01
100
AcDbEntity
  8
250
  6
CONTINUOUS
100
AcDbLine
 10
-38.07667885022242
 20
-25.00000000000048
 30
0.0
 11
14.99999999999999
 21
-25.00000000000049
 31
0.0
  0
LINE
  5
1518
330
D01
100
AcDbEntity
  8
250
  6
CONTINUOUS
100
AcDbLine
 10
-38.07667885022274
 20
25.00000000000003
 30
0.0
 11
15.0
 21
25.00000000000001
 31
0.0
  0
LINE
  5
1519
330
D01
100
AcDbEntity
  8
250
  6
CONTINUOUS
100
AcDbLine
 10
13.99999999999999
 20
-22.77000000000049
 30
0.0
 11
14.0
 21
22.77000000000001
 31
0.0
  0
INSERT
  5
151A
330
D01
100
AcDbEntity
  8
250
  6
CONTINUOUS
100
AcDbBlockReference
  2
_OPEN
 10
13.99999999999999
 20
-25.00000000000049
 30
0.0
 41
2.229999999999999
 42
2.229999999999999
 43
2.229999999999999
 50
270.0
  0
INSERT
  5
151B
330
D01
100
AcDbEntity
  8
250
  6
CONTINUOUS
100
AcDbBlockReference
  2
_OPEN
 10
14.0
 20
25.00000000000001
 30
0.0
 41
2.229999999999999
 42
2.229999999999999
 43
2.229999999999999
 50
90.0
  0
MTEXT
  5
151C
330
D01
100
AcDbEntity
  8
250
  6
CONTINUOUS
 62
    40
100
AcDbMText
 10
11.49999999999999
 20
-0.0000000000002368
 30
0.0
 40
3.0
 41
0.0
 71
     5
 72
     1
  1
\A1;{\H3;\U+2205}50
 11
0.0000000000000001
 21
1.0
 31
0.0
1001
ACAD
1000
MTEXTBEGIN
1070
    73
1070
     1
1070
    44
1040
1.0
1070
    74
1070
     0
1000
MTEXTEND
  0
POINT
  5
151D
330
D01
100
AcDbEntity
  8
DEFPOINTS
  6
CONTINUOUS
 62
     0
100
AcDbPoint
 10
-38.57667885022243
 20
-25.00000000000048
 30
0.0
  0
POINT
  5
151E
330
D01
100
AcDbEntity
  8
DEFPOINTS
  6
CONTINUOUS
 62
     0
100
AcDbPoint
 10
-38.57667885022275
 20
25.00000000000003
 30
0.0
  0
POINT
  5
151F
330
D01
100
AcDbEntity
  8
DEFPOINTS
  6
CONTINUOUS
 62
     0
100
AcDbPoint
 10
14.0
 20
25.00000000000001
 30
0.0
  0
ENDBLK
  5
D0C
330
D01
100
AcDbEntity
  8
0
100
AcDbBlockEnd
  0
BLOCK
  5
154F
330
1521
100
AcDbEntity
  8
0
100
AcDbBlockBegin
  2
*X3
 70
     1
 10
0.0
 20
0.0
 30
0.0
  3
*X3
  1

  0
LINE
  5
1522
330
1521
100
AcDbEntity
  8
0
 62
     0
100
AcDbLine
 10
3.235364125939702
 20
-8.207738569426133
 30
0.0
 11
2.539878131093039
 21
-7.512252574579474
 31
0.0
  0
LINE
  5
1523
330
1521
100
AcDbEntity
  8
0
 62
     0
100
AcDbLine
 10
2.525255410929922
 20
-7.733361577594422
 30
0.0
 11
2.246640667466748
 21
-7.454746834131247
 31
0.0
  0
LINE
  5
1524
330
1521
100
AcDbEntity
  8
0
 62
     0
100
AcDbLine
 10
3.292869866387924
 20
-8.500976033052424
 30
0.0
 11
3.014255122924751
 21
-8.222361289589251
 31
0.0
  0
LINE
  5
1525
330
1521
100
AcDbEntity
  8
0
 62
     0
100
AcDbLine
 10
2.222099748833683
 20
-7.665937638676258
 30
0.0
 11
2.020551260265142
 21
-7.464389150107711
 31
0.0
  0
LINE
  5
1526
330
1521
100
AcDbEntity
  8
0
 62
     0
100
AcDbLine
 10
3.294816471809426
 20
-8.738654361651997
 30
0.0
 11
3.081679061842919
 21
-8.525516951685489
 31
0.0
  0
LINE
  5
1527
330
1521
100
AcDbEntity
  8
0
 62
     0
100
AcDbLine
 10
2.003106040329284
 20
-7.68267565334991
 30
0.0
 11
1.829933989769265
 21
-7.509503602789891
 31
0.0
  0
LINE
  5
1528
330
1521
100
AcDbEntity
  8
0
 62
     0
100
AcDbLine
 10
3.294816471809419
 20
-8.974386084830044
 30
0.0
 11
3.082624704809468
 21
-8.762194317830092
 31
0.0
  0
LINE
  5
1529
330
1521
100
AcDbEntity
  8
0
 62
     0
100
AcDbLine
 10
1.823500176191735
 20
-7.738801512390431
 30
0.0
 11
1.66441861575032
 21
-7.579719951949016
 31
0.0
  0
LINE
  5
152A
330
1521
100
AcDbEntity
  8
0
 62
     0
100
AcDbLine
 10
3.294816471809426
 20
-9.210117808008119
 30
0.0
 11
3.082624704809468
 21
-8.997926041008163
 31
0.0
  0
LINE
  5
152B
330
1521
100
AcDbEntity
  8
0
 62
     0
100
AcDbLine
 10
1.671532121270381
 20
-7.822565180647145
 30
0.0
 11
1.519384621186254
 21
-7.67041768056301
 31
0.0
  0
LINE
  5
152C
330
1521
100
AcDbEntity
  8
0
 62
     0
100
AcDbLine
 10
3.294816471809432
 20
-9.445849531186189
 30
0.0
 11
3.082624704809474
 21
-9.233657764186231
 31
0.0
  0
LINE
  5
152D
330
1521
100
AcDbEntity
  8
0
 62
     0
100
AcDbLine
 10
1.542752218501775
 20
-7.929517001056601
 30
0.0
 11
1.39270995439402
 21
-7.779474736948849
 31
0.0
  0
LINE
  5
152E
330
1521
100
AcDbEntity
  8
0
 62
     0
100
AcDbLine
 10
3.294816471809419
 20
-9.681581254364253
 30
0.0
 11
3.082624704809468
 21
-9.469389487364303
 31
0.0
  0
LINE
  5
152F
330
1521
100
AcDbEntity
  8
0
 62
     0
100
AcDbLine
 10
1.43594765315619
 20
-8.058444158889074
 30
0.0
 11
1.28377138416043
 21
-7.906267889893321
 31
0.0
  0
LINE
  5
1530
330
1521
100
AcDbEntity
  8
0
 62
     0
100
AcDbLine
 10
3.294816471809432
 20
-9.917312977542316
 30
0.0
 11
3.082624704809474
 21
-9.705121210542358
 31
0.0
  0
LINE
  5
1531
330
1521
100
AcDbEntity
  8
0
 62
     0
100
AcDbLine
 10
1.352348231689353
 20
-8.210576460600307
 30
0.0
 11
1.193200727397836
 21
-8.051428956308786
 31
0.0
  0
LINE
  5
1532
330
1521
100
AcDbEntity
  8
0
 62
     0
100
AcDbLine
 10
3.294816471809419
 20
-10.15304470072036
 30
0.0
 11
3.082624704809468
 21
-9.940852933720428
 31
0.0
  0
LINE
  5
1533
330
1521
100
AcDbEntity
  8
0
 62
     0
100
AcDbLine
 10
1.296432579310397
 20
-8.390392531399429
 30
0.0
 11
1.123132130201639
 21
-8.217092082290662
 31
0.0
  0
LINE
  5
1534
330
1521
100
AcDbEntity
  8
0
 62
     0
100
AcDbLine
 10
3.294816471809426
 20
-10.38877642389844
 30
0.0
 11
3.082624704809468
 21
-10.17658465689848
 31
0.0
  0
LINE
  5
1535
330
1521
100
AcDbEntity
  8
0
 62
     0
100
AcDbLine
 10
1.280032579818636
 20
-8.609724255085723
 30
0.0
 11
1.078209318544381
 21
-8.407900993811464
 31
0.0
  0
LINE
  5
1536
330
1521
100
AcDbEntity
  8
0
 62
     0
100
AcDbLine
 10
3.294816471809419
 20
-10.62450814707651
 30
0.0
 11
3.082624704809468
 21
-10.41231638007656
 31
0.0
  0
LINE
  5
1537
330
1521
100
AcDbEntity
  8
0
 62
     0
100
AcDbLine
 10
1.241817425899255
 20
-8.807240824344411
 30
0.0
 11
1.068864846956123
 21
-8.634288245401286
 31
0.0
  0
LINE
  5
1538
330
1521
100
AcDbEntity
  8
0
 62
     0
100
AcDbLine
 10
3.294816471809419
 20
-10.86023987025457
 30
0.0
 11
3.082624704809461
 21
-10.6480481032546
 31
0.0
  0
LINE
  5
1539
330
1521
100
AcDbEntity
  8
0
 62
     0
100
AcDbLine
 10
3.294816471809426
 20
-11.09597159343263
 30
0.0
 11
3.082624704809474
 21
-10.88377982643268
 31
0.0
  0
LINE
  5
153A
330
1521
100
AcDbEntity
  8
0
 62
     0
100
AcDbLine
 10
3.294816471809426
 20
-11.33170331661069
 30
0.0
 11
3.082624704809468
 21
-11.11951154961074
 31
0.0
  0
LINE
  5
153B
330
1521
100
AcDbEntity
  8
0
 62
     0
100
AcDbLine
 10
3.294816471809419
 20
-11.56743503978875
 30
0.0
 11
3.082624704809468
 21
-11.35524327278881
 31
0.0
  0
LINE
  5
153C
330
1521
100
AcDbEntity
  8
0
 62
     0
100
AcDbLine
 10
3.294816471809426
 20
-11.80316676296683
 30
0.0
 11
3.082624704809468
 21
-11.59097499596687
 31
0.0
  0
LINE
  5
153D
330
1521
100
AcDbEntity
  8
0
 62
     0
100
AcDbLine
 10
3.294816471809411
 20
-12.03889848614488
 30
0.0
 11
3.082624704809461
 21
-11.82670671914494
 31
0.0
  0
LINE
  5
153E
330
1521
100
AcDbEntity
  8
0
 62
     0
100
AcDbLine
 10
3.294816471809426
 20
-12.27463020932296
 30
0.0
 11
3.082624704809474
 21
-12.06243844232302
 31
0.0
  0
LINE
  5
153F
330
1521
100
AcDbEntity
  8
0
 62
     0
100
AcDbLine
 10
3.294816471809426
 20
-12.51036193250103
 30
0.0
 11
3.082624704809468
 21
-12.29817016550107
 31
0.0
  0
LINE
  5
1540
330
1521
100
AcDbEntity
  8
0
 62
     0
100
AcDbLine
 10
3.294816471809419
 20
-12.7460936556791
 30
0.0
 11
3.082624704809468
 21
-12.53390188867915
 31
0.0
  0
LINE
  5
1541
330
1521
100
AcDbEntity
  8
0
 62
     0
100
AcDbLine
 10
3.290062309988357
 20
-12.97707121703608
 30
0.0
 11
3.082624704809468
 21
-12.7696336118572
 31
0.0
  0
LINE
  5
1542
330
1521
100
AcDbEntity
  8
0
 62
     0
100
AcDbLine
 10
3.253193000403448
 20
-13.17593363062925
 30
0.0
 11
3.074236505306537
 21
-12.99697713553234
 31
0.0
  0
LINE
  5
1543
330
1521
100
AcDbEntity
  8
0
 62
     0
100
AcDbLine
 10
3.18921464459015
 20
-13.34768699799401
 30
0.0
 11
3.027164552993986
 21
-13.18563690639785
 31
0.0
  0
LINE
  5
1544
330
1521
100
AcDbEntity
  8
0
 62
     0
100
AcDbLine
 10
3.103814893826012
 20
-13.49801897040793
 30
0.0
 11
2.950311173986341
 21
-13.34451525056827
 31
0.0
  0
LINE
  5
1545
330
1521
100
AcDbEntity
  8
0
 62
     0
100
AcDbLine
 10
2.999649062445164
 20
-13.62958486220516
 30
0.0
 11
2.849455977199872
 21
-13.47939177695987
 31
0.0
  0
LINE
  5
1546
330
1521
100
AcDbEntity
  8
0
 62
     0
100
AcDbLine
 10
2.877702818340999
 20
-13.74337034127906
 30
0.0
 11
2.726540528425259
 21
-13.59220805136332
 31
0.0
  0
LINE
  5
1547
330
1521
100
AcDbEntity
  8
0
 62
     0
100
AcDbLine
 10
2.737690149594256
 20
-13.83908939571039
 30
0.0
 11
2.581011949389086
 21
-13.68241119550521
 31
0.0
  0
LINE
  5
1548
330
1521
100
AcDbEntity
  8
0
 62
     0
100
AcDbLine
 10
1.279010410280513
 20
-12.6161413795747
 30
0.0
 11
1.11184125484943
 21
-12.44897222414361
 31
0.0
  0
LINE
  5
1549
330
1521
100
AcDbEntity
  8
0
 62
     0
100
AcDbLine
 10
2.577943456406103
 20
-13.91507442570029
 30
0.0
 11
2.409471764917056
 21
-13.74660273421124
 31
0.0
  0
LINE
  5
154A
330
1521
100
AcDbEntity
  8
0
 62
     0
100
AcDbLine
 10
1.279010410280505
 20
-12.85187310275276
 30
0.0
 11
1.066818637819558
 21
-12.63968133029182
 31
0.0
  0
LINE
  5
154B
330
1521
100
AcDbEntity
  8
0
 62
     0
100
AcDbLine
 10
2.3946800115431
 20
-13.96754270401536
 30
0.0
 11
2.202938001470086
 21
-13.77580069394234
 31
0.0
  0
LINE
  5
154C
330
1521
100
AcDbEntity
  8
0
 62
     0
100
AcDbLine
 10
1.313825469159445
 20
-13.12241988480975
 30
0.0
 11
1.066819229992219
 21
-12.87541364564252
 31
0.0
  0
LINE
  5
154D
330
1521
100
AcDbEntity
  8
0
 62
     0
100
AcDbLine
 10
2.179668798895193
 20
-13.98826321454551
 30
0.0
 11
1.932662559727964
 21
-13.74125697537827
 31
0.0
  0
LINE
  5
154E
330
1521
100
AcDbEntity
  8
0
 62
     0
100
AcDbLine
 10
1.910690917046075
 20
-13.95501705587446
 30
0.0
 11
1.10006538866326
 21
-13.14439152749164
 31
0.0
  0
ENDBLK
  5
1550
330
1521
100
AcDbEntity
  8
0
100
AcDbBlockEnd
  0
BLOCK
  5
155B
330
1551
100
AcDbEntity
  8
0
100
AcDbBlockBegin
  2
*X4
 70
     1
 10
0.0
 20
0.0
 30
0.0
  3
*X4
  1

  0
LINE
  5
1552
330
1551
100
AcDbEntity
  8
0
 62
     0
100
AcDbLine
 10
2.976528818578984
 20
-10.77768394020218
 30
0.0
 11
2.959043916706504
 21
-10.76019903832972
 31
0.0
  0
LINE
  5
1553
330
1551
100
AcDbEntity
  8
0
 62
     0
100
AcDbLine
 10
2.976528818578976
 20
-11.01341566338025
 30
0.0
 11
2.628542881455238
 21
-10.66542972625651
 31
0.0
  0
LINE
  5
1554
330
1551
100
AcDbEntity
  8
0
 62
     0
100
AcDbLine
 10
2.963435272440881
 20
-11.23605384042024
 30
0.0
 11
2.298041846203978
 21
-10.57066041418333
 31
0.0
  0
LINE
  5
1555
330
1551
100
AcDbEntity
  8
0
 62
     0
100
AcDbLine
 10
2.632932943878123
 20
-11.14128323503552
 30
0.0
 11
1.967540810952725
 21
-10.47589110211013
 31
0.0
  0
LINE
  5
1556
330
1551
100
AcDbEntity
  8
0
 62
     0
100
AcDbLine
 10
2.302430615315357
 20
-11.04651262965084
 30
0.0
 11
1.637039775701452
 21
-10.38112179003694
 31
0.0
  0
LINE
  5
1557
330
1551
100
AcDbEntity
  8
0
 62
     0
100
AcDbLine
 10
1.971928286752606
 20
-10.95174202426614
 30
0.0
 11
1.3065387404502
 21
-10.28635247796372
 31
0.0
  0
LINE
  5
1558
330
1551
100
AcDbEntity
  8
0
 62
     0
100
AcDbLine
 10
1.641425958189841
 20
-10.85697141888145
 30
0.0
 11
1.066818637819564
 21
-10.28236409851116
 31
0.0
  0
LINE
  5
1559
330
1551
100
AcDbEntity
  8
0
 62
     0
100
AcDbLine
 10
1.310923629627082
 20
-10.76220081349676
 30
0.0
 11
1.066818637819558
 21
-10.51809582168922
 31
0.0
  0
LINE
  5
155A
330
1551
100
AcDbEntity
  8
0
 62
     0
100
AcDbLine
 10
1.088745240343236
 20
-10.77575414739097
 30
0.0
 11
1.066818637819564
 21
-10.7538275448673
 31
0.0
  0
ENDBLK
  5
155C
330
1551
100
AcDbEntity
  8
0
100
AcDbBlockEnd
  0
BLOCK
  5
156E
330
155D
100
AcDbEntity
  8
0
100
AcDbBlockBegin
  2
*X5
 70
     1
 10
0.0
 20
0.0
 30
0.0
  3
*X5
  1

  0
LINE
  5
155E
330
155D
100
AcDbEntity
  8
0
 62
     0
100
AcDbLine
 10
2.866267759626282
 20
-9.253032542181106
 30
0.0
 11
2.667341175677612
 21
-9.05410595823244
 31
0.0
  0
LINE
  5
155F
330
155D
100
AcDbEntity
  8
0
 62
     0
100
AcDbLine
 10
2.973311016767503
 20
-9.595807522500384
 30
0.0
 11
2.336839223885135
 21
-8.959335729618025
 31
0.0
  0
LINE
  5
1560
330
155D
100
AcDbEntity
  8
0
 62
     0
100
AcDbLine
 10
2.637468497805876
 20
-9.495696726716834
 30
0.0
 11
2.006337272092656
 21
-8.864565501003609
 31
0.0
  0
LINE
  5
1561
330
155D
100
AcDbEntity
  8
0
 62
     0
100
AcDbLine
 10
2.958949796291014
 20
-9.817178025201977
 30
0.0
 11
2.709833181810154
 21
-9.568061410721107
 31
0.0
  0
LINE
  5
1562
330
155D
100
AcDbEntity
  8
0
 62
     0
100
AcDbLine
 10
2.294807617108893
 20
-9.388767569197922
 30
0.0
 11
1.894356937380115
 21
-8.988316889469144
 31
0.0
  0
LINE
  5
1563
330
155D
100
AcDbEntity
  8
0
 62
     0
100
AcDbLine
 10
2.894565644714723
 20
-9.988525596803743
 30
0.0
 11
2.709284972303904
 21
-9.803244924392927
 31
0.0
  0
LINE
  5
1564
330
155D
100
AcDbEntity
  8
0
 62
     0
100
AcDbLine
 10
2.106548709841042
 20
-9.436240385108128
 30
0.0
 11
1.894356937380115
 21
-9.224048612647202
 31
0.0
  0
LINE
  5
1565
330
155D
100
AcDbEntity
  8
0
 62
     0
100
AcDbLine
 10
2.79692411133888
 20
-10.12661578660596
 30
0.0
 11
2.572197230405548
 21
-9.901888905672636
 31
0.0
  0
LINE
  5
1566
330
155D
100
AcDbEntity
  8
0
 62
     0
100
AcDbLine
 10
1.348486654973547
 20
-8.913910053418701
 30
0.0
 11
1.326394182066565
 21
-8.89181758051172
 31
0.0
  0
LINE
  5
1567
330
155D
100
AcDbEntity
  8
0
 62
     0
100
AcDbLine
 10
2.670262681894576
 20
-10.23568608033973
 30
0.0
 11
2.283726833106142
 21
-9.849150231551298
 31
0.0
  0
LINE
  5
1568
330
155D
100
AcDbEntity
  8
0
 62
     0
100
AcDbLine
 10
1.407547880493345
 20
-9.208703002116557
 30
0.0
 11
1.147176011686227
 21
-8.948331133309435
 31
0.0
  0
LINE
  5
1569
330
155D
100
AcDbEntity
  8
0
 62
     0
100
AcDbLine
 10
2.512839522459095
 20
-10.3139946440823
 30
0.0
 11
1.953224559176234
 21
-9.754379680799443
 31
0.0
  0
LINE
  5
156A
330
155D
100
AcDbEntity
  8
0
 62
     0
100
AcDbLine
 10
1.307170115995851
 20
-9.344056960797132
 30
0.0
 11
1.148282362821553
 21
-9.185169207622832
 31
0.0
  0
LINE
  5
156B
330
155D
100
AcDbEntity
  8
0
 62
     0
100
AcDbLine
 10
2.314609196777708
 20
-10.35149604157899
 30
0.0
 11
1.622722285246303
 21
-9.65960913004759
 31
0.0
  0
LINE
  5
156C
330
155D
100
AcDbEntity
  8
0
 62
     0
100
AcDbLine
 10
2.0454755090717
 20
-10.31809407705103
 30
0.0
 11
1.0841334982329
 21
-9.356752066212255
 31
0.0
  0
LINE
  5
156D
330
155D
100
AcDbEntity
  8
0
 62
     0
100
AcDbLine
 10
1.731482545935462
 20
-10.23983283709287
 30
0.0
 11
1.070201539477138
 21
-9.578551830634543
 31
0.0
  0
ENDBLK
  5
156F
330
155D
100
AcDbEntity
  8
0
100
AcDbBlockEnd
  0
BLOCK
  5
1623
330
1570
100
AcDbEntity
  8
0
100
AcDbBlockBegin
  2
A$C71AE15AF
 70
     0
 10
0.0
 20
0.0
 30
0.0
  3
A$C71AE15AF
  1

  0
ELLIPSE
  5
1571
330
1570
100
AcDbEntity
  8
240
100
AcDbEllipse
 10
-10.50617546608404
 20
0.0000000000003617
 30
0.0
 11
28.27074826996423
 21
-24.93076146916359
 31
0.0000000000000002
210
0.0
220
0.0
230
1.0
 40
0.0657689204286509
 41
2.766549711635695
 42
3.06715045357473
  0
ARC
  5
1572
330
1570
100
AcDbEntity
  8
240
100
AcDbCircle
 10
-11.15145566710388
 20
9.858745638872422
 30
0.0
 40
0.4
100
AcDbArc
 50
48.00000000000075
 51
145.9101800615861
  0
LINE
  5
1573
330
1570
100
AcDbEntity
  8
245
100
AcDbLine
 10
-82.79999999999544
 20
-0.0000000000004848
 30
0.0
 11
0.7688208754065938
 21
0.0000000000000046
 31
0.0
  0
LINE
  5
1574
330
1570
100
AcDbEntity
  8
240
100
AcDbLine
 10
-4.297169975669868
 20
-2.476979387827972
 30
0.0
 11
-31.48377875936924
 21
-24.1960251615489
 31
0.0
  0
CIRCLE
  5
1575
330
1570
100
AcDbEntity
  8
246
100
AcDbCircle
 10
-8.478458665760408
 20
1.632106772919305
 30
0.0
 40
4.724999999999999
  0
LINE
  5
1576
330
1570
100
AcDbEntity
  8
241
100
AcDbLine
 10
-14.98198213118229
 20
-8.789576608989992
 30
0.0
 11
-9.92538052087297
 21
-2.06606472296383
 31
0.0
  0
LINE
  5
1577
330
1570
100
AcDbEntity
  8
241
100
AcDbLine
 10
-4.444990884247047
 20
-2.02549911027194
 30
0.0
 11
-11.65730836677909
 21
-4.368923115831613
 31
0.0
  0
LINE
  5
1578
330
1570
100
AcDbEntity
  8
241
100
AcDbLine
 10
-20.67731272623269
 20
1.897471388777064
 30
0.0
 11
-9.845924381856436
 21
2.475357288119762
 31
0.0
  0
SPLINE
  5
1579
330
1570
100
AcDbEntity
  8
241
100
AcDbSpline
210
0.0
220
0.0
230
1.0
 70
     8
 71
     3
 72
    50
 73
    46
 74
     0
 42
0.0000000001
 43
0.0000000001
 40
11.29187797260339
 40
11.29187797260339
 40
11.29187797260339
 40
11.29187797260339
 40
12.66000523246953
 40
12.66000523246953
 40
14.15578013285154
 40
14.15578013285154
 40
15.65155503323356
 40
15.65155503323356
 40
17.14732993361557
 40
17.14732993361557
 40
18.85678560541008
 40
18.85678560541008
 40
20.56624127720458
 40
20.56624127720458
 40
21.42096911310184
 40
21.42096911310184
 40
22.27569694899909
 40
22.27569694899909
 40
23.13042478489635
 40
23.13042478489635
 40
23.55778870284498
 40
23.55778870284498
 40
23.9851526207936
 40
23.9851526207936
 40
24.41251653874223
 40
24.41251653874223
 40
24.83988045669086
 40
24.83988045669086
 40
25.69460829258811
 40
25.69460829258811
 40
26.54933612848537
 40
26.54933612848537
 40
27.40406396438262
 40
27.40406396438262
 40
29.11351963617713
 40
29.11351963617713
 40
30.82297530797164
 40
30.82297530797164
 40
32.31875020835365
 40
32.31875020835365
 40
33.81452510873566
 40
33.81452510873566
 40
35.31030000911766
 40
35.31030000911766
 40
36.67842726898381
 40
36.67842726898381
 40
36.67842726898381
 40
36.67842726898381
 10
-38.25263168779896
 20
19.01960955840375
 30
0.0
 10
-38.20073185970189
 20
19.01118331998035
 30
0.0
 10
-38.10896215086866
 20
18.95809707223603
 30
0.0
 10
-37.83858232779131
 20
18.75954528635592
 30
0.0
 10
-37.65262043567786
 20
18.60590456510071
 30
0.0
 10
-37.21178698855036
 20
18.2198331693413
 30
0.0
 10
-36.95653807328228
 20
17.98709089836824
 30
0.0
 10
-36.40680670753494
 20
17.47223020804568
 30
0.0
 10
-36.11237395149313
 20
17.19014577705587
 30
0.0
 10
-35.48043725465821
 20
16.57265949277474
 30
0.0
 10
-35.11832076796638
 20
16.21182462718191
 30
0.0
 10
-34.38152958709045
 20
15.4538528678062
 30
0.0
 10
-34.00653473801947
 20
15.05711231287941
 30
0.0
 10
-33.47283046319704
 20
14.45231983616688
 30
0.0
 10
-33.30100077201184
 20
14.25040879411867
 30
0.0
 10
-32.97567436100145
 20
13.84341766386306
 30
0.0
 10
-32.82199499258352
 20
13.63848995435533
 30
0.0
 10
-32.54451730407494
 20
13.21834809444702
 30
0.0
 10
-32.42089550090998
 20
13.00503589068943
 30
0.0
 10
-32.27754905507737
 20
12.66143442839722
 30
0.0
 10
-32.23704696407574
 20
12.54298323909659
 30
0.0
 10
-32.1785464982538
 20
12.29246598532074
 30
0.0
 10
-32.16053580365819
 20
12.16040428382052
 30
0.0
 10
-32.16053580365819
 20
11.87549502906176
 30
0.0
 10
-32.17854649825379
 20
11.7434368152065
 30
0.0
 10
-32.23704696407573
 20
11.49293129419896
 30
0.0
 10
-32.27754905507735
 20
11.37448837143181
 30
0.0
 10
-32.42089550090995
 20
11.0309175511902
 30
0.0
 10
-32.5445173040749
 20
10.81763338225981
 30
0.0
 10
-32.82199499258348
 20
10.39756227742514
 30
0.0
 10
-32.97567436100141
 20
10.19267720309902
 30
0.0
 10
-33.30100077201179
 20
9.785786971499854
 30
0.0
 10
-33.47283046319699
 20
9.583934210053577
 30
0.0
 10
-34.0065347380194
 20
8.979342963588779
 30
0.0
 10
-34.38152958709038
 20
8.582770502089058
 30
0.0
 10
-35.11832076796628
 20
7.825201944426413
 30
0.0
 10
-35.4804372546581
 20
7.464602294218833
 30
0.0
 10
-36.11237395149301
 20
6.847608057860162
 30
0.0
 10
-36.40680670753481
 20
6.565788536766946
 30
0.0
 10
-36.95653807328211
 20
6.05152210170507
 30
0.0
 10
-37.21178698855019
 20
5.819109226654226
 30
0.0
 10
-37.65262043567767
 20
5.433746073513747
 30
0.0
 10
-37.83858232779115
 20
5.280484976763701
 30
0.0
 10
-38.10896215086847
 20
5.08268642806119
 30
0.0
 10
-38.20073185970172
 20
5.029971558845014
 30
0.0
 10
-38.2526316877988
 20
5.021916977569313
 30
0.0
  0
ELLIPSE
  5
157A
330
1570
100
AcDbEntity
  8
241
100
AcDbEllipse
 10
-38.26715810530862
 20
12.02081528017132
 30
0.0
 11
-0.000331977261023
 21
6.999999999897085
 31
0.0
210
0.0
220
0.0
230
1.0
 40
0.114333767104802
 41
6.264619124545315
 42
9.442514549111905
  0
ELLIPSE
  5
157B
330
1570
100
AcDbEntity
  8
241
100
AcDbEllipse
 10
-36.8922103689075
 20
0.0000000000000527
 30
0.0
 11
0.0011856330750767
 21
-24.99999999963247
 31
0.0
210
0.0
220
0.0
230
1.0
 40
0.114333767104802
 41
3.63721869916959
 42
5.786729667308047
  0
LINE
  5
157C
330
1570
100
AcDbEntity
  8
240
100
AcDbLine
 10
-50.0000000000002
 20
24.6999999999988
 30
0.0
 11
-50.00000000000007
 21
13.99999999998763
 31
0.0
  0
TEXT
  5
157D
330
1570
100
AcDbEntity
  8
247
100
AcDbText
 10
-44.86973664070831
 20
-8.87505228252173
 30
0.0
 40
2.5
  1
S50-DTJNR-00050-16
 50
90.0
 41
0.7
  7
YOKO
 11
-44.86973664070831
 21
-8.87505228252173
 31
0.0
100
AcDbText
 73
     1
  0
LINE
  5
157E
330
1570
100
AcDbEntity
  8
241
100
AcDbLine
 10
-31.48377875936975
 20
19.33367733305317
 30
0.0
 11
-31.48377875936949
 21
-3.357198613214754
 31
0.0
  0
LINE
  5
157F
330
1570
100
AcDbEntity
  8
240
100
AcDbLine
 10
-30.4838390401231
 20
18.4233206309341
 30
0.0
 11
-31.48377875936975
 21
19.33367733305317
 31
0.0
  0
LINE
  5
1580
330
1570
100
AcDbEntity
  8
240
100
AcDbLine
 10
-76.50000000000034
 20
13.99999999999947
 30
0.0
 11
-50.00000000000007
 21
13.99999999998763
 31
0.0
  0
LINE
  5
1581
330
1570
100
AcDbEntity
  8
240
100
AcDbLine
 10
-76.50000000000023
 20
-14.00000000000052
 30
0.0
 11
-49.99999999999976
 21
-13.99999991978018
 31
0.0
  0
LINE
  5
1582
330
1570
100
AcDbEntity
  8
240
100
AcDbLine
 10
-81.0000000000001
 20
13.09999999999947
 30
0.0
 11
-80.9999999999999
 21
-13.10000000000068
 31
0.0
  0
LINE
  5
1583
330
1570
100
AcDbEntity
  8
241
100
AcDbLine
 10
-78.4594706361966
 20
13.72461436121363
 30
0.0
 11
-78.45947063619695
 21
-0.0000000000006898
 31
0.0
  0
LINE
  5
1584
330
1570
100
AcDbEntity
  8
241
100
AcDbLine
 10
-76.50000000000023
 20
13.99999999999941
 30
0.0
 11
-76.50000000000005
 21
-0.0000000000005531
 31
0.0
  0
LINE
  5
1585
330
1570
100
AcDbEntity
  8
241
100
AcDbLine
 10
-78.45947063619629
 20
-13.72461436121478
 30
0.0
 11
-78.45947063619695
 21
-0.0000000000004624
 31
0.0
  0
LINE
  5
1586
330
1570
100
AcDbEntity
  8
241
100
AcDbLine
 10
-76.49999999999988
 20
-14.00000000000052
 30
0.0
 11
-76.50000000000005
 21
-0.0000000000005531
 31
0.0
  0
LINE
  5
1587
330
1570
100
AcDbEntity
  8
240
100
AcDbLine
 10
-78.45947063619629
 20
-13.72461436121478
 30
0.0
 11
-76.50000000000023
 21
-14.00000000000052
 31
0.0
  0
ARC
  5
1588
330
1570
100
AcDbEntity
  8
240
100
AcDbCircle
 10
-80.09999999999987
 20
-13.10000000000067
 30
0.0
 40
0.9000000000000088
100
AcDbArc
 50
180.0000176000943
 51
279.9999999999992
  0
LINE
  5
1589
330
1570
100
AcDbEntity
  8
240
100
AcDbLine
 10
-78.45947063619629
 20
-13.72461436121478
 30
0.0
 11
-79.94371664009964
 21
-13.98632697771168
 31
0.0
  0
LINE
  5
158A
330
1570
100
AcDbEntity
  8
240
100
AcDbLine
 10
-78.4594706361966
 20
13.72461436121363
 30
0.0
 11
-76.50000000000034
 21
13.99999999999947
 31
0.0
  0
LINE
  5
158B
330
1570
100
AcDbEntity
  8
240
100
AcDbLine
 10
-78.4594706361966
 20
13.72461436121363
 30
0.0
 11
-79.94371664009998
 21
13.98632697771049
 31
0.0
  0
ARC
  5
158C
330
1570
100
AcDbEntity
  8
240
100
AcDbCircle
 10
-80.10000000000017
 20
13.09999999999948
 30
0.0
 40
0.9000000000000088
100
AcDbArc
 50
79.99999999999886
 51
180.0000176000943
  0
LINE
  5
158D
330
1570
100
AcDbEntity
  8
247
100
AcDbLine
 10
-44.89674134054616
 20
-19.18816588197305
 30
0.0
 11
-44.89674134054616
 21
-17.67845570741257
 31
0.0
  0
LINE
  5
158E
330
1570
100
AcDbEntity
  8
247
100
AcDbLine
 10
-47.80713665157388
 20
-18.53234845198921
 30
0.0
 11
-48.17093944545812
 21
-18.16854565810493
 31
0.0
  0
LINE
  5
158F
330
1570
100
AcDbEntity
  8
247
100
AcDbLine
 10
-47.49106974091066
 20
-18.4442533232636
 30
0.0
 11
-48.17093944545812
 21
-17.76438361871613
 31
0.0
  0
LINE
  5
1590
330
1570
100
AcDbEntity
  8
247
100
AcDbLine
 10
-45.7911344611774
 20
-18.93170248483048
 30
0.0
 11
-47.06460066966983
 21
-17.65823627633799
 31
0.0
  0
LINE
  5
1591
330
1570
100
AcDbEntity
  8
247
100
AcDbLine
 10
-44.89674134054616
 20
-19.01777152668419
 30
0.0
 11
-45.93130953342754
 21
-17.98320333380278
 31
0.0
  0
LINE
  5
1592
330
1570
100
AcDbEntity
  8
247
100
AcDbLine
 10
-44.89674134054616
 20
-18.61360948729538
 30
0.0
 11
-45.36467281231555
 21
-18.14567801552593
 31
0.0
  0
LINE
  5
1593
330
1570
100
AcDbEntity
  8
241
100
AcDbLine
 10
-31.48377875936924
 20
-24.1960251615489
 30
0.0
 11
-31.48377875936943
 21
-7.327797678326291
 31
0.0
  0
LINE
  5
1594
330
1570
100
AcDbEntity
  8
241
100
AcDbLine
 10
-38.2526316877988
 20
5.021916977569313
 30
0.0
 11
-38.25263168779849
 21
-21.9819721373233
 31
0.0
  0
LINE
  5
1595
330
1570
100
AcDbEntity
  8
240
100
AcDbLine
 10
-49.99999999999976
 20
-13.99999991978018
 30
0.0
 11
-49.99999999999964
 21
-24.69999999999983
 31
0.0
  0
INSERT
  5
1596
330
1570
100
AcDbEntity
  8
247
  6
CONTINUOUS
100
AcDbBlockReference
  2
*X3
 10
-49.99999999999986
 20
2.693863903902971
 30
0.0
 41
1.714499999999986
 42
1.714500000000001
 43
1.7145
1001
ACAD
1000
HATCH
1002
{
1070
    19
1000
ANSI31
1040
0.0525
1040
1.570796326794895
1002
}
  0
LINE
  5
1597
330
1570
100
AcDbEntity
  8
247
100
AcDbLine
 10
-44.35103715908261
 20
-19.37906345944963
 30
0.0
 11
-44.35103715908261
 21
-11.9939134413298
 31
0.0
1001
ACAD
1000
ASC_BOUNDS
1002
{
1070
    19
1005
0
1002
}
  0
LINE
  5
1598
330
1570
100
AcDbEntity
  8
247
100
AcDbLine
 10
-44.71483994360403
 20
-19.37906345944963
 30
0.0
 11
-44.71483994360403
 21
-11.9939134413298
 31
0.0
1001
ACAD
1000
ASC_BOUNDS
1002
{
1070
    19
1005
0
1002
}
  0
LINE
  5
1599
330
1570
100
AcDbEntity
  8
247
100
AcDbLine
 10
-46.92442464766626
 20
-18.60673637711921
 30
0.0
 11
-48.1709394454581
 21
-17.36022157932739
 31
0.0
  0
LINE
  5
159A
330
1570
100
AcDbEntity
  8
247
100
AcDbLine
 10
-46.35777955442189
 20
-18.76921943097483
 30
0.0
 11
-47.63124039979548
 21
-17.49575858560117
 31
0.0
  0
LINE
  5
159B
330
1570
100
AcDbEntity
  8
247
100
AcDbLine
 10
-48.17093944545824
 20
-18.43854368749202
 30
0.0
 11
-48.1709394454581
 21
-17.26493275183893
 31
0.0
  0
LINE
  5
159C
330
1570
100
AcDbEntity
  8
247
100
AcDbLine
 10
-45.22448936793305
 20
-19.09418553868605
 30
0.0
 11
-46.76377712056067
 21
-17.55489778605841
 31
0.0
  0
LINE
  5
159D
330
1570
100
AcDbEntity
  8
240
100
AcDbLine
 10
-33.24095361192251
 20
-24.99999999999991
 30
0.0
 11
-49.69999999999932
 21
-25.00000000000083
 31
0.0
  0
LINE
  5
159E
330
1570
100
AcDbEntity
  8
240
100
AcDbLine
 10
-49.69999999999963
 20
-24.99999999999978
 30
0.0
 11
-49.99999999999964
 21
-24.69999999999983
 31
0.0
  0
ARC
  5
159F
330
1570
100
AcDbEntity
  8
247
100
AcDbCircle
 10
-46.26098851219254
 20
-19.37906345944963
 30
0.0
 40
1.546148139381408
100
AcDbArc
 50
180.0
 51
0.0
1001
ACAD
1000
ASC_BOUNDS
1002
{
1070
    19
1005
0
1002
}
  0
ARC
  5
15A0
330
1570
100
AcDbEntity
  8
247
100
AcDbCircle
 10
-46.26098851219254
 20
-19.37906345944963
 30
0.0
 40
1.909950933265685
100
AcDbArc
 50
180.0
 51
0.0
1001
ACAD
1000
ASC_BOUNDS
1002
{
1070
    19
1005
0
1002
}
  0
LINE
  5
15A1
330
1570
100
AcDbEntity
  8
247
100
AcDbLine
 10
-47.80713665157393
 20
-19.37906345944963
 30
0.0
 11
-47.80713665157393
 21
-18.73208013082108
 31
0.0
1001
ACAD
1000
ASC_BOUNDS
1002
{
1070
    19
1005
0
1002
}
  0
LINE
  5
15A2
330
1570
100
AcDbEntity
  8
247
100
AcDbLine
 10
-48.17093944545824
 20
-19.37906345944963
 30
0.0
 11
-48.17093944545824
 21
-18.62776564050275
 31
0.0
1001
ACAD
1000
ASC_BOUNDS
1002
{
1070
    19
1005
0
1002
}
  0
LINE
  5
15A3
330
1570
100
AcDbEntity
  8
247
100
AcDbLine
 10
-47.80713665157393
 20
-18.5428581778109
 30
0.0
 11
-47.80713665157285
 21
-18.35362249017359
 31
0.0
  0
LINE
  5
15A4
330
1570
100
AcDbEntity
  8
247
100
AcDbLine
 10
-48.17093944545824
 20
-18.43854368749202
 30
0.0
 11
-47.80713665157393
 21
-18.5428581778109
 31
0.0
  0
LINE
  5
15A5
330
1570
100
AcDbEntity
  8
247
100
AcDbLine
 10
-48.17093944545824
 20
-18.62776564050275
 30
0.0
 11
-47.80713665157393
 21
-18.73208013082108
 31
0.0
1001
ACAD
1000
ASC_BOUNDS
1002
{
1070
    19
1005
0
1002
}
  0
LINE
  5
15A6
330
1570
100
AcDbEntity
  8
247
100
AcDbLine
 10
-44.89674134054616
 20
-19.18816588197305
 30
0.0
 11
-47.80713665157285
 21
-18.35362249017359
 31
0.0
  0
SPLINE
  5
15A7
330
1570
100
AcDbEntity
  8
241
100
AcDbSpline
210
0.0
220
0.0
230
1.0
 70
     8
 71
     3
 72
    20
 73
    16
 74
     0
 42
0.0000000001
 43
0.0000000001
 40
28.4810190330169
 40
28.4810190330169
 40
28.4810190330169
 40
28.4810190330169
 40
29.94589606754951
 40
29.94589606754951
 40
31.44242387171152
 40
31.44242387171152
 40
32.93895167587354
 40
32.93895167587354
 40
34.58973257810806
 40
34.58973257810806
 40
36.24051348034258
 40
36.24051348034258
 40
37.8912943825771
 40
37.8912943825771
 40
38.51565959658336
 40
38.51565959658336
 40
38.51565959658336
 40
38.51565959658336
 10
-31.8639249917833
 20
-24.50081136629484
 30
0.0
 10
-32.36543574159667
 20
-24.4805898555033
 30
0.0
 10
-32.86351384676123
 20
-24.44972925800034
 30
0.0
 10
-33.82875414723605
 20
-24.36185592533721
 30
0.0
 10
-34.29582285703113
 20
-24.30410132943027
 30
0.0
 10
-35.15797072192401
 20
-24.1589350948132
 30
0.0
 10
-35.55301751627293
 20
-24.07134188736954
 30
0.0
 10
-36.28697687213707
 20
-23.85839917172074
 30
0.0
 10
-36.64147933543128
 20
-23.72280829996896
 30
0.0
 10
-37.25499944739641
 20
-23.39827835145775
 30
0.0
 10
-37.5140669733784
 20
-23.20915747408681
 30
0.0
 10
-37.92157142853626
 20
-22.78061692554645
 30
0.0
 10
-38.07049171131014
 20
-22.54066871557963
 30
0.0
 10
-38.20236494161248
 20
-22.18455565115399
 30
0.0
 10
-38.23104059467518
 20
-22.08424594127674
 30
0.0
 10
-38.25263168779849
 20
-21.9819721373233
 30
0.0
  0
ELLIPSE
  5
15A8
330
1570
100
AcDbEntity
  8
241
100
AcDbEllipse
 10
-30.30441341117665
 20
-24.19278594521931
 30
0.0
 11
-7.987208882037877
 21
-6.295179419169484
 31
0.0
210
0.0
220
0.0
230
1.0
 40
0.0718343992698903
 41
4.803792468600215
 42
4.852027733854214
  0
ELLIPSE
  5
15A9
330
1570
100
AcDbEntity
  8
240
100
AcDbEllipse
 10
-1.25315845095417
 20
0.0000000000004701
 30
0.0
 11
-32.17226467825426
 21
-24.93493051335236
 31
0.0000000000000002
210
0.0
220
0.0
230
1.0
 40
0.0560285369710882
 41
0.0721652177584996
 42
0.2723369037716807
  0
LINE
  5
15AA
330
1570
100
AcDbEntity
  8
245
100
AcDbLine
 10
-63.99999999999934
 20
-6.585300982584053
 30
0.0
 11
-63.99999999999995
 21
6.535064604360959
 31
0.0
  0
CIRCLE
  5
15AB
330
1570
100
AcDbEntity
  8
241
100
AcDbCircle
 10
-64.00000000000003
 20
-0.0000000000005773
 30
0.0
 40
4.0
  0
SPLINE
  5
15AC
330
1570
100
AcDbEntity
  8
241
100
AcDbSpline
210
0.0
220
0.0
230
1.0
 70
    11
 71
     3
 72
    70
 73
    66
 74
     0
 42
0.0000000001
 43
0.0000000001
 40
0.0
 40
0.0
 40
0.0
 40
0.0
 40
0.9197496568304652
 40
0.9197496568304652
 40
1.83949931366093
 40
1.83949931366093
 40
2.759248970491396
 40
2.759248970491396
 40
3.678998627321861
 40
3.678998627321861
 40
4.631875395981221
 40
4.631875395981221
 40
5.584752164640583
 40
5.584752164640583
 40
6.537628933299944
 40
6.537628933299944
 40
7.490505701959305
 40
7.490505701959305
 40
8.443382470618661
 40
8.443382470618661
 40
9.39625923927802
 40
9.39625923927802
 40
10.34913600793737
 40
10.34913600793737
 40
11.30201277659673
 40
11.30201277659673
 40
12.2217624334272
 40
12.2217624334272
 40
13.14151209025766
 40
13.14151209025766
 40
14.06126174708813
 40
14.06126174708813
 40
14.9810114039186
 40
14.9810114039186
 40
15.91208227998781
 40
15.91208227998781
 40
16.84315315605702
 40
16.84315315605702
 40
17.77422403212622
 40
17.77422403212622
 40
18.70529490819543
 40
18.70529490819543
 40
19.64673146562238
 40
19.64673146562238
 40
20.58816802304932
 40
20.58816802304932
 40
21.52960458047627
 40
21.52960458047627
 40
22.47104113790322
 40
22.47104113790322
 40
23.41247769533016
 40
23.41247769533016
 40
24.3539142527571
 40
24.3539142527571
 40
25.29535081018405
 40
25.29535081018405
 40
26.23678736761099
 40
26.23678736761099
 40
27.1678582436802
 40
27.1678582436802
 40
28.0989291197494
 40
28.0989291197494
 40
29.0299999958186
 40
29.0299999958186
 40
29.96107087188781
 40
29.96107087188781
 40
29.96107087188781
 40
29.96107087188781
 10
-64.00000000000009
 20
4.813238667570308
 30
0.0
 10
-63.69341678105658
 20
4.813238667570312
 30
0.0
 10
-63.37626085482514
 20
4.786140626473409
 30
0.0
 10
-62.74440677204079
 20
4.671798730367021
 30
0.0
 10
-62.42970138435773
 20
4.584583114443272
 30
0.0
 10
-61.82426227349971
 20
4.353455323821338
 30
0.0
 10
-61.53306955977739
 20
4.209379306697676
 30
0.0
 10
-60.99166717234233
 20
3.875324214316803
 30
0.0
 10
-60.74146009689256
 20
3.685312193028182
 30
0.0
 10
-60.28684645229731
 20
3.271009973574883
 30
0.0
 10
-60.06785585213075
 20
3.030604788969791
 30
0.0
 10
-59.67913298603701
 20
2.502017360458224
 30
0.0
 10
-59.50937594437323
 20
2.213831988603929
 30
0.0
 10
-59.23491531454833
 20
1.607725564507849
 30
0.0
 10
-59.12996812109026
 20
1.289204275586476
 30
0.0
 10
-58.99153386157943
 20
0.6441601606738275
 30
0.0
 10
-58.95808984297815
 20
0.317625589552613
 30
0.0
 10
-58.95808984297814
 20
-0.3176255895535927
 30
0.0
 10
-58.99153386157941
 20
-0.6441601606748078
 30
0.0
 10
-59.12996812109024
 20
-1.289204275587459
 30
0.0
 10
-59.23491531454826
 20
-1.607725564508835
 30
0.0
 10
-59.50937594437316
 20
-2.213831988604921
 30
0.0
 10
-59.67913298603695
 20
-2.502017360459221
 30
0.0
 10
-60.06785585213065
 20
-3.030604788970796
 30
0.0
 10
-60.28684645229724
 20
-3.271009973575893
 30
0.0
 10
-60.74146009689247
 20
-3.685312193029203
 30
0.0
 10
-60.99166717234224
 20
-3.87532421431783
 30
0.0
 10
-61.53306955977726
 20
-4.209379306698715
 30
0.0
 10
-61.82426227349958
 20
-4.353455323822385
 30
0.0
 10
-62.42970138435762
 20
-4.584583114444332
 30
0.0
 10
-62.74440677204069
 20
-4.671798730368089
 30
0.0
 10
-63.376260854825
 20
-4.78614062647455
 30
0.0
 10
-63.69341678105646
 20
-4.813238667571402
 30
0.0
 10
-64.3103569586897
 20
-4.813238667571409
 30
0.0
 10
-64.63129234204441
 20
-4.785470431102639
 30
0.0
 10
-65.27026933877599
 20
-4.66842159523983
 30
0.0
 10
-65.58831874294352
 20
-4.579171023035171
 30
0.0
 10
-66.19963276822358
 20
-4.342762119793554
 30
0.0
 10
-66.49336985375022
 20
-4.19543319944277
 30
0.0
 10
-67.03879695522307
 20
-3.853899818126011
 30
0.0
 10
-67.29048375056199
 20
-3.659660585884798
 30
0.0
 10
-67.74130660191109
 20
-3.241308021639947
 30
0.0
 10
-67.95583231479622
 20
-3.00199285530533
 30
0.0
 10
-68.33652384033474
 20
-2.476737516738867
 30
0.0
 10
-68.50271248665894
 20
-2.190793541030136
 30
0.0
 10
-68.77130233774945
 20
-1.590081060247322
 30
0.0
 10
-68.87393747752192
 20
-1.27472779216948
 30
0.0
 10
-69.00926202767092
 20
-0.6365989058262578
 30
0.0
 10
-69.0419101570219
 20
-0.3138121858095926
 30
0.0
 10
-69.0419101570219
 20
0.3138121858083767
 30
0.0
 10
-69.00926202767094
 20
0.6365989058250996
 30
0.0
 10
-68.87393747752195
 20
1.274727792168325
 30
0.0
 10
-68.77130233774945
 20
1.590081060246169
 30
0.0
 10
-68.50271248665896
 20
2.19079354102899
 30
0.0
 10
-68.33652384033479
 20
2.476737516737725
 30
0.0
 10
-67.95583231479625
 20
3.001992855304139
 30
0.0
 10
-67.74130660191118
 20
3.241308021638762
 30
0.0
 10
-67.29048375056208
 20
3.659660585883623
 30
0.0
 10
-67.03879695522314
 20
3.853899818124842
 30
0.0
 10
-66.49336985375028
 20
4.195433199441557
 30
0.0
 10
-66.19963276822369
 20
4.342762119792404
 30
0.0
 10
-65.58831874294364
 20
4.579171023034036
 30
0.0
 10
-65.27026933877611
 20
4.668421595238702
 30
0.0
 10
-64.63129234204453
 20
4.785470431101527
 30
0.0
 10
-64.31035695868982
 20
4.813238667570304
 30
0.0
 10
-64.00000000000009
 20
4.813238667570308
 30
0.0
  0
LINE
  5
15AD
330
1570
100
AcDbEntity
  8
241
100
AcDbLine
 10
-50.00000000000007
 20
13.99999999998763
 30
0.0
 11
-49.99999999999976
 21
-13.99999991978018
 31
0.0
  0
ARC
  5
15AE
330
1570
100
AcDbEntity
  8
247
100
AcDbCircle
 10
-45.67891502967911
 20
-13.91143215394579
 30
0.0
 40
0.3819924829110504
100
AcDbArc
 50
254.0002730571841
 51
74.00027305718409
1001
ACAD
1000
ASC_BOUNDS
1002
{
1070
    19
1005
0
1002
}
  0
ARC
  5
15AF
330
1570
100
AcDbEntity
  8
247
100
AcDbCircle
 10
-46.07908711525042
 20
-13.87237087541184
 30
0.0
 40
1.182359080123901
100
AcDbArc
 50
253.9997507017292
 51
34.9638732916315
1001
ACAD
1000
ASC_BOUNDS
1002
{
1070
    19
1005
0
1002
}
  0
ARC
  5
15B0
330
1570
100
AcDbEntity
  8
247
100
AcDbCircle
 10
-46.26098851219254
 20
-11.9939134413298
 30
0.0
 40
1.909950933265685
100
AcDbArc
 50
0.0
 51
194.770793966094
1001
ACAD
1000
ASC_BOUNDS
1002
{
1070
    19
1005
0
1002
}
  0
INSERT
  5
15B1
330
1570
100
AcDbEntity
  8
247
  6
CONTINUOUS
100
AcDbBlockReference
  2
*X5
 10
-49.99999999999986
 20
2.693863903902971
 30
0.0
 41
1.714499999999986
 42
1.714500000000001
 43
1.7145
1001
ACAD
1000
HATCH
1002
{
1070
    19
1000
ANSI31
1040
0.0525
1040
1.570796326794895
1002
}
  0
ARC
  5
15B2
330
1570
100
AcDbEntity
  8
247
100
AcDbCircle
 10
-46.98859409996109
 20
-13.61157778230271
 30
0.0
 40
1.182347062325477
100
AcDbArc
 50
143.4440121970577
 51
254.0001843876854
1001
ACAD
1000
ASC_BOUNDS
1002
{
1070
    19
1005
0
1002
}
  0
ARC
  5
15B3
330
1570
100
AcDbEntity
  8
247
100
AcDbCircle
 10
-47.38876618553238
 20
-13.42113344750962
 30
0.0
 40
0.3819927511654794
100
AcDbArc
 50
91.7101213820627
 51
253.9983983544487
1001
ACAD
1000
ASC_BOUNDS
1002
{
1070
    19
1005
0
1002
}
  0
ARC
  5
15B4
330
1570
100
AcDbEntity
  8
247
100
AcDbCircle
 10
-45.80623501983718
 20
-17.67845570741257
 30
0.0
 40
0.9094932500839236
100
AcDbArc
 50
0.0
 51
130.3298406541675
  0
LINE
  5
15B5
330
1570
100
AcDbEntity
  8
247
100
AcDbLine
 10
-44.89674134054616
 20
-16.57678755956255
 30
0.0
 11
-44.89674134054616
 21
-15.76309333119949
 31
0.0
  0
LINE
  5
15B6
330
1570
100
AcDbEntity
  8
247
100
AcDbLine
 10
-45.95914196109391
 20
-17.55120886674763
 30
0.0
 11
-47.152066669163
 21
-16.35828415867852
 31
0.0
  0
LINE
  5
15B7
330
1570
100
AcDbEntity
  8
247
100
AcDbLine
 10
-47.18565730592625
 20
-17.13301760069286
 30
0.0
 11
-47.79444616010108
 21
-16.52422874651802
 31
0.0
  0
LINE
  5
15B8
330
1570
100
AcDbEntity
  8
247
100
AcDbLine
 10
-47.54319015622426
 20
-17.17964678978364
 30
0.0
 11
-47.99682535378845
 21
-16.72601159221947
 31
0.0
  0
ARC
  5
15B9
330
1570
100
AcDbEntity
  8
247
100
AcDbCircle
 10
-47.26144619537431
 20
-17.26118401151259
 30
0.0
 40
0.9095009758114816
100
AcDbArc
 50
17.66957754739818
 51
180.2361598426716
  0
LINE
  5
15BA
330
1570
100
AcDbEntity
  8
247
100
AcDbLine
 10
-47.75612835224221
 20
-17.37087063315447
 30
0.0
 11
-48.13132822192526
 21
-16.99567076347134
 31
0.0
  0
ARC
  5
15BB
330
1570
100
AcDbEntity
  8
247
100
AcDbCircle
 10
-46.01692419448929
 20
-11.93927709603866
 30
0.0
 40
3.094081780242919
100
AcDbArc
 50
245.2051773698405
 51
262.7948259620521
1001
ACAD
1000
ASC_BOUNDS
1002
{
1070
    19
1005
0
1002
}
  0
LINE
  5
15BC
330
1570
100
AcDbEntity
  8
247
100
AcDbLine
 10
-45.7842046784981
 20
-14.27862740064223
 30
0.0
 11
-47.49406956897813
 21
-13.78832869420609
 31
0.0
1001
ACAD
1000
ASC_BOUNDS
1002
{
1070
    19
1005
0
1002
}
  0
LINE
  5
15BD
330
1570
100
AcDbEntity
  8
247
100
AcDbLine
 10
-47.77076735988695
 20
-15.88513922467789
 30
0.0
 11
-47.77076735988695
 21
-15.75266874948105
 31
0.0
  0
LINE
  5
15BE
330
1570
100
AcDbEntity
  8
247
100
AcDbLine
 10
-48.17093944545824
 20
-15.77038641801439
 30
0.0
 11
-48.17093944545824
 21
-14.82423544908126
 31
0.0
  0
LINE
  5
15BF
330
1570
100
AcDbEntity
  8
247
100
AcDbLine
 10
-47.77076735988695
 20
-15.88513922467789
 30
0.0
 11
-48.17093944545824
 21
-15.77038641801439
 31
0.0
  0
LINE
  5
15C0
330
1570
100
AcDbEntity
  8
247
100
AcDbLine
 10
-44.9649309321944
 20
-17.33293377748074
 30
0.0
 11
-45.46071308990526
 21
-16.83715161976983
 31
0.0
  0
LINE
  5
15C1
330
1570
100
AcDbEntity
  8
247
100
AcDbLine
 10
-44.89674134054616
 20
-15.76309333119949
 30
0.0
 11
-48.17093944545824
 21
-14.82423544908126
 31
0.0
  0
LINE
  5
15C2
330
1570
100
AcDbEntity
  8
247
100
AcDbLine
 10
-44.89674134054616
 20
-16.57678755956255
 30
0.0
 11
-47.77076735988695
 21
-15.75266874948105
 31
0.0
  0
POLYLINE
  5
15C3
330
1570
100
AcDbEntity
  8
247
100
AcDb2dPolyline
 66
     1
 10
0.0
 20
0.0
 30
0.0
 70
     1
1001
HATCH_DISTANCE
1040
1.0
1001
HATCH_DISPLAY
1070
     0
1001
HATCH_TYPE
1070
     7
  0
VERTEX
  5
15C4
330
15C3
100
AcDbEntity
  8
247
100
AcDbVertex
100
AcDb2dVertex
 10
-48.17093944545824
 20
-15.77038641801439
 30
0.0
  0
VERTEX
  5
15C5
330
15C3
100
AcDbEntity
  8
247
100
AcDbVertex
100
AcDb2dVertex
 10
-47.77076735988695
 20
-15.88513922467789
 30
0.0
  0
VERTEX
  5
15C6
330
15C3
100
AcDbEntity
  8
247
100
AcDbVertex
100
AcDb2dVertex
 10
-47.77076735988695
 20
-15.75266874948105
 30
0.0
  0
VERTEX
  5
15C7
330
15C3
100
AcDbEntity
  8
247
100
AcDbVertex
100
AcDb2dVertex
 10
-44.89674134054616
 20
-16.57678755956255
 30
0.0
  0
VERTEX
  5
15C8
330
15C3
100
AcDbEntity
  8
247
100
AcDbVertex
100
AcDb2dVertex
 10
-44.89674134054616
 20
-15.76309333119949
 30
0.0
  0
VERTEX
  5
15C9
330
15C3
100
AcDbEntity
  8
247
100
AcDbVertex
100
AcDb2dVertex
 10
-48.17093944545824
 20
-14.82423544908126
 30
0.0
  0
SEQEND
  5
15CA
330
15C3
100
AcDbEntity
  8
247
  0
POLYLINE
  5
15CB
330
1570
100
AcDbEntity
  8
247
100
AcDb2dPolyline
 66
     1
 10
0.0
 20
0.0
 30
0.0
 70
     1
  0
VERTEX
  5
15CC
330
15CB
100
AcDbEntity
  8
247
100
AcDbVertex
100
AcDb2dVertex
 10
-48.17093944545824
 20
-15.77038641801439
 30
0.0
  0
VERTEX
  5
15CD
330
15CB
100
AcDbEntity
  8
247
100
AcDbVertex
100
AcDb2dVertex
 10
-47.77076735988695
 20
-15.88513922467789
 30
0.0
  0
VERTEX
  5
15CE
330
15CB
100
AcDbEntity
  8
247
100
AcDbVertex
100
AcDb2dVertex
 10
-47.77076735988695
 20
-15.75266874948105
 30
0.0
  0
VERTEX
  5
15CF
330
15CB
100
AcDbEntity
  8
247
100
AcDbVertex
100
AcDb2dVertex
 10
-44.89674134054616
 20
-16.57678755956255
 30
0.0
  0
VERTEX
  5
15D0
330
15CB
100
AcDbEntity
  8
247
100
AcDbVertex
100
AcDb2dVertex
 10
-44.89674134054616
 20
-15.76309333119949
 30
0.0
  0
VERTEX
  5
15D1
330
15CB
100
AcDbEntity
  8
247
100
AcDbVertex
100
AcDb2dVertex
 10
-48.17093944545824
 20
-14.82423544908126
 30
0.0
  0
SEQEND
  5
15D2
330
15CB
100
AcDbEntity
  8
247
  0
INSERT
  5
15D3
330
1570
100
AcDbEntity
  8
247
  6
CONTINUOUS
100
AcDbBlockReference
  2
*X4
 10
-49.99999999999986
 20
2.693863903902971
 30
0.0
 41
1.714499999999986
 42
1.714500000000001
 43
1.7145
1001
ACAD
1000
HATCH
1002
{
1070
    19
1000
ANSI31
1040
0.0525
1040
1.570796326794895
1002
}
  0
LINE
  5
15D4
330
1570
100
AcDbEntity
  8
247
100
AcDbLine
 10
-46.34244546824803
 20
-17.86531619788998
 30
0.0
 11
-45.30268046533695
 21
-18.16345340224081
 31
0.0
  0
LINE
  5
15D5
330
1570
100
AcDbEntity
  8
247
100
AcDbLine
 10
-44.8967413405461
 20
-17.80528540851777
 30
0.0
 11
-45.92524434818455
 21
-16.7767824008794
 31
0.0
  0
LINE
  5
15D6
330
1570
100
AcDbEntity
  8
247
100
AcDbLine
 10
-44.89674134054616
 20
-18.2094474479066
 30
0.0
 11
-46.23161650691637
 21
-16.87457228153636
 31
0.0
  0
LINE
  5
15D7
330
1570
100
AcDbEntity
  8
247
100
AcDbLine
 10
-46.22222294777305
 20
-17.69228991945726
 30
0.0
 11
-47.52408350912381
 21
-16.39042935810645
 31
0.0
  0
ARC
  5
15D8
330
1570
100
AcDbEntity
  8
247
100
AcDbCircle
 10
-47.29781548706132
 20
-17.66705596719345
 30
0.0
 40
0.545688953974843
100
AcDbArc
 50
351.6626016879293
 51
156.3381550951898
  0
LINE
  5
15D9
330
1570
100
AcDbEntity
  8
247
100
AcDbLine
 10
-47.79762776632166
 20
-17.4480488440429
 30
0.0
 11
-46.75789360296458
 21
-17.74618114374063
 31
0.0
  0
ARC
  5
15DA
330
1570
100
AcDbEntity
  8
247
100
AcDbCircle
 10
-45.84261804615096
 20
-18.08432766309341
 30
0.0
 40
0.5457045663826169
100
AcDbArc
 50
351.6628542111504
 51
156.3381921591101
  0
ARC
  5
15DB
330
1570
100
AcDbEntity
  8
247
100
AcDbCircle
 10
-46.26098851219254
 20
-11.9939134413298
 30
0.0
 40
1.546148139381408
100
AcDbArc
 50
0.0
 51
194.1274364964119
1001
ACAD
1000
ASC_BOUNDS
1002
{
1070
    19
1005
0
1002
}
  0
POLYLINE
  5
15DC
330
1570
100
AcDbEntity
  8
247
100
AcDb2dPolyline
 66
     1
 10
0.0
 20
0.0
 30
0.0
 70
     1
1001
HATCH_DISTANCE
1040
1.0
1001
HATCH_DISPLAY
1070
     0
1001
HATCH_TYPE
1070
     7
  0
VERTEX
  5
15DD
330
15DC
100
AcDbEntity
  8
247
100
AcDbVertex
100
AcDb2dVertex
 10
-47.76038398204881
 20
-12.37129978108962
 30
0.0
  0
VERTEX
  5
15DE
330
15DC
100
AcDbEntity
  8
247
100
AcDbVertex
100
AcDb2dVertex
 10
-48.10782883544997
 20
-12.48086089883407
 30
0.0
  0
VERTEX
  5
15DF
330
15DC
100
AcDbEntity
  8
247
100
AcDbVertex
100
AcDb2dVertex
 10
-48.10782883544997
 20
-12.48086089883407
 30
0.0
  0
VERTEX
  5
15E0
330
15DC
100
AcDbEntity
  8
247
100
AcDbVertex
100
AcDb2dVertex
 10
-47.76038398204881
 20
-12.37129978108962
 30
0.0
  0
SEQEND
  5
15E1
330
15DC
100
AcDbEntity
  8
247
  0
POLYLINE
  5
15E2
330
1570
100
AcDbEntity
  8
247
100
AcDb2dPolyline
 66
     1
 10
0.0
 20
0.0
 30
0.0
 70
     1
  0
VERTEX
  5
15E3
330
15E2
100
AcDbEntity
  8
247
100
AcDbVertex
100
AcDb2dVertex
 10
-47.76038398204881
 20
-12.37129978108962
 30
0.0
  0
VERTEX
  5
15E4
330
15E2
100
AcDbEntity
  8
247
100
AcDbVertex
100
AcDb2dVertex
 10
-48.10782883544997
 20
-12.48086089883407
 30
0.0
  0
VERTEX
  5
15E5
330
15E2
100
AcDbEntity
  8
247
100
AcDbVertex
100
AcDb2dVertex
 10
-48.10782883544997
 20
-12.48086089883407
 30
0.0
  0
VERTEX
  5
15E6
330
15E2
100
AcDbEntity
  8
247
100
AcDbVertex
100
AcDb2dVertex
 10
-47.76038398204881
 20
-12.37129978108962
 30
0.0
  0
SEQEND
  5
15E7
330
15E2
100
AcDbEntity
  8
247
  0
POLYLINE
  5
15E8
330
1570
100
AcDbEntity
  8
247
100
AcDb2dPolyline
 66
     1
 10
0.0
 20
0.0
 30
0.0
 70
     1
1001
HATCH_DISTANCE
1040
1.0
1001
HATCH_DISPLAY
1070
     0
1001
HATCH_TYPE
1070
     7
  0
VERTEX
  5
15E9
330
15E8
100
AcDbEntity
  8
247
100
AcDbVertex
100
AcDb2dVertex
 10
-47.76038398204881
 20
-12.37129978108962
 30
0.0
  0
VERTEX
  5
15EA
330
15E8
100
AcDbEntity
  8
247
100
AcDbVertex
100
AcDb2dVertex
 10
-48.10782883544997
 20
-12.48086089883407
 30
0.0
  0
VERTEX
  5
15EB
330
15E8
100
AcDbEntity
  8
247
100
AcDbVertex
100
AcDb2dVertex
 10
-48.10782883544997
 20
-12.48086089883407
 30
0.0
  0
VERTEX
  5
15EC
330
15E8
100
AcDbEntity
  8
247
100
AcDbVertex
100
AcDb2dVertex
 10
-47.76038398204881
 20
-12.37129978108962
 30
0.0
  0
SEQEND
  5
15ED
330
15E8
100
AcDbEntity
  8
247
  0
POLYLINE
  5
15EE
330
1570
100
AcDbEntity
  8
247
100
AcDb2dPolyline
 66
     1
 10
0.0
 20
0.0
 30
0.0
 70
     1
  0
VERTEX
  5
15EF
330
15EE
100
AcDbEntity
  8
247
100
AcDbVertex
100
AcDb2dVertex
 10
-47.76038398204881
 20
-12.37129978108962
 30
0.0
  0
VERTEX
  5
15F0
330
15EE
100
AcDbEntity
  8
247
100
AcDbVertex
100
AcDb2dVertex
 10
-48.10782883544997
 20
-12.48086089883407
 30
0.0
  0
VERTEX
  5
15F1
330
15EE
100
AcDbEntity
  8
247
100
AcDbVertex
100
AcDb2dVertex
 10
-48.10782883544997
 20
-12.48086089883407
 30
0.0
  0
VERTEX
  5
15F2
330
15EE
100
AcDbEntity
  8
247
100
AcDbVertex
100
AcDb2dVertex
 10
-47.76038398204881
 20
-12.37129978108962
 30
0.0
  0
SEQEND
  5
15F3
330
15EE
100
AcDbEntity
  8
247
  0
LINE
  5
15F4
330
1570
100
AcDbEntity
  8
247
100
AcDbLine
 10
-47.76038398204881
 20
-12.37129978108962
 30
0.0
 11
-48.10782883544997
 21
-12.48086089883407
 31
0.0
1001
ACAD
1000
ASC_BOUNDS
1002
{
1070
    19
1005
0
1002
}
  0
LINE
  5
15F5
330
1570
100
AcDbEntity
  8
247
100
AcDbLine
 10
-47.70567896362383
 20
-12.54478185182174
 30
0.0
 11
-48.05312381702496
 21
-12.65434296956621
 31
0.0
1001
ACAD
1000
ASC_BOUNDS
1002
{
1070
    19
1005
0
1002
}
  0
ARC
  5
15F6
330
1570
100
AcDbEntity
  8
247
100
AcDbCircle
 10
-46.26098851219254
 20
-11.9939134413298
 30
0.0
 40
1.909951791679857
100
AcDbArc
 50
200.22964506332
 51
208.5716889237172
1001
ACAD
1000
ASC_BOUNDS
1002
{
1070
    19
1005
0
1002
}
  0
LINE
  5
15F7
330
1570
100
AcDbEntity
  8
247
100
AcDbLine
 10
-44.89674134054616
 20
-12.98140563684067
 30
0.0
 11
-46.75212503086167
 21
-12.44938113427719
 31
0.0
1001
ACAD
1000
ASC_BOUNDS
1002
{
1070
    19
1005
0
1002
}
  0
LINE
  5
15F8
330
1570
100
AcDbEntity
  8
247
100
AcDbLine
 10
-45.57362538086011
 20
-13.5442369072493
 30
0.0
 11
-46.38832223697739
 21
-13.31062464051803
 31
0.0
1001
ACAD
1000
ASC_BOUNDS
1002
{
1070
    19
1005
0
1002
}
  0
LINE
  5
15F9
330
1570
100
AcDbEntity
  8
247
100
AcDbLine
 10
-46.38832223697739
 20
-13.61339075303635
 30
0.0
 11
-46.75212503086167
 21
-13.50907626271806
 31
0.0
1001
ACAD
1000
ASC_BOUNDS
1002
{
1070
    19
1005
0
1002
}
  0
LINE
  5
15FA
330
1570
100
AcDbEntity
  8
247
100
AcDbLine
 10
-46.38832223697739
 20
-13.61339075303635
 30
0.0
 11
-46.38832223697739
 21
-13.31062464051803
 31
0.0
1001
ACAD
1000
ASC_BOUNDS
1002
{
1070
    19
1005
0
1002
}
  0
LINE
  5
15FB
330
1570
100
AcDbEntity
  8
247
100
AcDbLine
 10
-46.75212503086167
 20
-13.50907626271806
 30
0.0
 11
-46.75212503086167
 21
-12.44938113427719
 31
0.0
1001
ACAD
1000
ASC_BOUNDS
1002
{
1070
    19
1005
0
1002
}
  0
ARC
  5
15FC
330
1570
100
AcDbEntity
  8
247
100
AcDbCircle
 10
-46.26098851219254
 20
-11.9939134413298
 30
0.0
 40
1.546152431452272
100
AcDbArc
 50
200.8721834020772
 51
222.5419489373864
1001
ACAD
1000
ASC_BOUNDS
1002
{
1070
    19
1005
0
1002
}
  0
LINE
  5
15FD
330
1570
100
AcDbEntity
  8
247
100
AcDbLine
 10
-45.11013623667197
 20
-13.19481426759325
 30
0.0
 11
-44.89674134054616
 21
-12.98140563684067
 31
0.0
1001
ACAD
1000
ASC_BOUNDS
1002
{
1070
    19
1005
0
1002
}
  0
LINE
  5
15FE
330
1570
100
AcDbEntity
  8
241
100
AcDbLine
 10
-26.1380405116978
 20
-0.5083533005095856
 30
0.0
 11
-22.71787466048268
 21
1.314317956945318
 31
0.0
  0
ARC
  5
15FF
330
1570
100
AcDbEntity
  8
241
100
AcDbCircle
 10
-26.39950885499183
 20
-13.6787863068653
 30
0.0
 40
1.5
100
AcDbArc
 50
208.0540000000006
 51
298.0540000000006
  0
LINE
  5
1600
330
1570
100
AcDbEntity
  8
241
100
AcDbLine
 10
-31.80799925054336
 20
-3.529981862930722
 30
0.0
 11
-26.1380405116978
 21
-0.5083533005095856
 31
0.0
  0
LINE
  5
1601
330
1570
100
AcDbEntity
  8
241
100
AcDbLine
 10
-27.72326595637461
 20
-14.38424157585029
 30
0.0
 11
-32.42630108294116
 21
-5.559194233298464
 31
0.0
  0
ARC
  5
1602
330
1570
100
AcDbEntity
  8
241
100
AcDbCircle
 10
-31.10254398155838
 20
-4.853738964313482
 30
0.0
 40
1.5
100
AcDbArc
 50
118.0540000000006
 51
208.0540000000006
  0
ELLIPSE
  5
1603
330
1570
100
AcDbEntity
  8
241
100
AcDbEllipse
 10
-18.01483953391604
 20
-7.510729385606441
 30
0.0
 11
3.494028570828441
 21
1.86203410180026
 31
0.0
210
0.0
220
0.0
230
-1.0
 40
0.757725401809699
 41
1.019126887075714
 42
1.570796326794896
  0
CIRCLE
  5
1604
330
1570
100
AcDbEntity
  8
241
100
AcDbCircle
 10
-21.6909885442337
 20
-5.503834534336316
 30
0.0
 40
4.25
  0
LINE
  5
1605
330
1570
100
AcDbEntity
  8
241
100
AcDbLine
 10
-16.60392899594607
 20
-10.15824358837198
 30
0.0
 11
-20.02409484716153
 21
-11.98091484582707
 31
0.0
  0
LINE
  5
1606
330
1570
100
AcDbEntity
  8
241
100
AcDbLine
 10
-20.02409484716153
 20
-11.98091484582707
 30
0.0
 11
-25.69405358600684
 21
-15.00254340824808
 31
0.0
  0
LINE
  5
1607
330
1570
100
AcDbEntity
  8
241
100
AcDbLine
 10
-22.77710798276597
 20
-3.465777150802603
 30
0.0
 11
-23.99905773201028
 21
-5.425412867882601
 31
0.0
  0
LINE
  5
1608
330
1570
100
AcDbEntity
  8
241
100
AcDbLine
 10
-19.38291935645694
 20
-5.582256200789656
 30
0.0
 11
-20.46903879498934
 21
-3.544198817256212
 31
0.0
  0
LINE
  5
1609
330
1570
100
AcDbEntity
  8
241
100
AcDbLine
 10
-22.91293829347773
 20
-7.463470251416057
 30
0.0
 11
-20.60486910570111
 21
-7.541891917869631
 31
0.0
  0
LINE
  5
160A
330
1570
100
AcDbEntity
  8
241
100
AcDbLine
 10
-23.99905773201028
 20
-5.425412867882601
 30
0.0
 11
-22.91293829347773
 21
-7.463470251416057
 31
0.0
  0
LINE
  5
160B
330
1570
100
AcDbEntity
  8
241
100
AcDbLine
 10
-20.60486910570111
 20
-7.541891917869631
 30
0.0
 11
-19.38291935645694
 21
-5.582256200789656
 31
0.0
  0
LINE
  5
160C
330
1570
100
AcDbEntity
  8
241
100
AcDbLine
 10
-20.46903879498934
 20
-3.544198817256212
 30
0.0
 11
-22.77710798276597
 21
-3.465777150802603
 31
0.0
  0
ELLIPSE
  5
160D
330
1570
100
AcDbEntity
  8
240
100
AcDbEllipse
 10
-13.93834885960246
 20
37.00093015511593
 30
0.0
 11
0.068664119212837
 21
-24.99990570459683
 31
0.0
210
0.0
220
0.0
230
1.0
 40
0.9890738003538126
 41
5.547370112210139
 42
6.280408398047756
  0
LINE
  5
160E
330
1570
100
AcDbEntity
  8
241
100
AcDbLine
 10
-11.54271470739739
 20
9.941910315199509
 30
0.0
 11
-13.16744730165126
 21
2.298144432420648
 31
0.0
  0
ELLIPSE
  5
160F
330
1570
100
AcDbEntity
  8
241
100
AcDbEllipse
 10
-21.30696412251271
 20
-1.3331962458202
 30
0.0
 11
3.494028570828293
 21
1.862034101800184
 31
0.0
210
0.0
220
0.0
230
-1.0
 40
0.757725401809731
 41
4.712388980384689
 42
5.264058420103872
  0
ARC
  5
1610
330
1570
100
AcDbEntity
  8
241
100
AcDbCircle
 10
-11.15145566710388
 20
9.858745638872422
 30
0.0
 40
0.4
100
AcDbArc
 50
145.9101800615861
 51
168.0000000000023
  0
LINE
  5
1611
330
1570
100
AcDbEntity
  8
240
100
AcDbLine
 10
-13.61297012559276
 20
12.00091239633239
 30
0.0
 11
-13.93834885960216
 21
12.00093224996269
 31
0.0
  0
LINE
  5
1612
330
1570
100
AcDbEntity
  8
240
100
AcDbLine
 10
-13.61297012559276
 20
12.00091239633239
 30
0.0
 11
-11.4827196404708
 21
10.08294238271399
 31
0.0
  0
LINE
  5
1613
330
1570
100
AcDbEntity
  8
240
100
AcDbLine
 10
-38.57667885022275
 20
25.00000000000003
 30
0.0
 11
-49.69999999999905
 21
24.9999999999999
 31
0.0
  0
LINE
  5
1614
330
1570
100
AcDbEntity
  8
240
100
AcDbLine
 10
-49.70000000000019
 20
24.99999999999876
 30
0.0
 11
-50.0000000000002
 21
24.6999999999988
 31
0.0
  0
ELLIPSE
  5
1615
330
1570
100
AcDbEntity
  8
240
100
AcDbEllipse
 10
-30.30441341117719
 20
19.33691654858547
 30
0.0
 11
-7.982372537013369
 21
7.179502184924907
 31
0.0
210
0.0
220
0.0
230
1.0
 40
0.0739300838001749
 41
0.8065661570283896
 42
1.489232812498729
  0
SPLINE
  5
1616
330
1570
100
AcDbEntity
  8
241
100
AcDbSpline
210
0.0
220
0.0
230
1.0
 70
     8
 71
     3
 72
    14
 73
    10
 74
     0
 42
0.0000000001
 43
0.0000000001
 40
15.4204389407365
 40
15.4204389407365
 40
15.4204389407365
 40
15.4204389407365
 40
16.04480415474275
 40
16.04480415474275
 40
17.69558505697728
 40
17.69558505697728
 40
19.3463659592118
 40
19.3463659592118
 40
20.54495194346312
 40
20.54495194346312
 40
20.54495194346312
 40
20.54495194346312
 10
-38.252631687799
 20
21.99171417936125
 30
0.0
 10
-38.23104059467572
 20
22.09383336846568
 30
0.0
 10
-38.20236494161304
 20
22.19398665958679
 30
0.0
 10
-38.07049171131066
 20
22.54952648227201
 30
0.0
 10
-37.92157142853683
 20
22.78905240728219
 30
0.0
 10
-37.51406697337897
 20
23.2167703660118
 30
0.0
 10
-37.25499944739699
 20
23.40549019009073
 30
0.0
 10
-36.72550946818161
 20
23.68492492584431
 30
0.0
 10
-36.47779800872739
 20
23.78849444309981
 30
0.0
 10
-36.21124620247142
 20
23.87896963420519
 30
0.0
  0
LINE
  5
1617
330
1570
100
AcDbEntity
  8
241
100
AcDbLine
 10
-38.252631687799
 20
21.99171417936125
 30
0.0
 11
-38.25263168779896
 21
19.01960955840375
 31
0.0
  0
ARC
  5
1618
330
1570
100
AcDbEntity
  8
240
100
AcDbCircle
 10
-0.8000000000000001
 20
-0.0000000000000094
 30
0.0
 40
0.8
100
AcDbArc
 50
288.0000000000006
 51
48.00000000000075
  0
ARC
  5
1619
330
1570
100
AcDbEntity
  8
241
100
AcDbCircle
 10
-8.894669897533466
 20
1.315566399185272
 30
0.0
 40
1.499999999999999
100
AcDbArc
 50
305.1309421108185
 51
329.4645157926335
  0
LINE
  5
161A
330
1570
100
AcDbEntity
  8
240
100
AcDbLine
 10
-0.5527864045000199
 20
-0.7608452130361372
 30
0.0
 11
-4.444990884247047
 21
-2.02549911027194
 31
0.0
  0
LINE
  5
161B
330
1570
100
AcDbEntity
  8
241
100
AcDbLine
 10
-8.031499392813589
 20
0.0888077922125586
 30
0.0
 11
-8.462386189711205
 21
-0.1207938606212417
 31
0.0
  0
LINE
  5
161C
330
1570
100
AcDbEntity
  8
241
100
AcDbLine
 10
-9.92538052087297
 20
-2.06606472296383
 30
0.0
 11
-8.462386189711205
 21
-0.1207938606212417
 31
0.0
  0
LINE
  5
161D
330
1570
100
AcDbEntity
  8
241
100
AcDbLine
 10
-9.92538052087297
 20
-2.06606472296383
 30
0.0
 11
-9.921928370672127
 21
-2.072542537425381
 31
0.0
  0
LINE
  5
161E
330
1570
100
AcDbEntity
  8
240
100
AcDbLine
 10
-4.297169975669811
 20
-2.476979387827972
 30
0.0
 11
-4.44499088424704
 21
-2.025499110271939
 31
0.0
  0
LINE
  5
161F
330
1570
100
AcDbEntity
  8
240
100
AcDbLine
 10
-0.2646955149129042
 20
0.5945158603819097
 30
0.0
 11
-10.88380342456035
 21
10.15600356906338
 31
0.0
  0
ARC
  5
1620
330
1570
100
AcDbEntity
  8
241
100
AcDbCircle
 10
-8.894669897533466
 20
1.315566399185272
 30
0.0
 40
1.499999999999999
100
AcDbArc
 50
329.4645157926335
 51
86.64348420734663
  0
LINE
  5
1621
330
1570
100
AcDbEntity
  8
241
100
AcDbLine
 10
-9.845924381856436
 20
2.475357288119762
 30
0.0
 11
-9.431661048844354
 21
2.716152170715819
 31
0.0
  0
ARC
  5
1622
330
1570
100
AcDbEntity
  8
241
100
AcDbCircle
 10
-8.894669897533466
 20
1.315566399185272
 30
0.0
 40
1.500000000000003
100
AcDbArc
 50
86.64348420734663
 51
110.9770578892188
  0
ENDBLK
  5
1624
330
1570
100
AcDbEntity
  8
0
100
AcDbBlockEnd
  0
ENDSEC
  0
SECTION
  2
ENTITIES
  0
DIMENSION
  5
BCE
330
1A
100
AcDbEntity
  8
250
  6
CONTINUOUS
100
AcDbDimension
  2
*D1
 10
-0.0000000000000009
 20
34.99999999999971
 30
0.0
 11
-24.99999999999997
 21
37.49999999999971
 31
0.0
 70
    32
  3
BIGT
100
AcDbAlignedDimension
 13
-49.99999999999993
 23
24.69999999999925
 33
0.0
 14
-0.000000000000003
 24
0.0
 34
0.0
100
AcDbRotatedDimension
1001
ACAD
1000
DSTYLE
1002
{
1070
    78
1070
     8
1070
   140
1040
3.0
1002
}
  0
TEXT
  5
BE6
330
1A
100
AcDbEntity
  8
241
100
AcDbText
 10
-77.99999999999991
 20
48.99999999999971
 30
0.0
 40
5.0
  1
S50-DTJNR-00050-16
  7
YOKO
 11
-77.99999999999991
 21
48.99999999999971
 31
0.0
100
AcDbText
 73
     1
  0
DIMENSION
  5
D00
330
1A
100
AcDbEntity
  8
250
  6
CONTINUOUS
100
AcDbDimension
  2
*D2
 10
14.0
 20
25.00000000000001
 30
0.0
 11
11.49999999999999
 21
-0.0000000000002368
 31
0.0
 70
    32
  1
{\H3;\U+2205}<>
  3
BIGT
100
AcDbAlignedDimension
 13
-38.57667885022243
 23
-25.00000000000048
 33
0.0
 14
-38.57667885022275
 24
25.00000000000003
 34
0.0
 50
90.0
100
AcDbRotatedDimension
1001
ACAD
1000
DSTYLE
1002
{
1070
    78
1070
     8
1070
   140
1040
3.0
1002
}
  0
INSERT
  5
1625
330
1A
100
AcDbEntity
  8
240
100
AcDbBlockReference
  2
A$C71AE15AF
 10
0.0
 20
0.0
 30
0.0
  0
VIEWPORT
  5
22
330
17
100
AcDbEntity
 67
     1
  8
0
100
AcDbViewport
 10
261.5176991150442
 20
148.5
 30
0.0
 40
523.0353982300885
 41
297.0
 68
     1
 69
     1
1001
ACAD
1000
MVIEW
1002
{
1070
    16
1010
0.0
1020
0.0
1030
0.0
1010
0.0
1020
0.0
1030
1.0
1040
0.0
1040
297.0
1040
261.5176991150442
1040
148.5
1040
50.0
1040
0.0
1040
0.0
1070
     0
1070
   100
1070
     1
1070
     1
1070
     0
1070
     0
1070
     0
1070
     0
1040
0.0
1040
0.0
1040
0.0
1040
1.0
1040
1.0
1040
10.0
1040
10.0
1070
     0
1002
{
1002
}
1002
}
  0
ENDSEC
  0
SECTION
  2
OBJECTS
  0
DICTIONARY
  5
C
330
0
100
AcDbDictionary
  3
ACAD_GROUP
350
D
  3
ACAD_LAYOUT
350
565
  3
ACAD_MLINESTYLE
350
E
  3
ACAD_PLOTSETTINGS
350
566
  3
ACAD_PLOTSTYLENAME
350
563
  3
ACDBHEADERROUNDTRIPXREC
350
1633
  3
ACDBVARIABLEDICTIONARY
350
68E
  3
GRADE_DWG
350
540
  0
DICTIONARY
  5
1656
330
1A
100
AcDbDictionary
280
     1
  3
ACAD_LAYOUTSELFREF
360
1657
  0
DICTIONARY
  5
1654
330
17
100
AcDbDictionary
280
     1
  3
ACAD_LAYOUTSELFREF
360
1655
  0
DICTIONARY
  5
D
102
{ACAD_REACTORS
330
C
102
}
330
C
100
AcDbDictionary
  3
DREC-1
350
5FC
  3
DREC-2
350
654
  3
DREC-3
350
673
  3
GROUP-1
350
B9F
  0
DICTIONARY
  5
565
102
{ACAD_REACTORS
330
C
102
}
330
C
100
AcDbDictionary
  0
DICTIONARY
  5
E
102
{ACAD_REACTORS
330
C
102
}
330
C
100
AcDbDictionary
  3
STANDARD
350
13
  0
DICTIONARY
  5
566
102
{ACAD_REACTORS
330
C
102
}
330
C
100
AcDbDictionary
  0
ACDBDICTIONARYWDFLT
  5
563
102
{ACAD_REACTORS
330
C
102
}
330
C
100
AcDbDictionary
281
     1
  3
Normal
350
564
100
AcDbDictionaryWithDefault
340
564
  0
DICTIONARY
  5
1633
102
{ACAD_REACTORS
330
C
102
}
330
C
100
AcDbDictionary
  3
CEPSNTYPE
350
163D
  3
DIMSTYLEDATA
350
1641
  3
FINGERPRINTGUID
350
163E
  3
HYPERLINKBASE
350
1636
  3
INSUNITS
350
163C
  3
LAYOUTDICT
350
1638
  3
LWETCUNION
350
163B
  3
PLOTSETDICT
350
1639
  3
PLOTSTYLNAMDICT
350
163A
  3
PSVPSCALE
350
1640
  3
PUCSBASE
350
1644
  3
PUCSORGBACK
350
164A
  3
PUCSORGBOTTOM
350
1646
  3
PUCSORGFRONT
350
1649
  3
PUCSORGLEFT
350
1647
  3
PUCSORGRIGHT
350
1648
  3
PUCSORGTOP
350
1645
  3
PUCSORTHOREF
350
1642
  3
PUCSORTHOVIEW
350
1643
  3
STYLESHEET
350
1637
  3
TSTACKALIGN
350
1634
  3
TSTACKSIZE
350
1635
  3
UCSBASE
350
164D
  3
UCSORGBACK
350
1653
  3
UCSORGBOTTOM
350
164F
  3
UCSORGFRONT
350
1652
  3
UCSORGLEFT
350
1650
  3
UCSORGRIGHT
350
1651
  3
UCSORGTOP
350
164E
  3
UCSORTHOREF
350
164B
  3
UCSORTHOVIEW
350
164C
  3
VERSIONGUID
350
163F
  0
DICTIONARY
  5
68E
102
{ACAD_REACTORS
330
C
102
}
330
C
100
AcDbDictionary
  3
DIMASSOC
350
68F
  3
SORTENTS
350
BAB
  0
DICTIONARY
  5
540
102
{ACAD_REACTORS
330
C
102
}
330
C
100
AcDbDictionary
  3
VERSION
350
560
  0
XRECORD
  5
1657
102
{ACAD_REACTORS
330
1656
102
}
330
1656
100
AcDbXrecord
340
1A
  0
XRECORD
  5
1655
102
{ACAD_REACTORS
330
1654
102
}
330
1654
100
AcDbXrecord
340
17
  0
GROUP
  5
5FC
102
{ACAD_REACTORS
330
D
102
}
330
D
100
AcDbGroup
300

 70
     0
 71
     1
1001
GRPNAME
1000
DREC-
1001
GPARA
1000
xsiz
1000
44.182
1000
ysiz
1000
40.677
1000
angl
1000
0
1000
ctyp
1000
0
1000
csiz
1000
5
1000
lfnt
1000
cont
1000
hcnt
1000
hoff
1000
vcnt
1000
voff
1000
opnt
1000
4
1000
dxpt
1000
0
1000
dypt
1000
0
  0
GROUP
  5
654
102
{ACAD_REACTORS
330
D
102
}
330
D
100
AcDbGroup
300

 70
     0
 71
     1
1001
GRPNAME
1000
DREC-
1001
GPARA
1000
xsiz
1000
54.592
1000
ysiz
1000
53.036
1000
angl
1000
0
1000
ctyp
1000
0
1000
csiz
1000
5
1000
lfnt
1000
cont
1000
hcnt
1000
hoff
1000
vcnt
1000
voff
1000
opnt
1000
4
1000
dxpt
1000
0
1000
dypt
1000
0
  0
GROUP
  5
673
102
{ACAD_REACTORS
330
D
102
}
330
D
100
AcDbGroup
300

 70
     0
 71
     1
1001
GRPNAME
1000
DREC-
1001
GPARA
1000
xsiz
1000
30.363
1000
ysiz
1000
36.175
1000
angl
1000
0
1000
ctyp
1000
0
1000
csiz
1000
5
1000
lfnt
1000
cont
1000
hcnt
1000
hoff
1000
vcnt
1000
voff
1000
opnt
1000
4
1000
dxpt
1000
0
1000
dypt
1000
0
  0
GROUP
  5
B9F
102
{ACAD_REACTORS
330
D
102
}
330
D
100
AcDbGroup
300

 70
     0
 71
     1
  0
MLINESTYLE
  5
13
102
{ACAD_REACTORS
330
E
102
}
330
E
100
AcDbMlineStyle
  2
STANDARD
 70
     0
  3

 62
     0
 51
90.0
 52
90.0
 71
     2
 49
0.5
 62
   256
  6
BYLAYER
 49
-0.5
 62
   256
  6
BYLAYER
  0
ACDBPLACEHOLDER
  5
564
102
{ACAD_REACTORS
330
563
102
}
330
563
100
AcDbPlaceHolder
280
     0
  0
XRECORD
  5
163D
102
{ACAD_REACTORS
330
1633
102
}
330
1633
100
AcDbXrecord
 90
        0
  0
XRECORD
  5
1641
102
{ACAD_REACTORS
330
1633
102
}
330
1633
100
AcDbXrecord
1000
DSTYLE
1002
{
1070
    79
 70
     2
1070
   179
 70
     3
1070
   289
 70
     2
1070
   341
340
594
1070
   342
340
594
1070
   371
 70
    -1
1070
   372
 70
    -1
1002
}
  0
XRECORD
  5
163E
102
{ACAD_REACTORS
330
1633
102
}
330
1633
100
AcDbXrecord
  1
{51294030-9CB4-11D3-8E18-00A0C925D94D}
  0
XRECORD
  5
1636
102
{ACAD_REACTORS
330
1633
102
}
330
1633
100
AcDbXrecord
  1

  0
XRECORD
  5
163C
102
{ACAD_REACTORS
330
1633
102
}
330
1633
100
AcDbXrecord
 90
        0
  0
XRECORD
  5
1638
102
{ACAD_REACTORS
330
1633
102
}
330
1633
100
AcDbXrecord
340
565
  0
XRECORD
  5
163B
102
{ACAD_REACTORS
330
1633
102
}
330
1633
100
AcDbXrecord
 90
    10781
  0
XRECORD
  5
1639
102
{ACAD_REACTORS
330
1633
102
}
330
1633
100
AcDbXrecord
340
566
  0
XRECORD
  5
163A
102
{ACAD_REACTORS
330
1633
102
}
330
1633
100
AcDbXrecord
340
563
  0
XRECORD
  5
1640
102
{ACAD_REACTORS
330
1633
102
}
330
1633
100
AcDbXrecord
 40
0.0
  0
XRECORD
  5
1644
102
{ACAD_REACTORS
330
1633
102
}
330
1633
100
AcDbXrecord
340
0
  0
XRECORD
  5
164A
102
{ACAD_REACTORS
330
1633
102
}
330
1633
100
AcDbXrecord
 10
0.0
 20
0.0
 30
0.0
  0
XRECORD
  5
1646
102
{ACAD_REACTORS
330
1633
102
}
330
1633
100
AcDbXrecord
 10
0.0
 20
0.0
 30
0.0
  0
XRECORD
  5
1649
102
{ACAD_REACTORS
330
1633
102
}
330
1633
100
AcDbXrecord
 10
0.0
 20
0.0
 30
0.0
  0
XRECORD
  5
1647
102
{ACAD_REACTORS
330
1633
102
}
330
1633
100
AcDbXrecord
 10
0.0
 20
0.0
 30
0.0
  0
XRECORD
  5
1648
102
{ACAD_REACTORS
330
1633
102
}
330
1633
100
AcDbXrecord
 10
0.0
 20
0.0
 30
0.0
  0
XRECORD
  5
1645
102
{ACAD_REACTORS
330
1633
102
}
330
1633
100
AcDbXrecord
 10
0.0
 20
0.0
 30
0.0
  0
XRECORD
  5
1642
102
{ACAD_REACTORS
330
1633
102
}
330
1633
100
AcDbXrecord
340
0
  0
XRECORD
  5
1643
102
{ACAD_REACTORS
330
1633
102
}
330
1633
100
AcDbXrecord
 70
     0
  0
XRECORD
  5
1637
102
{ACAD_REACTORS
330
1633
102
}
330
1633
100
AcDbXrecord
  1
technical_osaka.ctb
  0
XRECORD
  5
1634
102
{ACAD_REACTORS
330
1633
102
}
330
1633
100
AcDbXrecord
 90
        1
  0
XRECORD
  5
1635
102
{ACAD_REACTORS
330
1633
102
}
330
1633
100
AcDbXrecord
 90
       70
  0
XRECORD
  5
164D
102
{ACAD_REACTORS
330
1633
102
}
330
1633
100
AcDbXrecord
340
0
  0
XRECORD
  5
1653
102
{ACAD_REACTORS
330
1633
102
}
330
1633
100
AcDbXrecord
 10
0.0
 20
0.0
 30
0.0
  0
XRECORD
  5
164F
102
{ACAD_REACTORS
330
1633
102
}
330
1633
100
AcDbXrecord
 10
0.0
 20
0.0
 30
0.0
  0
XRECORD
  5
1652
102
{ACAD_REACTORS
330
1633
102
}
330
1633
100
AcDbXrecord
 10
0.0
 20
0.0
 30
0.0
  0
XRECORD
  5
1650
102
{ACAD_REACTORS
330
1633
102
}
330
1633
100
AcDbXrecord
 10
0.0
 20
0.0
 30
0.0
  0
XRECORD
  5
1651
102
{ACAD_REACTORS
330
1633
102
}
330
1633
100
AcDbXrecord
 10
0.0
 20
0.0
 30
0.0
  0
XRECORD
  5
164E
102
{ACAD_REACTORS
330
1633
102
}
330
1633
100
AcDbXrecord
 10
0.0
 20
0.0
 30
0.0
  0
XRECORD
  5
164B
102
{ACAD_REACTORS
330
1633
102
}
330
1633
100
AcDbXrecord
340
0
  0
XRECORD
  5
164C
102
{ACAD_REACTORS
330
1633
102
}
330
1633
100
AcDbXrecord
 70
     0
  0
XRECORD
  5
163F
102
{ACAD_REACTORS
330
1633
102
}
330
1633
100
AcDbXrecord
  1
{DC13A5C6-BA77-11D6-9637-006094EB2375}
  0
DICTIONARYVAR
  5
68F
102
{ACAD_REACTORS
330
68E
102
}
330
68E
100
DictionaryVariables
280
     0
  1
1
  0
DICTIONARYVAR
  5
BAB
102
{ACAD_REACTORS
330
68E
102
}
330
68E
100
DictionaryVariables
280
     0
  1
96
  0
XRECORD
  5
560
102
{ACAD_REACTORS
330
540
102
}
330
540
100
AcDbXrecord
  1
2.0.0
  0
ENDSEC
  0
EOF
