  0
SECTION
  2
HEADER
  9
$ACADVER
  1
AC1014
  9
$ACADMAINTVER
 70
     9
  9
$DWGCODEPAGE
  3
ANSI_932
  9
$INSBASE
 10
0.0
 20
0.0
 30
0.0
  9
$EXTMIN
 10
-82.79999999999544
 20
-25.00000000000049
 30
-0.0000000000000002
  9
$EXTMAX
 10
15.0
 20
53.99999999999971
 30
0.0000000000000002
  9
$LIMMIN
 10
0.0
 20
0.0
  9
$LIMMAX
 10
297.0
 20
210.0
  9
$ORTHOMODE
 70
     0
  9
$REGENMODE
 70
     1
  9
$FILLMODE
 70
     1
  9
$QTEXTMODE
 70
     0
  9
$MIRRTEXT
 70
     1
  9
$DRAGMODE
 70
     2
  9
$LTSCALE
 40
10.0
  9
$OSMODE
 70
    37
  9
$ATTMODE
 70
     1
  9
$TEXTSIZE
 40
3.0
  9
$TRACEWID
 40
1.0
  9
$TEXTSTYLE
  7
YOKO
  9
$CLAYER
  8
240
  9
$CELTYPE
  6
BYLAYER
  9
$CECOLOR
 62
   256
  9
$CELTSCALE
 40
1.0
  9
$DELOBJ
 70
     1
  9
$DISPSILH
 70
     0
  9
$DIMSCALE
 40
1.0
  9
$DIMASZ
 40
2.229999999999999
  9
$DIMEXO
 40
0.5
  9
$DIMDLI
 40
2.5
  9
$DIMRND
 40
0.0
  9
$DIMDLE
 40
0.0
  9
$DIMEXE
 40
1.0
  9
$DIMTP
 40
0.0
  9
$DIMTM
 40
0.0
  9
$DIMTXT
 40
3.0
  9
$DIMCEN
 40
0.0
  9
$DIMTSZ
 40
0.0
  9
$DIMTOL
 70
     0
  9
$DIMLIM
 70
     0
  9
$DIMTIH
 70
     0
  9
$DIMTOH
 70
     0
  9
$DIMSE1
 70
     0
  9
$DIMSE2
 70
     0
  9
$DIMTAD
 70
     0
  9
$DIMZIN
 70
     8
  9
$DIMBLK
  1
OPEN
  9
$DIMASO
 70
     1
  9
$DIMSHO
 70
     1
  9
$DIMPOST
  1

  9
$DIMAPOST
  1

  9
$DIMALT
 70
     0
  9
$DIMALTD
 70
     2
  9
$DIMALTF
 40
25.4
  9
$DIMLFAC
 40
1.0
  9
$DIMTOFL
 70
     1
  9
$DIMTVP
 40
0.0
  9
$DIMTIX
 70
     0
  9
$DIMSOXD
 70
     0
  9
$DIMSAH
 70
     0
  9
$DIMBLK1
  1

  9
$DIMBLK2
  1

  9
$DIMSTYLE
  2
BIGT
  9
$DIMCLRD
 70
   256
  9
$DIMCLRE
 70
   256
  9
$DIMCLRT
 70
    40
  9
$DIMTFAC
 40
1.0
  9
$DIMGAP
 40
1.0
  9
$DIMJUST
 70
     0
  9
$DIMSD1
 70
     0
  9
$DIMSD2
 70
     0
  9
$DIMTOLJ
 70
     1
  9
$DIMTZIN
 70
     8
  9
$DIMALTZ
 70
     0
  9
$DIMALTTZ
 70
     0
  9
$DIMFIT
 70
     5
  9
$DIMUPT
 70
     0
  9
$DIMUNIT
 70
     2
  9
$DIMDEC
 70
     3
  9
$DIMTDEC
 70
     3
  9
$DIMALTU
 70
     2
  9
$DIMALTTD
 70
     2
  9
$DIMTXSTY
  7
STANDARD
  9
$DIMAUNIT
 70
     0
  9
$LUNITS
 70
     2
  9
$LUPREC
 70
     3
  9
$SKETCHINC
 40
1.0
  9
$FILLETRAD
 40
0.8
  9
$AUNITS
 70
     0
  9
$AUPREC
 70
     3
  9
$MENU
  1
.
  9
$ELEVATION
 40
0.0
  9
$PELEVATION
 40
0.0
  9
$THICKNESS
 40
0.0
  9
$LIMCHECK
 70
     0
  9
$CHAMFERA
 40
10.0
  9
$CHAMFERB
 40
10.0
  9
$CHAMFERC
 40
0.0
  9
$CHAMFERD
 40
0.0
  9
$SKPOLY
 70
     0
  9
$TDCREATE
 40
2453353.508792488
  9
$TDUPDATE
 40
2452516.379372824
  9
$TDINDWG
 40
0.0612063889
  9
$TDUSRTIMER
 40
0.0611948148
  9
$USRTIMER
 70
     1
  9
$ANGBASE
 50
0.0
  9
$ANGDIR
 70
     0
  9
$PDMODE
 70
    35
  9
$PDSIZE
 40
2.0
  9
$PLINEWID
 40
0.0
  9
$COORDS
 70
     1
  9
$SPLFRAME
 70
     0
  9
$SPLINETYPE
 70
     6
  9
$SPLINESEGS
 70
     8
  9
$ATTDIA
 70
     0
  9
$ATTREQ
 70
     1
  9
$HANDLING
 70
     1
  9
$HANDSEED
  5
1663
  9
$SURFTAB1
 70
     6
  9
$SURFTAB2
 70
     6
  9
$SURFTYPE
 70
     6
  9
$SURFU
 70
     6
  9
$SURFV
 70
     6
  9
$UCSNAME
  2

  9
$UCSORG
 10
0.0
 20
0.0
 30
0.0
  9
$UCSXDIR
 10
1.0
 20
0.0
 30
0.0
  9
$UCSYDIR
 10
0.0
 20
1.0
 30
0.0
  9
$PUCSNAME
  2

  9
$PUCSORG
 10
0.0
 20
0.0
 30
0.0
  9
$PUCSXDIR
 10
1.0
 20
0.0
 30
0.0
  9
$PUCSYDIR
 10
0.0
 20
1.0
 30
0.0
  9
$USERI1
 70
     1
  9
$USERI2
 70
     0
  9
$USERI3
 70
     0
  9
$USERI4
 70
     0
  9
$USERI5
 70
     0
  9
$USERR1
 40
0.0
  9
$USERR2
 40
0.0
  9
$USERR3
 40
0.0
  9
$USERR4
 40
0.0
  9
$USERR5
 40
0.0
  9
$WORLDVIEW
 70
     1
  9
$SHADEDGE
 70
     3
  9
$SHADEDIF
 70
    70
  9
$TILEMODE
 70
     1
  9
$MAXACTVP
 70
    16
  9
$PINSBASE
 10
0.0
 20
0.0
 30
0.0
  9
$PLIMCHECK
 70
     0
  9
$PEXTMIN
 10
0.0
 20
0.0
 30
0.0
  9
$PEXTMAX
 10
0.0
 20
0.0
 30
0.0
  9
$PLIMMIN
 10
0.0
 20
0.0
  9
$PLIMMAX
 10
0.0
 20
0.0
  9
$UNITMODE
 70
     0
  9
$VISRETAIN
 70
     0
  9
$PLINEGEN
 70
     0
  9
$PSLTSCALE
 70
     1
  9
$TREEDEPTH
 70
  3020
  9
$PICKSTYLE
 70
     1
  9
$CMLSTYLE
  2
STANDARD
  9
$CMLJUST
 70
     0
  9
$CMLSCALE
 40
1.0
  9
$PROXYGRAPHICS
 70
     1
  9
$MEASUREMENT
 70
     1
  0
ENDSEC
  0
SECTION
  2
CLASSES
  0
CLASS
  1
ACDBDICTIONARYWDFLT
  2
AcDbDictionaryWithDefault
  3
ObjectDBX Classes
 90
        0
280
     0
281
     0
  0
CLASS
  1
ACDBPLACEHOLDER
  2
AcDbPlaceHolder
  3
ObjectDBX Classes
 90
        0
280
     0
281
     0
  0
CLASS
  1
LAYOUT
  2
AcDbLayout
  3
ObjectDBX Classes
 90
        0
280
     0
281
     0
  0
CLASS
  1
DICTIONARYVAR
  2
AcDbDictionaryVar
  3
ObjectDBX Classes
 90
        0
280
     0
281
     0
  0
CLASS
  1
TABLESTYLE
  2
AcDbTableStyle
  3
ObjectDBX Classes
 90
     4095
280
     0
281
     0
  0
CLASS
  1
SCALE
  2
AcDbScale
  3
ObjectDBX Classes
 90
     1153
280
     0
281
     0
  0
CLASS
  1
XRECORD
  2
AcDbXrecord
  3
AutoCAD 2000
 90
        0
280
     0
281
     0
  0
CLASS
  1
LWPOLYLINE
  2
AcDbPolyline
  3
AutoCAD 2000
 90
        0
280
     0
281
     1
  0
CLASS
  1
HATCH
  2
AcDbHatch
  3
AutoCAD 2000
 90
        0
280
     0
281
     1
  0
ENDSEC
  0
SECTION
  2
TABLES
  0
TABLE
  2
VPORT
  5
8
330
0
100
AcDbSymbolTable
 70
     2
  0
VPORT
  5
97
330
8
100
AcDbSymbolTableRecord
100
AcDbViewportTableRecord
  2
*ACTIVE
 70
     0
 10
0.0
 20
0.0
 11
1.0
 21
1.0
 12
-33.89005592364169
 22
9.025749804013936
 13
0.0
 23
0.0
 14
7.0
 24
7.0
 15
7.0
 25
7.0
 16
0.0
 26
0.0
 36
1.0
 17
0.0
 27
0.0
 37
0.0
 40
113.7642411817136
 41
1.53185955786736
 42
50.0
 43
0.0
 44
0.0
 50
0.0
 51
0.0
 71
    16
 72
  2000
 73
     1
 74
     0
 75
     0
 76
     0
 77
     0
 78
     0
  0
ENDTAB
  0
TABLE
  2
LTYPE
  5
5
330
0
100
AcDbSymbolTable
 70
     3
  0
LTYPE
  5
14
330
5
100
AcDbSymbolTableRecord
100
AcDbLinetypeTableRecord
  2
BYBLOCK
 70
     0
  3

 72
    65
 73
     0
 40
0.0
  0
LTYPE
  5
15
330
5
100
AcDbSymbolTableRecord
100
AcDbLinetypeTableRecord
  2
BYLAYER
 70
     0
  3

 72
    65
 73
     0
 40
0.0
  0
LTYPE
  5
16
330
5
100
AcDbSymbolTableRecord
100
AcDbLinetypeTableRecord
  2
CONTINUOUS
 70
     0
  3
Solid line
 72
    65
 73
     0
 40
0.0
  0
LTYPE
  5
1629
330
5
100
AcDbSymbolTableRecord
100
AcDbLinetypeTableRecord
  2
CENTER2
 70
     0
  3
___ _ ___ _ ___ _ ___ _ ___ _ ___ _ ___ _ ___ _
 72
    65
 73
     4
 40
1.125
 49
0.75
 74
     4
 75
     0
340
0
 46
1.0
 50
0.0
 44
0.0
 45
0.0
 49
-0.125
 74
     4
 75
     0
340
0
 46
1.0
 50
0.0
 44
0.0
 45
0.0
 49
0.125
 74
     4
 75
     0
340
0
 46
1.0
 50
0.0
 44
0.0
 45
0.0
 49
-0.125
 74
     4
 75
     0
340
0
 46
1.0
 50
0.0
 44
0.0
 45
0.0
  0
LTYPE
  5
162A
330
5
100
AcDbSymbolTableRecord
100
AcDbLinetypeTableRecord
  2
PHANTOM2
 70
     0
  3
___ _ _ ___ _ _ ___ _ _ ___ _ _ ___ _ _ ___ _ _
 72
    65
 73
     6
 40
1.25
 49
0.625
 74
     4
 75
     0
340
0
 46
1.0
 50
0.0
 44
0.0
 45
0.0
 49
-0.125
 74
     4
 75
     0
340
0
 46
1.0
 50
0.0
 44
0.0
 45
0.0
 49
0.125
 74
     4
 75
     0
340
0
 46
1.0
 50
0.0
 44
0.0
 45
0.0
 49
-0.125
 74
     4
 75
     0
340
0
 46
1.0
 50
0.0
 44
0.0
 45
0.0
 49
0.125
 74
     4
 75
     0
340
0
 46
1.0
 50
0.0
 44
0.0
 45
0.0
 49
-0.125
 74
     4
 75
     0
340
0
 46
1.0
 50
0.0
 44
0.0
 45
0.0
  0
ENDTAB
  0
TABLE
  2
LAYER
  5
2
330
0
100
AcDbSymbolTable
 70
     8
  0
LAYER
  5
10
330
2
100
AcDbSymbolTableRecord
100
AcDbLayerTableRecord
  2
0
 70
     0
 62
     7
  6
CONTINUOUS
  0
LAYER
  5
1AA
330
2
100
AcDbSymbolTableRecord
100
AcDbLayerTableRecord
  2
240
 70
     0
 62
     4
  6
CONTINUOUS
  0
LAYER
  5
1AB
330
2
100
AcDbSymbolTableRecord
100
AcDbLayerTableRecord
  2
241
 70
     0
 62
   211
  6
CONTINUOUS
  0
LAYER
  5
1AF
330
2
100
AcDbSymbolTableRecord
100
AcDbLayerTableRecord
  2
245
 70
     0
 62
     2
  6
CENTER2
  0
LAYER
  5
21A
330
2
100
AcDbSymbolTableRecord
100
AcDbLayerTableRecord
  2
246
 70
     0
 62
     3
  6
PHANTOM2
  0
LAYER
  5
21E
330
2
100
AcDbSymbolTableRecord
100
AcDbLayerTableRecord
  2
250
 70
     0
 62
     3
  6
CONTINUOUS
  0
LAYER
  5
5C4
330
2
100
AcDbSymbolTableRecord
100
AcDbLayerTableRecord
  2
DEFPOINTS
 70
     0
 62
     7
  6
CONTINUOUS
  0
LAYER
  5
DE6
330
2
100
AcDbSymbolTableRecord
100
AcDbLayerTableRecord
  2
247
 70
     0
 62
    60
  6
CONTINUOUS
  0
ENDTAB
  0
TABLE
  2
STYLE
  5
3
330
0
100
AcDbSymbolTable
 70
     2
  0
STYLE
  5
11
330
3
100
AcDbSymbolTableRecord
100
AcDbTextStyleTableRecord
  2
STANDARD
 70
     0
 40
0.0
 41
1.0
 50
0.0
 71
     0
 42
3.0
  3
romans.shx
  4
BIGFONT.SHX
  0
STYLE
  5
339
330
3
100
AcDbSymbolTableRecord
100
AcDbTextStyleTableRecord
  2
YOKO
 70
     0
 40
0.0
 41
1.0
 50
0.0
 71
     0
 42
3.0
  3
romans.shx
  4
extfont.shx
  0
ENDTAB
  0
TABLE
  2
VIEW
  5
6
330
0
100
AcDbSymbolTable
 70
     0
  0
ENDTAB
  0
TABLE
  2
UCS
  5
7
330
0
100
AcDbSymbolTable
 70
     0
  0
ENDTAB
  0
TABLE
  2
APPID
  5
9
330
0
100
AcDbSymbolTable
 70
    11
  0
APPID
  5
12
330
9
100
AcDbSymbolTableRecord
100
AcDbRegAppTableRecord
  2
ACAD
 70
     0
  0
APPID
  5
161F
330
9
100
AcDbSymbolTableRecord
100
AcDbRegAppTableRecord
  2
GLOBAL
 70
     0
  0
APPID
  5
1620
330
9
100
AcDbSymbolTableRecord
100
AcDbRegAppTableRecord
  2
DETAIL
 70
     0
  0
APPID
  5
1621
330
9
100
AcDbSymbolTableRecord
100
AcDbRegAppTableRecord
  2
GRPNAME
 70
     0
  0
APPID
  5
1622
330
9
100
AcDbSymbolTableRecord
100
AcDbRegAppTableRecord
  2
GPARA
 70
     0
  0
APPID
  5
1623
330
9
100
AcDbSymbolTableRecord
100
AcDbRegAppTableRecord
  2
ITEMNAME
 70
     0
  0
APPID
  5
1624
330
9
100
AcDbSymbolTableRecord
100
AcDbRegAppTableRecord
  2
GRADE_0
 70
     0
  0
APPID
  5
1625
330
9
100
AcDbSymbolTableRecord
100
AcDbRegAppTableRecord
  2
GRADE_-10000
 70
     0
  0
APPID
  5
1626
330
9
100
AcDbSymbolTableRecord
100
AcDbRegAppTableRecord
  2
HATCH_TYPE
 70
     0
  0
APPID
  5
1627
330
9
100
AcDbSymbolTableRecord
100
AcDbRegAppTableRecord
  2
HATCH_DISPLAY
 70
     0
  0
APPID
  5
1628
330
9
100
AcDbSymbolTableRecord
100
AcDbRegAppTableRecord
  2
HATCH_DISTANCE
 70
     0
  0
ENDTAB
  0
TABLE
  2
DIMSTYLE
  5
A
330
0
100
AcDbSymbolTable
 70
     2
  0
DIMSTYLE
105
27
330
A
100
AcDbSymbolTableRecord
100
AcDbDimStyleTableRecord
  2
STANDARD
 70
     0
  3

  4

  5

  6

  7

 40
1.0
 41
2.0
 42
2.0
 43
3.75
 44
2.0
 45
0.0
 46
0.0
 47
0.0
 48
0.0
140
4.0
141
0.09
142
0.0
143
25.4
144
1.0
145
0.0
146
1.0
147
1.0
 71
     0
 72
     0
 73
     1
 74
     1
 75
     0
 76
     0
 77
     0
 78
     8
170
     0
171
     2
172
     0
173
     1
174
     0
175
     0
176
   256
177
   256
178
   256
270
     2
271
     3
272
     4
273
     2
274
     2
340
11
275
     0
280
     0
281
     0
282
     0
283
     1
284
     8
285
     0
286
     0
287
     3
288
     0
  0
DIMSTYLE
105
59A
102
{ACAD_REACTORS
330
BCE
330
D00
102
}
330
A
100
AcDbSymbolTableRecord
100
AcDbDimStyleTableRecord
  2
BIGT
 70
     0
  3

  4

  5
OPEN
  6

  7

 40
1.0
 41
2.229999999999999
 42
0.5
 43
2.5
 44
1.0
 45
0.0
 46
0.0
 47
0.0
 48
0.0
140
3.5
141
0.0
142
0.0
143
25.4
144
1.0
145
0.0
146
1.0
147
1.0
 71
     0
 72
     0
 73
     0
 74
     0
 75
     0
 76
     0
 77
     3
 78
     9
170
     0
171
     2
172
     1
173
     0
174
     0
175
     0
176
   256
177
   256
178
    40
270
     2
271
     3
272
     3
273
     2
274
     2
340
11
275
     0
280
     0
281
     0
282
     0
283
     1
284
     8
285
     0
286
     0
287
     2
288
     0
  0
ENDTAB
  0
TABLE
  2
BLOCK_RECORD
  5
1
330
0
100
AcDbSymbolTable
 70
     7
  0
BLOCK_RECORD
  5
1F
102
{ACAD_XDICTIONARY
360
163E
102
}
330
1
100
AcDbSymbolTableRecord
100
AcDbBlockTableRecord
  2
*MODEL_SPACE
  0
BLOCK_RECORD
  5
73
330
1
100
AcDbSymbolTableRecord
100
AcDbBlockTableRecord
  2
*PAPER_SPACE
  0
BLOCK_RECORD
  5
162B
330
1
100
AcDbSymbolTableRecord
100
AcDbBlockTableRecord
  2
_OPEN
  0
BLOCK_RECORD
  5
BCF
330
1
100
AcDbSymbolTableRecord
100
AcDbBlockTableRecord
  2
*D1
  0
BLOCK_RECORD
  5
D01
330
1
100
AcDbSymbolTableRecord
100
AcDbBlockTableRecord
  2
*D2
  0
BLOCK_RECORD
  5
14BE
330
1
100
AcDbSymbolTableRecord
100
AcDbBlockTableRecord
  2
*X3
  0
BLOCK_RECORD
  5
14EE
330
1
100
AcDbSymbolTableRecord
100
AcDbBlockTableRecord
  2
*X4
  0
BLOCK_RECORD
  5
14FA
330
1
100
AcDbSymbolTableRecord
100
AcDbBlockTableRecord
  2
*X5
  0
BLOCK_RECORD
  5
150D
330
1
100
AcDbSymbolTableRecord
100
AcDbBlockTableRecord
  2
A$C17DE42A3
  0
ENDTAB
  0
ENDSEC
  0
SECTION
  2
BLOCKS
  0
BLOCK
  5
20
330
1F
100
AcDbEntity
  8
0
100
AcDbBlockBegin
  2
*MODEL_SPACE
 70
     0
 10
0.0
 20
0.0
 30
0.0
  3
*MODEL_SPACE
  1

  0
ENDBLK
  5
21
330
1F
100
AcDbEntity
  8
0
100
AcDbBlockEnd
  0
BLOCK
  5
75
330
73
100
AcDbEntity
 67
     1
  8
0
100
AcDbBlockBegin
  2
*PAPER_SPACE
 70
     0
 10
0.0
 20
0.0
 30
0.0
  3
*PAPER_SPACE
  1

  0
ENDBLK
  5
76
330
73
100
AcDbEntity
 67
     1
  8
0
100
AcDbBlockEnd
  0
BLOCK
  5
162C
330
162B
100
AcDbEntity
  8
0
100
AcDbBlockBegin
  2
_OPEN
 70
     0
 10
0.0
 20
0.0
 30
0.0
  3
_OPEN
  1

  0
LINE
  5
595
330
162B
100
AcDbEntity
  8
0
  6
BYBLOCK
 62
     0
100
AcDbLine
 10
-1.0
 20
0.1666666666666666
 30
0.0
 11
0.0
 21
0.0
 31
0.0
  0
LINE
  5
596
330
162B
100
AcDbEntity
  8
0
  6
BYBLOCK
 62
     0
100
AcDbLine
 10
-1.0
 20
-0.1666666666666666
 30
0.0
 11
0.0
 21
0.0
 31
0.0
  0
LINE
  5
597
330
162B
100
AcDbEntity
  8
0
  6
BYBLOCK
 62
     0
100
AcDbLine
 10
0.0
 20
0.0
 30
0.0
 11
-1.0
 21
0.0
 31
0.0
  0
ENDBLK
  5
162D
330
162B
100
AcDbEntity
  8
0
100
AcDbBlockEnd
  0
BLOCK
  5
1632
330
BCF
100
AcDbEntity
  8
0
100
AcDbBlockBegin
  2
*D1
 70
     1
 10
0.0
 20
0.0
 30
0.0
  3
*D1
  1

  0
LINE
  5
1400
330
BCF
100
AcDbEntity
  8
250
  6
CONTINUOUS
100
AcDbLine
 10
-49.99999999999993
 20
25.19999999999924
 30
0.0
 11
-49.99999999999993
 21
35.99999999999971
 31
0.0
  0
LINE
  5
1401
330
BCF
100
AcDbEntity
  8
250
  6
CONTINUOUS
100
AcDbLine
 10
0.0
 20
0.5
 30
0.0
 11
0.0000000000000022
 21
35.99999999999971
 31
0.0
  0
LINE
  5
1402
330
BCF
100
AcDbEntity
  8
250
  6
CONTINUOUS
100
AcDbLine
 10
-47.76999999999993
 20
34.99999999999971
 30
0.0
 11
-2.229999999999997
 21
34.99999999999971
 31
0.0
  0
INSERT
  5
1403
330
BCF
100
AcDbEntity
  8
250
  6
CONTINUOUS
100
AcDbBlockReference
  2
_OPEN
 10
-49.99999999999993
 20
34.99999999999971
 30
0.0
 41
2.229999999999999
 42
2.229999999999999
 43
2.229999999999999
 50
180.0
  0
INSERT
  5
1404
330
BCF
100
AcDbEntity
  8
250
  6
CONTINUOUS
100
AcDbBlockReference
  2
_OPEN
 10
0.0000000000000021
 20
34.99999999999971
 30
0.0
 41
2.229999999999999
 42
2.229999999999999
 43
2.229999999999999
  0
MTEXT
  5
1405
330
BCF
100
AcDbEntity
  8
250
  6
CONTINUOUS
 62
    40
100
AcDbMText
 10
-24.99999999999996
 20
37.49999999999971
 30
0.0
 40
3.0
 41
0.0
 71
     5
 72
     1
  1
\A1;50
  0
POINT
  5
1406
330
BCF
100
AcDbEntity
  8
DEFPOINTS
  6
CONTINUOUS
 62
     0
100
AcDbPoint
 10
-49.99999999999993
 20
24.69999999999925
 30
0.0
  0
POINT
  5
1407
330
BCF
100
AcDbEntity
  8
DEFPOINTS
  6
CONTINUOUS
 62
     0
100
AcDbPoint
 10
0.0
 20
0.0
 30
0.0
  0
POINT
  5
1408
330
BCF
100
AcDbEntity
  8
DEFPOINTS
  6
CONTINUOUS
 62
     0
100
AcDbPoint
 10
0.0000000000000021
 20
34.99999999999971
 30
0.0
  0
ENDBLK
  5
1633
330
BCF
100
AcDbEntity
  8
0
100
AcDbBlockEnd
  0
BLOCK
  5
1634
330
D01
100
AcDbEntity
  8
0
100
AcDbBlockBegin
  2
*D2
 70
     1
 10
0.0
 20
0.0
 30
0.0
  3
*D2
  1

  0
LINE
  5
13F7
330
D01
100
AcDbEntity
  8
250
  6
CONTINUOUS
100
AcDbLine
 10
-38.07667885022242
 20
-25.00000000000048
 30
0.0
 11
14.99999999999999
 21
-25.00000000000049
 31
0.0
  0
LINE
  5
13F8
330
D01
100
AcDbEntity
  8
250
  6
CONTINUOUS
100
AcDbLine
 10
-32.74095361192284
 20
24.99999999999952
 30
0.0
 11
15.0
 21
24.9999999999995
 31
0.0
  0
LINE
  5
13F9
330
D01
100
AcDbEntity
  8
250
  6
CONTINUOUS
100
AcDbLine
 10
13.99999999999999
 20
-22.77000000000049
 30
0.0
 11
14.0
 21
22.7699999999995
 31
0.0
  0
INSERT
  5
13FA
330
D01
100
AcDbEntity
  8
250
  6
CONTINUOUS
100
AcDbBlockReference
  2
_OPEN
 10
13.99999999999999
 20
-25.00000000000049
 30
0.0
 41
2.229999999999999
 42
2.229999999999999
 43
2.229999999999999
 50
270.0
  0
INSERT
  5
13FB
330
D01
100
AcDbEntity
  8
250
  6
CONTINUOUS
100
AcDbBlockReference
  2
_OPEN
 10
14.0
 20
24.9999999999995
 30
0.0
 41
2.229999999999999
 42
2.229999999999999
 43
2.229999999999999
 50
90.0
  0
MTEXT
  5
13FC
330
D01
100
AcDbEntity
  8
250
  6
CONTINUOUS
 62
    40
100
AcDbMText
 10
11.5
 20
-0.0000000000004944
 30
0.0
 40
3.0
 41
0.0
 71
     5
 72
     1
  1
\A1;{\H3;%%c}50
 11
1.000000000000000E-16
 21
1.0
 31
0.0
  0
POINT
  5
13FD
330
D01
100
AcDbEntity
  8
DEFPOINTS
  6
CONTINUOUS
 62
     0
100
AcDbPoint
 10
-38.57667885022243
 20
-25.00000000000048
 30
0.0
  0
POINT
  5
13FE
330
D01
100
AcDbEntity
  8
DEFPOINTS
  6
CONTINUOUS
 62
     0
100
AcDbPoint
 10
-33.24095361192284
 20
24.99999999999952
 30
0.0
  0
POINT
  5
13FF
330
D01
100
AcDbEntity
  8
DEFPOINTS
  6
CONTINUOUS
 62
     0
100
AcDbPoint
 10
14.0
 20
24.9999999999995
 30
0.0
  0
ENDBLK
  5
1635
330
D01
100
AcDbEntity
  8
0
100
AcDbBlockEnd
  0
BLOCK
  5
1636
330
14BE
100
AcDbEntity
  8
0
100
AcDbBlockBegin
  2
*X3
 70
     1
 10
0.0
 20
0.0
 30
0.0
  3
*X3
  1

  0
LINE
  5
14BF
330
14BE
100
AcDbEntity
  8
0
 62
     0
100
AcDbLine
 10
3.235364125939702
 20
-8.207738569426134
 30
0.0
 11
2.539878131093039
 21
-7.512252574579474
 31
0.0
  0
LINE
  5
14C0
330
14BE
100
AcDbEntity
  8
0
 62
     0
100
AcDbLine
 10
2.525255410929922
 20
-7.733361577594422
 30
0.0
 11
2.246640667466748
 21
-7.454746834131247
 31
0.0
  0
LINE
  5
14C1
330
14BE
100
AcDbEntity
  8
0
 62
     0
100
AcDbLine
 10
3.292869866387924
 20
-8.500976033052424
 30
0.0
 11
3.014255122924751
 21
-8.222361289589251
 31
0.0
  0
LINE
  5
14C2
330
14BE
100
AcDbEntity
  8
0
 62
     0
100
AcDbLine
 10
2.222099748833683
 20
-7.665937638676258
 30
0.0
 11
2.020551260265142
 21
-7.464389150107711
 31
0.0
  0
LINE
  5
14C3
330
14BE
100
AcDbEntity
  8
0
 62
     0
100
AcDbLine
 10
3.294816471809426
 20
-8.738654361651998
 30
0.0
 11
3.081679061842919
 21
-8.52551695168549
 31
0.0
  0
LINE
  5
14C4
330
14BE
100
AcDbEntity
  8
0
 62
     0
100
AcDbLine
 10
2.003106040329284
 20
-7.68267565334991
 30
0.0
 11
1.829933989769265
 21
-7.509503602789891
 31
0.0
  0
LINE
  5
14C5
330
14BE
100
AcDbEntity
  8
0
 62
     0
100
AcDbLine
 10
3.294816471809419
 20
-8.974386084830044
 30
0.0
 11
3.082624704809468
 21
-8.762194317830092
 31
0.0
  0
LINE
  5
14C6
330
14BE
100
AcDbEntity
  8
0
 62
     0
100
AcDbLine
 10
1.823500176191735
 20
-7.738801512390431
 30
0.0
 11
1.66441861575032
 21
-7.579719951949016
 31
0.0
  0
LINE
  5
14C7
330
14BE
100
AcDbEntity
  8
0
 62
     0
100
AcDbLine
 10
3.294816471809426
 20
-9.21011780800812
 30
0.0
 11
3.082624704809468
 21
-8.997926041008164
 31
0.0
  0
LINE
  5
14C8
330
14BE
100
AcDbEntity
  8
0
 62
     0
100
AcDbLine
 10
1.671532121270381
 20
-7.822565180647145
 30
0.0
 11
1.519384621186254
 21
-7.67041768056301
 31
0.0
  0
LINE
  5
14C9
330
14BE
100
AcDbEntity
  8
0
 62
     0
100
AcDbLine
 10
3.294816471809432
 20
-9.44584953118619
 30
0.0
 11
3.082624704809474
 21
-9.233657764186232
 31
0.0
  0
LINE
  5
14CA
330
14BE
100
AcDbEntity
  8
0
 62
     0
100
AcDbLine
 10
1.542752218501775
 20
-7.929517001056601
 30
0.0
 11
1.39270995439402
 21
-7.779474736948849
 31
0.0
  0
LINE
  5
14CB
330
14BE
100
AcDbEntity
  8
0
 62
     0
100
AcDbLine
 10
3.294816471809419
 20
-9.681581254364254
 30
0.0
 11
3.082624704809468
 21
-9.469389487364303
 31
0.0
  0
LINE
  5
14CC
330
14BE
100
AcDbEntity
  8
0
 62
     0
100
AcDbLine
 10
1.43594765315619
 20
-8.058444158889074
 30
0.0
 11
1.28377138416043
 21
-7.906267889893321
 31
0.0
  0
LINE
  5
14CD
330
14BE
100
AcDbEntity
  8
0
 62
     0
100
AcDbLine
 10
3.294816471809432
 20
-9.917312977542316
 30
0.0
 11
3.082624704809474
 21
-9.705121210542359
 31
0.0
  0
LINE
  5
14CE
330
14BE
100
AcDbEntity
  8
0
 62
     0
100
AcDbLine
 10
1.352348231689353
 20
-8.210576460600308
 30
0.0
 11
1.193200727397836
 21
-8.051428956308786
 31
0.0
  0
LINE
  5
14CF
330
14BE
100
AcDbEntity
  8
0
 62
     0
100
AcDbLine
 10
3.294816471809419
 20
-10.15304470072036
 30
0.0
 11
3.082624704809468
 21
-9.940852933720429
 31
0.0
  0
LINE
  5
14D0
330
14BE
100
AcDbEntity
  8
0
 62
     0
100
AcDbLine
 10
1.296432579310397
 20
-8.39039253139943
 30
0.0
 11
1.123132130201639
 21
-8.217092082290662
 31
0.0
  0
LINE
  5
14D1
330
14BE
100
AcDbEntity
  8
0
 62
     0
100
AcDbLine
 10
3.294816471809426
 20
-10.38877642389844
 30
0.0
 11
3.082624704809468
 21
-10.17658465689848
 31
0.0
  0
LINE
  5
14D2
330
14BE
100
AcDbEntity
  8
0
 62
     0
100
AcDbLine
 10
1.280032579818636
 20
-8.609724255085723
 30
0.0
 11
1.078209318544381
 21
-8.407900993811465
 31
0.0
  0
LINE
  5
14D3
330
14BE
100
AcDbEntity
  8
0
 62
     0
100
AcDbLine
 10
3.294816471809419
 20
-10.62450814707651
 30
0.0
 11
3.082624704809468
 21
-10.41231638007656
 31
0.0
  0
LINE
  5
14D4
330
14BE
100
AcDbEntity
  8
0
 62
     0
100
AcDbLine
 10
1.241817425899255
 20
-8.807240824344412
 30
0.0
 11
1.068864846956123
 21
-8.634288245401287
 31
0.0
  0
LINE
  5
14D5
330
14BE
100
AcDbEntity
  8
0
 62
     0
100
AcDbLine
 10
3.294816471809419
 20
-10.86023987025457
 30
0.0
 11
3.082624704809461
 21
-10.6480481032546
 31
0.0
  0
LINE
  5
14D6
330
14BE
100
AcDbEntity
  8
0
 62
     0
100
AcDbLine
 10
3.294816471809426
 20
-11.09597159343263
 30
0.0
 11
3.082624704809474
 21
-10.88377982643268
 31
0.0
  0
LINE
  5
14D7
330
14BE
100
AcDbEntity
  8
0
 62
     0
100
AcDbLine
 10
3.294816471809426
 20
-11.33170331661069
 30
0.0
 11
3.082624704809468
 21
-11.11951154961074
 31
0.0
  0
LINE
  5
14D8
330
14BE
100
AcDbEntity
  8
0
 62
     0
100
AcDbLine
 10
3.294816471809419
 20
-11.56743503978875
 30
0.0
 11
3.082624704809468
 21
-11.35524327278881
 31
0.0
  0
LINE
  5
14D9
330
14BE
100
AcDbEntity
  8
0
 62
     0
100
AcDbLine
 10
3.294816471809426
 20
-11.80316676296683
 30
0.0
 11
3.082624704809468
 21
-11.59097499596687
 31
0.0
  0
LINE
  5
14DA
330
14BE
100
AcDbEntity
  8
0
 62
     0
100
AcDbLine
 10
3.294816471809411
 20
-12.03889848614488
 30
0.0
 11
3.082624704809461
 21
-11.82670671914494
 31
0.0
  0
LINE
  5
14DB
330
14BE
100
AcDbEntity
  8
0
 62
     0
100
AcDbLine
 10
3.294816471809426
 20
-12.27463020932296
 30
0.0
 11
3.082624704809474
 21
-12.06243844232302
 31
0.0
  0
LINE
  5
14DC
330
14BE
100
AcDbEntity
  8
0
 62
     0
100
AcDbLine
 10
3.294816471809426
 20
-12.51036193250103
 30
0.0
 11
3.082624704809468
 21
-12.29817016550107
 31
0.0
  0
LINE
  5
14DD
330
14BE
100
AcDbEntity
  8
0
 62
     0
100
AcDbLine
 10
3.294816471809419
 20
-12.7460936556791
 30
0.0
 11
3.082624704809468
 21
-12.53390188867915
 31
0.0
  0
LINE
  5
14DE
330
14BE
100
AcDbEntity
  8
0
 62
     0
100
AcDbLine
 10
3.290062309988357
 20
-12.97707121703608
 30
0.0
 11
3.082624704809468
 21
-12.7696336118572
 31
0.0
  0
LINE
  5
14DF
330
14BE
100
AcDbEntity
  8
0
 62
     0
100
AcDbLine
 10
3.253193000403448
 20
-13.17593363062925
 30
0.0
 11
3.074236505306537
 21
-12.99697713553234
 31
0.0
  0
LINE
  5
14E0
330
14BE
100
AcDbEntity
  8
0
 62
     0
100
AcDbLine
 10
3.18921464459015
 20
-13.34768699799401
 30
0.0
 11
3.027164552993986
 21
-13.18563690639785
 31
0.0
  0
LINE
  5
14E1
330
14BE
100
AcDbEntity
  8
0
 62
     0
100
AcDbLine
 10
3.103814893826012
 20
-13.49801897040793
 30
0.0
 11
2.950311173986341
 21
-13.34451525056827
 31
0.0
  0
LINE
  5
14E2
330
14BE
100
AcDbEntity
  8
0
 62
     0
100
AcDbLine
 10
2.999649062445164
 20
-13.62958486220516
 30
0.0
 11
2.849455977199872
 21
-13.47939177695987
 31
0.0
  0
LINE
  5
14E3
330
14BE
100
AcDbEntity
  8
0
 62
     0
100
AcDbLine
 10
2.877702818340999
 20
-13.74337034127906
 30
0.0
 11
2.726540528425259
 21
-13.59220805136332
 31
0.0
  0
LINE
  5
14E4
330
14BE
100
AcDbEntity
  8
0
 62
     0
100
AcDbLine
 10
2.737690149594256
 20
-13.83908939571039
 30
0.0
 11
2.581011949389086
 21
-13.68241119550521
 31
0.0
  0
LINE
  5
14E5
330
14BE
100
AcDbEntity
  8
0
 62
     0
100
AcDbLine
 10
1.279010410280513
 20
-12.6161413795747
 30
0.0
 11
1.11184125484943
 21
-12.44897222414361
 31
0.0
  0
LINE
  5
14E6
330
14BE
100
AcDbEntity
  8
0
 62
     0
100
AcDbLine
 10
2.577943456406103
 20
-13.91507442570029
 30
0.0
 11
2.409471764917056
 21
-13.74660273421124
 31
0.0
  0
LINE
  5
14E7
330
14BE
100
AcDbEntity
  8
0
 62
     0
100
AcDbLine
 10
1.279010410280505
 20
-12.85187310275276
 30
0.0
 11
1.066818637819558
 21
-12.63968133029182
 31
0.0
  0
LINE
  5
14E8
330
14BE
100
AcDbEntity
  8
0
 62
     0
100
AcDbLine
 10
2.3946800115431
 20
-13.96754270401536
 30
0.0
 11
2.202938001470086
 21
-13.77580069394234
 31
0.0
  0
LINE
  5
14E9
330
14BE
100
AcDbEntity
  8
0
 62
     0
100
AcDbLine
 10
1.313825469159445
 20
-13.12241988480975
 30
0.0
 11
1.066819229992219
 21
-12.87541364564252
 31
0.0
  0
LINE
  5
14EA
330
14BE
100
AcDbEntity
  8
0
 62
     0
100
AcDbLine
 10
2.179668798895193
 20
-13.98826321454551
 30
0.0
 11
1.932662559727964
 21
-13.74125697537827
 31
0.0
  0
LINE
  5
14EB
330
14BE
100
AcDbEntity
  8
0
 62
     0
100
AcDbLine
 10
1.910690917046075
 20
-13.95501705587446
 30
0.0
 11
1.10006538866326
 21
-13.14439152749164
 31
0.0
  0
ENDBLK
  5
1637
330
14BE
100
AcDbEntity
  8
0
100
AcDbBlockEnd
  0
BLOCK
  5
1638
330
14EE
100
AcDbEntity
  8
0
100
AcDbBlockBegin
  2
*X4
 70
     1
 10
0.0
 20
0.0
 30
0.0
  3
*X4
  1

  0
LINE
  5
14EF
330
14EE
100
AcDbEntity
  8
0
 62
     0
100
AcDbLine
 10
2.976528818578984
 20
-10.77768394020218
 30
0.0
 11
2.959043916706504
 21
-10.76019903832972
 31
0.0
  0
LINE
  5
14F0
330
14EE
100
AcDbEntity
  8
0
 62
     0
100
AcDbLine
 10
2.976528818578976
 20
-11.01341566338025
 30
0.0
 11
2.628542881455238
 21
-10.66542972625651
 31
0.0
  0
LINE
  5
14F1
330
14EE
100
AcDbEntity
  8
0
 62
     0
100
AcDbLine
 10
2.963435272440881
 20
-11.23605384042024
 30
0.0
 11
2.298041846203978
 21
-10.57066041418333
 31
0.0
  0
LINE
  5
14F2
330
14EE
100
AcDbEntity
  8
0
 62
     0
100
AcDbLine
 10
2.632932943878123
 20
-11.14128323503552
 30
0.0
 11
1.967540810952725
 21
-10.47589110211013
 31
0.0
  0
LINE
  5
14F3
330
14EE
100
AcDbEntity
  8
0
 62
     0
100
AcDbLine
 10
2.302430615315357
 20
-11.04651262965084
 30
0.0
 11
1.637039775701452
 21
-10.38112179003694
 31
0.0
  0
LINE
  5
14F4
330
14EE
100
AcDbEntity
  8
0
 62
     0
100
AcDbLine
 10
1.971928286752606
 20
-10.95174202426614
 30
0.0
 11
1.3065387404502
 21
-10.28635247796372
 31
0.0
  0
LINE
  5
14F5
330
14EE
100
AcDbEntity
  8
0
 62
     0
100
AcDbLine
 10
1.641425958189841
 20
-10.85697141888145
 30
0.0
 11
1.066818637819564
 21
-10.28236409851116
 31
0.0
  0
LINE
  5
14F6
330
14EE
100
AcDbEntity
  8
0
 62
     0
100
AcDbLine
 10
1.310923629627082
 20
-10.76220081349676
 30
0.0
 11
1.066818637819558
 21
-10.51809582168922
 31
0.0
  0
LINE
  5
14F7
330
14EE
100
AcDbEntity
  8
0
 62
     0
100
AcDbLine
 10
1.088745240343236
 20
-10.77575414739097
 30
0.0
 11
1.066818637819564
 21
-10.7538275448673
 31
0.0
  0
ENDBLK
  5
1639
330
14EE
100
AcDbEntity
  8
0
100
AcDbBlockEnd
  0
BLOCK
  5
163A
330
14FA
100
AcDbEntity
  8
0
100
AcDbBlockBegin
  2
*X5
 70
     1
 10
0.0
 20
0.0
 30
0.0
  3
*X5
  1

  0
LINE
  5
14FB
330
14FA
100
AcDbEntity
  8
0
 62
     0
100
AcDbLine
 10
2.866267759626282
 20
-9.253032542181106
 30
0.0
 11
2.667341175677612
 21
-9.05410595823244
 31
0.0
  0
LINE
  5
14FC
330
14FA
100
AcDbEntity
  8
0
 62
     0
100
AcDbLine
 10
2.973311016767503
 20
-9.595807522500383
 30
0.0
 11
2.336839223885135
 21
-8.959335729618026
 31
0.0
  0
LINE
  5
14FD
330
14FA
100
AcDbEntity
  8
0
 62
     0
100
AcDbLine
 10
2.637468497805876
 20
-9.495696726716835
 30
0.0
 11
2.006337272092656
 21
-8.864565501003609
 31
0.0
  0
LINE
  5
14FE
330
14FA
100
AcDbEntity
  8
0
 62
     0
100
AcDbLine
 10
2.958949796291014
 20
-9.817178025201978
 30
0.0
 11
2.709833181810154
 21
-9.568061410721107
 31
0.0
  0
LINE
  5
14FF
330
14FA
100
AcDbEntity
  8
0
 62
     0
100
AcDbLine
 10
2.294807617108893
 20
-9.388767569197922
 30
0.0
 11
1.894356937380115
 21
-8.988316889469145
 31
0.0
  0
LINE
  5
1500
330
14FA
100
AcDbEntity
  8
0
 62
     0
100
AcDbLine
 10
2.894565644714723
 20
-9.988525596803743
 30
0.0
 11
2.709284972303904
 21
-9.803244924392928
 31
0.0
  0
LINE
  5
1501
330
14FA
100
AcDbEntity
  8
0
 62
     0
100
AcDbLine
 10
2.106548709841042
 20
-9.436240385108128
 30
0.0
 11
1.894356937380115
 21
-9.224048612647202
 31
0.0
  0
LINE
  5
1502
330
14FA
100
AcDbEntity
  8
0
 62
     0
100
AcDbLine
 10
2.79692411133888
 20
-10.12661578660596
 30
0.0
 11
2.572197230405548
 21
-9.901888905672635
 31
0.0
  0
LINE
  5
1503
330
14FA
100
AcDbEntity
  8
0
 62
     0
100
AcDbLine
 10
1.348486654973547
 20
-8.9139100534187
 30
0.0
 11
1.326394182066565
 21
-8.89181758051172
 31
0.0
  0
LINE
  5
1504
330
14FA
100
AcDbEntity
  8
0
 62
     0
100
AcDbLine
 10
2.670262681894576
 20
-10.23568608033973
 30
0.0
 11
2.283726833106142
 21
-9.849150231551299
 31
0.0
  0
LINE
  5
1505
330
14FA
100
AcDbEntity
  8
0
 62
     0
100
AcDbLine
 10
1.407547880493345
 20
-9.208703002116557
 30
0.0
 11
1.147176011686227
 21
-8.948331133309434
 31
0.0
  0
LINE
  5
1506
330
14FA
100
AcDbEntity
  8
0
 62
     0
100
AcDbLine
 10
2.512839522459095
 20
-10.3139946440823
 30
0.0
 11
1.953224559176234
 21
-9.754379680799444
 31
0.0
  0
LINE
  5
1507
330
14FA
100
AcDbEntity
  8
0
 62
     0
100
AcDbLine
 10
1.307170115995851
 20
-9.344056960797133
 30
0.0
 11
1.148282362821553
 21
-9.185169207622833
 31
0.0
  0
LINE
  5
1508
330
14FA
100
AcDbEntity
  8
0
 62
     0
100
AcDbLine
 10
2.314609196777708
 20
-10.35149604157899
 30
0.0
 11
1.622722285246303
 21
-9.65960913004759
 31
0.0
  0
LINE
  5
1509
330
14FA
100
AcDbEntity
  8
0
 62
     0
100
AcDbLine
 10
2.0454755090717
 20
-10.31809407705103
 30
0.0
 11
1.0841334982329
 21
-9.356752066212255
 31
0.0
  0
LINE
  5
150A
330
14FA
100
AcDbEntity
  8
0
 62
     0
100
AcDbLine
 10
1.731482545935462
 20
-10.23983283709287
 30
0.0
 11
1.070201539477138
 21
-9.578551830634543
 31
0.0
  0
ENDBLK
  5
163B
330
14FA
100
AcDbEntity
  8
0
100
AcDbBlockEnd
  0
BLOCK
  5
163C
330
150D
100
AcDbEntity
  8
0
100
AcDbBlockBegin
  2
A$C17DE42A3
 70
     0
 10
0.0
 20
0.0
 30
0.0
  3
A$C17DE42A3
  1

  0
ELLIPSE
  5
150E
330
150D
100
AcDbEntity
  8
240
100
AcDbEllipse
 10
-10.50617546608403
 20
-0.0000000000004848
 30
0.0
 11
28.27074826996394
 21
24.93076146916392
 31
2.000000000000000E-16
210
3.979614939716963E-18
220
3.509451884816746E-18
230
-1.0
 40
0.0657689204286509
 41
2.766549711635696
 42
3.06715045357473
  0
LINE
  5
150F
330
150D
100
AcDbEntity
  8
245
100
AcDbLine
 10
-82.79999999999544
 20
-0.0000000000004848
 30
0.0
 11
0.7688208754065969
 21
0.0000000000000045
 31
0.0
  0
LINE
  5
1510
330
150D
100
AcDbEntity
  8
240
100
AcDbLine
 10
-76.5000000000004
 20
13.99999999999963
 30
0.0
 11
-49.99999999999992
 21
13.99999991977959
 31
0.0
  0
LINE
  5
1511
330
150D
100
AcDbEntity
  8
240
100
AcDbLine
 10
-76.50000000000017
 20
-14.00000000000037
 30
0.0
 11
-49.99999999999992
 21
-13.99999999998821
 31
0.0
  0
LINE
  5
1512
330
150D
100
AcDbEntity
  8
241
100
AcDbLine
 10
-76.50000000000006
 20
13.99999999999963
 30
0.0
 11
-76.50000000000006
 21
-0.0000000000003427
 31
0.0
  0
LINE
  5
1513
330
150D
100
AcDbEntity
  8
240
100
AcDbLine
 10
-80.99999999999994
 20
-13.10000000000042
 30
0.0
 11
-81.00000000000006
 21
13.09999999999973
 31
0.0
  0
LINE
  5
1514
330
150D
100
AcDbEntity
  8
241
100
AcDbLine
 10
-78.45947063619644
 20
13.72461436121386
 30
0.0
 11
-78.45947063619695
 21
-0.0000000000004564
 31
0.0
  0
LINE
  5
1515
330
150D
100
AcDbEntity
  8
241
100
AcDbLine
 10
-78.45947063619644
 20
-13.72461436121455
 30
0.0
 11
-78.45947063619695
 21
-0.000000000000229
 31
0.0
  0
LINE
  5
1516
330
150D
100
AcDbEntity
  8
241
100
AcDbLine
 10
-76.50000000000006
 20
-14.00000000000031
 30
0.0
 11
-76.50000000000006
 21
-0.0000000000003427
 31
0.0
  0
LINE
  5
1517
330
150D
100
AcDbEntity
  8
240
100
AcDbLine
 10
-78.45947063619644
 20
-13.72461436121455
 30
0.0
 11
-76.50000000000017
 21
-14.00000000000037
 31
0.0
  0
ARC
  5
1518
330
150D
100
AcDbEntity
  8
240
100
AcDbCircle
 10
-80.10000000000004
 20
-13.10000000000042
 30
0.0
 40
0.9000000000000088
100
AcDbArc
 50
179.9999823999063
 51
280.0000000000018
  0
LINE
  5
1519
330
150D
100
AcDbEntity
  8
240
100
AcDbLine
 10
-78.45947063619644
 20
-13.72461436121455
 30
0.0
 11
-79.94371664009981
 21
-13.98632697771143
 31
0.0
  0
LINE
  5
151A
330
150D
100
AcDbEntity
  8
240
100
AcDbLine
 10
-78.45947063619644
 20
13.72461436121386
 30
0.0
 11
-76.5000000000004
 21
13.99999999999963
 31
0.0
  0
ARC
  5
151B
330
150D
100
AcDbEntity
  8
240
100
AcDbCircle
 10
-80.10000000000004
 20
13.09999999999973
 30
0.0
 40
0.9000000000000088
100
AcDbArc
 50
80.00000000000146
 51
179.9999823999063
  0
LINE
  5
151C
330
150D
100
AcDbEntity
  8
240
100
AcDbLine
 10
-78.45947063619644
 20
13.72461436121386
 30
0.0
 11
-79.94371664009981
 21
13.98632697771074
 31
0.0
  0
LINE
  5
151D
330
150D
100
AcDbEntity
  8
240
100
AcDbLine
 10
-4.297169975669895
 20
2.476979387827922
 30
0.0
 11
-31.48377875936952
 21
24.19602516154853
 31
0.0
  0
LINE
  5
151E
330
150D
100
AcDbEntity
  8
241
100
AcDbLine
 10
-31.48377875936952
 20
24.19602516154853
 30
0.0
 11
-31.48377875936951
 21
7.327797678325898
 31
0.0
  0
LINE
  5
151F
330
150D
100
AcDbEntity
  8
240
100
AcDbLine
 10
-49.99999999999992
 20
13.9999999197796
 30
0.0
 11
-49.99999999999993
 21
24.69999999999925
 31
0.0
  0
ELLIPSE
  5
1520
330
150D
100
AcDbEntity
  8
241
100
AcDbEllipse
 10
-36.8922103689075
 20
-0.0000000000004848
 30
0.0
 11
0.0011856330747839
 21
24.99999999963247
 31
0.0
210
0.0
220
0.0
230
-1.0
 40
0.114333767104802
 41
3.637218699169589
 42
5.786729667308043
  0
LINE
  5
1521
330
150D
100
AcDbEntity
  8
241
100
AcDbLine
 10
-38.25263168779875
 20
-5.021916977569761
 30
0.0
 11
-38.25263168779875
 21
21.98197213732285
 31
0.0
  0
TEXT
  5
1522
330
150D
100
AcDbEntity
  8
247
100
AcDbText
 10
-44.86973664070831
 20
-8.87505228252173
 30
0.0
 40
2.5
  1
S50-DTJNL-00050-16
 50
90.0
 41
0.7
  7
YOKO
 11
-44.86973664070831
 21
-8.87505228252173
 31
0.0
100
AcDbText
 73
     1
  0
CIRCLE
  5
1523
330
150D
100
AcDbEntity
  8
241
100
AcDbCircle
 10
-21.69098854423376
 20
5.503834534336062
 30
0.0
 40
4.25
  0
LINE
  5
1524
330
150D
100
AcDbEntity
  8
241
100
AcDbLine
 10
-20.02409484716166
 20
11.98091484582683
 30
0.0
 11
-25.69405358600701
 21
15.00254340824778
 31
0.0
  0
LINE
  5
1525
330
150D
100
AcDbEntity
  8
241
100
AcDbLine
 10
-23.99905773201034
 20
5.42541286788232
 30
0.0
 11
-22.91293829347782
 21
7.46347025141579
 31
0.0
  0
LINE
  5
1526
330
150D
100
AcDbEntity
  8
241
100
AcDbLine
 10
-26.13804051169781
 20
0.5083533005092794
 30
0.0
 11
-22.71787466048266
 21
-1.314317956945584
 31
0.0
  0
LINE
  5
1527
330
150D
100
AcDbEntity
  8
241
100
AcDbLine
 10
-22.77710798276601
 20
3.465777150802336
 30
0.0
 11
-23.99905773201034
 21
5.42541286788232
 31
0.0
  0
ELLIPSE
  5
1528
330
150D
100
AcDbEntity
  8
240
100
AcDbEllipse
 10
-13.93834885960202
 20
-37.00093015511609
 30
0.0
 11
0.0686641192125443
 21
24.99990570459683
 31
0.0
210
0.0
220
0.0
230
-1.0
 40
0.9890738003538126
 41
5.547370112210138
 42
6.280408398047755
  0
ARC
  5
1529
330
150D
100
AcDbEntity
  8
247
100
AcDbCircle
 10
-45.80623501983718
 20
-17.67845570741257
 30
0.0
 40
0.9094932500839236
100
AcDbArc
 50
0.0
 51
130.3298406541675
  0
LINE
  5
152A
330
150D
100
AcDbEntity
  8
247
100
AcDbLine
 10
-44.89674134054616
 20
-18.2094474479066
 30
0.0
 11
-46.23161650691637
 21
-16.87457228153636
 31
0.0
  0
LINE
  5
152B
330
150D
100
AcDbEntity
  8
247
100
AcDbLine
 10
-44.8967413405461
 20
-17.80528540851777
 30
0.0
 11
-45.92524434818455
 21
-16.7767824008794
 31
0.0
  0
LINE
  5
152C
330
150D
100
AcDbEntity
  8
247
100
AcDbLine
 10
-45.22448936793305
 20
-19.09418553868605
 30
0.0
 11
-46.76377712056067
 21
-17.55489778605841
 31
0.0
  0
ARC
  5
152D
330
150D
100
AcDbEntity
  8
247
100
AcDbCircle
 10
-45.84261804615096
 20
-18.08432766309341
 30
0.0
 40
0.5457045663826169
100
AcDbArc
 50
351.6628542111504
 51
156.3381921591102
  0
LINE
  5
152E
330
150D
100
AcDbEntity
  8
247
100
AcDbLine
 10
-46.22222294777305
 20
-17.69228991945726
 30
0.0
 11
-47.52408350912381
 21
-16.39042935810645
 31
0.0
  0
LINE
  5
152F
330
150D
100
AcDbEntity
  8
241
100
AcDbLine
 10
-31.48377875936952
 20
-19.33367733305354
 30
0.0
 11
-31.48377875936952
 21
3.357198613214382
 31
0.0
  0
SPLINE
  5
1530
330
150D
100
AcDbEntity
  8
241
100
AcDbSpline
210
0.0
220
0.0
230
1.0
 70
     8
 71
     3
 72
    50
 73
    46
 74
     0
 42
0.0000000001
 43
0.0000000001
 40
11.29187797260339
 40
11.29187797260339
 40
11.29187797260339
 40
11.29187797260339
 40
12.66000523246953
 40
12.66000523246953
 40
14.15578013285154
 40
14.15578013285154
 40
15.65155503323356
 40
15.65155503323356
 40
17.14732993361557
 40
17.14732993361557
 40
18.85678560541008
 40
18.85678560541008
 40
20.56624127720458
 40
20.56624127720458
 40
21.42096911310184
 40
21.42096911310184
 40
22.27569694899909
 40
22.27569694899909
 40
23.13042478489635
 40
23.13042478489635
 40
23.55778870284498
 40
23.55778870284498
 40
23.9851526207936
 40
23.9851526207936
 40
24.41251653874223
 40
24.41251653874223
 40
24.83988045669086
 40
24.83988045669086
 40
25.69460829258811
 40
25.69460829258811
 40
26.54933612848537
 40
26.54933612848537
 40
27.40406396438262
 40
27.40406396438262
 40
29.11351963617713
 40
29.11351963617713
 40
30.82297530797164
 40
30.82297530797164
 40
32.31875020835365
 40
32.31875020835365
 40
33.81452510873566
 40
33.81452510873566
 40
35.31030000911766
 40
35.31030000911766
 40
36.67842726898381
 40
36.67842726898381
 40
36.67842726898381
 40
36.67842726898381
 10
-38.25263168779875
 20
-19.0196095584042
 30
0.0
 10
-38.20073185970167
 20
-19.0111833199808
 30
0.0
 10
-38.10896215086844
 20
-18.95809707223648
 30
0.0
 10
-37.83858232779109
 20
-18.75954528635637
 30
0.0
 10
-37.65262043567764
 20
-18.60590456510115
 30
0.0
 10
-37.21178698855015
 20
-18.21983316934174
 30
0.0
 10
-36.95653807328207
 20
-17.98709089836867
 30
0.0
 10
-36.40680670753473
 20
-17.47223020804611
 30
0.0
 10
-36.11237395149293
 20
-17.1901457770563
 30
0.0
 10
-35.48043725465802
 20
-16.57265949277515
 30
0.0
 10
-35.11832076796618
 20
-16.21182462718232
 30
0.0
 10
-34.38152958709027
 20
-15.4538528678066
 30
0.0
 10
-34.00653473801929
 20
-15.05711231287981
 30
0.0
 10
-33.47283046319688
 20
-14.45231983616728
 30
0.0
 10
-33.30100077201168
 20
-14.25040879411906
 30
0.0
 10
-32.97567436100129
 20
-13.84341766386345
 30
0.0
 10
-32.82199499258336
 20
-13.63848995435572
 30
0.0
 10
-32.54451730407478
 20
-13.2183480944474
 30
0.0
 10
-32.42089550090982
 20
-13.00503589068981
 30
0.0
 10
-32.27754905507722
 20
-12.66143442839759
 30
0.0
 10
-32.23704696407559
 20
-12.54298323909697
 30
0.0
 10
-32.17854649825365
 20
-12.29246598532111
 30
0.0
 10
-32.16053580365805
 20
-12.16040428382089
 30
0.0
 10
-32.16053580365805
 20
-11.87549502906213
 30
0.0
 10
-32.17854649825365
 20
-11.74343681520688
 30
0.0
 10
-32.23704696407559
 20
-11.49293129419934
 30
0.0
 10
-32.27754905507722
 20
-11.37448837143219
 30
0.0
 10
-32.42089550090982
 20
-11.03091755119058
 30
0.0
 10
-32.54451730407478
 20
-10.81763338226019
 30
0.0
 10
-32.82199499258336
 20
-10.39756227742552
 30
0.0
 10
-32.97567436100129
 20
-10.1926772030994
 30
0.0
 10
-33.30100077201168
 20
-9.785786971500245
 30
0.0
 10
-33.47283046319688
 20
-9.583934210053968
 30
0.0
 10
-34.00653473801929
 20
-8.979342963589177
 30
0.0
 10
-34.38152958709027
 20
-8.582770502089462
 30
0.0
 10
-35.11832076796618
 20
-7.825201944426824
 30
0.0
 10
-35.48043725465802
 20
-7.464602294219249
 30
0.0
 10
-36.11237395149293
 20
-6.847608057860584
 30
0.0
 10
-36.40680670753473
 20
-6.565788536767373
 30
0.0
 10
-36.95653807328204
 20
-6.051522101705502
 30
0.0
 10
-37.21178698855012
 20
-5.819109226654662
 30
0.0
 10
-37.65262043567761
 20
-5.433746073514187
 30
0.0
 10
-37.83858232779109
 20
-5.280484976764144
 30
0.0
 10
-38.10896215086841
 20
-5.082686428061636
 30
0.0
 10
-38.20073185970167
 20
-5.029971558845462
 30
0.0
 10
-38.25263168779875
 20
-5.021916977569761
 30
0.0
  0
ELLIPSE
  5
1531
330
150D
100
AcDbEntity
  8
241
100
AcDbEllipse
 10
-38.26715810530847
 20
-12.02081528017177
 30
0.0
 11
-0.0003319772609411001
 21
-6.999999999897085
 31
0.0
210
0.0
220
0.0
230
-1.0
 40
0.114333767104802
 41
6.264619124545317
 42
9.442514549111904
  0
LINE
  5
1532
330
150D
100
AcDbEntity
  8
247
100
AcDbLine
 10
-44.71483994360403
 20
-19.37906345944963
 30
0.0
 11
-44.71483994360403
 21
-11.9939134413298
 31
0.0
  0
LINE
  5
1533
330
150D
100
AcDbEntity
  8
247
100
AcDbLine
 10
-44.35103715908261
 20
-19.37906345944963
 30
0.0
 11
-44.35103715908261
 21
-11.9939134413298
 31
0.0
  0
LINE
  5
1534
330
150D
100
AcDbEntity
  8
247
100
AcDbLine
 10
-48.17093944545824
 20
-18.43854368749202
 30
0.0
 11
-48.1709394454581
 21
-17.26493275183893
 31
0.0
  0
LINE
  5
1535
330
150D
100
AcDbEntity
  8
240
100
AcDbLine
 10
-49.99999999999991
 20
-24.69999999999939
 30
0.0
 11
-49.99999999999992
 21
-13.99999999998822
 31
0.0
  0
INSERT
  5
1536
330
150D
100
AcDbEntity
  8
247
  6
CONTINUOUS
100
AcDbBlockReference
  2
*X3
 10
-49.99999999999986
 20
2.693863903902971
 30
0.0
 41
1.714499999999986
 42
1.714500000000001
 43
1.7145
1001
ACAD
1000
HATCH
1002
{
1070
    19
1000
ANSI31
1040
0.0525
1040
1.570796326794895
1002
}
  0
LINE
  5
1537
330
150D
100
AcDbEntity
  8
247
100
AcDbLine
 10
-46.35777955442189
 20
-18.76921943097483
 30
0.0
 11
-47.63124039979548
 21
-17.49575858560117
 31
0.0
  0
LINE
  5
1538
330
150D
100
AcDbEntity
  8
247
100
AcDbLine
 10
-46.92442464766626
 20
-18.60673637711921
 30
0.0
 11
-48.1709394454581
 21
-17.36022157932739
 31
0.0
  0
LINE
  5
1539
330
150D
100
AcDbEntity
  8
247
100
AcDbLine
 10
-47.79762776632166
 20
-17.4480488440429
 30
0.0
 11
-46.75789360296458
 21
-17.74618114374063
 31
0.0
  0
ARC
  5
153A
330
150D
100
AcDbEntity
  8
247
100
AcDbCircle
 10
-47.29781548706132
 20
-17.66705596719345
 30
0.0
 40
0.545688953974843
100
AcDbArc
 50
351.6626016879293
 51
156.3381550951898
  0
LINE
  5
153B
330
150D
100
AcDbEntity
  8
240
100
AcDbLine
 10
-38.57667885022245
 20
-25.00000000000048
 30
0.0
 11
-49.69999999999876
 21
-25.00000000000048
 31
0.0
  0
LINE
  5
153C
330
150D
100
AcDbEntity
  8
240
100
AcDbLine
 10
-49.69999999999989
 20
-24.99999999999934
 30
0.0
 11
-49.99999999999991
 21
-24.69999999999939
 31
0.0
  0
SPLINE
  5
153D
330
150D
100
AcDbEntity
  8
241
100
AcDbSpline
210
0.0
220
0.0
230
1.0
 70
     8
 71
     3
 72
    14
 73
    10
 74
     0
 42
0.0000000001
 43
0.0000000001
 40
15.4204389407365
 40
15.4204389407365
 40
15.4204389407365
 40
15.4204389407365
 40
16.04480415474275
 40
16.04480415474275
 40
17.69558505697728
 40
17.69558505697728
 40
19.3463659592118
 40
19.3463659592118
 40
20.54495194346312
 40
20.54495194346312
 40
20.54495194346312
 40
20.54495194346312
 10
-38.25263168779875
 20
-21.9917141793617
 30
0.0
 10
-38.23104059467547
 20
-22.09383336846613
 30
0.0
 10
-38.20236494161278
 20
-22.19398665958724
 30
0.0
 10
-38.0704917113104
 20
-22.54952648227245
 30
0.0
 10
-37.92157142853656
 20
-22.78905240728263
 30
0.0
 10
-37.51406697337869
 20
-23.21677036601224
 30
0.0
 10
-37.25499944739672
 20
-23.40549019009117
 30
0.0
 10
-36.72550946818133
 20
-23.68492492584473
 30
0.0
 10
-36.47779800872711
 20
-23.78849444310023
 30
0.0
 10
-36.21124620247115
 20
-23.87896963420562
 30
0.0
  0
LINE
  5
153E
330
150D
100
AcDbEntity
  8
247
100
AcDbLine
 10
-45.7911344611774
 20
-18.93170248483048
 30
0.0
 11
-47.06460066966983
 21
-17.65823627633799
 31
0.0
  0
LINE
  5
153F
330
150D
100
AcDbEntity
  8
247
100
AcDbLine
 10
-46.34244546824803
 20
-17.86531619788998
 30
0.0
 11
-45.30268046533695
 21
-18.16345340224081
 31
0.0
  0
LINE
  5
1540
330
150D
100
AcDbEntity
  8
247
100
AcDbLine
 10
-44.89674134054616
 20
-19.18816588197305
 30
0.0
 11
-47.80713665157285
 21
-18.35362249017359
 31
0.0
  0
ARC
  5
1541
330
150D
100
AcDbEntity
  8
247
100
AcDbCircle
 10
-46.26098851219254
 20
-19.37906345944963
 30
0.0
 40
1.909950933265685
100
AcDbArc
 50
180.0
 51
0.0
  0
ARC
  5
1542
330
150D
100
AcDbEntity
  8
247
100
AcDbCircle
 10
-46.26098851219254
 20
-19.37906345944963
 30
0.0
 40
1.546148139381408
100
AcDbArc
 50
180.0
 51
0.0
  0
LINE
  5
1543
330
150D
100
AcDbEntity
  8
247
100
AcDbLine
 10
-47.80713665157388
 20
-18.53234845198921
 30
0.0
 11
-48.17093944545812
 21
-18.16854565810493
 31
0.0
  0
LINE
  5
1544
330
150D
100
AcDbEntity
  8
247
100
AcDbLine
 10
-48.17093944545824
 20
-18.62776564050275
 30
0.0
 11
-47.80713665157393
 21
-18.73208013082108
 31
0.0
  0
LINE
  5
1545
330
150D
100
AcDbEntity
  8
247
100
AcDbLine
 10
-48.17093944545824
 20
-18.43854368749202
 30
0.0
 11
-47.80713665157393
 21
-18.5428581778109
 31
0.0
  0
LINE
  5
1546
330
150D
100
AcDbEntity
  8
247
100
AcDbLine
 10
-47.80713665157393
 20
-18.5428581778109
 30
0.0
 11
-47.80713665157285
 21
-18.35362249017359
 31
0.0
  0
LINE
  5
1547
330
150D
100
AcDbEntity
  8
247
100
AcDbLine
 10
-48.17093944545824
 20
-19.37906345944963
 30
0.0
 11
-48.17093944545824
 21
-18.62776564050275
 31
0.0
  0
LINE
  5
1548
330
150D
100
AcDbEntity
  8
247
100
AcDbLine
 10
-47.80713665157393
 20
-19.37906345944963
 30
0.0
 11
-47.80713665157393
 21
-18.73208013082108
 31
0.0
  0
LINE
  5
1549
330
150D
100
AcDbEntity
  8
247
100
AcDbLine
 10
-47.49106974091066
 20
-18.4442533232636
 30
0.0
 11
-48.17093944545812
 21
-17.76438361871613
 31
0.0
  0
LINE
  5
154A
330
150D
100
AcDbEntity
  8
247
100
AcDbLine
 10
-44.89674134054616
 20
-18.61360948729538
 30
0.0
 11
-45.36467281231555
 21
-18.14567801552593
 31
0.0
  0
LINE
  5
154B
330
150D
100
AcDbEntity
  8
247
100
AcDbLine
 10
-44.89674134054616
 20
-19.01777152668419
 30
0.0
 11
-45.93130953342754
 21
-17.98320333380278
 31
0.0
  0
LINE
  5
154C
330
150D
100
AcDbEntity
  8
247
100
AcDbLine
 10
-44.89674134054616
 20
-19.18816588197305
 30
0.0
 11
-44.89674134054616
 21
-17.67845570741257
 31
0.0
  0
LINE
  5
154D
330
150D
100
AcDbEntity
  8
241
100
AcDbLine
 10
-38.25263168779875
 20
-21.9917141793617
 30
0.0
 11
-38.25263168779875
 21
-19.0196095584042
 31
0.0
  0
ELLIPSE
  5
154E
330
150D
100
AcDbEntity
  8
240
100
AcDbEllipse
 10
-30.30441341117696
 20
-19.33691654858583
 30
0.0
 11
-7.982372537013286
 21
-7.179502184925001
 31
0.0
210
0.0
220
0.0
230
-1.0
 40
0.0739300838001749
 41
0.8065661570283896
 42
1.489232812498729
  0
LINE
  5
154F
330
150D
100
AcDbEntity
  8
240
100
AcDbLine
 10
-30.48383904012288
 20
-18.42332063093445
 30
0.0
 11
-31.48377875936952
 21
-19.33367733305354
 31
0.0
  0
CIRCLE
  5
1550
330
150D
100
AcDbEntity
  8
241
100
AcDbCircle
 10
-64.00000000000003
 20
-0.0000000000001722
 30
0.0
 40
4.0
  0
SPLINE
  5
1551
330
150D
100
AcDbEntity
  8
241
100
AcDbSpline
210
0.0
220
0.0
230
1.0
 70
    11
 71
     3
 72
    70
 73
    66
 74
     0
 42
0.0000000001
 43
0.0000000001
 40
0.0
 40
0.0
 40
0.0
 40
0.0
 40
0.9197496568304652
 40
0.9197496568304652
 40
1.83949931366093
 40
1.83949931366093
 40
2.759248970491396
 40
2.759248970491396
 40
3.678998627321861
 40
3.678998627321861
 40
4.631875395981221
 40
4.631875395981221
 40
5.584752164640583
 40
5.584752164640583
 40
6.537628933299944
 40
6.537628933299944
 40
7.490505701959305
 40
7.490505701959305
 40
8.44338247061866
 40
8.44338247061866
 40
9.39625923927802
 40
9.39625923927802
 40
10.34913600793737
 40
10.34913600793737
 40
11.30201277659673
 40
11.30201277659673
 40
12.2217624334272
 40
12.2217624334272
 40
13.14151209025766
 40
13.14151209025766
 40
14.06126174708813
 40
14.06126174708813
 40
14.9810114039186
 40
14.9810114039186
 40
15.91208227998781
 40
15.91208227998781
 40
16.84315315605702
 40
16.84315315605702
 40
17.77422403212622
 40
17.77422403212622
 40
18.70529490819543
 40
18.70529490819543
 40
19.64673146562238
 40
19.64673146562238
 40
20.58816802304932
 40
20.58816802304932
 40
21.52960458047627
 40
21.52960458047627
 40
22.47104113790322
 40
22.47104113790322
 40
23.41247769533016
 40
23.41247769533016
 40
24.3539142527571
 40
24.3539142527571
 40
25.29535081018405
 40
25.29535081018405
 40
26.23678736761099
 40
26.23678736761099
 40
27.1678582436802
 40
27.1678582436802
 40
28.0989291197494
 40
28.0989291197494
 40
29.0299999958186
 40
29.0299999958186
 40
29.96107087188781
 40
29.96107087188781
 40
29.96107087188781
 40
29.96107087188781
 10
-64.00000000000003
 20
-4.813238667571058
 30
0.0
 10
-63.69341678105651
 20
-4.813238667571058
 30
0.0
 10
-63.37626085482508
 20
-4.786140626474152
 30
0.0
 10
-62.74440677204074
 20
-4.671798730367756
 30
0.0
 10
-62.42970138435768
 20
-4.584583114444003
 30
0.0
 10
-61.82426227349966
 20
-4.353455323822062
 30
0.0
 10
-61.53306955977734
 20
-4.209379306698396
 30
0.0
 10
-60.99166717234228
 20
-3.875324214317517
 30
0.0
 10
-60.74146009689251
 20
-3.685312193028893
 30
0.0
 10
-60.28684645229727
 20
-3.271009973575589
 30
0.0
 10
-60.06785585213071
 20
-3.030604788970494
 30
0.0
 10
-59.67913298603698
 20
-2.502017360458923
 30
0.0
 10
-59.5093759443732
 20
-2.213831988604626
 30
0.0
 10
-59.23491531454831
 20
-1.607725564508543
 30
0.0
 10
-59.12996812109025
 20
-1.289204275587168
 30
0.0
 10
-58.99153386157942
 20
-0.6441601606745184
 30
0.0
 10
-58.95808984297815
 20
-0.3176255895533034
 30
0.0
 10
-58.95808984297815
 20
0.3176255895529023
 30
0.0
 10
-58.99153386157942
 20
0.6441601606741171
 30
0.0
 10
-59.12996812109025
 20
1.289204275586767
 30
0.0
 10
-59.23491531454828
 20
1.607725564508142
 30
0.0
 10
-59.5093759443732
 20
2.213831988604225
 30
0.0
 10
-59.67913298603698
 20
2.502017360458522
 30
0.0
 10
-60.06785585213068
 20
3.030604788970093
 30
0.0
 10
-60.28684645229727
 20
3.271009973575187
 30
0.0
 10
-60.74146009689251
 20
3.685312193028492
 30
0.0
 10
-60.99166717234228
 20
3.875324214317116
 30
0.0
 10
-61.53306955977731
 20
4.209379306697995
 30
0.0
 10
-61.82426227349964
 20
4.353455323821661
 30
0.0
 10
-62.42970138435768
 20
4.584583114443601
 30
0.0
 10
-62.74440677204074
 20
4.671798730367354
 30
0.0
 10
-63.37626085482505
 20
4.786140626473807
 30
0.0
 10
-63.69341678105651
 20
4.813238667570656
 30
0.0
 10
-64.31035695868977
 20
4.813238667570656
 30
0.0
 10
-64.63129234204447
 20
4.785470431101883
 30
0.0
 10
-65.27026933877605
 20
4.668421595239065
 30
0.0
 10
-65.58831874294358
 20
4.579171023034403
 30
0.0
 10
-66.19963276822364
 20
4.342762119792778
 30
0.0
 10
-66.49336985375027
 20
4.195433199441991
 30
0.0
 10
-67.03879695522312
 20
3.853899818125226
 30
0.0
 10
-67.29048375056203
 20
3.65966058588401
 30
0.0
 10
-67.74130660191113
 20
3.241308021639154
 30
0.0
 10
-67.95583231479625
 20
3.001992855304534
 30
0.0
 10
-68.33652384033476
 20
2.476737516738067
 30
0.0
 10
-68.50271248665896
 20
2.190793541029334
 30
0.0
 10
-68.77130233774946
 20
1.590081060246516
 30
0.0
 10
-68.87393747752193
 20
1.274727792168674
 30
0.0
 10
-69.00926202767093
 20
0.6365989058254496
 30
0.0
 10
-69.0419101570219
 20
0.3138121858087841
 30
0.0
 10
-69.0419101570219
 20
-0.3138121858091852
 30
0.0
 10
-69.00926202767093
 20
-0.6365989058259078
 30
0.0
 10
-68.87393747752193
 20
-1.274727792169132
 30
0.0
 10
-68.77130233774943
 20
-1.590081060246974
 30
0.0
 10
-68.50271248665894
 20
-2.190793541029792
 30
0.0
 10
-68.33652384033476
 20
-2.476737516738525
 30
0.0
 10
-67.95583231479623
 20
-3.001992855304935
 30
0.0
 10
-67.74130660191113
 20
-3.241308021639556
 30
0.0
 10
-67.29048375056203
 20
-3.659660585884411
 30
0.0
 10
-67.03879695522309
 20
-3.853899818125627
 30
0.0
 10
-66.49336985375024
 20
-4.195433199442335
 30
0.0
 10
-66.19963276822364
 20
-4.34276211979318
 30
0.0
 10
-65.58831874294358
 20
-4.579171023034804
 30
0.0
 10
-65.27026933877605
 20
-4.668421595239466
 30
0.0
 10
-64.63129234204447
 20
-4.785470431102284
 30
0.0
 10
-64.31035695868977
 20
-4.813238667571058
 30
0.0
 10
-64.00000000000003
 20
-4.813238667571058
 30
0.0
  0
LINE
  5
1552
330
150D
100
AcDbEntity
  8
245
100
AcDbLine
 10
-63.99999999999942
 20
6.585300982583303
 30
0.0
 11
-63.99999999999987
 21
-6.535064604361709
 31
0.0
  0
LINE
  5
1553
330
150D
100
AcDbEntity
  8
241
100
AcDbLine
 10
-49.99999999999992
 20
-13.99999999998822
 30
0.0
 11
-49.99999999999992
 21
13.9999999197796
 31
0.0
  0
LINE
  5
1554
330
150D
100
AcDbEntity
  8
241
100
AcDbLine
 10
-31.8079992505434
 20
3.52998186293035
 30
0.0
 11
-26.13804051169781
 21
0.5083533005092794
 31
0.0
  0
LINE
  5
1555
330
150D
100
AcDbEntity
  8
247
100
AcDbLine
 10
-45.11013623667197
 20
-13.19481426759325
 30
0.0
 11
-44.89674134054616
 21
-12.98140563684067
 31
0.0
  0
LINE
  5
1556
330
150D
100
AcDbEntity
  8
247
100
AcDbLine
 10
-46.75212503086167
 20
-13.50907626271806
 30
0.0
 11
-46.75212503086167
 21
-12.44938113427719
 31
0.0
  0
ARC
  5
1557
330
150D
100
AcDbEntity
  8
247
100
AcDbCircle
 10
-46.98859409996109
 20
-13.61157778230271
 30
0.0
 40
1.182347062325477
100
AcDbArc
 50
143.4440121970577
 51
254.0001843876854
  0
INSERT
  5
1558
330
150D
100
AcDbEntity
  8
247
  6
CONTINUOUS
100
AcDbBlockReference
  2
*X5
 10
-49.99999999999986
 20
2.693863903902971
 30
0.0
 41
1.714499999999986
 42
1.714500000000001
 43
1.7145
1001
ACAD
1000
HATCH
1002
{
1070
    19
1000
ANSI31
1040
0.0525
1040
1.570796326794895
1002
}
  0
ARC
  5
1559
330
150D
100
AcDbEntity
  8
247
100
AcDbCircle
 10
-46.26098851219254
 20
-11.9939134413298
 30
0.0
 40
1.909950933265685
100
AcDbArc
 50
0.0
 51
194.770793966094
  0
ARC
  5
155A
330
150D
100
AcDbEntity
  8
247
100
AcDbCircle
 10
-46.26098851219254
 20
-11.9939134413298
 30
0.0
 40
1.546148139381408
100
AcDbArc
 50
0.0
 51
194.1274364964119
  0
ARC
  5
155B
330
150D
100
AcDbEntity
  8
247
100
AcDbCircle
 10
-47.38876618553238
 20
-13.42113344750962
 30
0.0
 40
0.3819927511654794
100
AcDbArc
 50
91.71012138206277
 51
253.9983983544487
  0
LINE
  5
155C
330
150D
100
AcDbEntity
  8
247
100
AcDbLine
 10
-45.57362538086011
 20
-13.5442369072493
 30
0.0
 11
-46.38832223697739
 21
-13.31062464051803
 31
0.0
  0
LINE
  5
155D
330
150D
100
AcDbEntity
  8
247
100
AcDbLine
 10
-45.95914196109391
 20
-17.55120886674763
 30
0.0
 11
-47.152066669163
 21
-16.35828415867852
 31
0.0
  0
ARC
  5
155E
330
150D
100
AcDbEntity
  8
247
100
AcDbCircle
 10
-46.07908711525042
 20
-13.87237087541184
 30
0.0
 40
1.182359080123901
100
AcDbArc
 50
253.9997507017292
 51
34.96387329163151
  0
LINE
  5
155F
330
150D
100
AcDbEntity
  8
247
100
AcDbLine
 10
-45.7842046784981
 20
-14.27862740064223
 30
0.0
 11
-47.49406956897813
 21
-13.78832869420609
 31
0.0
  0
INSERT
  5
1560
330
150D
100
AcDbEntity
  8
247
  6
CONTINUOUS
100
AcDbBlockReference
  2
*X4
 10
-49.99999999999986
 20
2.693863903902971
 30
0.0
 41
1.714499999999986
 42
1.714500000000001
 43
1.7145
1001
ACAD
1000
HATCH
1002
{
1070
    19
1000
ANSI31
1040
0.0525
1040
1.570796326794895
1002
}
  0
LWPOLYLINE
  5
1561
330
150D
100
AcDbEntity
  8
247
100
AcDbPolyline
 90
        6
 70
     1
 43
0.0
 10
-48.17093944545824
 20
-15.77038641801439
 10
-47.77076735988695
 20
-15.88513922467789
 10
-47.77076735988695
 20
-15.75266874948105
 10
-44.89674134054616
 20
-16.57678755956255
 10
-44.89674134054616
 20
-15.76309333119949
 10
-48.17093944545824
 20
-14.82423544908126
  0
LWPOLYLINE
  5
1569
330
150D
100
AcDbEntity
  8
247
100
AcDbPolyline
 90
        6
 70
     1
 43
0.0
 10
-48.17093944545824
 20
-15.77038641801439
 10
-47.77076735988695
 20
-15.88513922467789
 10
-47.77076735988695
 20
-15.75266874948105
 10
-44.89674134054616
 20
-16.57678755956255
 10
-44.89674134054616
 20
-15.76309333119949
 10
-48.17093944545824
 20
-14.82423544908126
1001
HATCH_DISTANCE
1040
1.0
1001
HATCH_DISPLAY
1070
     0
1001
HATCH_TYPE
1070
     7
  0
LINE
  5
1571
330
150D
100
AcDbEntity
  8
247
100
AcDbLine
 10
-44.89674134054616
 20
-16.57678755956255
 30
0.0
 11
-47.77076735988695
 21
-15.75266874948105
 31
0.0
  0
LINE
  5
1572
330
150D
100
AcDbEntity
  8
247
100
AcDbLine
 10
-44.89674134054616
 20
-15.76309333119949
 30
0.0
 11
-48.17093944545824
 21
-14.82423544908126
 31
0.0
  0
LINE
  5
1573
330
150D
100
AcDbEntity
  8
247
100
AcDbLine
 10
-46.38832223697739
 20
-13.61339075303635
 30
0.0
 11
-46.38832223697739
 21
-13.31062464051803
 31
0.0
  0
LINE
  5
1574
330
150D
100
AcDbEntity
  8
247
100
AcDbLine
 10
-46.38832223697739
 20
-13.61339075303635
 30
0.0
 11
-46.75212503086167
 21
-13.50907626271806
 31
0.0
  0
ARC
  5
1575
330
150D
100
AcDbEntity
  8
247
100
AcDbCircle
 10
-46.01692419448929
 20
-11.93927709603866
 30
0.0
 40
3.094081780242919
100
AcDbArc
 50
245.2051773698406
 51
262.7948259620521
  0
LINE
  5
1576
330
150D
100
AcDbEntity
  8
247
100
AcDbLine
 10
-47.77076735988695
 20
-15.88513922467789
 30
0.0
 11
-48.17093944545824
 21
-15.77038641801439
 31
0.0
  0
LINE
  5
1577
330
150D
100
AcDbEntity
  8
247
100
AcDbLine
 10
-47.75612835224221
 20
-17.37087063315447
 30
0.0
 11
-48.13132822192526
 21
-16.99567076347134
 31
0.0
  0
LINE
  5
1578
330
150D
100
AcDbEntity
  8
247
100
AcDbLine
 10
-48.17093944545824
 20
-15.77038641801439
 30
0.0
 11
-48.17093944545824
 21
-14.82423544908126
 31
0.0
  0
LINE
  5
1579
330
150D
100
AcDbEntity
  8
247
100
AcDbLine
 10
-47.77076735988695
 20
-15.88513922467789
 30
0.0
 11
-47.77076735988695
 21
-15.75266874948105
 31
0.0
  0
ARC
  5
157A
330
150D
100
AcDbEntity
  8
247
100
AcDbCircle
 10
-47.26144619537431
 20
-17.26118401151259
 30
0.0
 40
0.9095009758114816
100
AcDbArc
 50
17.66957754739822
 51
180.2361598426716
  0
LINE
  5
157B
330
150D
100
AcDbEntity
  8
247
100
AcDbLine
 10
-47.54319015622426
 20
-17.17964678978364
 30
0.0
 11
-47.99682535378845
 21
-16.72601159221947
 31
0.0
  0
LINE
  5
157C
330
150D
100
AcDbEntity
  8
247
100
AcDbLine
 10
-47.18565730592625
 20
-17.13301760069286
 30
0.0
 11
-47.79444616010108
 21
-16.52422874651802
 31
0.0
  0
LINE
  5
157D
330
150D
100
AcDbEntity
  8
247
100
AcDbLine
 10
-44.9649309321944
 20
-17.33293377748074
 30
0.0
 11
-45.46071308990526
 21
-16.83715161976983
 31
0.0
  0
LINE
  5
157E
330
150D
100
AcDbEntity
  8
247
100
AcDbLine
 10
-44.89674134054616
 20
-16.57678755956255
 30
0.0
 11
-44.89674134054616
 21
-15.76309333119949
 31
0.0
  0
ARC
  5
157F
330
150D
100
AcDbEntity
  8
247
100
AcDbCircle
 10
-45.67891502967911
 20
-13.91143215394579
 30
0.0
 40
0.3819924829110504
100
AcDbArc
 50
254.0002730571841
 51
74.00027305718409
  0
LINE
  5
1580
330
150D
100
AcDbEntity
  8
247
100
AcDbLine
 10
-44.89674134054616
 20
-12.98140563684067
 30
0.0
 11
-46.75212503086167
 21
-12.44938113427719
 31
0.0
  0
ARC
  5
1581
330
150D
100
AcDbEntity
  8
247
100
AcDbCircle
 10
-46.26098851219254
 20
-11.9939134413298
 30
0.0
 40
1.909951791679857
100
AcDbArc
 50
200.2296450633199
 51
208.5716889237171
  0
LINE
  5
1582
330
150D
100
AcDbEntity
  8
247
100
AcDbLine
 10
-47.76038398204881
 20
-12.37129978108962
 30
0.0
 11
-48.10782883544997
 21
-12.48086089883407
 31
0.0
  0
LWPOLYLINE
  5
1583
330
150D
100
AcDbEntity
  8
247
100
AcDbPolyline
 90
        4
 70
     1
 43
0.0
 10
-47.76038398204881
 20
-12.37129978108962
 10
-48.10782883544997
 20
-12.48086089883407
 10
-48.10782883544997
 20
-12.48086089883407
 10
-47.76038398204881
 20
-12.37129978108962
  0
LWPOLYLINE
  5
1589
330
150D
100
AcDbEntity
  8
247
100
AcDbPolyline
 90
        4
 70
     1
 43
0.0
 10
-47.76038398204881
 20
-12.37129978108962
 10
-48.10782883544997
 20
-12.48086089883407
 10
-48.10782883544997
 20
-12.48086089883407
 10
-47.76038398204881
 20
-12.37129978108962
1001
HATCH_DISTANCE
1040
1.0
1001
HATCH_DISPLAY
1070
     0
1001
HATCH_TYPE
1070
     7
  0
LWPOLYLINE
  5
158F
330
150D
100
AcDbEntity
  8
247
100
AcDbPolyline
 90
        4
 70
     1
 43
0.0
 10
-47.76038398204881
 20
-12.37129978108962
 10
-48.10782883544997
 20
-12.48086089883407
 10
-48.10782883544997
 20
-12.48086089883407
 10
-47.76038398204881
 20
-12.37129978108962
  0
LWPOLYLINE
  5
1595
330
150D
100
AcDbEntity
  8
247
100
AcDbPolyline
 90
        4
 70
     1
 43
0.0
 10
-47.76038398204881
 20
-12.37129978108962
 10
-48.10782883544997
 20
-12.48086089883407
 10
-48.10782883544997
 20
-12.48086089883407
 10
-47.76038398204881
 20
-12.37129978108962
1001
HATCH_DISTANCE
1040
1.0
1001
HATCH_DISPLAY
1070
     0
1001
HATCH_TYPE
1070
     7
  0
LINE
  5
159B
330
150D
100
AcDbEntity
  8
247
100
AcDbLine
 10
-47.70567896362383
 20
-12.54478185182174
 30
0.0
 11
-48.05312381702496
 21
-12.65434296956621
 31
0.0
  0
ARC
  5
159C
330
150D
100
AcDbEntity
  8
247
100
AcDbCircle
 10
-46.26098851219254
 20
-11.9939134413298
 30
0.0
 40
1.546152431452272
100
AcDbArc
 50
200.8721834020772
 51
222.5419489373864
  0
LINE
  5
159D
330
150D
100
AcDbEntity
  8
241
100
AcDbLine
 10
-27.72326595637477
 20
14.38424157584996
 30
0.0
 11
-32.42630108294122
 21
5.559194233298084
 31
0.0
  0
ARC
  5
159E
330
150D
100
AcDbEntity
  8
241
100
AcDbCircle
 10
-31.10254398155844
 20
4.853738964313118
 30
0.0
 40
1.5
100
AcDbArc
 50
151.9460000000001
 51
241.946
  0
ARC
  5
159F
330
150D
100
AcDbEntity
  8
241
100
AcDbCircle
 10
-26.39950885499199
 20
13.67878630686499
 30
0.0
 40
1.5
100
AcDbArc
 50
61.94600000000001
 51
151.9460000000001
  0
ARC
  5
15A0
330
150D
100
AcDbEntity
  8
240
100
AcDbCircle
 10
-0.7999999999999972
 20
0.0
 30
0.0
 40
0.8
100
AcDbArc
 50
311.9999999999998
 51
72.00000000000027
  0
CIRCLE
  5
15A1
330
150D
100
AcDbEntity
  8
246
100
AcDbCircle
 10
-8.478458665760385
 20
-1.632106772919405
 30
0.0
 40
4.724999999999999
  0
LINE
  5
15A2
330
150D
100
AcDbEntity
  8
241
100
AcDbLine
 10
-14.98198213118239
 20
8.789576608989817
 30
0.0
 11
-8.462386189662311
 21
0.1207938606064296
 31
0.0
  0
LINE
  5
15A3
330
150D
100
AcDbEntity
  8
241
100
AcDbLine
 10
-20.67731272623267
 20
-1.897471388777306
 30
0.0
 11
-9.845924381856399
 21
-2.475357288119877
 31
0.0
  0
LINE
  5
15A4
330
150D
100
AcDbEntity
  8
240
100
AcDbLine
 10
-0.2646955149128942
 20
-0.5945158603819128
 30
0.0
 11
-10.88380342456023
 21
-10.15600356906351
 31
0.0
  0
LINE
  5
15A5
330
150D
100
AcDbEntity
  8
241
100
AcDbLine
 10
-11.54271470739727
 20
-9.941910315199644
 30
0.0
 11
-13.16744730165123
 21
-2.298144432420802
 31
0.0
  0
LINE
  5
15A6
330
150D
100
AcDbEntity
  8
240
100
AcDbLine
 10
-13.61297012559261
 20
-12.00091239633255
 30
0.0
 11
-13.93834885960202
 21
-12.00093224996286
 31
0.0
  0
ARC
  5
15A7
330
150D
100
AcDbEntity
  8
240
100
AcDbCircle
 10
-11.15145566710376
 20
-9.858745638872554
 30
0.0
 40
0.4
100
AcDbArc
 50
214.0898199384144
 51
311.9999999999998
  0
ARC
  5
15A8
330
150D
100
AcDbEntity
  8
241
100
AcDbCircle
 10
-11.15145566710376
 20
-9.858745638872554
 30
0.0
 40
0.4
100
AcDbArc
 50
191.9999999999982
 51
214.0898199384144
  0
LINE
  5
15A9
330
150D
100
AcDbEntity
  8
240
100
AcDbLine
 10
-13.61297012559261
 20
-12.00091239633255
 30
0.0
 11
-11.48271964047068
 21
-10.08294238271413
 31
0.0
  0
ELLIPSE
  5
15AA
330
150D
100
AcDbEntity
  8
241
100
AcDbEllipse
 10
-21.30696412251272
 20
1.33319624581995
 30
0.0
 11
3.494028570828312
 21
-1.862034101800145
 31
0.0
210
0.0
220
0.0
230
1.0
 40
0.757725401809731
 41
4.712388980384688
 42
5.264058420103872
  0
LINE
  5
15AB
330
150D
100
AcDbEntity
  8
241
100
AcDbLine
 10
-12.2799350956707
 20
-2.352157772512798
 30
0.0
 11
-12.27648294546971
 21
-2.345679958050945
 31
0.0
  0
LINE
  5
15AC
330
150D
100
AcDbEntity
  8
241
100
AcDbLine
 10
-11.96871700245682
 20
-2.362100161361032
 30
0.0
 11
-12.27648294546971
 21
-2.345679958050945
 31
0.0
  0
ARC
  5
15AD
330
150D
100
AcDbEntity
  8
241
100
AcDbCircle
 10
-8.894669897533447
 20
-1.315566399185376
 30
0.0
 40
1.499999999999999
100
AcDbArc
 50
273.3565157926541
 51
30.53548420736711
  0
ARC
  5
15AE
330
150D
100
AcDbEntity
  8
241
100
AcDbCircle
 10
-8.894669897533447
 20
-1.315566399185376
 30
0.0
 40
1.499999999999999
100
AcDbArc
 50
30.53548420736711
 51
54.86905788918235
  0
LINE
  5
15AF
330
150D
100
AcDbEntity
  8
241
100
AcDbLine
 10
-8.462386189662311
 20
0.1207938606064296
 30
0.0
 11
-8.031499392813586
 21
-0.0888077922126529
 31
0.0
  0
LINE
  5
15B0
330
150D
100
AcDbEntity
  8
241
100
AcDbLine
 10
-9.845924381856399
 20
-2.475357288119877
 30
0.0
 11
-9.431661048844319
 21
-2.716152170715929
 31
0.0
  0
ARC
  5
15B1
330
150D
100
AcDbEntity
  8
241
100
AcDbCircle
 10
-8.894669897533447
 20
-1.315566399185376
 30
0.0
 40
1.500000000000003
100
AcDbArc
 50
249.0229421107815
 51
273.3565157926541
  0
LINE
  5
15B2
330
150D
100
AcDbEntity
  8
241
100
AcDbLine
 10
-4.444990884247069
 20
2.025499110271888
 30
0.0
 11
-11.65730836677914
 21
4.368923115831476
 31
0.0
  0
ELLIPSE
  5
15B3
330
150D
100
AcDbEntity
  8
241
100
AcDbEllipse
 10
-18.01483953391613
 20
7.51072938560623
 30
0.0
 11
3.494028570828463
 21
-1.862034101800219
 31
0.0
210
0.0
220
0.0
230
1.0
 40
0.757725401809699
 41
1.019126887075714
 42
1.570796326794896
  0
LINE
  5
15B4
330
150D
100
AcDbEntity
  8
241
100
AcDbLine
 10
-19.382919356457
 20
5.582256200789428
 30
0.0
 11
-20.46903879498938
 21
3.544198817255972
 31
0.0
  0
LINE
  5
15B5
330
150D
100
AcDbEntity
  8
241
100
AcDbLine
 10
-20.46903879498938
 20
3.544198817255972
 30
0.0
 11
-22.77710798276601
 21
3.465777150802336
 31
0.0
  0
LINE
  5
15B6
330
150D
100
AcDbEntity
  8
241
100
AcDbLine
 10
-20.60486910570119
 20
7.54189191786939
 30
0.0
 11
-19.382919356457
 21
5.582256200789428
 31
0.0
  0
LINE
  5
15B7
330
150D
100
AcDbEntity
  8
241
100
AcDbLine
 10
-22.91293829347782
 20
7.46347025141579
 30
0.0
 11
-20.60486910570119
 21
7.54189191786939
 31
0.0
  0
LINE
  5
15B8
330
150D
100
AcDbEntity
  8
241
100
AcDbLine
 10
-16.60392899594619
 20
10.15824358837179
 30
0.0
 11
-20.02409484716166
 21
11.98091484582683
 31
0.0
  0
LINE
  5
15B9
330
150D
100
AcDbEntity
  8
240
100
AcDbLine
 10
-0.5527864045000257
 20
0.7608452130361308
 30
0.0
 11
-4.444990884247069
 21
2.025499110271888
 31
0.0
  0
LINE
  5
15BA
330
150D
100
AcDbEntity
  8
241
100
AcDbLine
 10
-9.925380520872991
 20
2.066064722963714
 30
0.0
 11
-9.921928370672148
 21
2.072542537425265
 31
0.0
  0
LINE
  5
15BB
330
150D
100
AcDbEntity
  8
241
100
AcDbLine
 10
-9.74013099152583
 20
1.819747629297646
 30
0.0
 11
-9.925380520872991
 21
2.066064722963714
 31
0.0
  0
LINE
  5
15BC
330
150D
100
AcDbEntity
  8
240
100
AcDbLine
 10
-4.297169975669838
 20
2.476979387827922
 30
0.0
 11
-4.444990884247062
 21
2.025499110271887
 31
0.0
  0
LINE
  5
15BD
330
150D
100
AcDbEntity
  8
240
100
AcDbLine
 10
-33.24095361192279
 20
24.99999999999952
 30
0.0
 11
-49.69999999999961
 21
25.00000000000025
 31
0.0
  0
LINE
  5
15BE
330
150D
100
AcDbEntity
  8
240
100
AcDbLine
 10
-49.69999999999992
 20
24.9999999999992
 30
0.0
 11
-49.99999999999993
 21
24.69999999999925
 31
0.0
  0
SPLINE
  5
15BF
330
150D
100
AcDbEntity
  8
241
100
AcDbSpline
210
0.0
220
0.0
230
1.0
 70
     8
 71
     3
 72
    20
 73
    16
 74
     0
 42
0.0000000001
 43
0.0000000001
 40
28.4810190330169
 40
28.4810190330169
 40
28.4810190330169
 40
28.4810190330169
 40
29.94589606754951
 40
29.94589606754951
 40
31.44242387171152
 40
31.44242387171152
 40
32.93895167587354
 40
32.93895167587354
 40
34.58973257810806
 40
34.58973257810806
 40
36.24051348034258
 40
36.24051348034258
 40
37.8912943825771
 40
37.8912943825771
 40
38.51565959658336
 40
38.51565959658336
 40
38.51565959658336
 40
38.51565959658336
 10
-31.86392499178358
 20
24.50081136629447
 30
0.0
 10
-32.36543574159696
 20
24.48058985550292
 30
0.0
 10
-32.86351384676151
 20
24.44972925799996
 30
0.0
 10
-33.82875414723633
 20
24.36185592533681
 30
0.0
 10
-34.29582285703141
 20
24.30410132942987
 30
0.0
 10
-35.15797072192429
 20
24.15893509481279
 30
0.0
 10
-35.55301751627322
 20
24.07134188736913
 30
0.0
 10
-36.28697687213735
 20
23.85839917172032
 30
0.0
 10
-36.64147933543156
 20
23.72280829996853
 30
0.0
 10
-37.25499944739669
 20
23.39827835145732
 30
0.0
 10
-37.51406697337866
 20
23.20915747408637
 30
0.0
 10
-37.92157142853653
 20
22.78061692554601
 30
0.0
 10
-38.0704917113104
 20
22.54066871557918
 30
0.0
 10
-38.20236494161274
 20
22.18455565115354
 30
0.0
 10
-38.23104059467544
 20
22.08424594127629
 30
0.0
 10
-38.25263168779875
 20
21.98197213732285
 30
0.0
  0
ELLIPSE
  5
15C0
330
150D
100
AcDbEntity
  8
240
100
AcDbEllipse
 10
-1.253158450954167
 20
-0.0000000000004848
 30
0.0
 11
-32.17226467825454
 21
24.93493051335198
 31
1.999999999999999E-16
210
-3.883650449062722E-18
220
3.010001162615732E-18
230
-1.0
 40
0.0560285369710882
 41
0.0721652177584996
 42
0.2723369037716807
  0
ELLIPSE
  5
15C1
330
150D
100
AcDbEntity
  8
241
100
AcDbEllipse
 10
-30.30441341117693
 20
24.19278594521895
 30
0.0
 11
-7.98720888203795
 21
6.29517941916939
 31
0.0
210
0.0
220
0.0
230
-1.0
 40
0.0718343992698903
 41
4.803792468600215
 42
4.852027733854214
  0
ENDBLK
  5
163D
330
150D
100
AcDbEntity
  8
0
100
AcDbBlockEnd
  0
ENDSEC
  0
SECTION
  2
ENTITIES
  0
DIMENSION
  5
BCE
330
1F
100
AcDbEntity
  8
250
  6
CONTINUOUS
100
AcDbDimension
  2
*D1
 10
0.0000000000000021
 20
34.99999999999971
 30
0.0
 11
-24.99999999999996
 21
37.49999999999971
 31
0.0
 70
    32
  3
BIGT
100
AcDbAlignedDimension
 13
-49.99999999999993
 23
24.69999999999925
 33
0.0
 14
0.0
 24
0.0
 34
0.0
100
AcDbRotatedDimension
1001
ACAD
1000
DSTYLE
1002
{
1070
    78
1070
     8
1070
   140
1040
3.0
1002
}
  0
TEXT
  5
BE6
330
1F
100
AcDbEntity
  8
241
100
AcDbText
 10
-77.99999999999991
 20
48.99999999999971
 30
0.0
 40
5.0
  1
S50-DTJNL-00050-16
  7
YOKO
 11
-77.99999999999991
 21
48.99999999999971
 31
0.0
100
AcDbText
 73
     1
  0
DIMENSION
  5
D00
330
1F
100
AcDbEntity
  8
250
  6
CONTINUOUS
100
AcDbDimension
  2
*D2
 10
14.0
 20
24.9999999999995
 30
0.0
 11
11.5
 21
-0.0000000000004944
 31
0.0
 70
    32
  1
{\H3;\U+2205}<>
  3
BIGT
100
AcDbAlignedDimension
 13
-38.57667885022243
 23
-25.00000000000048
 33
0.0
 14
-33.24095361192284
 24
24.99999999999952
 34
0.0
 50
90.0
100
AcDbRotatedDimension
1001
ACAD
1000
DSTYLE
1002
{
1070
    78
1070
     8
1070
   140
1040
3.0
1002
}
  0
INSERT
  5
15C4
330
1F
100
AcDbEntity
  8
240
100
AcDbBlockReference
  2
A$C17DE42A3
 10
0.0
 20
0.0
 30
0.0
  0
VIEWPORT
  5
1631
330
73
100
AcDbEntity
 67
     1
  8
0
100
AcDbViewport
 10
261.5176991150442
 20
148.5
 30
0.0
 40
523.0353982300885
 41
297.0
 68
     1
 69
     1
1001
ACAD
1000
MVIEW
1002
{
1070
    16
1010
0.0
1020
0.0
1030
0.0
1010
0.0
1020
0.0
1030
1.0
1040
0.0
1040
297.0
1040
261.5176991150442
1040
148.5
1040
50.0
1040
0.0
1040
0.0
1070
     0
1070
   100
1070
     1
1070
     1
1070
     0
1070
     0
1070
     0
1070
     0
1040
0.0
1040
0.0
1040
0.0
1040
1.0
1040
1.0
1040
10.0
1040
10.0
1070
     0
1002
{
1002
}
1002
}
  0
ENDSEC
  0
SECTION
  2
OBJECTS
  0
DICTIONARY
  5
C
330
0
100
AcDbDictionary
  3
ACAD_COLOR
350
6C
  3
ACAD_GROUP
350
D
  3
ACAD_LAYOUT
350
1A
  3
ACAD_MATERIAL
350
6B
  3
ACAD_MLEADERSTYLE
350
165F
  3
ACAD_MLINESTYLE
350
17
  3
ACAD_PLOTSETTINGS
350
19
  3
ACAD_SCALELIST
350
99
  3
ACAD_TABLESTYLE
350
92
  3
ACDBHEADERROUNDTRIPXREC
350
163F
  3
ACDBVARIABLEDICTIONARY
350
59
  3
DWGPROPS
350
1662
  3
GRADE_DWG
350
540
  0
DICTIONARY
  5
163E
330
1F
100
AcDbDictionary
280
     1
  0
DICTIONARY
  5
6C
102
{ACAD_REACTORS
330
C
102
}
330
C
100
AcDbDictionary
  0
DICTIONARY
  5
D
102
{ACAD_REACTORS
330
C
102
}
330
C
100
AcDbDictionary
  0
DICTIONARY
  5
1A
102
{ACAD_REACTORS
330
C
102
}
330
C
100
AcDbDictionary
  0
DICTIONARY
  5
6B
102
{ACAD_REACTORS
330
C
102
}
330
C
100
AcDbDictionary
  0
DICTIONARY
  5
165F
102
{ACAD_REACTORS
330
C
102
}
330
C
100
AcDbDictionary
  0
DICTIONARY
  5
17
102
{ACAD_REACTORS
330
C
102
}
330
C
100
AcDbDictionary
  3
STANDARD
350
18
  0
DICTIONARY
  5
19
102
{ACAD_REACTORS
330
C
102
}
330
C
100
AcDbDictionary
  0
DICTIONARY
  5
99
102
{ACAD_REACTORS
330
C
102
}
330
C
100
AcDbDictionary
  3
A0
350
15FA
  3
A1
350
15FB
  3
A2
350
15FC
  3
A3
350
15FD
  3
A4
350
15FE
  3
A5
350
15FF
  3
A6
350
1600
  3
A7
350
1601
  3
A8
350
1602
  3
A9
350
1603
  3
B0
350
1604
  3
B1
350
1605
  3
B2
350
1606
  3
B3
350
1607
  3
B4
350
1608
  3
B5
350
1609
  3
B6
350
160A
  3
B7
350
160B
  3
B8
350
160C
  3
B9
350
160D
  3
C0
350
160E
  3
C1
350
160F
  3
C2
350
1610
  3
C3
350
1611
  3
C4
350
1612
  3
C5
350
1613
  3
C6
350
1614
  3
C7
350
1615
  3
C8
350
1616
  3
C9
350
1617
  3
D0
350
1618
  3
D1
350
1619
  3
D2
350
161A
  0
DICTIONARY
  5
92
102
{ACAD_REACTORS
330
C
102
}
330
C
100
AcDbDictionary
  0
DICTIONARY
  5
163F
102
{ACAD_REACTORS
330
C
102
}
330
C
100
AcDbDictionary
  3
CEPSNTYPE
350
1648
  3
COLORDICT
350
1660
  3
DIMSTYLEDATA
350
165E
  3
FINGERPRINTGUID
350
1649
  3
HYPERLINKBASE
350
1642
  3
INSUNITS
350
1647
  3
LAYOUTDICT
350
1644
  3
LWETCUNION
350
1646
  3
MATERIALDICT
350
1661
  3
PLOTSETDICT
350
1645
  3
PSVPSCALE
350
164B
  3
PUCSBASE
350
164E
  3
PUCSORGBACK
350
1654
  3
PUCSORGBOTTOM
350
1650
  3
PUCSORGFRONT
350
1653
  3
PUCSORGLEFT
350
1651
  3
PUCSORGRIGHT
350
1652
  3
PUCSORGTOP
350
164F
  3
PUCSORTHOREF
350
164C
  3
PUCSORTHOVIEW
350
164D
  3
STYLESHEET
350
1643
  3
TSTACKALIGN
350
1640
  3
TSTACKSIZE
350
1641
  3
UCSBASE
350
1657
  3
UCSORGBACK
350
165D
  3
UCSORGBOTTOM
350
1659
  3
UCSORGFRONT
350
165C
  3
UCSORGLEFT
350
165A
  3
UCSORGRIGHT
350
165B
  3
UCSORGTOP
350
1658
  3
UCSORTHOREF
350
1655
  3
UCSORTHOVIEW
350
1656
  3
VERSIONGUID
350
164A
  0
DICTIONARY
  5
59
102
{ACAD_REACTORS
330
C
102
}
330
C
100
AcDbDictionary
  3
CTABLESTYLE
350
98
  3
DIMASSOC
350
68F
  3
HIDETEXT
350
5E
  3
SORTENTS
350
BAB
  0
XRECORD
  5
1662
102
{ACAD_REACTORS
330
C
102
}
330
C
100
AcDbXrecord
  1
DWGPROPS COOKIE
  2

  3

  4

  6

  7

  8
Ryan
  9

300
=
301
=
302
=
303
=
304
=
305
=
306
=
307
=
308
=
309
=
 40
0.0
 41
2453353.717125822
 42
2452516.587706157
  1

 90
        0
  0
DICTIONARY
  5
540
102
{ACAD_REACTORS
330
C
102
}
330
C
100
AcDbDictionary
  3
VERSION
350
560
  0
MLINESTYLE
  5
18
102
{ACAD_REACTORS
330
17
102
}
330
17
100
AcDbMlineStyle
  2
STANDARD
 70
     0
  3

 62
     0
 51
90.0
 52
90.0
 71
     2
 49
0.5
 62
   256
  6
BYLAYER
 49
-0.5
 62
   256
  6
BYLAYER
  0
SCALE
  5
15FA
102
{ACAD_REACTORS
330
99
102
}
330
99
100
AcDbScale
 70
     0
300
1:1
140
1.0
141
1.0
290
     1
  0
SCALE
  5
15FB
102
{ACAD_REACTORS
330
99
102
}
330
99
100
AcDbScale
 70
     0
300
1:2
140
1.0
141
2.0
290
     1
  0
SCALE
  5
15FC
102
{ACAD_REACTORS
330
99
102
}
330
99
100
AcDbScale
 70
     0
300
1:4
140
1.0
141
4.0
290
     1
  0
SCALE
  5
15FD
102
{ACAD_REACTORS
330
99
102
}
330
99
100
AcDbScale
 70
     0
300
1:5
140
1.0
141
5.0
290
     1
  0
SCALE
  5
15FE
102
{ACAD_REACTORS
330
99
102
}
330
99
100
AcDbScale
 70
     0
300
1:8
140
1.0
141
8.0
290
     1
  0
SCALE
  5
15FF
102
{ACAD_REACTORS
330
99
102
}
330
99
100
AcDbScale
 70
     0
300
1:10
140
1.0
141
10.0
290
     1
  0
SCALE
  5
1600
102
{ACAD_REACTORS
330
99
102
}
330
99
100
AcDbScale
 70
     0
300
1:16
140
1.0
141
16.0
290
     1
  0
SCALE
  5
1601
102
{ACAD_REACTORS
330
99
102
}
330
99
100
AcDbScale
 70
     0
300
1:20
140
1.0
141
20.0
290
     1
  0
SCALE
  5
1602
102
{ACAD_REACTORS
330
99
102
}
330
99
100
AcDbScale
 70
     0
300
1:30
140
1.0
141
30.0
290
     1
  0
SCALE
  5
1603
102
{ACAD_REACTORS
330
99
102
}
330
99
100
AcDbScale
 70
     0
300
1:40
140
1.0
141
40.0
290
     1
  0
SCALE
  5
1604
102
{ACAD_REACTORS
330
99
102
}
330
99
100
AcDbScale
 70
     0
300
1:50
140
1.0
141
50.0
290
     1
  0
SCALE
  5
1605
102
{ACAD_REACTORS
330
99
102
}
330
99
100
AcDbScale
 70
     0
300
1:100
140
1.0
141
100.0
290
     1
  0
SCALE
  5
1606
102
{ACAD_REACTORS
330
99
102
}
330
99
100
AcDbScale
 70
     0
300
2:1
140
2.0
141
1.0
290
     1
  0
SCALE
  5
1607
102
{ACAD_REACTORS
330
99
102
}
330
99
100
AcDbScale
 70
     0
300
4:1
140
4.0
141
1.0
290
     1
  0
SCALE
  5
1608
102
{ACAD_REACTORS
330
99
102
}
330
99
100
AcDbScale
 70
     0
300
8:1
140
8.0
141
1.0
290
     1
  0
SCALE
  5
1609
102
{ACAD_REACTORS
330
99
102
}
330
99
100
AcDbScale
 70
     0
300
10:1
140
10.0
141
1.0
290
     1
  0
SCALE
  5
160A
102
{ACAD_REACTORS
330
99
102
}
330
99
100
AcDbScale
 70
     0
300
100:1
140
100.0
141
1.0
290
     1
  0
SCALE
  5
160B
102
{ACAD_REACTORS
330
99
102
}
330
99
100
AcDbScale
 70
     0
300
1/128" = 1'-0"
140
0.0078125
141
12.0
290
     1
  0
SCALE
  5
160C
102
{ACAD_REACTORS
330
99
102
}
330
99
100
AcDbScale
 70
     0
300
1/64" = 1'-0"
140
0.015625
141
12.0
290
     1
  0
SCALE
  5
160D
102
{ACAD_REACTORS
330
99
102
}
330
99
100
AcDbScale
 70
     0
300
1/32" = 1'-0"
140
0.03125
141
12.0
290
     1
  0
SCALE
  5
160E
102
{ACAD_REACTORS
330
99
102
}
330
99
100
AcDbScale
 70
     0
300
1/16" = 1'-0"
140
0.0625
141
12.0
290
     1
  0
SCALE
  5
160F
102
{ACAD_REACTORS
330
99
102
}
330
99
100
AcDbScale
 70
     0
300
3/32" = 1'-0"
140
0.09375
141
12.0
290
     1
  0
SCALE
  5
1610
102
{ACAD_REACTORS
330
99
102
}
330
99
100
AcDbScale
 70
     0
300
1/8" = 1'-0"
140
0.125
141
12.0
290
     1
  0
SCALE
  5
1611
102
{ACAD_REACTORS
330
99
102
}
330
99
100
AcDbScale
 70
     0
300
3/16" = 1'-0"
140
0.1875
141
12.0
290
     1
  0
SCALE
  5
1612
102
{ACAD_REACTORS
330
99
102
}
330
99
100
AcDbScale
 70
     0
300
1/4" = 1'-0"
140
0.25
141
12.0
290
     1
  0
SCALE
  5
1613
102
{ACAD_REACTORS
330
99
102
}
330
99
100
AcDbScale
 70
     0
300
3/8" = 1'-0"
140
0.375
141
12.0
290
     1
  0
SCALE
  5
1614
102
{ACAD_REACTORS
330
99
102
}
330
99
100
AcDbScale
 70
     0
300
1/2" = 1'-0"
140
0.5
141
12.0
290
     1
  0
SCALE
  5
1615
102
{ACAD_REACTORS
330
99
102
}
330
99
100
AcDbScale
 70
     0
300
3/4" = 1'-0"
140
0.75
141
12.0
290
     1
  0
SCALE
  5
1616
102
{ACAD_REACTORS
330
99
102
}
330
99
100
AcDbScale
 70
     0
300
1" = 1'-0"
140
1.0
141
12.0
290
     1
  0
SCALE
  5
1617
102
{ACAD_REACTORS
330
99
102
}
330
99
100
AcDbScale
 70
     0
300
1-1/2" = 1'-0"
140
1.5
141
12.0
290
     1
  0
SCALE
  5
1618
102
{ACAD_REACTORS
330
99
102
}
330
99
100
AcDbScale
 70
     0
300
3" = 1'-0"
140
3.0
141
12.0
290
     1
  0
SCALE
  5
1619
102
{ACAD_REACTORS
330
99
102
}
330
99
100
AcDbScale
 70
     0
300
6" = 1'-0"
140
6.0
141
12.0
290
     1
  0
SCALE
  5
161A
102
{ACAD_REACTORS
330
99
102
}
330
99
100
AcDbScale
 70
     0
300
1'-0" = 1'-0"
140
12.0
141
12.0
290
     1
  0
XRECORD
  5
1648
102
{ACAD_REACTORS
330
163F
102
}
330
163F
100
AcDbXrecord
 90
        0
  0
XRECORD
  5
1660
102
{ACAD_REACTORS
330
163F
102
}
330
163F
100
AcDbXrecord
340
6C
  0
XRECORD
  5
165E
102
{ACAD_REACTORS
330
163F
102
}
330
163F
100
AcDbXrecord
1000
DSTYLE
1002
{
1070
   179
 70
     3
1070
   171
 70
     2
1070
   143
 40
25.4
1070
   274
 70
     2
1070
    41
 40
2.229999999999999
1070
    79
 70
     2
1070
   342
340
162B
1070
   141
 40
0.0
1070
   176
 70
   256
1070
   177
 70
   256
1070
   178
 70
    40
1070
   271
 70
     3
1070
    43
 40
2.5
1070
   278
 70
    46
1070
    44
 40
1.0
1070
    42
 40
0.5
1070
   147
 40
1.0
1070
   341
340
162B
1070
   371
 70
    -1
1070
   372
 70
    -1
1070
    77
 70
     0
1070
   272
 70
     3
1070
   279
 70
     2
1070
   283
 70
     1
1070
   340
340
11
1070
   140
 40
3.0
1002
}
  0
XRECORD
  5
1649
102
{ACAD_REACTORS
330
163F
102
}
330
163F
100
AcDbXrecord
  1
{51294030-9CB4-11D3-8E18-00A0C925D94D}
  0
XRECORD
  5
1642
102
{ACAD_REACTORS
330
163F
102
}
330
163F
100
AcDbXrecord
  1

  0
XRECORD
  5
1647
102
{ACAD_REACTORS
330
163F
102
}
330
163F
100
AcDbXrecord
 90
        0
  0
XRECORD
  5
1644
102
{ACAD_REACTORS
330
163F
102
}
330
163F
100
AcDbXrecord
340
1A
  0
XRECORD
  5
1646
102
{ACAD_REACTORS
330
163F
102
}
330
163F
100
AcDbXrecord
 90
    11805
  0
XRECORD
  5
1661
102
{ACAD_REACTORS
330
163F
102
}
330
163F
100
AcDbXrecord
340
6B
  0
XRECORD
  5
1645
102
{ACAD_REACTORS
330
163F
102
}
330
163F
100
AcDbXrecord
340
19
  0
XRECORD
  5
164B
102
{ACAD_REACTORS
330
163F
102
}
330
163F
100
AcDbXrecord
 40
0.0
  0
XRECORD
  5
164E
102
{ACAD_REACTORS
330
163F
102
}
330
163F
100
AcDbXrecord
340
0
  0
XRECORD
  5
1654
102
{ACAD_REACTORS
330
163F
102
}
330
163F
100
AcDbXrecord
 10
0.0
 20
0.0
 30
0.0
  0
XRECORD
  5
1650
102
{ACAD_REACTORS
330
163F
102
}
330
163F
100
AcDbXrecord
 10
0.0
 20
0.0
 30
0.0
  0
XRECORD
  5
1653
102
{ACAD_REACTORS
330
163F
102
}
330
163F
100
AcDbXrecord
 10
0.0
 20
0.0
 30
0.0
  0
XRECORD
  5
1651
102
{ACAD_REACTORS
330
163F
102
}
330
163F
100
AcDbXrecord
 10
0.0
 20
0.0
 30
0.0
  0
XRECORD
  5
1652
102
{ACAD_REACTORS
330
163F
102
}
330
163F
100
AcDbXrecord
 10
0.0
 20
0.0
 30
0.0
  0
XRECORD
  5
164F
102
{ACAD_REACTORS
330
163F
102
}
330
163F
100
AcDbXrecord
 10
0.0
 20
0.0
 30
0.0
  0
XRECORD
  5
164C
102
{ACAD_REACTORS
330
163F
102
}
330
163F
100
AcDbXrecord
340
0
  0
XRECORD
  5
164D
102
{ACAD_REACTORS
330
163F
102
}
330
163F
100
AcDbXrecord
 70
     0
  0
XRECORD
  5
1643
102
{ACAD_REACTORS
330
163F
102
}
330
163F
100
AcDbXrecord
  1

  0
XRECORD
  5
1640
102
{ACAD_REACTORS
330
163F
102
}
330
163F
100
AcDbXrecord
 90
        1
  0
XRECORD
  5
1641
102
{ACAD_REACTORS
330
163F
102
}
330
163F
100
AcDbXrecord
 90
       70
  0
XRECORD
  5
1657
102
{ACAD_REACTORS
330
163F
102
}
330
163F
100
AcDbXrecord
340
0
  0
XRECORD
  5
165D
102
{ACAD_REACTORS
330
163F
102
}
330
163F
100
AcDbXrecord
 10
0.0
 20
0.0
 30
0.0
  0
XRECORD
  5
1659
102
{ACAD_REACTORS
330
163F
102
}
330
163F
100
AcDbXrecord
 10
0.0
 20
0.0
 30
0.0
  0
XRECORD
  5
165C
102
{ACAD_REACTORS
330
163F
102
}
330
163F
100
AcDbXrecord
 10
0.0
 20
0.0
 30
0.0
  0
XRECORD
  5
165A
102
{ACAD_REACTORS
330
163F
102
}
330
163F
100
AcDbXrecord
 10
0.0
 20
0.0
 30
0.0
  0
XRECORD
  5
165B
102
{ACAD_REACTORS
330
163F
102
}
330
163F
100
AcDbXrecord
 10
0.0
 20
0.0
 30
0.0
  0
XRECORD
  5
1658
102
{ACAD_REACTORS
330
163F
102
}
330
163F
100
AcDbXrecord
 10
0.0
 20
0.0
 30
0.0
  0
XRECORD
  5
1655
102
{ACAD_REACTORS
330
163F
102
}
330
163F
100
AcDbXrecord
340
0
  0
XRECORD
  5
1656
102
{ACAD_REACTORS
330
163F
102
}
330
163F
100
AcDbXrecord
 70
     0
  0
XRECORD
  5
164A
102
{ACAD_REACTORS
330
163F
102
}
330
163F
100
AcDbXrecord
  1
{DC13A5C5-BA77-11D6-9637-006094EB2375}
  0
DICTIONARYVAR
  5
98
102
{ACAD_REACTORS
330
59
102
}
330
59
100
DictionaryVariables
280
     0
  1
Standard
  0
DICTIONARYVAR
  5
68F
102
{ACAD_REACTORS
330
59
102
}
330
59
100
DictionaryVariables
280
     0
  1
1
  0
DICTIONARYVAR
  5
5E
102
{ACAD_REACTORS
330
59
102
}
330
59
100
DictionaryVariables
280
     0
  1
1
  0
DICTIONARYVAR
  5
BAB
102
{ACAD_REACTORS
330
59
102
}
330
59
100
DictionaryVariables
280
     0
  1
127
  0
XRECORD
  5
560
102
{ACAD_REACTORS
330
540
102
}
330
540
100
AcDbXrecord
  1
2.0.0
  0
ENDSEC
  0
EOF
