  0
SECTION
  2
HEADER
  9
$ACADVER
  1
AC1015
  9
$ACADMAINTVER
 70
     6
  9
$DWGCODEPAGE
  3
ANSI_932
  9
$INSBASE
 10
0.0
 20
0.0
 30
0.0
  9
$EXTMIN
 10
-95.00000000000006
 20
-43.0000000000003
 30
-0.0000000000000007
  9
$EXTMAX
 10
54.45
 20
68.0
 30
0.0000000000000002
  9
$LIMMIN
 10
0.0
 20
0.0
  9
$LIMMAX
 10
297.0
 20
210.0
  9
$ORTHOMODE
 70
     1
  9
$REGENMODE
 70
     1
  9
$FILLMODE
 70
     1
  9
$QTEXTMODE
 70
     0
  9
$MIRRTEXT
 70
     1
  9
$LTSCALE
 40
10.0
  9
$ATTMODE
 70
     1
  9
$TEXTSIZE
 40
3.0
  9
$TRACEWID
 40
1.0
  9
$TEXTSTYLE
  7
YOKO
  9
$CLAYER
  8
2
  9
$CELTYPE
  6
ByLayer
  9
$CECOLOR
 62
   256
  9
$CELTSCALE
 40
1.0
  9
$DISPSILH
 70
     0
  9
$DIMSCALE
 40
1.0
  9
$DIMASZ
 40
2.0
  9
$DIMEXO
 40
0.5
  9
$DIMDLI
 40
2.5
  9
$DIMRND
 40
0.0
  9
$DIMDLE
 40
0.0
  9
$DIMEXE
 40
1.0
  9
$DIMTP
 40
0.0
  9
$DIMTM
 40
0.0
  9
$DIMTXT
 40
2.799999999999999
  9
$DIMCEN
 40
0.0
  9
$DIMTSZ
 40
0.0
  9
$DIMTOL
 70
     0
  9
$DIMLIM
 70
     0
  9
$DIMTIH
 70
     0
  9
$DIMTOH
 70
     0
  9
$DIMSE1
 70
     0
  9
$DIMSE2
 70
     0
  9
$DIMTAD
 70
     0
  9
$DIMZIN
 70
     8
  9
$DIMBLK
  1

  9
$DIMASO
 70
     1
  9
$DIMSHO
 70
     1
  9
$DIMPOST
  1

  9
$DIMAPOST
  1

  9
$DIMALT
 70
     0
  9
$DIMALTD
 70
     2
  9
$DIMALTF
 40
25.4
  9
$DIMLFAC
 40
1.0
  9
$DIMTOFL
 70
     1
  9
$DIMTVP
 40
0.0
  9
$DIMTIX
 70
     1
  9
$DIMSOXD
 70
     0
  9
$DIMSAH
 70
     1
  9
$DIMBLK1
  1
OPEN
  9
$DIMBLK2
  1
OPEN
  9
$DIMSTYLE
  2
BIGT
  9
$DIMCLRD
 70
   256
  9
$DIMCLRE
 70
   256
  9
$DIMCLRT
 70
    40
  9
$DIMTFAC
 40
1.0
  9
$DIMGAP
 40
1.0
  9
$DIMJUST
 70
     0
  9
$DIMSD1
 70
     0
  9
$DIMSD2
 70
     0
  9
$DIMTOLJ
 70
     1
  9
$DIMTZIN
 70
     8
  9
$DIMALTZ
 70
     0
  9
$DIMALTTZ
 70
     0
  9
$DIMUPT
 70
     1
  9
$DIMDEC
 70
     3
  9
$DIMTDEC
 70
     3
  9
$DIMALTU
 70
     2
  9
$DIMALTTD
 70
     2
  9
$DIMTXSTY
  7
Standard
  9
$DIMAUNIT
 70
     0
  9
$DIMADEC
 70
     3
  9
$DIMALTRND
 40
0.0
  9
$DIMAZIN
 70
     2
  9
$DIMDSEP
 70
    46
  9
$DIMATFIT
 70
     3
  9
$DIMFRAC
 70
     0
  9
$DIMLDRBLK
  1
OPEN
  9
$DIMLUNIT
 70
     2
  9
$DIMLWD
 70
    -1
  9
$DIMLWE
 70
    -1
  9
$DIMTMOVE
 70
     0
  9
$LUNITS
 70
     2
  9
$LUPREC
 70
     3
  9
$SKETCHINC
 40
1.0
  9
$FILLETRAD
 40
0.8
  9
$AUNITS
 70
     0
  9
$AUPREC
 70
     3
  9
$MENU
  1
.
  9
$ELEVATION
 40
0.0
  9
$PELEVATION
 40
0.0
  9
$THICKNESS
 40
0.0
  9
$LIMCHECK
 70
     0
  9
$CHAMFERA
 40
10.0
  9
$CHAMFERB
 40
10.0
  9
$CHAMFERC
 40
0.0
  9
$CHAMFERD
 40
0.0
  9
$SKPOLY
 70
     0
  9
$TDCREATE
 40
2453353.508792488
  9
$TDUCREATE
 40
2453353.717125822
  9
$TDUPDATE
 40
2454820.225642512
  9
$TDUUPDATE
 40
2454820.433975845
  9
$TDINDWG
 40
0.116367338
  9
$TDUSRTIMER
 40
0.116367338
  9
$USRTIMER
 70
     1
  9
$ANGBASE
 50
0.0
  9
$ANGDIR
 70
     0
  9
$PDMODE
 70
     1
  9
$PDSIZE
 40
-5.0
  9
$PLINEWID
 40
0.0
  9
$SPLFRAME
 70
     0
  9
$SPLINETYPE
 70
     6
  9
$SPLINESEGS
 70
     8
  9
$HANDSEED
  5
1AFA
  9
$SURFTAB1
 70
     6
  9
$SURFTAB2
 70
     6
  9
$SURFTYPE
 70
     6
  9
$SURFU
 70
     6
  9
$SURFV
 70
     6
  9
$UCSBASE
  2

  9
$UCSNAME
  2

  9
$UCSORG
 10
0.0
 20
0.0
 30
0.0
  9
$UCSXDIR
 10
1.0
 20
0.0
 30
0.0
  9
$UCSYDIR
 10
0.0
 20
1.0
 30
0.0
  9
$UCSORTHOREF
  2

  9
$UCSORTHOVIEW
 70
     0
  9
$UCSORGTOP
 10
0.0
 20
0.0
 30
0.0
  9
$UCSORGBOTTOM
 10
0.0
 20
0.0
 30
0.0
  9
$UCSORGLEFT
 10
0.0
 20
0.0
 30
0.0
  9
$UCSORGRIGHT
 10
0.0
 20
0.0
 30
0.0
  9
$UCSORGFRONT
 10
0.0
 20
0.0
 30
0.0
  9
$UCSORGBACK
 10
0.0
 20
0.0
 30
0.0
  9
$PUCSBASE
  2

  9
$PUCSNAME
  2

  9
$PUCSORG
 10
0.0
 20
0.0
 30
0.0
  9
$PUCSXDIR
 10
1.0
 20
0.0
 30
0.0
  9
$PUCSYDIR
 10
0.0
 20
1.0
 30
0.0
  9
$PUCSORTHOREF
  2

  9
$PUCSORTHOVIEW
 70
     0
  9
$PUCSORGTOP
 10
0.0
 20
0.0
 30
0.0
  9
$PUCSORGBOTTOM
 10
0.0
 20
0.0
 30
0.0
  9
$PUCSORGLEFT
 10
0.0
 20
0.0
 30
0.0
  9
$PUCSORGRIGHT
 10
0.0
 20
0.0
 30
0.0
  9
$PUCSORGFRONT
 10
0.0
 20
0.0
 30
0.0
  9
$PUCSORGBACK
 10
0.0
 20
0.0
 30
0.0
  9
$USERI1
 70
     1
  9
$USERI2
 70
     0
  9
$USERI3
 70
     0
  9
$USERI4
 70
     0
  9
$USERI5
 70
     0
  9
$USERR1
 40
0.0
  9
$USERR2
 40
0.0
  9
$USERR3
 40
0.0
  9
$USERR4
 40
0.0
  9
$USERR5
 40
0.0
  9
$WORLDVIEW
 70
     1
  9
$SHADEDGE
 70
     3
  9
$SHADEDIF
 70
    70
  9
$TILEMODE
 70
     1
  9
$MAXACTVP
 70
    16
  9
$PINSBASE
 10
0.0
 20
0.0
 30
0.0
  9
$PLIMCHECK
 70
     0
  9
$PEXTMIN
 10
0.0
 20
0.0
 30
0.0
  9
$PEXTMAX
 10
0.0
 20
0.0
 30
0.0
  9
$PLIMMIN
 10
0.0
 20
0.0
  9
$PLIMMAX
 10
12.0
 20
9.0
  9
$UNITMODE
 70
     0
  9
$VISRETAIN
 70
     0
  9
$PLINEGEN
 70
     0
  9
$PSLTSCALE
 70
     1
  9
$TREEDEPTH
 70
  3020
  9
$CMLSTYLE
  2
Standard
  9
$CMLJUST
 70
     0
  9
$CMLSCALE
 40
1.0
  9
$PROXYGRAPHICS
 70
     1
  9
$MEASUREMENT
 70
     1
  9
$CELWEIGHT
370
    -1
  9
$ENDCAPS
280
     0
  9
$JOINSTYLE
280
     0
  9
$LWDISPLAY
290
     0
  9
$INSUNITS
 70
     0
  9
$HYPERLINKBASE
  1

  9
$STYLESHEET
  1

  9
$XEDIT
290
     0
  9
$CEPSNTYPE
380
     0
  9
$PSTYLEMODE
290
     1
  9
$FINGERPRINTGUID
  2
{9430112F-0C1B-437E-856D-8A9E004AF8C7}
  9
$VERSIONGUID
  2
{AA824E0B-4D4E-4771-BA99-80F9D2C14316}
  9
$EXTNAMES
290
     1
  9
$PSVPSCALE
 40
0.0
  9
$OLESTARTUP
290
     0
  0
ENDSEC
  0
SECTION
  2
CLASSES
  0
CLASS
  1
ACDBDICTIONARYWDFLT
  2
AcDbDictionaryWithDefault
  3
ObjectDBX Classes
 90
        0
280
     0
281
     0
  0
CLASS
  1
ACDBPLACEHOLDER
  2
AcDbPlaceHolder
  3
ObjectDBX Classes
 90
        0
280
     0
281
     0
  0
CLASS
  1
LAYOUT
  2
AcDbLayout
  3
ObjectDBX Classes
 90
        0
280
     0
281
     0
  0
CLASS
  1
DICTIONARYVAR
  2
AcDbDictionaryVar
  3
ObjectDBX Classes
 90
        0
280
     0
281
     0
  0
CLASS
  1
TABLESTYLE
  2
AcDbTableStyle
  3
ObjectDBX Classes
 90
     4095
280
     0
281
     0
  0
CLASS
  1
SCALE
  2
AcDbScale
  3
ObjectDBX Classes
 90
     1153
280
     0
281
     0
  0
CLASS
  1
MATERIAL
  2
AcDbMaterial
  3
ObjectDBX Classes
 90
     1153
280
     0
281
     0
  0
CLASS
  1
MLEADERSTYLE
  2
AcDbMLeaderStyle
  3
ACDB_MLEADERSTYLE_CLASS
 90
     4095
280
     0
281
     0
  0
CLASS
  1
PLOTSETTINGS
  2
AcDbPlotSettings
  3
ObjectDBX Classes
 90
        0
280
     0
281
     0
  0
CLASS
  1
VISUALSTYLE
  2
AcDbVisualStyle
  3
ObjectDBX Classes
 90
     4095
280
     0
281
     0
  0
CLASS
  1
SORTENTSTABLE
  2
AcDbSortentsTable
  3
ObjectDBX Classes
 90
        0
280
     0
281
     0
  0
CLASS
  1
XRECORD
  2
AcDbXrecord
  3
AutoCAD 2000
 90
        0
280
     0
281
     0
  0
ENDSEC
  0
SECTION
  2
TABLES
  0
TABLE
  2
VPORT
  5
8
330
0
100
AcDbSymbolTable
 70
     2
  0
VPORT
  5
97
330
8
100
AcDbSymbolTableRecord
100
AcDbViewportTableRecord
  2
*Active
 70
     0
 10
0.0
 20
0.0
 11
1.0
 21
1.0
 12
-40.21941969831419
 22
37.83636557231581
 13
0.0
 23
0.0
 14
7.0
 24
7.0
 15
7.0
 25
7.0
 16
0.0
 26
0.0
 36
1.0
 17
0.0
 27
0.0
 37
0.0
 40
231.0612244897966
 41
1.894348894348894
 42
50.0
 43
0.0
 44
0.0
 50
0.0
 51
0.0
 71
    16
 72
 20000
 73
     1
 74
     0
 75
     0
 76
     0
 77
     0
 78
     0
281
     0
 65
     0
110
0.0
120
0.0
130
0.0
111
1.0
121
0.0
131
0.0
112
0.0
122
1.0
132
0.0
 79
     0
146
0.0
  0
ENDTAB
  0
TABLE
  2
LTYPE
  5
5
330
0
100
AcDbSymbolTable
 70
     2
  0
LTYPE
  5
14
330
5
100
AcDbSymbolTableRecord
100
AcDbLinetypeTableRecord
  2
ByBlock
 70
     0
  3

 72
    65
 73
     0
 40
0.0
  0
LTYPE
  5
15
330
5
100
AcDbSymbolTableRecord
100
AcDbLinetypeTableRecord
  2
ByLayer
 70
     0
  3

 72
    65
 73
     0
 40
0.0
  0
LTYPE
  5
16
330
5
100
AcDbSymbolTableRecord
100
AcDbLinetypeTableRecord
  2
Continuous
 70
     0
  3
Solid line
 72
    65
 73
     0
 40
0.0
  0
LTYPE
  5
1AA9
330
5
100
AcDbSymbolTableRecord
100
AcDbLinetypeTableRecord
  2
CENTER2
 70
     0
  3
___ _ ___ _ ___ _ ___ _ ___ _ ___ _ ___ _ ___ _
 72
    65
 73
     4
 40
1.125
 49
0.75
 74
     4
 75
     0
340
0
 46
1.0
 50
0.0
 44
0.0
 45
0.0
 49
-0.125
 74
     4
 75
     0
340
0
 46
1.0
 50
0.0
 44
0.0
 45
0.0
 49
0.125
 74
     4
 75
     0
340
0
 46
1.0
 50
0.0
 44
0.0
 45
0.0
 49
-0.125
 74
     4
 75
     0
340
0
 46
1.0
 50
0.0
 44
0.0
 45
0.0
  0
ENDTAB
  0
TABLE
  2
LAYER
  5
2
330
0
100
AcDbSymbolTable
 70
     8
  0
LAYER
  5
10
102
{ACAD_XDICTIONARY
360
1AAA
102
}
330
2
100
AcDbSymbolTableRecord
100
AcDbLayerTableRecord
  2
0
 70
     0
 62
     7
  6
Continuous
370
    -3
390
F
  0
LAYER
  5
1AAB
102
{ACAD_XDICTIONARY
360
1AAC
102
}
330
2
100
AcDbSymbolTableRecord
100
AcDbLayerTableRecord
  2
2
 70
     0
 62
     7
  6
Continuous
370
    -3
390
F
  0
LAYER
  5
1AA
102
{ACAD_XDICTIONARY
360
1AAD
102
}
330
2
100
AcDbSymbolTableRecord
100
AcDbLayerTableRecord
  2
240
 70
     0
 62
     4
  6
Continuous
370
    -3
390
F
  0
LAYER
  5
1AB
102
{ACAD_XDICTIONARY
360
1AAE
102
}
330
2
100
AcDbSymbolTableRecord
100
AcDbLayerTableRecord
  2
241
 70
     0
 62
   211
  6
Continuous
370
    -3
390
F
  0
LAYER
  5
1AF
102
{ACAD_XDICTIONARY
360
1AAF
102
}
330
2
100
AcDbSymbolTableRecord
100
AcDbLayerTableRecord
  2
245
 70
     0
 62
     2
  6
CENTER2
370
    -3
390
F
  0
LAYER
  5
21E
102
{ACAD_XDICTIONARY
360
1AB0
102
}
330
2
100
AcDbSymbolTableRecord
100
AcDbLayerTableRecord
  2
250
 70
     0
 62
     3
  6
Continuous
370
    -3
390
F
  0
LAYER
  5
21F
102
{ACAD_XDICTIONARY
360
1AB1
102
}
330
2
100
AcDbSymbolTableRecord
100
AcDbLayerTableRecord
  2
251
 70
     0
 62
    40
  6
Continuous
370
    -3
390
F
  0
LAYER
  5
5C4
330
2
100
AcDbSymbolTableRecord
100
AcDbLayerTableRecord
  2
Defpoints
 70
     0
 62
     7
  6
Continuous
290
     0
370
    -3
390
F
  0
ENDTAB
  0
TABLE
  2
STYLE
  5
3
330
0
100
AcDbSymbolTable
 70
     2
  0
STYLE
  5
11
330
3
100
AcDbSymbolTableRecord
100
AcDbTextStyleTableRecord
  2
Standard
 70
     0
 40
0.0
 41
1.0
 50
0.0
 71
     0
 42
2.799999999999999
  3
romans.shx
  4
BIGFONT.SHX
  0
STYLE
  5
339
330
3
100
AcDbSymbolTableRecord
100
AcDbTextStyleTableRecord
  2
YOKO
 70
     0
 40
0.0
 41
1.0
 50
0.0
 71
     0
 42
3.0
  3
romans.shx
  4
extfont.shx
  0
ENDTAB
  0
TABLE
  2
VIEW
  5
6
330
0
100
AcDbSymbolTable
 70
     0
  0
ENDTAB
  0
TABLE
  2
UCS
  5
7
330
0
100
AcDbSymbolTable
 70
     0
  0
ENDTAB
  0
TABLE
  2
APPID
  5
9
330
0
100
AcDbSymbolTable
 70
    43
  0
APPID
  5
12
330
9
100
AcDbSymbolTableRecord
100
AcDbRegAppTableRecord
  2
ACAD
 70
     0
  0
APPID
  5
1A7F
330
9
100
AcDbSymbolTableRecord
100
AcDbRegAppTableRecord
  2
GLOBAL
 70
     0
  0
APPID
  5
1A80
330
9
100
AcDbSymbolTableRecord
100
AcDbRegAppTableRecord
  2
DETAIL
 70
     0
  0
APPID
  5
1A81
330
9
100
AcDbSymbolTableRecord
100
AcDbRegAppTableRecord
  2
GRPNAME
 70
     0
  0
APPID
  5
1A82
330
9
100
AcDbSymbolTableRecord
100
AcDbRegAppTableRecord
  2
GPARA
 70
     0
  0
APPID
  5
1A83
330
9
100
AcDbSymbolTableRecord
100
AcDbRegAppTableRecord
  2
DCO15
 70
     0
  0
APPID
  5
1A84
330
9
100
AcDbSymbolTableRecord
100
AcDbRegAppTableRecord
  2
ITEMNAME
 70
     0
  0
APPID
  5
1A85
330
9
100
AcDbSymbolTableRecord
100
AcDbRegAppTableRecord
  2
GRADE_0
 70
     0
  0
APPID
  5
1A86
330
9
100
AcDbSymbolTableRecord
100
AcDbRegAppTableRecord
  2
ACAD_MLEADERVER
 70
     0
  0
APPID
  5
1A87
330
9
100
AcDbSymbolTableRecord
100
AcDbRegAppTableRecord
  2
DRAWING
 70
     0
  0
APPID
  5
1A88
330
9
100
AcDbSymbolTableRecord
100
AcDbRegAppTableRecord
  2
HATCH_TYPE
 70
     0
  0
APPID
  5
1A89
330
9
100
AcDbSymbolTableRecord
100
AcDbRegAppTableRecord
  2
HATCH_DISPLAY
 70
     0
  0
APPID
  5
1A8A
330
9
100
AcDbSymbolTableRecord
100
AcDbRegAppTableRecord
  2
HATCH_DISTANCE
 70
     0
  0
APPID
  5
1A8B
330
9
100
AcDbSymbolTableRecord
100
AcDbRegAppTableRecord
  2
INSERT_PATH
 70
     0
  0
APPID
  5
1A8C
330
9
100
AcDbSymbolTableRecord
100
AcDbRegAppTableRecord
  2
GMODEL
 70
     0
  0
APPID
  5
1A8D
330
9
100
AcDbSymbolTableRecord
100
AcDbRegAppTableRecord
  2
MCAD_NO_VIS
 70
     0
  0
APPID
  5
1A8E
330
9
100
AcDbSymbolTableRecord
100
AcDbRegAppTableRecord
  2
ACAD_TEMP_GRAPHIC
 70
     0
  0
APPID
  5
1A8F
330
9
100
AcDbSymbolTableRecord
100
AcDbRegAppTableRecord
  2
ACATTRIBSERVICES
 70
     0
  0
APPID
  5
1A90
330
9
100
AcDbSymbolTableRecord
100
AcDbRegAppTableRecord
  2
GENIUS_GENDTOL_13
 70
     0
  0
APPID
  5
1A91
330
9
100
AcDbSymbolTableRecord
100
AcDbRegAppTableRecord
  2
GENIUS_GENDIMSH_14
 70
     0
  0
APPID
  5
1A92
330
9
100
AcDbSymbolTableRecord
100
AcDbRegAppTableRecord
  2
GENIUS_GENODEF_13
 70
     0
  0
APPID
  5
1A93
330
9
100
AcDbSymbolTableRecord
100
AcDbRegAppTableRecord
  2
GENIUS_GENOLIS_13
 70
     0
  0
APPID
  5
1A94
330
9
100
AcDbSymbolTableRecord
100
AcDbRegAppTableRecord
  2
GENIUS_GENOENT_13
 70
     0
  0
APPID
  5
1A95
330
9
100
AcDbSymbolTableRecord
100
AcDbRegAppTableRecord
  2
GENIUS_GENOBJ-F-SHCL_13
 70
     0
  0
APPID
  5
1A96
330
9
100
AcDbSymbolTableRecord
100
AcDbRegAppTableRecord
  2
GENIUS_GENOREF_13
 70
     0
  0
APPID
  5
1A97
330
9
100
AcDbSymbolTableRecord
100
AcDbRegAppTableRecord
  2
GENIUS_GEFMSH_13
 70
     0
  0
APPID
  5
1A98
330
9
100
AcDbSymbolTableRecord
100
AcDbRegAppTableRecord
  2
GENIUS_GEFSH_13
 70
     0
  0
APPID
  5
1A99
330
9
100
AcDbSymbolTableRecord
100
AcDbRegAppTableRecord
  2
GENIUS_GEFSHP_13
 70
     0
  0
APPID
  5
1A9A
330
9
100
AcDbSymbolTableRecord
100
AcDbRegAppTableRecord
  2
GENIUS_GENOBJ-F-SHS_13
 70
     0
  0
APPID
  5
1A9B
330
9
100
AcDbSymbolTableRecord
100
AcDbRegAppTableRecord
  2
GENIUS_GENBH_13
 70
     0
  0
APPID
  5
1A9C
330
9
100
AcDbSymbolTableRecord
100
AcDbRegAppTableRecord
  2
GENIUS_GENOBJ-NBEHI-BHF_13
 70
     0
  0
APPID
  5
1A9D
330
9
100
AcDbSymbolTableRecord
100
AcDbRegAppTableRecord
  2
GENIUS_GENOBJ-NBEHI-BHB_13
 70
     0
  0
APPID
  5
1A9E
330
9
100
AcDbSymbolTableRecord
100
AcDbRegAppTableRecord
  2
GENIUS_GENOBJ-F-SHSV_13
 70
     0
  0
APPID
  5
1A9F
330
9
100
AcDbSymbolTableRecord
100
AcDbRegAppTableRecord
  2
GENIUS_GENOBJ-N-DIM_13
 70
     0
  0
APPID
  5
1AA0
330
9
100
AcDbSymbolTableRecord
100
AcDbRegAppTableRecord
  2
GENIUS_GENDIM_13
 70
     0
  0
APPID
  5
1AA1
330
9
100
AcDbSymbolTableRecord
100
AcDbRegAppTableRecord
  2
GENIUS_GENOBJ-N-FIL_13
 70
     0
  0
APPID
  5
1AA2
330
9
100
AcDbSymbolTableRecord
100
AcDbRegAppTableRecord
  2
GENIUS_GENOBJ-N-TIT_13
 70
     0
  0
APPID
  5
1AA3
330
9
100
AcDbSymbolTableRecord
100
AcDbRegAppTableRecord
  2
GENIUS_GENTITLE_13
 70
     0
  0
APPID
  5
1AA4
330
9
100
AcDbSymbolTableRecord
100
AcDbRegAppTableRecord
  2
GENIUS_GENSCREG_15
 70
     0
  0
APPID
  5
1AA5
330
9
100
AcDbSymbolTableRecord
100
AcDbRegAppTableRecord
  2
GENIUS_GENOBJ-N-SDF_13
 70
     0
  0
APPID
  5
1AA6
330
9
100
AcDbSymbolTableRecord
100
AcDbRegAppTableRecord
  2
GENIUS_GENOBJ-N-CEN_13
 70
     0
  0
APPID
  5
1AA7
330
9
100
AcDbSymbolTableRecord
100
AcDbRegAppTableRecord
  2
Layer_Scale
 70
     0
  0
APPID
  5
1AA8
330
9
100
AcDbSymbolTableRecord
100
AcDbRegAppTableRecord
  2
ACAD_DSTYLE_DIMRADIAL_EXTENSION
 70
     0
  0
ENDTAB
  0
TABLE
  2
DIMSTYLE
  5
A
330
0
100
AcDbSymbolTable
 70
     4
100
AcDbDimStyleTable
  0
DIMSTYLE
105
27
330
A
100
AcDbSymbolTableRecord
100
AcDbDimStyleTableRecord
  2
Standard
 70
     0
278
     0
340
11
  0
DIMSTYLE
105
725
330
A
100
AcDbSymbolTableRecord
100
AcDbDimStyleTableRecord
  2
BIGT
 70
     0
 41
2.229999999999999
 42
0.5
 43
2.5
 44
1.0
 73
     0
 74
     0
 77
     3
 78
     8
 79
     2
140
2.799999999999999
141
0.0
147
1.0
172
     1
173
     1
174
     1
176
   256
177
   256
178
    40
179
     3
271
     3
272
     3
284
     8
289
     2
340
11
341
1AB2
343
1AB2
344
1AB2
371
    -1
372
    -1
  0
DIMSTYLE
105
A55
102
{ACAD_REACTORS
330
1A48
330
1A54
102
}
330
A
100
AcDbSymbolTableRecord
100
AcDbDimStyleTableRecord
  2
BIGT$0
 70
     0
  4
"
 41
2.229999999999999
 42
0.5
 43
7.0
 44
1.0
 47
0.1
 48
0.1
 73
     0
 74
     0
 77
     3
 78
     8
 79
     2
140
3.0
141
0.0
143
0.0393701
146
0.71
147
1.0
172
     1
176
     3
177
     3
178
    40
179
     3
271
     3
272
     3
284
     8
289
     2
340
11
341
1AB2
342
1AB2
371
    -1
372
    -1
  0
DIMSTYLE
105
A5A
330
A
100
AcDbSymbolTableRecord
100
AcDbDimStyleTableRecord
  2
BIGT$7
 70
     0
  4
"
 41
2.5
 42
0.5
 43
7.0
 44
1.0
 47
0.1
 48
0.1
 73
     0
 74
     0
 77
     3
 78
     8
 79
     2
140
5.0
141
0.0
143
0.0393701
146
0.71
147
1.5
172
     1
176
     3
177
     3
178
    40
179
     3
271
     3
272
     3
284
     8
289
     2
340
11
341
1AB2
342
1AB2
371
    -1
372
    -1
  0
ENDTAB
  0
TABLE
  2
BLOCK_RECORD
  5
1
330
0
100
AcDbSymbolTable
 70
     9
  0
BLOCK_RECORD
  5
1F
102
{ACAD_XDICTIONARY
360
1AC9
102
}
330
1
100
AcDbSymbolTableRecord
100
AcDbBlockTableRecord
  2
*Model_Space
340
22
  0
BLOCK_RECORD
  5
73
330
1
100
AcDbSymbolTableRecord
100
AcDbBlockTableRecord
  2
*Paper_Space
340
568
  0
BLOCK_RECORD
  5
1AB2
330
1
100
AcDbSymbolTableRecord
100
AcDbBlockTableRecord
  2
_OPEN
340
0
102
{BLKREFS
331
197C
331
197D
331
19A0
331
19A1
331
1A4F
331
1A50
331
1A5B
331
1A5C
331
1A6E
331
1A6F
331
1A79
331
1A7A
102
}
  0
BLOCK_RECORD
  5
6E3
330
1
100
AcDbSymbolTableRecord
100
AcDbBlockTableRecord
  2
\U+77E2\U+5370\U+306A\U+3057
340
0
102
{BLKREFS
331
6E6
102
}
  0
BLOCK_RECORD
  5
1297
330
1
100
AcDbSymbolTableRecord
100
AcDbBlockTableRecord
  2
*D2
340
0
  0
BLOCK_RECORD
  5
12F5
330
1
100
AcDbSymbolTableRecord
100
AcDbBlockTableRecord
  2
*D3
340
0
  0
BLOCK_RECORD
  5
19A8
330
1
100
AcDbSymbolTableRecord
100
AcDbBlockTableRecord
  2
A
340
0
102
{BLKREFS
331
1A67
102
}
  0
BLOCK_RECORD
  5
1A53
330
1
100
AcDbSymbolTableRecord
100
AcDbBlockTableRecord
  2
*D5
340
0
  0
BLOCK_RECORD
  5
1A5F
330
1
100
AcDbSymbolTableRecord
100
AcDbBlockTableRecord
  2
*D6
340
0
  0
BLOCK_RECORD
  5
1A72
330
1
100
AcDbSymbolTableRecord
100
AcDbBlockTableRecord
  2
*D7
340
0
  0
BLOCK_RECORD
  5
1A7D
330
1
100
AcDbSymbolTableRecord
100
AcDbBlockTableRecord
  2
*D8
340
0
  0
ENDTAB
  0
ENDSEC
  0
SECTION
  2
BLOCKS
  0
BLOCK
  5
20
330
1F
100
AcDbEntity
  8
0
100
AcDbBlockBegin
  2
*Model_Space
 70
     0
 10
0.0
 20
0.0
 30
0.0
  3
*Model_Space
  1

  0
ENDBLK
  5
21
330
1F
100
AcDbEntity
  8
0
100
AcDbBlockEnd
  0
BLOCK
  5
75
330
73
100
AcDbEntity
 67
     1
  8
0
100
AcDbBlockBegin
  2
*Paper_Space
 70
     0
 10
0.0
 20
0.0
 30
0.0
  3
*Paper_Space
  1

  0
ENDBLK
  5
76
330
73
100
AcDbEntity
 67
     1
  8
0
100
AcDbBlockEnd
  0
BLOCK
  5
1AB3
330
1AB2
100
AcDbEntity
  8
0
100
AcDbBlockBegin
  2
_OPEN
 70
     0
 10
0.0
 20
0.0
 30
0.0
  3
_OPEN
  1

  0
LINE
  5
595
330
1AB2
100
AcDbEntity
  8
0
  6
ByBlock
 62
     0
370
    -2
100
AcDbLine
 10
-1.0
 20
0.1666666666666666
 30
0.0
 11
0.0
 21
0.0
 31
0.0
  0
LINE
  5
596
330
1AB2
100
AcDbEntity
  8
0
  6
ByBlock
 62
     0
370
    -2
100
AcDbLine
 10
-1.0
 20
-0.1666666666666666
 30
0.0
 11
0.0
 21
0.0
 31
0.0
  0
LINE
  5
597
330
1AB2
100
AcDbEntity
  8
0
  6
ByBlock
 62
     0
370
    -2
100
AcDbLine
 10
0.0
 20
0.0
 30
0.0
 11
-1.0
 21
0.0
 31
0.0
  0
ENDBLK
  5
1AB4
330
1AB2
100
AcDbEntity
  8
0
100
AcDbBlockEnd
  0
BLOCK
  5
1AB9
330
6E3
100
AcDbEntity
  8
0
100
AcDbBlockBegin
  2
\U+77E2\U+5370\U+306A\U+3057
 70
     0
 10
0.0
 20
0.0
 30
0.0
  3
\U+77E2\U+5370\U+306A\U+3057
  1

  0
ENDBLK
  5
1ABA
330
6E3
100
AcDbEntity
  8
0
100
AcDbBlockEnd
  0
BLOCK
  5
1ABB
330
1297
100
AcDbEntity
  8
0
100
AcDbBlockBegin
  2
*D2
 70
     1
 10
0.0
 20
0.0
 30
0.0
  3
*D2
  1

  0
LINE
  5
1979
330
1297
100
AcDbEntity
  8
250
  6
Continuous
 62
     3
100
AcDbLine
 10
-0.0000000000000569
 20
-25.49999999999994
 30
0.0
 11
-0.0000000000000579
 21
-43.0
 31
0.0
  0
LINE
  5
197A
330
1297
100
AcDbEntity
  8
250
  6
Continuous
 62
     3
100
AcDbLine
 10
74.98099190253959
 20
31.19894562422718
 30
0.0
 11
74.98099190253959
 21
-43.0
 31
0.0
  0
LINE
  5
197B
330
1297
100
AcDbEntity
  8
250
  6
Continuous
 62
     3
100
AcDbLine
 10
1.999999999999942
 20
-42.0
 30
0.0
 11
72.98099190253959
 21
-42.0
 31
0.0
  0
INSERT
  5
197C
330
1297
100
AcDbEntity
  8
250
  6
Continuous
 62
     3
100
AcDbBlockReference
  2
_OPEN
 10
-0.0000000000000579
 20
-42.0
 30
0.0
 41
2.0
 42
2.0
 43
2.0
 50
180.0
  0
INSERT
  5
197D
330
1297
100
AcDbEntity
  8
250
  6
Continuous
 62
     3
100
AcDbBlockReference
  2
_OPEN
 10
74.98099190253959
 20
-42.0
 30
0.0
 41
2.0
 42
2.0
 43
2.0
  0
MTEXT
  5
197E
330
1297
100
AcDbEntity
  8
250
  6
Continuous
 62
    40
370
    -3
100
AcDbMText
 10
37.49049595126976
 20
-39.5
 30
0.0
 40
3.0
 41
0.0
 71
     5
 72
     1
  1
\A1;75
 73
     1
 44
1.0
  0
POINT
  5
197F
330
1297
100
AcDbEntity
  8
Defpoints
  6
Continuous
 62
     0
100
AcDbPoint
 10
-0.0000000000000568
 20
-24.99999999999995
 30
0.0
  0
POINT
  5
1980
330
1297
100
AcDbEntity
  8
Defpoints
  6
Continuous
 62
     0
100
AcDbPoint
 10
74.98099190253959
 20
31.69894562422718
 30
0.0
  0
POINT
  5
1981
330
1297
100
AcDbEntity
  8
Defpoints
  6
Continuous
 62
     0
100
AcDbPoint
 10
74.98099190253959
 20
-42.0
 30
0.0
  0
ENDBLK
  5
1ABC
330
1297
100
AcDbEntity
  8
0
100
AcDbBlockEnd
  0
BLOCK
  5
1ABD
330
12F5
100
AcDbEntity
  8
0
100
AcDbBlockBegin
  2
*D3
 70
     1
 10
0.0
 20
0.0
 30
0.0
  3
*D3
  1

  0
LINE
  5
199D
330
12F5
100
AcDbEntity
  8
250
  6
Continuous
 62
     3
100
AcDbLine
 10
45.17035821118841
 20
0.0000000000002557
 30
0.0
 11
92.00000000000004
 21
0.0000000000002424
 31
0.0
  0
LINE
  5
199E
330
12F5
100
AcDbEntity
  8
250
  6
Continuous
 62
     3
100
AcDbLine
 10
75.49999930518231
 20
32.99894562422719
 30
0.0
 11
92.00000000000006
 21
32.99894562422718
 31
0.0
  0
LINE
  5
199F
330
12F5
100
AcDbEntity
  8
250
  6
Continuous
 62
     3
100
AcDbLine
 10
91.00000000000004
 20
2.000000000000242
 30
0.0
 11
91.00000000000004
 21
30.99894562422718
 31
0.0
  0
INSERT
  5
19A0
330
12F5
100
AcDbEntity
  8
250
  6
Continuous
 62
     3
100
AcDbBlockReference
  2
_OPEN
 10
91.00000000000004
 20
0.0000000000002427
 30
0.0
 41
2.0
 42
2.0
 43
2.0
 50
270.0
  0
INSERT
  5
19A1
330
12F5
100
AcDbEntity
  8
250
  6
Continuous
 62
     3
100
AcDbBlockReference
  2
_OPEN
 10
91.00000000000006
 20
32.99894562422718
 30
0.0
 41
2.0
 42
2.0
 43
2.0
 50
90.0
  0
MTEXT
  5
19A2
330
12F5
100
AcDbEntity
  8
250
  6
Continuous
 62
    40
370
    -3
100
AcDbMText
 10
88.50000000000004
 20
16.49947281211372
 30
0.0
 40
3.0
 41
0.0
 71
     5
 72
     1
  1
\A1;33
 11
1.000000000000000E-16
 21
1.0
 31
0.0
 73
     1
 44
1.0
  0
POINT
  5
19A3
330
12F5
100
AcDbEntity
  8
Defpoints
  6
Continuous
 62
     0
100
AcDbPoint
 10
44.67035821118841
 20
0.0000000000002558
 30
0.0
  0
POINT
  5
19A4
330
12F5
100
AcDbEntity
  8
Defpoints
  6
Continuous
 62
     0
100
AcDbPoint
 10
74.99999930518231
 20
32.99894562422719
 30
0.0
  0
POINT
  5
19A5
330
12F5
100
AcDbEntity
  8
Defpoints
  6
Continuous
 62
     0
100
AcDbPoint
 10
91.00000000000006
 20
32.99894562422718
 30
0.0
  0
ENDBLK
  5
1ABE
330
12F5
100
AcDbEntity
  8
0
100
AcDbBlockEnd
  0
BLOCK
  5
1ABF
330
19A8
100
AcDbEntity
  8
0
100
AcDbBlockBegin
  2
A
 70
     0
 10
0.0
 20
0.0
 30
0.0
  3
A
  1

  0
LINE
  5
19AB
330
19A8
100
AcDbEntity
  8
240
100
AcDbLine
 10
20.78305337357065
 20
25.00000000000003
 30
0.0
 11
0.3000000000004945
 21
24.99999999999997
 31
0.0
  0
ELLIPSE
  5
19AC
330
19A8
100
AcDbEntity
  8
240
100
AcDbEllipse
 10
38.12574305748919
 20
0.0000000000000853
 30
0.0
 11
28.72805639308813
 21
24.92169577734409
 31
-1.000000000000000E-16
210
-1.986187252293613E-18
220
-1.723024829149588E-18
230
-0.9999999999999999
 40
0.0688225898320386
 41
2.308681229043962
 42
3.062424410541775
  0
LINE
  5
19AD
330
19A8
100
AcDbEntity
  8
245
100
AcDbLine
 10
-33.79399999999973
 20
-0.000000000000199
 30
0.0
 11
44.67035821118841
 21
0.0000000000002558
 31
0.0
  0
LINE
  5
19AE
330
19A8
100
AcDbEntity
  8
240
100
AcDbLine
 10
0.0000000000003695
 20
-24.70000000000923
 30
0.0
 11
-0.0000000000003695
 21
24.69999999998217
 31
0.0
  0
LINE
  5
19AF
330
19A8
100
AcDbEntity
  8
245
100
AcDbLine
 10
-13.49999999999923
 20
6.585300982583561
 30
0.0
 11
-13.49999999999969
 21
-6.535064604361451
 31
0.0
  0
LINE
  5
19B0
330
19A8
100
AcDbEntity
  8
241
100
AcDbLine
 10
-1.0901923788646
 20
13.99999999999986
 30
0.0
 11
-1.0901923788646
 21
-14.00000000000014
 31
0.0
  0
LINE
  5
19B1
330
19A8
100
AcDbEntity
  8
240
100
AcDbLine
 10
-30.99999999999975
 20
-13.34115427318821
 30
0.0
 11
-30.99999999999986
 21
13.3411542731877
 31
0.0
  0
SPLINE
  5
19B2
330
19A8
100
AcDbEntity
  8
241
100
AcDbSpline
210
0.0
220
0.0
230
1.0
 70
    11
 71
     3
 72
    70
 73
    66
 74
     0
 42
0.0000000001
 43
0.0000000001
 40
0.0
 40
0.0
 40
0.0
 40
0.0
 40
0.9197496568304652
 40
0.9197496568304652
 40
1.83949931366093
 40
1.83949931366093
 40
2.759248970491396
 40
2.759248970491396
 40
3.678998627321861
 40
3.678998627321861
 40
4.631875395981221
 40
4.631875395981221
 40
5.584752164640583
 40
5.584752164640583
 40
6.537628933299944
 40
6.537628933299944
 40
7.490505701959305
 40
7.490505701959305
 40
8.44338247061866
 40
8.44338247061866
 40
9.39625923927802
 40
9.39625923927802
 40
10.34913600793737
 40
10.34913600793737
 40
11.30201277659673
 40
11.30201277659673
 40
12.2217624334272
 40
12.2217624334272
 40
13.14151209025767
 40
13.14151209025767
 40
14.06126174708813
 40
14.06126174708813
 40
14.9810114039186
 40
14.9810114039186
 40
15.91208227998781
 40
15.91208227998781
 40
16.84315315605702
 40
16.84315315605702
 40
17.77422403212623
 40
17.77422403212623
 40
18.70529490819543
 40
18.70529490819543
 40
19.64673146562238
 40
19.64673146562238
 40
20.58816802304933
 40
20.58816802304933
 40
21.52960458047628
 40
21.52960458047628
 40
22.47104113790322
 40
22.47104113790322
 40
23.41247769533016
 40
23.41247769533016
 40
24.35391425275711
 40
24.35391425275711
 40
25.29535081018405
 40
25.29535081018405
 40
26.236787367611
 40
26.236787367611
 40
27.1678582436802
 40
27.1678582436802
 40
28.09892911974941
 40
28.09892911974941
 40
29.02999999581861
 40
29.02999999581861
 40
29.96107087188781
 40
29.96107087188781
 40
29.96107087188781
 40
29.96107087188781
 10
-13.49999999999986
 20
-4.8132386675708
 30
0.0
 10
-13.19341678105635
 20
-4.8132386675708
 30
0.0
 10
-12.87626085482489
 20
-4.786140626473894
 30
0.0
 10
-12.24440677204055
 20
-4.671798730367555
 30
0.0
 10
-11.92970138435746
 20
-4.584583114443745
 30
0.0
 10
-11.32426227349944
 20
-4.353455323821805
 30
0.0
 10
-11.03306955977714
 20
-4.209379306698139
 30
0.0
 10
-10.49166717234206
 20
-3.875324214317316
 30
0.0
 10
-10.24146009689232
 20
-3.685312193028636
 30
0.0
 10
-9.786846452297112
 20
-3.271009973575388
 30
0.0
 10
-9.56785585213052
 20
-3.030604788970236
 30
0.0
 10
-9.17913298603682
 20
-2.502017360458722
 30
0.0
 10
-9.009375944372977
 20
-2.213831988604425
 30
0.0
 10
-8.734915314548147
 20
-1.607725564508342
 30
0.0
 10
-8.629968121090059
 20
-1.289204275586968
 30
0.0
 10
-8.4915338615792
 20
-0.6441601606742609
 30
0.0
 10
-8.458089842977955
 20
-0.317625589553046
 30
0.0
 10
-8.458089842977955
 20
0.3176255895531028
 30
0.0
 10
-8.4915338615792
 20
0.6441601606743177
 30
0.0
 10
-8.629968121090059
 20
1.289204275587024
 30
0.0
 10
-8.73491531454809
 20
1.607725564508399
 30
0.0
 10
-9.009375944372977
 20
2.213831988604482
 30
0.0
 10
-9.17913298603682
 20
2.502017360458779
 30
0.0
 10
-9.567855852130464
 20
3.030604788970293
 30
0.0
 10
-9.786846452297112
 20
3.271009973575445
 30
0.0
 10
-10.24146009689232
 20
3.685312193028693
 30
0.0
 10
-10.49166717234206
 20
3.875324214317373
 30
0.0
 10
-11.03306955977709
 20
4.209379306698195
 30
0.0
 10
-11.32426227349944
 20
4.353455323821862
 30
0.0
 10
-11.92970138435746
 20
4.584583114443802
 30
0.0
 10
-12.24440677204055
 20
4.671798730367612
 30
0.0
 10
-12.87626085482483
 20
4.786140626474065
 30
0.0
 10
-13.19341678105635
 20
4.813238667570857
 30
0.0
 10
-13.81035695868954
 20
4.813238667570857
 30
0.0
 10
-14.13129234204425
 20
4.785470431102083
 30
0.0
 10
-14.77026933877582
 20
4.668421595239323
 30
0.0
 10
-15.08831874294341
 20
4.579171023034604
 30
0.0
 10
-15.69963276822344
 20
4.342762119793036
 30
0.0
 10
-15.99336985375007
 20
4.195433199442248
 30
0.0
 10
-16.53879695522292
 20
3.853899818125427
 30
0.0
 10
-16.79048375056183
 20
3.659660585884211
 30
0.0
 10
-17.24130660191096
 20
3.241308021639355
 30
0.0
 10
-17.45583231479608
 20
3.001992855304791
 30
0.0
 10
-17.83652384033459
 20
2.476737516738324
 30
0.0
 10
-18.00271248665874
 20
2.190793541029592
 30
0.0
 10
-18.27130233774923
 20
1.590081060246774
 30
0.0
 10
-18.37393747752171
 20
1.274727792168931
 30
0.0
 10
-18.5092620276707
 20
0.6365989058257071
 30
0.0
 10
-18.5419101570217
 20
0.3138121858090415
 30
0.0
 10
-18.5419101570217
 20
-0.3138121858089846
 30
0.0
 10
-18.5092620276707
 20
-0.6365989058256503
 30
0.0
 10
-18.37393747752171
 20
-1.274727792168874
 30
0.0
 10
-18.27130233774923
 20
-1.590081060246717
 30
0.0
 10
-18.00271248665874
 20
-2.190793541029535
 30
0.0
 10
-17.83652384033459
 20
-2.476737516738268
 30
0.0
 10
-17.45583231479602
 20
-3.001992855304735
 30
0.0
 10
-17.24130660191096
 20
-3.241308021639298
 30
0.0
 10
-16.79048375056183
 20
-3.659660585884154
 30
0.0
 10
-16.53879695522286
 20
-3.85389981812537
 30
0.0
 10
-15.99336985375007
 20
-4.195433199442078
 30
0.0
 10
-15.69963276822344
 20
-4.342762119792979
 30
0.0
 10
-15.08831874294341
 20
-4.579171023034547
 30
0.0
 10
-14.77026933877582
 20
-4.668421595239266
 30
0.0
 10
-14.13129234204425
 20
-4.785470431102027
 30
0.0
 10
-13.81035695868954
 20
-4.8132386675708
 30
0.0
 10
-13.49999999999986
 20
-4.8132386675708
 30
0.0
  0
ARC
  5
19B3
330
19A8
100
AcDbEntity
  8
240
100
AcDbCircle
 10
-30.09999999999982
 20
-13.10000000000016
 30
0.0
 40
0.9000000000000088
100
AcDbArc
 50
210.000000000002
 51
280.0000000000018
  0
LINE
  5
19B4
330
19A8
100
AcDbEntity
  8
240
100
AcDbLine
 10
9.6233134324564
 20
-24.99999999999997
 30
0.0
 11
0.3000000000211287
 21
-25.00000000000026
 31
0.0
  0
LINE
  5
19B5
330
19A8
100
AcDbEntity
  8
240
100
AcDbLine
 10
0.3000000000211287
 20
-25.00000000000026
 30
0.0
 11
0.0000000000003695
 21
-24.70000000000923
 31
0.0
  0
LINE
  5
19B6
330
19A8
100
AcDbEntity
  8
240
100
AcDbLine
 10
-26.49999999999997
 20
-14.00000000000014
 30
0.0
 11
-1.090192378864543
 21
-13.99999999998849
 31
0.0
  0
LINE
  5
19B7
330
19A8
100
AcDbEntity
  8
241
100
AcDbLine
 10
-26.49999999999986
 20
-14.00000000000008
 30
0.0
 11
-26.49999999999993
 21
13.99999999999951
 31
0.0
  0
LINE
  5
19B8
330
19A8
100
AcDbEntity
  8
241
100
AcDbLine
 10
-28.45947063619624
 20
-13.72461436121435
 30
0.0
 11
-28.45947063619735
 21
13.72461436121352
 31
0.0
  0
LINE
  5
19B9
330
19A8
100
AcDbEntity
  8
240
100
AcDbLine
 10
-28.45947063619624
 20
-13.72461436121435
 30
0.0
 11
-26.49999999999997
 21
-14.00000000000014
 31
0.0
  0
LINE
  5
19BA
330
19A8
100
AcDbEntity
  8
240
100
AcDbLine
 10
-28.45947063619624
 20
-13.72461436121435
 30
0.0
 11
-29.94371664009961
 21
-13.98632697771123
 31
0.0
  0
CIRCLE
  5
19BB
330
19A8
100
AcDbEntity
  8
241
100
AcDbCircle
 10
-13.49999999999986
 20
0.0000000000000853
 30
0.0
 40
4.0
  0
LINE
  5
19BC
330
19A8
100
AcDbEntity
  8
240
100
AcDbLine
 10
-0.4294095225508557
 20
-13.82294376727853
 30
0.0
 11
-1.0901923788646
 21
-14.00000000000003
 31
0.0
  0
ARC
  5
19BD
330
19A8
100
AcDbEntity
  8
240
100
AcDbCircle
 10
-0.299999999999585
 20
-14.30590668042308
 30
0.0
 40
0.5
100
AcDbArc
 50
53.13011995430183
 51
105.0000176000959
  0
ARC
  5
19BE
330
19A8
100
AcDbEntity
  8
240
100
AcDbCircle
 10
-30.09999999999982
 20
13.09999999999999
 30
0.0
 40
0.9000000000000088
100
AcDbArc
 50
80.0000000000014
 51
149.999999999998
  0
LINE
  5
19BF
330
19A8
100
AcDbEntity
  8
240
100
AcDbLine
 10
-26.5000000000002
 20
13.99999999999986
 30
0.0
 11
-1.090192378864543
 21
13.99999992308002
 31
0.0
  0
LINE
  5
19C0
330
19A8
100
AcDbEntity
  8
240
100
AcDbLine
 10
-28.45947063619624
 20
13.72461436121406
 30
0.0
 11
-26.5000000000002
 21
13.99999999999986
 31
0.0
  0
LINE
  5
19C1
330
19A8
100
AcDbEntity
  8
240
100
AcDbLine
 10
-28.45947063619624
 20
13.72461436121406
 30
0.0
 11
-29.94371664009961
 21
13.98632697771094
 31
0.0
  0
ARC
  5
19C2
330
19A8
100
AcDbEntity
  8
240
100
AcDbCircle
 10
-0.299999999999585
 20
14.30590668042279
 30
0.0
 40
0.5
100
AcDbArc
 50
254.9999823999041
 51
306.8698976458212
  0
LINE
  5
19C3
330
19A8
100
AcDbEntity
  8
240
100
AcDbLine
 10
-0.4294095225508557
 20
13.8229437672783
 30
0.0
 11
-1.090192378864259
 21
13.99999999999986
 31
0.0
  0
LINE
  5
19C4
330
19A8
100
AcDbEntity
  8
240
100
AcDbLine
 10
0.3000000000004945
 20
24.99999999999997
 30
0.0
 11
-0.0000000000003695
 21
24.69999999998217
 31
0.0
  0
SPLINE
  5
19C5
330
19A8
100
AcDbEntity
  8
241
100
AcDbSpline
210
0.0
220
0.0
230
1.0
 70
     8
 71
     3
 72
    55
 73
    51
 74
     0
 42
0.0000000001
 43
0.0000000001
 40
11.23914675258951
 40
11.23914675258951
 40
11.23914675258951
 40
11.23914675258951
 40
11.32990735054052
 40
11.32990735054052
 40
11.87575959334168
 40
11.87575959334168
 40
12.42161183614284
 40
12.42161183614284
 40
12.96746407894399
 40
12.96746407894399
 40
13.72601657608772
 40
13.72601657608772
 40
14.48456907323145
 40
14.48456907323145
 40
15.24312157037518
 40
15.24312157037518
 40
16.00167406751891
 40
16.00167406751891
 40
16.66420806393242
 40
16.66420806393242
 40
17.32674206034592
 40
17.32674206034592
 40
17.71924105835396
 40
17.71924105835396
 40
18.11174005636199
 40
18.11174005636199
 40
18.11174005636199
 40
18.48824434234118
 40
18.48824434234118
 40
18.86474862832038
 40
18.86474862832038
 40
19.61775720027876
 40
19.61775720027876
 40
20.81944521710778
 40
20.81944521710778
 40
21.42028922552229
 40
21.42028922552229
 40
22.0211332339368
 40
22.0211332339368
 40
22.52143497818183
 40
22.52143497818183
 40
23.02173672242686
 40
23.02173672242686
 40
23.52203846667188
 40
23.52203846667188
 40
24.02234021091691
 40
24.02234021091691
 40
24.42094419703142
 40
24.42094419703142
 40
24.72814940386656
 40
24.72814940386656
 40
24.72814940386656
 40
24.72814940386656
 10
38.32040568861927
 20
0.4842347761330644
 30
0.0
 10
38.33416681480967
 20
0.475693038766508
 30
0.0
 10
38.34788365887689
 20
0.4677108829515078
 30
0.0
 10
38.44375375646647
 20
0.4157396710928368
 30
0.0
 10
38.52419368431564
 20
0.392232512028869
 30
0.0
 10
38.67984214866684
 20
0.3881753904103391
 30
0.0
 10
38.75527753309123
 20
0.4075945196185842
 30
0.0
 10
38.89958713154297
 20
0.4824008017036761
 30
0.0
 10
38.96849278303628
 20
0.5377355980776031
 30
0.0
 10
39.12241615902658
 20
0.6961431504014683
 30
0.0
 10
39.21075326826283
 20
0.8168909479151977
 30
0.0
 10
39.38370020055007
 20
1.105227785489063
 30
0.0
 10
39.46833435971294
 20
1.272769848413048
 30
0.0
 10
39.63087337784268
 20
1.640359888059691
 30
0.0
 10
39.70883362217407
 20
1.840468980098563
 30
0.0
 10
39.85311395111537
 20
2.257105269721392
 30
0.0
 10
39.91943190418865
 20
2.473614507109715
 30
0.0
 10
40.02608987251827
 20
2.878297938320343
 30
0.0
 10
40.07541976434342
 20
3.092179872690707
 30
0.0
 10
40.14914318437869
 20
3.533895375459934
 30
0.0
 10
40.17333290372099
 20
3.761722929472767
 30
0.0
 10
40.17134733290347
 20
4.103118005329207
 30
0.0
 10
40.16143806971794
 20
4.243777004741815
 30
0.0
 10
40.10548132333323
 20
4.51772687216183
 30
0.0
 10
40.05832421809154
 20
4.650841124037498
 30
0.0
 10
39.993759035566
 20
4.764178965787692
 30
0.0
 10
39.93182494638549
 20
4.872898181375802
 30
0.0
 10
39.85348373636382
 20
4.966494046669509
 30
0.0
 10
39.67316453894651
 20
5.123615442195074
 30
0.0
 10
39.57135414504765
 20
5.187355067537424
 30
0.0
 10
39.25042590298929
 20
5.342281326643643
 30
0.0
 10
39.0158410920927
 20
5.398384230661321
 30
0.0
 10
38.47219264209357
 20
5.481391660738239
 30
0.0
 10
38.12591750547225
 20
5.482824798382608
 30
0.0
 10
37.65558428611436
 20
5.434400059456038
 30
0.0
 10
37.50677763849549
 20
5.409522864142388
 30
0.0
 10
37.23355144011126
 20
5.344827318608281
 30
0.0
 10
37.10915441141449
 20
5.304958666596633
 30
0.0
 10
36.90842642071308
 20
5.221346258917776
 30
0.0
 10
36.82026504409444
 20
5.176345488948385
 30
0.0
 10
36.6596985627107
 20
5.071409645454622
 30
0.0
 10
36.58731187003449
 20
5.01145542296021
 30
0.0
 10
36.46480429903275
 20
4.876966666638367
 30
0.0
 10
36.41464448011274
 20
4.802341738358478
 30
0.0
 10
36.33922680287631
 20
4.640564947163483
 30
0.0
 10
36.31397087508665
 20
4.553374425593318
 30
0.0
 10
36.28947798507912
 20
4.389759960481541
 30
0.0
 10
36.28522093470067
 20
4.309471018816878
 30
0.0
 10
36.291864965896
 20
4.155424704169689
 30
0.0
 10
36.29947998665946
 20
4.084394052307487
 30
0.0
 10
36.31179219037099
 20
4.010158654868376
 30
0.0
  0
LINE
  5
19C6
330
19A8
100
AcDbEntity
  8
241
100
AcDbLine
 10
36.31179219037099
 20
4.010158654868376
 30
0.0
 11
26.40991512934053
 21
21.39193210418361
 31
0.0
  0
ELLIPSE
  5
19C7
330
19A8
100
AcDbEntity
  8
240
100
AcDbEllipse
 10
45.02476869618519
 20
4.181295638670889
 30
0.0
 11
-6.13586004486084
 21
-5.38757383724252
 31
0.0
210
0.0
220
0.0
230
-0.9999999999999999
 40
0.1023648716893623
 41
0.3156070115315561
 42
1.450071025350525
  0
ELLIPSE
  5
19C8
330
19A8
100
AcDbEntity
  8
241
100
AcDbEllipse
 10
42.3820153731796
 20
0.0000000000000853
 30
0.0
 11
14.62323778248912
 21
-24.70819855364968
 31
8.000000000000000E-16
210
1.419156309140928E-17
220
-2.397881808836325E-17
230
-1.0
 40
0.2604439001962502
 41
1.815468590000027
 42
2.750591307394419
  0
ELLIPSE
  5
19C9
330
19A8
100
AcDbEntity
  8
241
100
AcDbEllipse
 10
37.62570707234025
 20
2.660282208750288
 30
0.0
 11
1.147801914842254
 21
-2.263022100622895
 31
0.0
210
0.0
220
0.0
230
-1.0
 40
0.3134701006064135
 41
0.476385538929183
 42
2.358404975512817
  0
ELLIPSE
  5
19CA
330
19A8
100
AcDbEntity
  8
241
100
AcDbEllipse
 10
17.68483121528308
 20
45.829823908988
 30
0.0
 11
23.5992971258625
 21
-46.79658541043254
 31
2.000000000000000E-16
210
1.718282462912124E-18
220
-3.407294361610222E-18
230
-1.0
 40
0.2873099708406948
 41
0.173903573668862
 42
0.3661591935704938
  0
ELLIPSE
  5
19CB
330
19A8
100
AcDbEntity
  8
240
100
AcDbEllipse
 10
-501.1790208262
 20
-473.0340281324997
 30
0.0
 11
-578.2270448306921
 21
-507.9015419773335
 31
4.000000000000000E-16
210
-3.904891457552402E-19
220
-3.429968228355184E-19
230
-1.0
 40
0.0067859900805466
 41
3.514314713960945
 42
3.595259136913497
  0
LINE
  5
19CC
330
19A8
100
AcDbEntity
  8
241
100
AcDbLine
 10
34.9059321842789
 20
-0.2921542941906239
 30
0.0
 11
23.74501529619843
 21
-11.4530711822712
 31
0.0
  0
SPLINE
  5
19CD
330
19A8
100
AcDbEntity
  8
241
100
AcDbSpline
210
0.0
220
0.0
230
1.0
 70
     8
 71
     3
 72
    18
 73
    14
 74
     0
 42
0.0000000001
 43
0.0000000001
 40
0.0
 40
0.0
 40
0.0
 40
0.0
 40
2.15070872064106
 40
2.15070872064106
 40
4.301417441282121
 40
4.301417441282121
 40
6.452126161923182
 40
6.452126161923182
 40
8.602834882564244
 40
8.602834882564244
 40
10.7535436032053
 40
10.7535436032053
 40
12.30809539792993
 40
12.30809539792993
 40
12.30809539792993
 40
12.30809539792993
 10
28.86377856125219
 20
-0.0000000000000284
 30
0.0
 10
28.61646081140506
 20
-0.6728920481801027
 30
0.0
 10
28.3642815487415
 20
-1.359196423806821
 30
0.0
 10
27.84669065794484
 20
-2.743184621715641
 30
0.0
 10
27.58125270791075
 20
-3.440858168051619
 30
0.0
 10
27.03252032507683
 20
-4.832034582036641
 30
0.0
 10
26.74917326446618
 20
-5.525595621768189
 30
0.0
 10
26.15958959669101
 20
-6.893615806752706
 30
0.0
 10
25.85332496614583
 20
-7.568064171812039
 30
0.0
 10
25.21328909168929
 20
-8.883903000315087
 30
0.0
 10
24.87918920008818
 20
-9.525905982656724
 30
0.0
 10
24.2762360047993
 20
-10.59374226211369
 30
0.0
 10
24.01497368286201
 20
-11.0301905980921
 30
0.0
 10
23.74501529619843
 20
-11.4530711822712
 30
0.0
  0
SPLINE
  5
19CE
330
19A8
100
AcDbEntity
  8
241
100
AcDbSpline
210
0.0
220
0.0
230
1.0
 70
     8
 71
     3
 72
    16
 73
    12
 74
     0
 42
0.0000000001
 43
0.0000000001
 40
57.97127990683277
 40
57.97127990683277
 40
57.97127990683277
 40
57.97127990683277
 40
58.11267663434479
 40
58.11267663434479
 40
61.04279575562586
 40
61.04279575562586
 40
63.97291487690694
 40
63.97291487690694
 40
66.90303399818801
 40
66.90303399818801
 40
67.04179041120761
 40
67.04179041120761
 40
67.04179041120761
 40
67.04179041120761
 10
23.74501529619843
 20
-11.4530711822712
 30
0.0
 10
23.72064040857842
 20
-11.49125361047234
 30
0.0
 10
23.69634468071868
 20
-11.52941312832493
 30
0.0
 10
23.17030344982234
 20
-12.35781819232173
 30
0.0
 10
22.70281997470212
 20
-13.13778182913407
 30
0.0
 10
21.84013772666313
 20
-14.657055972824
 30
0.0
 10
21.44481562841022
 20
-15.39649075132629
 30
0.0
 10
20.72526675227269
 20
-16.81578543248295
 30
0.0
 10
20.40098876082769
 20
-17.49561642034885
 30
0.0
 10
20.09612903437986
 20
-18.16765797454482
 30
0.0
 10
20.0823989175735
 20
-18.19800328359523
 30
0.0
 10
20.06872311776366
 20
-18.22830628119757
 30
0.0
  0
SPLINE
  5
19CF
330
19A8
100
AcDbEntity
  8
241
100
AcDbSpline
210
0.0
220
0.0
230
1.0
 70
     8
 71
     3
 72
     8
 73
     4
 74
     0
 42
0.0000000001
 43
0.0000000001
 40
62.4289832353816
 40
62.4289832353816
 40
62.4289832353816
 40
62.4289832353816
 40
66.69806152894655
 40
66.69806152894655
 40
66.69806152894655
 40
66.69806152894655
 10
32.59626467394864
 20
2.290170891985525
 30
0.0
 10
31.32736404363269
 20
1.509025320665813
 30
0.0
 10
30.07723029041299
 20
0.7433291169954545
 30
0.0
 10
28.86377856125219
 20
-0.0000000000000284
 30
0.0
  0
ELLIPSE
  5
19D0
330
19A8
100
AcDbEntity
  8
241
100
AcDbEllipse
 10
33.18382208737935
 20
4.320043526127136
 30
0.0
 11
2.35992971258625
 21
-4.679658541043252
 31
2.000000000000000E-16
210
1.718282462912126E-17
220
-3.407294361610222E-17
230
-1.0
 40
0.2873099708406949
 41
0.3661591935704929
 42
1.270985791217181
  0
LINE
  5
19D1
330
19A8
100
AcDbEntity
  8
241
100
AcDbLine
 10
39.02078866070715
 20
-0.7452187985332728
 30
0.0
 11
38.32040568861922
 21
0.4842347761330644
 31
0.0
  0
LINE
  5
19D2
330
19A8
100
AcDbEntity
  8
240
100
AcDbLine
 10
38.60178851710046
 20
-1.434107745682382
 30
0.0
 11
39.02078866070755
 21
-0.7452187985325338
 31
0.0
  0
LINE
  5
19D3
330
19A8
100
AcDbEntity
  8
240
100
AcDbLine
 10
52.09009049340139
 20
38.28046862026159
 30
0.0
 11
60.12762547452559
 21
36.34220654670466
 31
0.0
  0
LINE
  5
19D4
330
19A8
100
AcDbEntity
  8
240
100
AcDbLine
 10
43.73832894587948
 20
4.155982893993694
 30
0.0
 11
64.65829781691275
 21
22.98985664052684
 31
0.0
  0
ELLIPSE
  5
19D5
330
19A8
100
AcDbEntity
  8
241
100
AcDbEllipse
 10
38.89371337972594
 20
25.73955233316699
 30
0.0
 11
0.03938492305542029
 21
-2.001613387627222
 31
0.0
210
0.0
220
0.0
230
-0.9999999999999999
 40
0.9869811297838275
 41
1.169409943361268
 42
4.3110025967213
  0
LINE
  5
19D6
330
19A8
100
AcDbEntity
  8
241
100
AcDbLine
 10
43.73832894587948
 20
4.155982893993808
 30
0.0
 11
30.56104261147678
 21
27.28741588691193
 31
0.0
  0
SPLINE
  5
19D7
330
19A8
100
AcDbEntity
  8
241
100
AcDbSpline
210
0.0
220
0.0
230
1.0
 70
     8
 71
     3
 72
    14
 73
    10
 74
     0
 42
0.0000000001
 43
0.0000000001
 40
69.45772560950552
 40
69.45772560950552
 40
69.45772560950552
 40
69.45772560950552
 40
72.67957420463478
 40
72.67957420463478
 40
74.67590241256151
 40
74.67590241256151
 40
76.67223062048825
 40
76.67223062048825
 40
78.48148572514147
 40
78.48148572514147
 40
78.48148572514147
 40
78.48148572514147
 10
32.93387182512848
 20
28.75139813879158
 30
0.0
 10
31.89847637039802
 20
28.22938295101901
 30
0.0
 10
30.8781723993541
 20
27.70137198778864
 30
0.0
 10
29.28296133951497
 20
26.84119848024918
 30
0.0
 10
28.68634554365971
 20
26.51094126033636
 30
0.0
 10
27.53146610741808
 20
25.84758224671461
 30
0.0
 10
26.97310125243954
 20
25.51455582077344
 30
0.0
 10
25.95890649853996
 20
24.87401009751144
 30
0.0
 10
25.46625139061965
 20
24.54660965207992
 30
0.0
 10
25.00923599097777
 20
24.21160947317659
 30
0.0
  0
SPLINE
  5
19D8
330
19A8
100
AcDbEntity
  8
241
100
AcDbSpline
210
0.0
220
0.0
230
1.0
 70
     8
 71
     3
 72
    24
 73
    20
 74
     0
 42
0.0000000001
 43
0.0000000001
 40
1.500792326635606
 40
1.500792326635606
 40
1.500792326635606
 40
1.500792326635606
 40
1.928306520334009
 40
1.928306520334009
 40
2.571075360445346
 40
2.571075360445346
 40
3.372453996995911
 40
3.372453996995911
 40
4.173832633546477
 40
4.173832633546477
 40
4.975211270097043
 40
4.975211270097043
 40
5.776589906647608
 40
5.776589906647608
 40
7.463798202761083
 40
7.463798202761083
 40
9.151006498874558
 40
9.151006498874558
 40
9.677810450091068
 40
9.677810450091068
 40
9.677810450091068
 40
9.677810450091068
 10
30.56104261147678
 20
27.28741588691193
 30
0.0
 10
30.42492976174631
 20
27.22353925675335
 30
0.0
 10
30.29348952239028
 20
27.1513094302097
 30
0.0
 10
29.97947433869697
 20
26.95605114147654
 30
0.0
 10
29.80445668108584
 20
26.8257583391331
 30
0.0
 10
29.4477219158189
 20
26.52814631155204
 30
0.0
 10
29.25634609176362
 20
26.34406221307617
 30
0.0
 10
28.89190761221957
 20
25.95459174537515
 30
0.0
 10
28.71875699992981
 20
25.7492977707486
 30
0.0
 10
28.39365911676205
 20
25.33435470724632
 30
0.0
 10
28.24163429169303
 20
25.12466222069506
 30
0.0
 10
27.96099337310719
 20
24.71583213757455
 30
0.0
 10
27.83237831120564
 20
24.51669664141204
 30
0.0
 10
27.47201469548972
 20
23.93433695782036
 30
0.0
 10
27.25076190447587
 20
23.53822097390557
 30
0.0
 10
26.87122609006318
 20
22.79172953306531
 30
0.0
 10
26.71297721043712
 20
22.44136513350563
 30
0.0
 10
26.55510017974419
 20
22.03462802803412
 30
0.0
 10
26.52118972670249
 20
21.94167316232389
 30
0.0
 10
26.49108214652827
 20
21.85294077254056
 30
0.0
  0
LINE
  5
19D9
330
19A8
100
AcDbEntity
  8
240
100
AcDbLine
 10
25.00923599097794
 20
25.93692212963353
 30
0.0
 11
51.01386089615627
 21
38.06307787036664
 31
0.0
  0
LINE
  5
19DA
330
19A8
100
AcDbEntity
  8
241
100
AcDbLine
 10
37.09056286282581
 20
24.92174954401546
 30
0.0
 11
37.46197783689334
 21
25.12522485776455
 31
0.0
  0
LINE
  5
19DB
330
19A8
100
AcDbEntity
  8
241
100
AcDbLine
 10
37.09056286282586
 20
24.92174954401546
 30
0.0
 11
42.33792279156571
 21
13.0559203994928
 31
0.0
  0
LINE
  5
19DC
330
19A8
100
AcDbEntity
  8
241
100
AcDbLine
 10
20.78305337357077
 20
21.85294077254045
 30
0.0
 11
26.49108214652827
 21
21.85294077254056
 31
0.0
  0
LINE
  5
19DD
330
19A8
100
AcDbEntity
  8
241
100
AcDbLine
 10
25.00923599097755
 20
24.21160947317671
 30
0.0
 11
25.00923599097755
 21
25.93692212963444
 31
0.0
  0
ARC
  5
19DE
330
19A8
100
AcDbEntity
  8
240
100
AcDbCircle
 10
20.78305337357077
 20
34.99999999999997
 30
0.0
 40
10.0
100
AcDbArc
 50
270.0
 51
294.9999999999997
  0
SPLINE
  5
19DF
330
19A8
100
AcDbEntity
  8
241
100
AcDbSpline
210
0.0
220
0.0
230
1.0
 70
     8
 71
     3
 72
    10
 73
     6
 74
     0
 42
0.0000000001
 43
0.0000000001
 40
-5.545464491412141
 40
-5.545464491412141
 40
-5.545464491412141
 40
-5.545464491412141
 40
0.0
 40
0.0
 40
0.01926150377036
 40
0.01926150377036
 40
0.01926150377036
 40
0.01926150377036
 10
25.00923599097777
 20
24.21160947317659
 30
0.0
 10
23.66345367806574
 20
23.22512780112831
 30
0.0
 10
22.20956996214622
 20
22.43983467664358
 30
0.0
 10
20.79286085266753
 20
21.85696902909009
 30
0.0
 10
20.78795711240562
 20
21.85495377447145
 30
0.0
 10
20.78305337357083
 20
21.85294077254045
 30
0.0
  0
LINE
  5
19E0
330
19A8
100
AcDbEntity
  8
241
100
AcDbLine
 10
20.78305337357077
 20
24.99999999999997
 30
0.0
 11
20.78305337357083
 21
21.85294077254045
 31
0.0
  0
SPLINE
  5
19E1
330
19A8
100
AcDbEntity
  8
241
100
AcDbSpline
210
0.0
220
0.0
230
1.0
 70
     8
 71
     3
 72
     8
 73
     4
 74
     0
 42
0.0000000001
 43
0.0000000001
 40
37.65128591232425
 40
37.65128591232425
 40
37.65128591232425
 40
37.65128591232425
 40
38.54121907402611
 40
38.54121907402611
 40
38.54121907402611
 40
38.54121907402611
 10
26.49108214652827
 20
21.85294077254056
 30
0.0
 10
26.44119947274376
 20
21.70592766726665
 30
0.0
 10
26.41455828317979
 20
21.5515692941145
 30
0.0
 10
26.40991512934059
 20
21.39193210418418
 30
0.0
  0
LINE
  5
19E2
330
19A8
100
AcDbEntity
  8
241
100
AcDbLine
 10
37.46197783689334
 20
25.12522485776455
 30
0.0
 11
42.70933776673783
 21
13.25939571384705
 31
0.0
  0
ELLIPSE
  5
19E3
330
19A8
100
AcDbEntity
  8
241
100
AcDbEllipse
 10
44.14107330981065
 20
13.87372318925438
 30
0.0
 11
-0.0393849230847957
 21
2.001613389120137
 31
0.0
210
0.0
220
0.0
230
0.9999999999999998
 40
0.9869811297838277
 41
1.972182710228577
 42
5.100896882169307
  0
SPLINE
  5
19E4
330
19A8
100
AcDbEntity
  8
241
100
AcDbSpline
210
0.0
220
0.0
230
1.0
 70
     8
 71
     3
 72
    26
 73
    22
 74
     0
 42
0.0000000001
 43
0.0000000001
 40
-3.178695967227648
 40
-3.178695967227648
 40
-3.178695967227648
 40
-3.178695967227648
 40
-2.907375854331993
 40
-2.907375854331993
 40
-2.636055741436337
 40
-2.636055741436337
 40
-2.361694902677773
 40
-2.361694902677773
 40
-2.087334063919209
 40
-2.087334063919209
 40
-1.575042269110878
 40
-1.575042269110878
 40
-1.062750474302545
 40
-1.062750474302545
 40
-0.7241310139435573
 40
-0.7241310139435573
 40
-0.3855115535845686
 40
-0.3855115535845686
 40
-0.1927557767922847
 40
-0.1927557767922847
 40
0.0
 40
0.0
 40
0.0
 40
0.0
 10
42.709337766738
 20
13.25939571384705
 30
0.0
 10
42.74584326131665
 20
13.17684601890025
 30
0.0
 10
42.79638809500053
 20
13.09294863304987
 30
0.0
 10
42.91782740785649
 20
12.94515737513492
 30
0.0
 10
42.98869762074511
 20
12.88124758766227
 30
0.0
 10
43.1308499808139
 20
12.78285120287259
 30
0.0
 10
43.21395194868827
 20
12.74050738212119
 30
0.0
 10
43.38547105514968
 20
12.68395249944475
 30
0.0
 10
43.47384879968129
 20
12.66968543035759
 30
0.0
 10
43.70432478342073
 20
12.66351246176427
 30
0.0
 10
43.85769349939917
 20
12.70027047900689
 30
0.0
 10
44.12158871210599
 20
12.84667461496221
 30
0.0
 10
44.23193867576086
 20
12.95616258996548
 30
0.0
 10
44.35822253043451
 20
13.16128865080085
 30
0.0
 10
44.39964688943186
 20
13.25913022425786
 30
0.0
 10
44.44844137483542
 20
13.46860781966003
 30
0.0
 10
44.45590229657031
 20
13.58023245461308
 30
0.0
 10
44.44302905927466
 20
13.74777234539121
 30
0.0
 10
44.43257562500233
 20
13.81506064532593
 30
0.0
 10
44.39898653158431
 20
13.94844050639401
 30
0.0
 10
44.37581606300139
 20
14.0145707490677
 30
0.0
 10
44.38945625105176
 20
13.97113154158333
 30
0.0
  0
LINE
  5
19E5
330
19A8
100
AcDbEntity
  8
241
100
AcDbLine
 10
42.33792279156571
 20
13.0559203994928
 30
0.0
 11
42.70933776673806
 21
13.25939571384705
 31
0.0
  0
ELLIPSE
  5
19E6
330
19A8
100
AcDbEntity
  8
241
100
AcDbEllipse
 10
43.24016054864242
 20
13.66061103193655
 30
0.0
 11
0.0196727801391623
 21
-0.9998064721342808
 31
0.0
210
0.0
220
0.0
230
1.0
 40
0.9869811297632393
 41
0.1752483309720243
 42
1.78012658304253
  0
LINE
  5
19E7
330
19A8
100
AcDbEntity
  8
241
100
AcDbLine
 10
39.10252128855749
 20
25.93904622923921
 30
0.0
 11
38.89347482893303
 21
25.93493290815795
 31
0.0
  0
LINE
  5
19E8
330
19A8
100
AcDbEntity
  8
241
100
AcDbLine
 10
40.69686389644042
 20
26.55735512273836
 30
0.0
 11
39.10252128855731
 21
25.93904622923955
 31
0.0
  0
ELLIPSE
  5
19E9
330
19A8
100
AcDbEntity
  8
241
100
AcDbEllipse
 10
37.99280061879793
 20
25.52644017585405
 30
0.0
 11
-0.0196727801391623
 21
0.9998064721342808
 31
0.0
210
0.0
220
0.0
230
-1.0
 40
0.9869811297632393
 41
0.1471299228235329
 42
1.169409942814058
  0
SPLINE
  5
19EA
330
19A8
100
AcDbEntity
  8
241
100
AcDbSpline
210
0.0
220
0.0
230
1.0
 70
     8
 71
     3
 72
    26
 73
    22
 74
     0
 42
0.0000000001
 43
0.0000000001
 40
0.0
 40
0.0
 40
0.0
 40
0.0
 40
0.1927557767922319
 40
0.1927557767922319
 40
0.3855115535844637
 40
0.3855115535844637
 40
0.7241310139431771
 40
0.7241310139431771
 40
1.06275047430189
 40
1.06275047430189
 40
1.575042269109956
 40
1.575042269109956
 40
2.087334063918023
 40
2.087334063918023
 40
2.361694902676528
 40
2.361694902676528
 40
2.636055741435033
 40
2.636055741435033
 40
2.907375854330643
 40
2.907375854330643
 40
3.178695967226253
 40
3.178695967226253
 40
3.178695967226253
 40
3.178695967226253
 10
39.10252128855737
 20
25.93904622923955
 30
0.0
 10
39.07658644395761
 20
25.99769256549391
 30
0.0
 10
39.04364494080031
 20
26.0584480479275
 30
0.0
 10
38.96910765729413
 20
26.16957383001827
 30
0.0
 10
38.92749199051585
 20
26.22002913162848
 30
0.0
 10
38.81555941131731
 20
26.33471201849213
 30
0.0
 10
38.73083854312719
 20
26.39779491962619
 30
0.0
 10
38.54932711190477
 20
26.4884294996119
 30
0.0
 10
38.45248281212921
 20
26.51590876505927
 30
0.0
 10
38.22379764834798
 20
26.54234227974948
 30
0.0
 10
38.07380688596007
 20
26.5224938475229
 30
0.0
 10
37.79786879913994
 20
26.40332220343836
 30
0.0
 10
37.67217523092941
 20
26.30398251096548
 30
0.0
 10
37.52768578317799
 20
26.11571454957672
 30
0.0
 10
37.480882939233
 20
26.03596850089966
 30
0.0
 10
37.41099937101095
 20
25.86269544194053
 30
0.0
 10
37.38798874028495
 20
25.76915501820165
 30
0.0
 10
37.36752929712847
 20
25.59236780983017
 30
0.0
 10
37.36814241649231
 20
25.49463269043824
 30
0.0
 10
37.39709949836996
 20
25.30233332227974
 30
0.0
 10
37.42547234231469
 20
25.20777455271147
 30
0.0
 10
37.46197783689334
 20
25.12522485776455
 30
0.0
  0
SPLINE
  5
19EB
330
19A8
100
AcDbEntity
  8
241
100
AcDbSpline
210
0.0
220
0.0
230
1.0
 70
    12
 71
     2
 72
     6
 73
     3
 74
     0
 42
0.0000000001
 43
0.0000000001
 40
7.517113594869236
 40
7.517113594869236
 40
7.517113594869236
 40
24.31904279817899
 40
24.31904279817899
 40
24.31904279817899
 10
51.0138608961557
 20
37.83104294784491
 30
0.0
 41
1.020729028047385
 10
40.73913919968467
 20
32.82300217999065
 30
0.0
 41
1.040637876298435
 10
32.93387182512848
 20
28.75139813879153
 30
0.0
 41
1.045984819618886
  0
ELLIPSE
  5
19EC
330
19A8
100
AcDbEntity
  8
241
100
AcDbEllipse
 10
-27.42884221617337
 20
30.5941170815565
 30
0.0
 11
61.37784209230203
 21
-0.0329322965547914
 31
-6.000000000000000E-16
210
-9.775511924418055E-18
220
5.245053372611340E-21
230
-1.0
 40
0.1629243621502187
 41
0.1820377836537472
 42
0.3337203143647675
  0
LINE
  5
19ED
330
19A8
100
AcDbEntity
  8
241
100
AcDbLine
 10
51.0138608961557
 20
38.06307787036778
 30
0.0
 11
51.0138608961557
 21
37.83104294784491
 31
0.0
  0
SPLINE
  5
19EE
330
19A8
100
AcDbEntity
  8
241
100
AcDbSpline
210
0.0
220
0.0
230
1.0
 70
     8
 71
     3
 72
    10
 73
     6
 74
     0
 42
0.0000000001
 43
0.0000000001
 40
3.047929000899146
 40
3.047929000899146
 40
3.047929000899146
 40
3.047929000899146
 40
3.753390487475489
 40
3.753390487475489
 40
4.197971233560203
 40
4.197971233560203
 40
4.197971233560203
 40
4.197971233560203
 10
52.09009049340145
 20
38.28046862026153
 30
0.0
 10
51.85854812825144
 20
38.19921074004421
 30
0.0
 10
51.63459322594062
 20
38.11099265167817
 30
0.0
 10
51.28679878864168
 20
37.96023336603011
 30
0.0
 10
51.1506687312939
 20
37.89772496960413
 30
0.0
 10
51.0138608961557
 20
37.83104294784491
 30
0.0
  0
ARC
  5
19EF
330
19A8
100
AcDbEntity
  8
240
100
AcDbCircle
 10
55.24004351356345
 20
29.0000000000002
 30
0.0
 40
10.0
100
AcDbArc
 50
112.1742253980568
 51
114.9999999999997
  0
SPLINE
  5
19F0
330
19A8
100
AcDbEntity
  8
240
100
AcDbSpline
210
0.0
220
0.0
230
1.0
 70
     8
 71
     3
 72
    12
 73
     8
 74
     0
 42
0.0000000001
 43
0.0000000001
 40
29.05241203777369
 40
29.05241203777369
 40
29.05241203777369
 40
29.05241203777369
 40
29.69465745972699
 40
29.69465745972699
 40
31.87707525110073
 40
31.87707525110073
 40
32.84010769203954
 40
32.84010769203954
 40
32.84010769203954
 40
32.84010769203954
 10
51.46580107181282
 20
38.26040463429601
 30
0.0
 10
51.48031304785494
 20
38.26630653158915
 30
0.0
 10
51.49803345935518
 20
38.27152082838299
 30
0.0
 10
51.5910398141585
 20
38.29109824043414
 30
0.0
 10
51.70239508672134
 20
38.29743099434617
 30
0.0
 10
51.9266708812265
 20
38.29092325235283
 30
0.0
 10
52.00392923326908
 20
38.28682491818378
 30
0.0
 10
52.09009049340145
 20
38.28046862026153
 30
0.0
  0
LINE
  5
19F1
330
19A8
100
AcDbEntity
  8
241
100
AcDbLine
 10
60.46139852686278
 20
36.64273715290671
 30
0.0
 11
53.86679047132921
 21
30.70492538914519
 31
0.0
  0
LINE
  5
19F2
330
19A8
100
AcDbEntity
  8
241
100
AcDbLine
 10
74.37996084347537
 20
33.77949605182818
 30
0.0
 11
61.17666385542498
 21
36.82771734435298
 31
0.0
  0
ARC
  5
19F3
330
19A8
100
AcDbEntity
  8
241
100
AcDbCircle
 10
60.99670301194987
 20
36.0482212925248
 30
0.0
 40
0.8
100
AcDbArc
 50
77.00000000000016
 51
131.9999999999999
  0
LINE
  5
19F4
330
19A8
100
AcDbEntity
  8
241
100
AcDbLine
 10
64.66524774738005
 20
23.33836432667772
 30
0.0
 11
74.73530448508737
 21
32.4054841396181
 31
0.0
  0
ARC
  5
19F5
330
19A8
100
AcDbEntity
  8
241
100
AcDbCircle
 10
64.12994326229295
 20
23.93288018705963
 30
0.0
 40
0.8
100
AcDbArc
 50
257.0000000000002
 51
312.0
  0
ARC
  5
19F6
330
19A8
100
AcDbEntity
  8
241
100
AcDbCircle
 10
74.20000000000027
 20
33.0
 30
0.0
 40
0.8
100
AcDbArc
 50
312.0
 51
77.00000000000016
  0
LINE
  5
19F7
330
19A8
100
AcDbEntity
  8
241
100
AcDbLine
 10
63.94998241881785
 20
23.15338413523142
 30
0.0
 11
60.05945677164874
 21
24.05158275392094
 31
0.0
  0
ELLIPSE
  5
19F8
330
19A8
100
AcDbEntity
  8
241
100
AcDbEllipse
 10
57.58447663219811
 20
18.81155196853029
 30
0.0
 11
5.903051874081473
 21
8.269491369722147
 31
2.000000000000001E-16
210
-1.143664200550976E-17
220
-1.602140966750031E-17
230
1.0
 40
0.4037139783256398
 41
0.6393802294230339
 42
1.337511930220766
  0
ARC
  5
19F9
330
19A8
100
AcDbEntity
  8
240
100
AcDbCircle
 10
62.01895763959573
 20
28.93542707773969
 30
0.0
 40
1.999999999999999
100
AcDbArc
 50
301.4338679304402
 51
358.1669161103825
  0
ARC
  5
19FA
330
19A8
100
AcDbEntity
  8
241
100
AcDbCircle
 10
46.48868485967142
 20
22.02090414545043
 30
0.0
 40
4.499999999999998
100
AcDbArc
 50
114.0000000000002
 51
294.0000000000002
  0
ARC
  5
19FB
330
19A8
100
AcDbEntity
  8
241
100
AcDbCircle
 10
47.402230317314
 20
22.42764078852622
 30
0.0
 40
4.500000000000005
100
AcDbArc
 50
293.9999823999059
 51
114.0000000000144
  0
LINE
  5
19FC
330
19A8
100
AcDbEntity
  8
240
100
AcDbLine
 10
38.06018344079428
 20
23.74147493213289
 30
0.0
 11
42.12754987155233
 21
14.60602035570687
 31
0.0
  0
ARC
  5
19FD
330
19A8
100
AcDbEntity
  8
241
100
AcDbCircle
 10
46.48868485967153
 20
22.0209041454504
 30
0.0
 40
2.75
100
AcDbArc
 50
114.0000000000002
 51
294.0000000000002
  0
ARC
  5
19FE
330
19A8
100
AcDbEntity
  8
241
100
AcDbCircle
 10
47.40223031731415
 20
22.42764078852622
 30
0.0
 40
2.75
100
AcDbArc
 50
294.0000000000002
 51
114.0000000000002
  0
LINE
  5
19FF
330
19A8
100
AcDbEntity
  8
240
100
AcDbLine
 10
44.10797302262994
 20
13.84580713385668
 30
0.0
 11
54.16746318349533
 21
18.32458071305302
 31
0.0
  0
ARC
  5
1A00
330
19A8
100
AcDbEntity
  8
240
100
AcDbCircle
 10
43.49786805801625
 20
15.21612532032057
 30
0.0
 40
1.499999999999999
100
AcDbArc
 50
204.0000000000002
 51
294.0000000000002
  0
LINE
  5
1A01
330
19A8
100
AcDbEntity
  8
240
100
AcDbLine
 10
58.9755662176076
 20
22.95451627150334
 30
0.0
 11
56.27723049170356
 21
19.85043610034756
 31
0.0
  0
LINE
  5
1A02
330
19A8
100
AcDbEntity
  8
241
100
AcDbLine
 10
51.03296672273251
 20
17.67183993476141
 30
0.0
 11
55.70103291905542
 21
23.04183580982763
 31
0.0
  0
SPLINE
  5
1A03
330
19A8
100
AcDbEntity
  8
241
100
AcDbSpline
210
0.0
220
0.0
230
1.0
 70
     8
 71
     3
 72
    14
 73
    10
 74
     0
 42
0.0000000001
 43
0.0000000001
 40
0.0000000000000044
 40
0.0000000000000044
 40
0.0000000000000044
 40
0.0000000000000044
 40
0.1660878157424792
 40
0.1660878157424792
 40
0.4318283209304389
 40
0.4318283209304389
 40
0.8570131292311742
 40
0.8570131292311742
 40
1.328702525939802
 40
1.328702525939802
 40
1.328702525939802
 40
1.328702525939802
 10
50.83229595095952
 20
17.42619505318103
 30
0.0
 10
50.79289569892899
 20
17.36524572025388
 30
0.0
 10
50.75229031638588
 20
17.30498528638008
 30
0.0
 10
50.64330781358126
 20
17.15144251840541
 30
0.0
 10
50.57286531314758
 20
17.06007066840172
 30
0.0
 10
50.38078696161616
 20
16.83557431102627
 30
0.0
 10
50.25443641225661
 20
16.71097049274652
 30
0.0
 10
49.96691172377734
 20
16.48185755054601
 30
0.0
 10
49.80365753083763
 20
16.38168925937887
 30
0.0
 10
49.63152669680457
 20
16.30505167444127
 30
0.0
  0
ELLIPSE
  5
1A04
330
19A8
100
AcDbEntity
  8
241
100
AcDbEllipse
 10
51.53695966569813
 20
17.89623205016278
 30
0.0
 11
-0.9130458933947533
 21
-0.90804636565542
 31
0.0
210
0.0
220
0.0
230
0.9999999999999999
 40
0.1663516538736144
 41
5.124331411341764
 42
5.4139380004133
  0
LINE
  5
1A05
330
19A8
100
AcDbEntity
  8
241
100
AcDbLine
 10
49.23254521115521
 20
18.31668622913426
 30
0.0
 11
48.31899975351252
 21
17.90994958605873
 31
0.0
  0
LINE
  5
1A06
330
19A8
100
AcDbEntity
  8
241
100
AcDbLine
 10
47.60721062812999
 20
19.50865413693327
 30
0.0
 11
48.06398335695127
 21
19.71202245847115
 31
0.0
  0
LINE
  5
1A07
330
19A8
100
AcDbEntity
  8
241
100
AcDbLine
 10
48.52075608577258
 20
19.91539078000906
 30
0.0
 11
48.06398335695127
 21
19.71202245847115
 31
0.0
  0
ELLIPSE
  5
1A08
330
19A8
100
AcDbEntity
  8
240
100
AcDbEllipse
 10
52.94725325426805
 20
21.06521708598149
 30
0.0
 11
4.081103728741205
 21
1.817024447755196
 31
0.0
210
0.0
220
0.0
230
0.9999999999999999
 40
0.6715429342378271
 41
4.712388980384688
 42
5.319334849090055
  0
LINE
  5
1A09
330
19A8
100
AcDbEntity
  8
240
100
AcDbLine
 10
62.08301400316128
 20
25.96060932125536
 30
0.0
 11
61.10682348589108
 21
24.83763059075892
 31
0.0
  0
ELLIPSE
  5
1A0A
330
19A8
100
AcDbEntity
  8
240
100
AcDbEllipse
 10
60.02192383602022
 20
20.60435858189373
 30
0.0
 11
-3.279473263378399
 21
-4.594161872067984
 31
0.0
210
0.0
220
0.0
230
0.9999999999999998
 40
0.4037139783256409
 41
3.905591479387025
 42
4.479104583810122
  0
LINE
  5
1A0B
330
19A8
100
AcDbEntity
  8
240
100
AcDbLine
 10
62.14835900511286
 20
26.17792275783964
 30
0.0
 11
63.06198580070071
 21
27.22894172616418
 31
0.0
  0
SPLINE
  5
1A0C
330
19A8
100
AcDbEntity
  8
240
100
AcDbSpline
210
0.0
220
0.0
230
1.0
 70
     8
 71
     3
 72
    12
 73
     8
 74
     0
 42
0.0000000001
 43
0.0000000001
 40
0.0
 40
0.0
 40
0.0
 40
0.0
 40
0.1118507680281603
 40
0.1118507680281603
 40
0.2152077302516434
 40
0.2152077302516434
 40
0.235773670167929
 40
0.235773670167929
 40
0.235773670167929
 40
0.235773670167929
 10
62.08301400316128
 20
25.96060932125536
 30
0.0
 10
62.10747423858271
 20
25.98874760331739
 30
0.0
 10
62.12643010379315
 20
26.02108570636
 30
0.0
 10
62.14897210213627
 20
26.08907863158811
 30
0.0
 10
62.15326779601219
 20
26.12328398654734
 30
0.0
 10
62.15018136244822
 20
26.16440917792494
 30
0.0
 10
62.1494008524769
 20
26.17119205855045
 30
0.0
 10
62.14835900511286
 20
26.17792275783964
 30
0.0
  0
LINE
  5
1A0D
330
19A8
100
AcDbEntity
  8
240
100
AcDbLine
 10
38.8203966626445
 20
25.72189808321048
 30
0.0
 11
48.87988682350985
 21
30.20067166240699
 31
0.0
  0
LINE
  5
1A0E
330
19A8
100
AcDbEntity
  8
245
100
AcDbLine
 10
38.16185411996776
 20
18.31356024242509
 30
0.0
 11
64.80795751375399
 21
30.177169825037
 31
0.0
  0
ARC
  5
1A0F
330
19A8
100
AcDbEntity
  8
240
100
AcDbCircle
 10
39.4305016272582
 20
24.35157989674659
 30
0.0
 40
1.499999999999999
100
AcDbArc
 50
114.0000000000002
 51
204.0000000000002
  0
LINE
  5
1A10
330
19A8
100
AcDbEntity
  8
240
100
AcDbLine
 10
51.42552823722144
 20
30.74753777994767
 30
0.0
 11
55.5378483747171
 21
30.67575696494208
 31
0.0
  0
ELLIPSE
  5
1A11
330
19A8
100
AcDbEntity
  8
241
100
AcDbEllipse
 10
51.52820527304061
 20
32.41416015394097
 30
0.0
 11
-10.0953424006108
 21
1.146547319753638
 31
2.000000000000000E-16
210
1.955883489111233E-17
220
-2.221334238306962E-18
230
1.0
 40
0.4037139783256557
 41
1.804080723369468
 42
2.5022124241672
  0
LINE
  5
1A12
330
19A8
100
AcDbEntity
  8
241
100
AcDbLine
 10
53.41164898618342
 20
28.18387631264352
 30
0.0
 11
46.29741837432345
 21
28.30805566988784
 31
0.0
  0
LINE
  5
1A13
330
19A8
100
AcDbEntity
  8
241
100
AcDbLine
 10
45.82693182003436
 20
24.73652247550547
 30
0.0
 11
45.37015909121308
 21
24.53315415396759
 31
0.0
  0
LINE
  5
1A14
330
19A8
100
AcDbEntity
  8
241
100
AcDbLine
 10
45.82693182003436
 20
24.73652247550547
 30
0.0
 11
46.28370454885566
 21
24.93989079704338
 31
0.0
  0
SPLINE
  5
1A15
330
19A8
100
AcDbEntity
  8
241
100
AcDbSpline
210
0.0
220
0.0
230
1.0
 70
     8
 71
     3
 72
    14
 73
    10
 74
     0
 42
0.0000000001
 43
0.0000000001
 40
-0.002980334817131
 40
-0.002980334817131
 40
-0.002980334817131
 40
-0.002980334817131
 40
0.4687090618895295
 40
0.4687090618895295
 40
0.8938938701884914
 40
0.8938938701884914
 40
1.159634375375342
 40
1.159634375375342
 40
1.325722191117124
 40
1.325722191117124
 40
1.325722191117124
 40
1.325722191117124
 10
44.34395033681852
 20
28.18114262379479
 30
0.0
 10
44.51608117085089
 20
28.25778020873207
 30
0.0
 10
44.69975909522543
 20
28.31207604804732
 30
0.0
 10
45.06241476181663
 20
28.37244205054779
 30
0.0
 10
45.23955846431232
 20
28.38296257902019
 30
0.0
 10
45.53491727446192
 20
28.37548722831076
 30
0.0
 10
45.6499550250146
 20
28.36669650660466
 30
0.0
 10
45.83698306670777
 20
28.34494612419462
 30
0.0
 10
45.90893560056435
 20
28.33479970346071
 30
0.0
 10
45.98059369647702
 20
28.32329673278099
 30
0.0
  0
LINE
  5
1A16
330
19A8
100
AcDbEntity
  8
241
100
AcDbLine
 10
44.65836996583042
 20
26.13185870484187
 30
0.0
 11
45.57191542347212
 21
26.5385953479169
 31
0.0
  0
ELLIPSE
  5
1A17
330
19A8
100
AcDbEntity
  8
241
100
AcDbEllipse
 10
46.80141131728913
 20
28.53244778528921
 30
0.0
 11
-1.285756910211121
 21
-0.0709237158467413
 31
0.0
210
0.0
220
0.0
230
1.0
 40
0.1663516538736129
 41
0.8692473067662682
 42
1.158853895837805
  0
ELLIPSE
  5
1A18
330
19A8
100
AcDbEntity
  8
240
100
AcDbEllipse
 10
50.10009675273707
 20
27.46003528947952
 30
0.0
 11
4.081103728741346
 21
1.817024447755257
 31
0.0
210
0.0
220
0.0
230
1.0
 40
0.6715429342378036
 41
0.9638504580895294
 42
1.570796326794896
  0
ELLIPSE
  5
1A19
330
19A8
100
AcDbEntity
  8
241
100
AcDbEllipse
 10
63.51819002427362
 20
28.88744524020547
 30
0.0
 11
0.4997441282259504
 21
-0.015993945844752
 31
0.0
210
0.0
220
0.0
230
1.0
 40
0.8044887491175339
 41
5.491530511341672
 42
6.283185307179586
  0
ELLIPSE
  5
1A1A
330
19A8
100
AcDbEntity
  8
241
100
AcDbEllipse
 10
62.98648245994758
 20
30.08167998264469
 30
0.0
 11
-0.3225082734506145
 21
-0.3820843016349972
 31
0.0
210
0.0
220
0.0
230
1.0
 40
0.8044887491175261
 41
3.141592653589791
 42
3.933247449427712
  0
ARC
  5
1A1B
330
19A8
100
AcDbEntity
  8
240
100
AcDbCircle
 10
62.01895763959573
 20
28.93542707773969
 30
0.0
 40
1.999999999999999
100
AcDbArc
 50
49.83308388961722
 51
106.5661320695595
  0
ELLIPSE
  5
1A1C
330
19A8
100
AcDbEntity
  8
240
100
AcDbEllipse
 10
54.49149075630441
 20
33.02591465455174
 30
0.0
 11
5.608523555894923
 21
-0.6369707331962348
 31
0.0
210
0.0
220
0.0
230
1.0
 40
0.4037139783256548
 41
4.945673376958826
 42
5.519186481381921
  0
LINE
  5
1A1D
330
19A8
100
AcDbEntity
  8
240
100
AcDbLine
 10
58.36336450508747
 20
30.99954034934152
 30
0.0
 11
59.85109929051981
 21
30.97357184206581
 31
0.0
  0
LINE
  5
1A1E
330
19A8
100
AcDbEntity
  8
241
100
AcDbLine
 10
60.32939094783728
 20
26.86955347467392
 30
0.0
 11
63.86018960902714
 21
28.59014953684056
 31
0.0
  0
LINE
  5
1A1F
330
19A8
100
AcDbEntity
  8
241
100
AcDbLine
 10
62.99439108587591
 20
30.53476485863015
 30
0.0
 11
59.35317357644703
 21
29.06217359014048
 31
0.0
  0
LINE
  5
1A20
330
19A8
100
AcDbEntity
  8
240
100
AcDbLine
 10
61.44871394671054
 20
30.85240963653482
 30
0.0
 11
60.05632526399352
 21
30.87671387432834
 31
0.0
  0
SPLINE
  5
1A21
330
19A8
100
AcDbEntity
  8
240
100
AcDbSpline
210
0.0
220
0.0
230
1.0
 70
     8
 71
     3
 72
    12
 73
     8
 74
     0
 42
0.0000000001
 43
0.0000000001
 40
0.4510684600299012
 40
0.4510684600299012
 40
0.4510684600299012
 40
0.4510684600299012
 40
0.5159174595822592
 40
0.5159174595822592
 40
0.600818347383076
 40
0.600818347383076
 40
0.6877524611273361
 40
0.6877524611273361
 40
0.6877524611273361
 40
0.6877524611273361
 10
60.05632526649037
 20
30.87671387135259
 30
0.0
 10
60.04285669727176
 20
30.89322813023094
 30
0.0
 10
60.02741101842758
 20
30.90805039745735
 30
0.0
 10
59.98760181122384
 20
30.93764436874926
 30
0.0
 10
59.9625462599435
 20
30.95054380561033
 30
0.0
 10
59.90849297555843
 20
30.96843697120164
 30
0.0
 10
59.87993145348241
 20
30.97306762421784
 30
0.0
 10
59.85110923675796
 20
30.97357166828954
 30
0.0
  0
SPLINE
  5
1A22
330
19A8
100
AcDbEntity
  8
240
100
AcDbSpline
210
0.0
220
0.0
230
1.0
 70
     8
 71
     3
 72
    14
 73
    10
 74
     0
 42
0.0000000001
 43
0.0000000001
 40
0.0
 40
0.0
 40
0.0
 40
0.0
 40
0.060697413506698
 40
0.060697413506698
 40
0.1578132751174146
 40
0.1578132751174146
 40
0.3131986536945615
 40
0.3131986536945615
 40
0.4855793080535836
 40
0.4855793080535836
 40
0.4855793080535836
 40
0.4855793080535836
 10
63.69018929914
 20
30.03405565015945
 30
0.0
 10
63.67550560787845
 20
30.05639245290723
 30
0.0
 10
63.66015376671424
 20
30.07876251166119
 30
0.0
 10
63.61892104998048
 20
30.13626558864797
 30
0.0
 10
63.59224302988758
 20
30.17098038424192
 30
0.0
 10
63.52191214153555
 20
30.25670832332489
 30
0.0
 10
63.47700751232008
 20
30.30571170065804
 30
0.0
 10
63.38774244658623
 20
30.39516871493134
 30
0.0
 10
63.34376501474816
 20
30.43441214028775
 30
0.0
 10
63.30899073339821
 20
30.46376428427965
 30
0.0
  0
SPLINE
  5
1A23
330
19A8
100
AcDbEntity
  8
240
100
AcDbSpline
210
0.0
220
0.0
230
1.0
 70
     8
 71
     3
 72
    20
 73
    16
 74
     0
 42
0.0000000001
 43
0.0000000001
 40
0.0
 40
0.0
 40
0.0
 40
0.0
 40
0.084981635383434
 40
0.084981635383434
 40
0.1821035043930729
 40
0.1821035043930729
 40
0.2428046725240972
 40
0.2428046725240972
 40
0.2731552565896094
 40
0.2731552565896094
 40
0.3217161910944288
 40
0.3217161910944288
 40
0.39941368630214
 40
0.39941368630214
 40
0.4856093450481945
 40
0.4856093450481945
 40
0.4856093450481945
 40
0.4856093450481945
 10
64.01793415249954
 20
28.8714512943607
 30
0.0
 10
64.01865176690733
 20
28.89387375283858
 30
0.0
 10
64.01909557337302
 20
28.91957597017344
 30
0.0
 10
64.01871648486468
 20
28.98029791946112
 30
0.0
 10
64.01769999761738
 20
29.01585403524595
 30
0.0
 10
64.01405312622347
 20
29.07739998901485
 30
0.0
 10
64.0121641863766
 20
29.10208259069361
 30
0.0
 10
64.00850379359478
 20
29.14004306108302
 30
0.0
 10
64.0071466705628
 20
29.15285129006645
 30
0.0
 10
64.00325504627006
 20
29.18641754355906
 30
0.0
 10
64.000501528511
 20
29.20733315839047
 30
0.0
 10
63.99243309168105
 20
29.26183837812738
 30
0.0
 10
63.98650368151152
 20
29.29594198206482
 30
0.0
 10
63.97203650400013
 20
29.36782755362754
 30
0.0
 10
63.96328995150293
 20
29.40554711000434
 30
0.0
 10
63.95367003202807
 20
29.4422682348777
 30
0.0
  0
ARC
  5
1A24
330
19A8
100
AcDbEntity
  8
240
100
AcDbCircle
 10
62.01895763959573
 20
28.93542707773969
 30
0.0
 40
1.999999999999999
100
AcDbArc
 50
14.68001715147563
 51
33.31998284852706
  0
ENDBLK
  5
1AC0
330
19A8
100
AcDbEntity
  8
0
100
AcDbBlockEnd
  0
BLOCK
  5
1AC1
330
1A53
100
AcDbEntity
  8
0
100
AcDbBlockBegin
  2
*D5
 70
     1
 10
0.0
 20
0.0
 30
0.0
  3
*D5
  1

  0
POINT
  5
1A4A
330
1A53
100
AcDbEntity
  8
Defpoints
  6
ByBlock
 62
     3
100
AcDbPoint
 10
254.7043103675175
 20
-24.99999999999995
 30
0.0
  0
POINT
  5
1A4B
330
1A53
100
AcDbEntity
  8
Defpoints
  6
ByBlock
 62
     3
100
AcDbPoint
 10
179.7233184649779
 20
31.69894562422718
 30
0.0
  0
LINE
  5
1A4C
330
1A53
100
AcDbEntity
  8
0
  6
ByBlock
 62
     3
100
AcDbLine
 10
254.7043103675175
 20
-25.49999999999995
 30
0.0
 11
254.7043103675175
 21
-43.0
 31
0.0
  0
LINE
  5
1A4D
330
1A53
100
AcDbEntity
  8
0
  6
ByBlock
 62
     3
100
AcDbLine
 10
179.7233184649779
 20
31.19894562422718
 30
0.0
 11
179.7233184649779
 21
-43.0
 31
0.0
  0
LINE
  5
1A4E
330
1A53
100
AcDbEntity
  8
0
  6
ByBlock
 62
     3
100
AcDbLine
 10
252.4743103675175
 20
-42.0
 30
0.0
 11
181.9533184649779
 21
-42.0
 31
0.0
  0
INSERT
  5
1A4F
330
1A53
100
AcDbEntity
  8
0
  6
ByBlock
 62
     3
100
AcDbBlockReference
  2
_OPEN
 10
254.7043103675175
 20
-42.0
 30
0.0
 41
2.229999999999999
 42
2.229999999999999
 43
2.229999999999999
  0
INSERT
  5
1A50
330
1A53
100
AcDbEntity
  8
0
  6
ByBlock
 62
     3
100
AcDbBlockReference
  2
_OPEN
 10
179.7233184649779
 20
-42.0
 30
0.0
 41
2.229999999999999
 42
2.229999999999999
 43
2.229999999999999
 50
180.0
  0
MTEXT
  5
1A51
330
1A53
100
AcDbEntity
  8
0
  6
ByBlock
 62
    40
370
    -3
100
AcDbMText
 10
217.2138144162477
 20
-39.5
 30
0.0
 40
3.0
 41
0.0
 71
     5
 72
     1
  1
75
 73
     1
 44
1.0
  0
ENDBLK
  5
1AC2
330
1A53
100
AcDbEntity
  8
2
100
AcDbBlockEnd
  0
BLOCK
  5
1AC3
330
1A5F
100
AcDbEntity
  8
0
100
AcDbBlockBegin
  2
*D6
 70
     1
 10
0.0
 20
0.0
 30
0.0
  3
*D6
  1

  0
POINT
  5
1A56
330
1A5F
100
AcDbEntity
  8
Defpoints
  6
ByBlock
 62
     3
100
AcDbPoint
 10
210.033952156329
 20
0.0000000000002558
 30
0.0
  0
POINT
  5
1A57
330
1A5F
100
AcDbEntity
  8
Defpoints
  6
ByBlock
 62
     3
100
AcDbPoint
 10
179.7043110623351
 20
32.99894562422719
 30
0.0
  0
LINE
  5
1A58
330
1A5F
100
AcDbEntity
  8
0
  6
ByBlock
 62
     3
100
AcDbLine
 10
209.533952156329
 20
0.0000000000002558
 30
0.0
 11
162.7043103675174
 21
0.0000000000002558
 31
0.0
  0
LINE
  5
1A59
330
1A5F
100
AcDbEntity
  8
0
  6
ByBlock
 62
     3
100
AcDbLine
 10
179.2043110623351
 20
32.99894562422719
 30
0.0
 11
162.7043103675174
 21
32.99894562422719
 31
0.0
  0
LINE
  5
1A5A
330
1A5F
100
AcDbEntity
  8
0
  6
ByBlock
 62
     3
100
AcDbLine
 10
163.7043103675174
 20
2.230000000000255
 30
0.0
 11
163.7043103675174
 21
30.76894562422719
 31
0.0
  0
INSERT
  5
1A5B
330
1A5F
100
AcDbEntity
  8
0
  6
ByBlock
 62
     3
100
AcDbBlockReference
  2
_OPEN
 10
163.7043103675174
 20
0.0000000000002558
 30
0.0
 41
2.229999999999999
 42
2.229999999999999
 43
2.229999999999999
 50
270.0
  0
INSERT
  5
1A5C
330
1A5F
100
AcDbEntity
  8
0
  6
ByBlock
 62
     3
100
AcDbBlockReference
  2
_OPEN
 10
163.7043103675174
 20
32.99894562422719
 30
0.0
 41
2.229999999999999
 42
2.229999999999999
 43
2.229999999999999
 50
90.0
  0
MTEXT
  5
1A5D
330
1A5F
100
AcDbEntity
  8
0
  6
ByBlock
 62
    40
370
    -3
100
AcDbMText
 10
161.2043103675174
 20
16.49947281211372
 30
0.0
 40
3.0
 41
0.0
 71
     5
 72
     1
  1
33
 11
-1.608142872339124E-16
 21
1.0
 31
0.0
 73
     1
 44
1.0
  0
ENDBLK
  5
1AC4
330
1A5F
100
AcDbEntity
  8
2
100
AcDbBlockEnd
  0
BLOCK
  5
1AC5
330
1A72
100
AcDbEntity
  8
0
100
AcDbBlockBegin
  2
*D7
 70
     1
 10
0.0
 20
0.0
 30
0.0
  3
*D7
  1

  0
POINT
  5
1A69
330
1A72
100
AcDbEntity
  8
Defpoints
  6
ByBlock
 62
     3
100
AcDbPoint
 10
0.0000000000000568
 20
-25.00000000000025
 30
0.0
  0
POINT
  5
1A6A
330
1A72
100
AcDbEntity
  8
Defpoints
  6
ByBlock
 62
     3
100
AcDbPoint
 10
-74.98099190253959
 20
31.69894562422688
 30
0.0
  0
LINE
  5
1A6B
330
1A72
100
AcDbEntity
  8
0
  6
ByBlock
 62
     3
100
AcDbLine
 10
0.0000000000000568
 20
-25.50000000000025
 30
0.0
 11
0.0000000000000568
 21
-43.0000000000003
 31
0.0
  0
LINE
  5
1A6C
330
1A72
100
AcDbEntity
  8
0
  6
ByBlock
 62
     3
100
AcDbLine
 10
-74.98099190253959
 20
31.19894562422688
 30
0.0
 11
-74.98099190253959
 21
-43.0000000000003
 31
0.0
  0
LINE
  5
1A6D
330
1A72
100
AcDbEntity
  8
0
  6
ByBlock
 62
     3
100
AcDbLine
 10
-2.229999999999942
 20
-42.0000000000003
 30
0.0
 11
-72.75099190253958
 21
-42.0000000000003
 31
0.0
  0
INSERT
  5
1A6E
330
1A72
100
AcDbEntity
  8
0
  6
ByBlock
 62
     3
100
AcDbBlockReference
  2
_OPEN
 10
0.0000000000000568
 20
-42.0000000000003
 30
0.0
 41
2.229999999999999
 42
2.229999999999999
 43
2.229999999999999
  0
INSERT
  5
1A6F
330
1A72
100
AcDbEntity
  8
0
  6
ByBlock
 62
     3
100
AcDbBlockReference
  2
_OPEN
 10
-74.98099190253959
 20
-42.0000000000003
 30
0.0
 41
2.229999999999999
 42
2.229999999999999
 43
2.229999999999999
 50
180.0
  0
MTEXT
  5
1A70
330
1A72
100
AcDbEntity
  8
0
  6
ByBlock
 62
    40
370
    -3
100
AcDbMText
 10
-37.49049595126976
 20
-39.5000000000003
 30
0.0
 40
3.0
 41
0.0
 71
     5
 72
     1
  1
75
 73
     1
 44
1.0
  0
ENDBLK
  5
1AC6
330
1A72
100
AcDbEntity
  8
2
100
AcDbBlockEnd
  0
BLOCK
  5
1AC7
330
1A7D
100
AcDbEntity
  8
0
100
AcDbBlockBegin
  2
*D8
 70
     1
 10
0.0
 20
0.0
 30
0.0
  3
*D8
  1

  0
POINT
  5
1A74
330
1A7D
100
AcDbEntity
  8
Defpoints
  6
ByBlock
 62
     3
100
AcDbPoint
 10
-44.67035821118841
 20
-0.0000000000000462
 30
0.0
  0
POINT
  5
1A75
330
1A7D
100
AcDbEntity
  8
Defpoints
  6
ByBlock
 62
     3
100
AcDbPoint
 10
-74.99999930518231
 20
32.99894562422689
 30
0.0
  0
LINE
  5
1A76
330
1A7D
100
AcDbEntity
  8
0
  6
ByBlock
 62
     3
100
AcDbLine
 10
-45.17035821118841
 20
-0.0000000000000462
 30
0.0
 11
-92.00000000000006
 21
-0.0000000000000462
 31
0.0
  0
LINE
  5
1A77
330
1A7D
100
AcDbEntity
  8
0
  6
ByBlock
 62
     3
100
AcDbLine
 10
-75.49999930518231
 20
32.99894562422689
 30
0.0
 11
-92.00000000000006
 21
32.99894562422689
 31
0.0
  0
LINE
  5
1A78
330
1A7D
100
AcDbEntity
  8
0
  6
ByBlock
 62
     3
100
AcDbLine
 10
-91.00000000000006
 20
2.229999999999953
 30
0.0
 11
-91.00000000000006
 21
30.76894562422689
 31
0.0
  0
INSERT
  5
1A79
330
1A7D
100
AcDbEntity
  8
0
  6
ByBlock
 62
     3
100
AcDbBlockReference
  2
_OPEN
 10
-91.00000000000006
 20
-0.0000000000000462
 30
0.0
 41
2.229999999999999
 42
2.229999999999999
 43
2.229999999999999
 50
270.0
  0
INSERT
  5
1A7A
330
1A7D
100
AcDbEntity
  8
0
  6
ByBlock
 62
     3
100
AcDbBlockReference
  2
_OPEN
 10
-91.00000000000006
 20
32.99894562422689
 30
0.0
 41
2.229999999999999
 42
2.229999999999999
 43
2.229999999999999
 50
90.0
  0
MTEXT
  5
1A7B
330
1A7D
100
AcDbEntity
  8
0
  6
ByBlock
 62
    40
370
    -3
100
AcDbMText
 10
-93.50000000000006
 20
16.49947281211342
 30
0.0
 40
3.0
 41
0.0
 71
     5
 72
     1
  1
33
 11
-1.608142872339124E-16
 21
1.0
 31
0.0
 73
     1
 44
1.0
  0
ENDBLK
  5
1AC8
330
1A7D
100
AcDbEntity
  8
2
100
AcDbBlockEnd
  0
ENDSEC
  0
SECTION
  2
ENTITIES
  0
INSERT
  5
6E6
330
1F
100
AcDbEntity
  8
245
100
AcDbBlockReference
  2
\U+77E2\U+5370\U+306A\U+3057
 10
175.6238269664377
 20
90.55123571690598
 30
0.0
  0
MTEXT
  5
D08
102
{ACAD_REACTORS
330
D0A
102
}
330
1F
100
AcDbEntity
  8
250
  6
Continuous
 62
    40
370
    -3
100
AcDbMText
 10
-57.27107362640882
 20
49.63705247556459
 30
0.0
 40
2.799999999999999
 41
0.0
 71
     7
 72
     1
  1
INSERT：DN1504
  7
YOKO
 73
     1
 44
1.0
1001
ITEMNAME
1000
LNSP3
  0
LINE
  5
D09
102
{ACAD_REACTORS
330
D0A
102
}
330
1F
100
AcDbEntity
  8
250
  6
Continuous
370
    -3
100
AcDbLine
 10
-60.07107362640883
 20
48.63705247556459
 30
0.0
 11
-21.51107362640886
 21
48.63705247556459
 31
0.0
1001
ITEMNAME
1000
LNSP2
  0
LEADER
  5
130E
102
{ACAD_REACTORS
330
1311
102
}
330
1F
100
AcDbEntity
  8
250
  6
Continuous
370
    -3
100
AcDbLeader
  3
BIGT$7
 76
     2
 10
13.7950961894324
 20
13.99999996153964
 30
0.0
 10
-0.3670128363720835
 20
38.52949233656274
 30
0.0
1001
ACAD
1000
DSTYLE
1002
{
1070
    41
1040
2.0
1002
}
  0
MTEXT
  5
130F
102
{ACAD_REACTORS
330
1311
102
}
330
1F
100
AcDbEntity
  8
250
  6
Continuous
 62
    40
370
    -3
100
AcDbMText
 10
-11.08129855065778
 20
39.52949233656274
 30
0.0
 40
3.0
 41
0.0
 71
     7
 72
     1
  1
S50
  7
YOKO
 73
     1
 44
1.0
1001
ITEMNAME
1000
LNSP3
  0
LINE
  5
1310
102
{ACAD_REACTORS
330
1311
102
}
330
1F
100
AcDbEntity
  8
250
  6
Continuous
370
    -3
100
AcDbLine
 10
-0.3670128363720835
 20
38.52949233656274
 30
0.0
 11
-14.08129855065778
 21
38.52949233656274
 31
0.0
1001
ITEMNAME
1000
LNSP2
  0
MTEXT
  5
1312
330
1F
100
AcDbEntity
  8
250
  6
Continuous
 62
    40
370
    -3
100
AcDbMText
 10
-41.81602751173833
 20
44.70874185730645
 30
0.0
 40
2.799999999999999
 41
0.0
 71
     7
 72
     1
  1
（DN1506）
  7
YOKO
 73
     1
 44
1.0
1001
ITEMNAME
1000
LNSP3
  0
LEADER
  5
16E8
102
{ACAD_REACTORS
330
16EB
102
}
330
1F
100
AcDbEntity
  8
250
  6
Continuous
370
    -3
100
AcDbLeader
  3
BIGT$7
 76
     2
 10
-67.77831234945018
 20
35.30360669809028
 30
0.0
 10
-60.07107362640883
 20
48.63705247556459
 30
0.0
1001
ACAD
1000
DSTYLE
1002
{
1070
    41
1040
2.0
1070
   288
1070
     1
1070
   289
1070
     0
1002
}
  0
TEXT
  5
19A6
330
1F
100
AcDbEntity
  8
251
  6
Continuous
 62
    40
100
AcDbText
 10
-35.0
 20
63.0
 30
0.0
 40
5.0
  1
S50-DDJNR-33075-15
  7
YOKO
 11
-35.0
 21
63.0
 31
0.0
100
AcDbText
 73
     1
  0
DIMENSION
  5
1A48
330
1F
100
AcDbEntity
  8
250
  6
Continuous
370
    -3
100
AcDbDimension
  2
*D7
 10
-74.98099190253959
 20
-42.0000000000003
 30
0.0
 11
-37.49049595126976
 21
-39.5000000000003
 31
0.0
 70
    32
  1
75
 71
   252
 72
    79
 41
0.0
 42
-1.0
  3
BIGT$0
100
AcDbAlignedDimension
 13
0.0000000000000568
 23
-25.00000000000025
 33
0.0
 14
-74.98099190253959
 24
31.69894562422688
 34
0.0
 50
180.0
100
AcDbRotatedDimension
  0
DIMENSION
  5
1A54
330
1F
100
AcDbEntity
  8
250
  6
Continuous
370
    -3
100
AcDbDimension
  2
*D8
 10
-91.00000000000006
 20
32.99894562422689
 30
0.0
 11
-93.50000000000006
 21
16.49947281211342
 31
0.0
 70
    32
  1
33
 71
     0
 72
     0
 41
0.0
 42
-1.0
  3
BIGT$0
100
AcDbAlignedDimension
 13
-44.67035821118841
 23
-0.0000000000000462
 33
0.0
 14
-74.99999930518231
 24
32.99894562422689
 34
0.0
 50
90.00000000000001
100
AcDbRotatedDimension
  0
LINE
  5
1A65
330
1F
100
AcDbEntity
  8
250
  6
Continuous
370
    -3
100
AcDbLine
 10
-74.98099190253959
 20
-42.0000000000003
 30
0.0
 11
-74.98099190253959
 21
31.19894562422688
 31
0.0
  0
INSERT
  5
1A67
330
1F
100
AcDbEntity
  8
2
100
AcDbBlockReference
  2
A
 10
0.0
 20
-0.000000000000302
 30
0.0
 41
-1.0
  0
VIEWPORT
  5
1AB8
330
73
100
AcDbEntity
 67
     1
  8
0
100
AcDbViewport
 10
261.5176991150442
 20
148.5
 30
0.0
 40
523.0353982300885
 41
297.0
 68
     1
 69
     1
 12
261.5176991150442
 22
148.5
 13
0.0
 23
0.0
 14
1.0
 24
1.0
 15
10.0
 25
10.0
 16
0.0
 26
0.0
 36
1.0
 17
0.0
 27
0.0
 37
0.0
 42
50.0
 43
0.0
 44
0.0
 45
297.0
 50
0.0
 51
0.0
 72
   100
 90
   557088
  1

281
     0
 71
     1
 74
     0
110
0.0
120
0.0
130
0.0
111
1.0
121
0.0
131
0.0
112
0.0
122
1.0
132
0.0
 79
     0
146
0.0
  0
ENDSEC
  0
SECTION
  2
OBJECTS
  0
DICTIONARY
  5
C
330
0
100
AcDbDictionary
281
     1
  3
ACAD_COLOR
350
6C
  3
ACAD_GROUP
350
D
  3
ACAD_LAYOUT
350
1A
  3
ACAD_MATERIAL
350
6B
  3
ACAD_MLEADERSTYLE
350
7CB
  3
ACAD_MLINESTYLE
350
17
  3
ACAD_PLOTSETTINGS
350
19
  3
ACAD_PLOTSTYLENAME
350
E
  3
ACAD_SCALELIST
350
99
  3
ACAD_TABLESTYLE
350
92
  3
ACAD_VISUALSTYLE
350
795
  3
ACDB_RECOMPOSE_DATA
350
1063
  3
ACDBHEADERROUNDTRIPXREC
350
1ACD
  3
AcDbVariableDictionary
350
59
  3
DWGPROPS
350
1AD0
  3
GRADE_DWG
350
540
  0
DICTIONARY
  5
1AAA
330
10
100
AcDbDictionary
280
     1
281
     1
  3
ADSK_XREC_LAYER_RECONCILED
360
C81
  0
DICTIONARY
  5
1AAC
330
1AAB
100
AcDbDictionary
280
     1
281
     1
  3
ADSK_XREC_LAYER_RECONCILED
360
C83
  0
DICTIONARY
  5
1AAD
330
1AA
100
AcDbDictionary
280
     1
281
     1
  3
ADSK_XREC_LAYER_RECONCILED
360
C91
  0
DICTIONARY
  5
1AAE
330
1AB
100
AcDbDictionary
280
     1
281
     1
  3
ADSK_XREC_LAYER_RECONCILED
360
C93
  0
DICTIONARY
  5
1AAF
330
1AF
100
AcDbDictionary
280
     1
281
     1
  3
ADSK_XREC_LAYER_RECONCILED
360
C9B
  0
DICTIONARY
  5
1AB0
330
21E
100
AcDbDictionary
280
     1
281
     1
  3
ADSK_XREC_LAYER_RECONCILED
360
CA3
  0
DICTIONARY
  5
1AB1
330
21F
100
AcDbDictionary
280
     1
281
     1
  3
ADSK_XREC_LAYER_RECONCILED
360
CA5
  0
DICTIONARY
  5
1AC9
330
1F
100
AcDbDictionary
280
     1
281
     1
  3
ACAD_SORTENTS
360
1ACA
  0
DICTIONARY
  5
6C
102
{ACAD_REACTORS
330
C
102
}
330
C
100
AcDbDictionary
281
     1
  0
DICTIONARY
  5
D
102
{ACAD_REACTORS
330
C
102
}
330
C
100
AcDbDictionary
281
     1
  3
LNSP-1
350
D0A
  3
LNSP-2
350
1311
  3
LNSP-3
350
16EB
  0
DICTIONARY
  5
1A
102
{ACAD_REACTORS
330
C
102
}
330
C
100
AcDbDictionary
281
     1
  3
Model
350
22
  3
\U+FF9A\U+FF72\U+FF71\U+FF73\U+FF841
350
568
  0
DICTIONARY
  5
6B
102
{ACAD_REACTORS
330
C
102
}
330
C
100
AcDbDictionary
281
     1
  3
BYBLOCK
350
785
  3
BYLAYER
350
77D
  3
GLOBAL
350
78D
  0
DICTIONARY
  5
7CB
102
{ACAD_REACTORS
330
C
102
}
330
C
100
AcDbDictionary
281
     1
  3
STANDARD
350
7CC
  0
DICTIONARY
  5
17
102
{ACAD_REACTORS
330
C
102
}
330
C
100
AcDbDictionary
281
     1
  3
Standard
350
18
  0
DICTIONARY
  5
19
102
{ACAD_REACTORS
330
C
102
}
330
C
100
AcDbDictionary
281
     1
  3
A3(0.5\U+500D)
350
772
  3
A3(1\U+500D)
350
773
  3
A3(1\U+500D)(2000)
350
774
  3
A3(2\U+500D)
350
775
  3
A4(0.5\U+500D)
350
776
  3
A4(1\U+500D)
350
777
  3
A4(1\U+500D)(2000)
350
778
  3
A4(2\U+500D)
350
779
  0
ACDBDICTIONARYWDFLT
  5
E
102
{ACAD_REACTORS
330
C
102
}
330
C
100
AcDbDictionary
281
     1
  3
Normal
350
F
100
AcDbDictionaryWithDefault
340
F
  0
DICTIONARY
  5
99
102
{ACAD_REACTORS
330
C
102
}
330
C
100
AcDbDictionary
281
     1
  3
A0
350
7AA
  3
A1
350
7AB
  3
A2
350
7AC
  3
A3
350
7AD
  3
A4
350
7AE
  3
A5
350
7AF
  3
A6
350
7B0
  3
A7
350
7B1
  3
A8
350
7B2
  3
A9
350
7B3
  3
B0
350
7B4
  3
B1
350
7B5
  3
B2
350
7B6
  3
B3
350
7B7
  3
B4
350
7B8
  3
B5
350
7B9
  3
B6
350
7BA
  3
B7
350
7BB
  3
B8
350
7BC
  3
B9
350
7BD
  3
C0
350
7BE
  3
C1
350
7BF
  3
C2
350
7C0
  3
C3
350
7C1
  3
C4
350
7C2
  3
C5
350
7C3
  3
C6
350
7C4
  3
C7
350
7C5
  3
C8
350
7C6
  3
C9
350
7C7
  3
D0
350
7C8
  3
D1
350
7C9
  3
D2
350
7CA
  0
DICTIONARY
  5
92
102
{ACAD_REACTORS
330
C
102
}
330
C
100
AcDbDictionary
281
     1
  3
Standard
350
7A8
  0
DICTIONARY
  5
795
102
{ACAD_REACTORS
330
C
102
}
330
C
100
AcDbDictionary
281
     1
  3
2DWIREFRAME
350
79B
  3
3D HIDDEN
350
79D
  3
3DWIREFRAME
350
79C
  3
BASIC
350
79A
  3
BRIGHTEN
350
7A1
  3
COLORCHANGE
350
7A5
  3
CONCEPTUAL
350
79E
  3
DIM
350
7A0
  3
FACEPATTERN
350
7A4
  3
FLAT
350
796
  3
FLATWITHEDGES
350
797
  3
GOURAUD
350
798
  3
GOURAUDWITHEDGES
350
799
  3
LINEPATTERN
350
7A3
  3
REALISTIC
350
79F
  3
THICKEN
350
7A2
  0
XRECORD
  5
1063
102
{ACAD_REACTORS
330
C
102
}
330
C
100
AcDbXrecord
280
     1
 90
        1
  0
DICTIONARY
  5
1ACD
102
{ACAD_REACTORS
330
C
102
}
330
C
100
AcDbDictionary
281
     1
  3
COLORDICT
350
1ACE
  3
MATERIALDICT
350
1ACF
  0
DICTIONARY
  5
59
102
{ACAD_REACTORS
330
C
102
}
330
C
100
AcDbDictionary
281
     1
  3
CANNOSCALE
350
1ACC
  3
CMLEADERSTYLE
350
10E8
  3
CTABLESTYLE
350
10E7
  3
DIMASSOC
350
10EC
  3
HIDETEXT
350
5E
  3
INDEXCTL
350
10EB
  3
SORTENTS
350
10EA
  3
XCLIPFRAME
350
1ACB
  0
XRECORD
  5
1AD0
102
{ACAD_REACTORS
330
C
102
}
330
C
100
AcDbXrecord
280
     1
  1
DWGPROPS COOKIE
  2

  3

  4

  6

  7

  8
Alan
  9

300
=
301
=
302
=
303
=
304
=
305
=
306
=
307
=
308
=
309
=
 40
0.0
 41
2453353.717125822
 42
2454820.433975845
  1

 90
        0
  0
DICTIONARY
  5
540
102
{ACAD_REACTORS
330
C
102
}
330
C
100
AcDbDictionary
281
     1
  3
VERSION
350
560
  0
XRECORD
  5
C81
102
{ACAD_REACTORS
330
1AAA
102
}
330
1AAA
100
AcDbXrecord
280
     1
290
     1
  0
XRECORD
  5
C83
102
{ACAD_REACTORS
330
1AAC
102
}
330
1AAC
100
AcDbXrecord
280
     1
290
     1
  0
XRECORD
  5
C91
102
{ACAD_REACTORS
330
1AAD
102
}
330
1AAD
100
AcDbXrecord
280
     1
290
     1
  0
XRECORD
  5
C93
102
{ACAD_REACTORS
330
1AAE
102
}
330
1AAE
100
AcDbXrecord
280
     1
290
     1
  0
XRECORD
  5
C9B
102
{ACAD_REACTORS
330
1AAF
102
}
330
1AAF
100
AcDbXrecord
280
     1
290
     1
  0
XRECORD
  5
CA3
102
{ACAD_REACTORS
330
1AB0
102
}
330
1AB0
100
AcDbXrecord
280
     1
290
     1
  0
XRECORD
  5
CA5
102
{ACAD_REACTORS
330
1AB1
102
}
330
1AB1
100
AcDbXrecord
280
     1
290
     1
  0
SORTENTSTABLE
  5
1ACA
102
{ACAD_REACTORS
330
1AC9
330
1AC9
330
1AC9
102
}
330
1AC9
100
AcDbSortentsTable
330
1F
  0
GROUP
  5
D0A
102
{ACAD_REACTORS
330
D
102
}
330
D
100
AcDbGroup
300

 70
     0
 71
     1
340
D08
340
D09
  0
GROUP
  5
1311
102
{ACAD_REACTORS
330
D
102
}
330
D
100
AcDbGroup
300

 70
     0
 71
     1
340
130E
340
130F
340
1310
  0
GROUP
  5
16EB
102
{ACAD_REACTORS
330
D
102
}
330
D
100
AcDbGroup
300

 70
     0
 71
     1
340
16E8
  0
LAYOUT
  5
22
102
{ACAD_REACTORS
330
1A
102
}
330
1A
100
AcDbPlotSettings
  1

  2
none_device
  4
ISO_A3_(297.00_x_420.00_MM)
  6

 40
5.873749732971191
 41
5.873747825622558
 42
5.873748779296875
 43
5.873748779296875
 44
297.0
 45
420.0
 46
37.59
 47
55.6
 48
0.0
 49
0.0
140
0.0
141
0.0
142
1.0
143
1.0
 70
 11956
 72
     0
 73
     1
 74
     2
  7
big.ctb
 75
    16
147
1.0
148
0.0
149
0.0
100
AcDbLayout
  1
Model
 70
     1
 71
     0
 10
0.0
 20
0.0
 11
297.0
 21
210.0
 12
0.0
 22
0.0
 32
0.0
 14
-95.00000000000006
 24
-43.0000000000003
 34
-0.0000000000000007
 15
54.45
 25
68.0
 35
0.0000000000000002
146
0.0
 13
0.0
 23
0.0
 33
0.0
 16
1.0
 26
0.0
 36
0.0
 17
0.0
 27
1.0
 37
0.0
 76
     0
330
1F
331
97
  0
LAYOUT
  5
568
102
{ACAD_REACTORS
330
1A
102
}
330
1A
100
AcDbPlotSettings
  1

  2
none_device
  4
ISO_C5_(229.00_x_162.00_MM)
  6

 40
0.0
 41
0.0
 42
0.0
 43
0.0
 44
229.0
 45
162.0
 46
0.0
 47
0.0
 48
0.0
 49
0.0
140
0.0
141
0.0
142
1.0
143
1.0
 70
   688
 72
     0
 73
     0
 74
     5
  7
big.ctb
 75
    16
147
1.0
148
0.0
149
0.0
100
AcDbLayout
  1
\U+FF9A\U+FF72\U+FF71\U+FF73\U+FF841
 70
     1
 71
     1
 10
0.0
 20
0.0
 11
420.0
 21
297.0
 12
0.0
 22
0.0
 32
0.0
 14
1.000000000000000E+20
 24
1.000000000000000E+20
 34
1.000000000000000E+20
 15
-1.000000000000000E+20
 25
-1.000000000000000E+20
 35
-1.000000000000000E+20
146
0.0
 13
0.0
 23
0.0
 33
0.0
 16
1.0
 26
0.0
 36
0.0
 17
0.0
 27
1.0
 37
0.0
 76
     0
330
73
331
1AB8
  0
MATERIAL
  5
785
102
{ACAD_REACTORS
330
6B
102
}
102
{ACAD_XDICTIONARY
360
1AD1
102
}
330
6B
100
AcDbMaterial
  1
ByBlock
  0
MATERIAL
  5
77D
102
{ACAD_REACTORS
330
6B
102
}
102
{ACAD_XDICTIONARY
360
1AD4
102
}
330
6B
100
AcDbMaterial
  1
ByLayer
  0
MATERIAL
  5
78D
102
{ACAD_REACTORS
330
6B
102
}
102
{ACAD_XDICTIONARY
360
1AD7
102
}
330
6B
100
AcDbMaterial
  1
Global
  0
MLEADERSTYLE
  5
7CC
102
{ACAD_REACTORS
330
7CB
102
}
330
7CB
100
AcDbMLeaderStyle
170
     2
171
     1
172
     0
 90
        2
 40
0.0
 41
0.0
173
     1
 91
-1056964608
340
14
 92
       -2
290
     1
 42
2.0
291
     1
 43
0.36
  3
Standard
341
0
 44
4.0
300

342
11
174
     1
178
     6
175
     1
176
     0
 93
-1056964608
 45
4.0
292
     1
297
     1
 46
4.0
343
0
 94
-1056964608
 47
1.0
 49
1.0
140
1.0
293
     1
141
0.0
294
     1
177
     0
142
1.0
295
     1
296
     1
143
0.125
1001
ACAD_MLEADERVER
1070
     2
  0
MLINESTYLE
  5
18
102
{ACAD_REACTORS
330
17
102
}
330
17
100
AcDbMlineStyle
  2
STANDARD
 70
     0
  3

 62
     0
 51
90.0
 52
90.0
 71
     2
 49
0.5
 62
   256
  6
BYLAYER
 49
-0.5
 62
   256
  6
BYLAYER
  0
PLOTSETTINGS
  5
772
102
{ACAD_REACTORS
330
19
102
}
330
19
100
AcDbPlotSettings
  1
A3(0.5倍)
  2
none_device
  4
ISO_A3_(297.00_x_420.00_MM)
  6

 40
0.0
 41
0.0
 42
0.0
 43
0.0
 44
297.0
 45
420.0
 46
90.09
 47
129.85
 48
0.0
 49
0.0
140
0.0
141
0.0
142
1.0
143
0.5
 70
  1712
 72
     1
 73
     1
 74
     5
  7

 75
    17
147
0.5
148
0.0
149
0.0
  0
PLOTSETTINGS
  5
773
102
{ACAD_REACTORS
330
19
102
}
330
19
100
AcDbPlotSettings
  1
A3(1倍)
  2
none_device
  4
ISO_A3_(297.00_x_420.00_MM)
  6

 40
0.0
 41
0.0
 42
0.0
 43
0.0
 44
297.0
 45
420.0
 46
37.59
 47
55.6
 48
0.0
 49
0.0
140
0.0
141
0.0
142
1.0
143
1.0
 70
  1712
 72
     1
 73
     1
 74
     5
  7

 75
    16
147
1.0
148
0.0
149
0.0
  0
PLOTSETTINGS
  5
774
102
{ACAD_REACTORS
330
19
102
}
330
19
100
AcDbPlotSettings
  1
A3(1倍)(2000)
  2
none_device
  4
ISO_A3_(297.00_x_420.00_MM)
  6

 40
0.0
 41
0.0
 42
0.0
 43
0.0
 44
297.0
 45
420.0
 46
37.59
 47
55.6
 48
0.0
 49
0.0
140
0.0
141
0.0
142
1.0
143
1.0
 70
  1712
 72
     1
 73
     1
 74
     5
  7

 75
    16
147
1.0
148
0.0
149
0.0
  0
PLOTSETTINGS
  5
775
102
{ACAD_REACTORS
330
19
102
}
330
19
100
AcDbPlotSettings
  1
A3(2倍)
  2
none_device
  4
ISO_A3_(297.00_x_420.00_MM)
  6

 40
0.0
 41
0.0
 42
0.0
 43
0.0
 44
297.0
 45
420.0
 46
-67.41
 47
-92.9
 48
0.0
 49
0.0
140
0.0
141
0.0
142
1.0
143
2.0
 70
  1712
 72
     1
 73
     1
 74
     5
  7

 75
    27
147
2.0
148
0.0
149
0.0
  0
PLOTSETTINGS
  5
776
102
{ACAD_REACTORS
330
19
102
}
330
19
100
AcDbPlotSettings
  1
A4(0.5倍)
  2
none_device
  4
ISO_A3_(297.00_x_420.00_MM)
  6

 40
0.0
 41
0.0
 42
0.0
 43
0.0
 44
297.0
 45
420.0
 46
90.09
 47
129.85
 48
0.0
 49
0.0
140
0.0
141
0.0
142
1.0
143
0.5
 70
  1712
 72
     1
 73
     1
 74
     5
  7

 75
    17
147
0.5
148
0.0
149
0.0
  0
PLOTSETTINGS
  5
777
102
{ACAD_REACTORS
330
19
102
}
330
19
100
AcDbPlotSettings
  1
A4(1倍)
  2
none_device
  4
ISO_A3_(297.00_x_420.00_MM)
  6

 40
0.0
 41
0.0
 42
0.0
 43
0.0
 44
297.0
 45
420.0
 46
37.59
 47
55.6
 48
0.0
 49
0.0
140
0.0
141
0.0
142
1.0
143
1.0
 70
  1712
 72
     1
 73
     1
 74
     5
  7

 75
    16
147
1.0
148
0.0
149
0.0
  0
PLOTSETTINGS
  5
778
102
{ACAD_REACTORS
330
19
102
}
330
19
100
AcDbPlotSettings
  1
A4(1倍)(2000)
  2
none_device
  4
ISO_A3_(297.00_x_420.00_MM)
  6

 40
0.0
 41
0.0
 42
0.0
 43
0.0
 44
297.0
 45
420.0
 46
37.59
 47
55.6
 48
0.0
 49
0.0
140
0.0
141
0.0
142
1.0
143
1.0
 70
  1712
 72
     1
 73
     1
 74
     5
  7

 75
    16
147
1.0
148
0.0
149
0.0
  0
PLOTSETTINGS
  5
779
102
{ACAD_REACTORS
330
19
102
}
330
19
100
AcDbPlotSettings
  1
A4(2倍)
  2
none_device
  4
ISO_A3_(297.00_x_420.00_MM)
  6

 40
0.0
 41
0.0
 42
0.0
 43
0.0
 44
297.0
 45
420.0
 46
-67.41
 47
-92.9
 48
0.0
 49
0.0
140
0.0
141
0.0
142
1.0
143
2.0
 70
  1712
 72
     1
 73
     1
 74
     5
  7

 75
    27
147
2.0
148
0.0
149
0.0
  0
ACDBPLACEHOLDER
  5
F
102
{ACAD_REACTORS
330
E
102
}
330
E
  0
SCALE
  5
7AA
102
{ACAD_REACTORS
330
99
102
}
330
99
100
AcDbScale
 70
     0
300
1:1
140
1.0
141
1.0
290
     1
  0
SCALE
  5
7AB
102
{ACAD_REACTORS
330
99
102
}
330
99
100
AcDbScale
 70
     0
300
1:2
140
1.0
141
2.0
290
     0
  0
SCALE
  5
7AC
102
{ACAD_REACTORS
330
99
102
}
330
99
100
AcDbScale
 70
     0
300
1:4
140
1.0
141
4.0
290
     0
  0
SCALE
  5
7AD
102
{ACAD_REACTORS
330
99
102
}
330
99
100
AcDbScale
 70
     0
300
1:5
140
1.0
141
5.0
290
     0
  0
SCALE
  5
7AE
102
{ACAD_REACTORS
330
99
102
}
330
99
100
AcDbScale
 70
     0
300
1:8
140
1.0
141
8.0
290
     0
  0
SCALE
  5
7AF
102
{ACAD_REACTORS
330
99
102
}
330
99
100
AcDbScale
 70
     0
300
1:10
140
1.0
141
10.0
290
     0
  0
SCALE
  5
7B0
102
{ACAD_REACTORS
330
99
102
}
330
99
100
AcDbScale
 70
     0
300
1:16
140
1.0
141
16.0
290
     0
  0
SCALE
  5
7B1
102
{ACAD_REACTORS
330
99
102
}
330
99
100
AcDbScale
 70
     0
300
1:20
140
1.0
141
20.0
290
     0
  0
SCALE
  5
7B2
102
{ACAD_REACTORS
330
99
102
}
330
99
100
AcDbScale
 70
     0
300
1:30
140
1.0
141
30.0
290
     0
  0
SCALE
  5
7B3
102
{ACAD_REACTORS
330
99
102
}
330
99
100
AcDbScale
 70
     0
300
1:40
140
1.0
141
40.0
290
     0
  0
SCALE
  5
7B4
102
{ACAD_REACTORS
330
99
102
}
330
99
100
AcDbScale
 70
     0
300
1:50
140
1.0
141
50.0
290
     0
  0
SCALE
  5
7B5
102
{ACAD_REACTORS
330
99
102
}
330
99
100
AcDbScale
 70
     0
300
1:100
140
1.0
141
100.0
290
     0
  0
SCALE
  5
7B6
102
{ACAD_REACTORS
330
99
102
}
330
99
100
AcDbScale
 70
     0
300
2:1
140
2.0
141
1.0
290
     0
  0
SCALE
  5
7B7
102
{ACAD_REACTORS
330
99
102
}
330
99
100
AcDbScale
 70
     0
300
4:1
140
4.0
141
1.0
290
     0
  0
SCALE
  5
7B8
102
{ACAD_REACTORS
330
99
102
}
330
99
100
AcDbScale
 70
     0
300
8:1
140
8.0
141
1.0
290
     0
  0
SCALE
  5
7B9
102
{ACAD_REACTORS
330
99
102
}
330
99
100
AcDbScale
 70
     0
300
10:1
140
10.0
141
1.0
290
     0
  0
SCALE
  5
7BA
102
{ACAD_REACTORS
330
99
102
}
330
99
100
AcDbScale
 70
     0
300
100:1
140
100.0
141
1.0
290
     0
  0
SCALE
  5
7BB
102
{ACAD_REACTORS
330
99
102
}
330
99
100
AcDbScale
 70
     0
300
1/128" = 1'-0"
140
0.0078125
141
12.0
290
     0
  0
SCALE
  5
7BC
102
{ACAD_REACTORS
330
99
102
}
330
99
100
AcDbScale
 70
     0
300
1/64" = 1'-0"
140
0.015625
141
12.0
290
     0
  0
SCALE
  5
7BD
102
{ACAD_REACTORS
330
99
102
}
330
99
100
AcDbScale
 70
     0
300
1/32" = 1'-0"
140
0.03125
141
12.0
290
     0
  0
SCALE
  5
7BE
102
{ACAD_REACTORS
330
99
102
}
330
99
100
AcDbScale
 70
     0
300
1/16" = 1'-0"
140
0.0625
141
12.0
290
     0
  0
SCALE
  5
7BF
102
{ACAD_REACTORS
330
99
102
}
330
99
100
AcDbScale
 70
     0
300
3/32" = 1'-0"
140
0.09375
141
12.0
290
     0
  0
SCALE
  5
7C0
102
{ACAD_REACTORS
330
99
102
}
330
99
100
AcDbScale
 70
     0
300
1/8" = 1'-0"
140
0.125
141
12.0
290
     0
  0
SCALE
  5
7C1
102
{ACAD_REACTORS
330
99
102
}
330
99
100
AcDbScale
 70
     0
300
3/16" = 1'-0"
140
0.1875
141
12.0
290
     0
  0
SCALE
  5
7C2
102
{ACAD_REACTORS
330
99
102
}
330
99
100
AcDbScale
 70
     0
300
1/4" = 1'-0"
140
0.25
141
12.0
290
     0
  0
SCALE
  5
7C3
102
{ACAD_REACTORS
330
99
102
}
330
99
100
AcDbScale
 70
     0
300
3/8" = 1'-0"
140
0.375
141
12.0
290
     0
  0
SCALE
  5
7C4
102
{ACAD_REACTORS
330
99
102
}
330
99
100
AcDbScale
 70
     0
300
1/2" = 1'-0"
140
0.5
141
12.0
290
     0
  0
SCALE
  5
7C5
102
{ACAD_REACTORS
330
99
102
}
330
99
100
AcDbScale
 70
     0
300
3/4" = 1'-0"
140
0.75
141
12.0
290
     0
  0
SCALE
  5
7C6
102
{ACAD_REACTORS
330
99
102
}
330
99
100
AcDbScale
 70
     0
300
1" = 1'-0"
140
1.0
141
12.0
290
     0
  0
SCALE
  5
7C7
102
{ACAD_REACTORS
330
99
102
}
330
99
100
AcDbScale
 70
     0
300
1-1/2" = 1'-0"
140
1.5
141
12.0
290
     0
  0
SCALE
  5
7C8
102
{ACAD_REACTORS
330
99
102
}
330
99
100
AcDbScale
 70
     0
300
3" = 1'-0"
140
3.0
141
12.0
290
     0
  0
SCALE
  5
7C9
102
{ACAD_REACTORS
330
99
102
}
330
99
100
AcDbScale
 70
     0
300
6" = 1'-0"
140
6.0
141
12.0
290
     0
  0
SCALE
  5
7CA
102
{ACAD_REACTORS
330
99
102
}
330
99
100
AcDbScale
 70
     0
300
1'-0" = 1'-0"
140
12.0
141
12.0
290
     0
  0
TABLESTYLE
  5
7A8
102
{ACAD_REACTORS
330
92
102
}
330
92
100
AcDbTableStyle
  3
Standard
 70
     0
 71
     0
 40
1.5
 41
1.5
280
     0
281
     0
  7
Standard
140
4.5
170
     2
 62
     0
 63
   257
283
     0
274
    -2
284
     1
 64
     0
275
    -2
285
     1
 65
     0
276
    -2
286
     1
 66
     0
277
    -2
287
     1
 67
     0
278
    -2
288
     1
 68
     0
279
    -2
289
     1
 69
     0
  7
Standard
140
6.0
170
     5
 62
     0
 63
   257
283
     0
274
    -2
284
     1
 64
     0
275
    -2
285
     1
 65
     0
276
    -2
286
     1
 66
     0
277
    -2
287
     1
 67
     0
278
    -2
288
     1
 68
     0
279
    -2
289
     1
 69
     0
  7
Standard
140
4.5
170
     5
 62
     0
 63
   257
283
     0
274
    -2
284
     1
 64
     0
275
    -2
285
     1
 65
     0
276
    -2
286
     1
 66
     0
277
    -2
287
     1
 67
     0
278
    -2
288
     1
 68
     0
279
    -2
289
     1
 69
     0
  0
VISUALSTYLE
  5
79B
102
{ACAD_REACTORS
330
795
102
}
102
{ACAD_XDICTIONARY
360
1ADA
102
}
330
795
100
AcDbVisualStyle
  2
2dWireframe
 70
     4
 71
     0
 72
     2
 73
     0
 90
        0
 40
-0.6
 41
-30.0
 62
     5
 63
     7
 74
     1
 91
        4
 64
     7
 65
   257
 75
     1
175
     1
 42
1.0
 92
        0
 66
   257
 43
1.0
 76
     1
 77
     6
 78
     2
 67
     7
 79
     5
170
     0
171
     0
290
     1
174
     0
 93
        1
 44
0.0
173
     0
291
     1
 45
0.0
1001
ACAD
1000
AcDbSavedByObjectVersion
1070
     0
  0
VISUALSTYLE
  5
79D
102
{ACAD_REACTORS
330
795
102
}
102
{ACAD_XDICTIONARY
360
1ADC
102
}
330
795
100
AcDbVisualStyle
  2
3D Hidden
 70
     6
 71
     1
 72
     2
 73
     2
 90
        0
 40
-0.6
 41
-30.0
 62
     5
 63
     7
 74
     2
 91
        2
 64
     7
 65
   257
 75
     2
175
     1
 42
40.0
 92
        0
 66
   257
 43
1.0
 76
     1
 77
     6
 78
     2
 67
     7
 79
     3
170
     0
171
     0
290
     1
174
     0
 93
        1
 44
0.0
173
     0
291
     1
 45
0.0
1001
ACAD
1000
AcDbSavedByObjectVersion
1070
     0
  0
VISUALSTYLE
  5
79C
102
{ACAD_REACTORS
330
795
102
}
102
{ACAD_XDICTIONARY
360
1ADE
102
}
330
795
100
AcDbVisualStyle
  2
3dWireframe
 70
     5
 71
     0
 72
     2
 73
     0
 90
        0
 40
-0.6
 41
-30.0
 62
     5
 63
     7
 74
     1
 91
        4
 64
     7
 65
   257
 75
     1
175
     1
 42
1.0
 92
        0
 66
   257
 43
1.0
 76
     1
 77
     6
 78
     2
 67
     7
 79
     5
170
     0
171
     0
290
     1
174
     0
 93
        1
 44
0.0
173
     0
291
     1
 45
0.0
1001
ACAD
1000
AcDbSavedByObjectVersion
1070
     0
  0
VISUALSTYLE
  5
79A
102
{ACAD_REACTORS
330
795
102
}
102
{ACAD_XDICTIONARY
360
1AE0
102
}
330
795
100
AcDbVisualStyle
  2
Basic
 70
     7
 71
     1
 72
     0
 73
     1
 90
        0
 40
-0.6
 41
-30.0
 62
     5
 63
     7
 74
     0
 91
        4
 64
     7
 65
   257
 75
     1
175
     1
 42
1.0
 92
        8
 66
     7
 43
1.0
 76
     1
 77
     6
 78
     2
 67
     7
 79
     5
170
     0
171
     0
290
     1
174
     0
 93
        1
 44
0.0
173
     0
291
     1
 45
0.0
1001
ACAD
1000
AcDbSavedByObjectVersion
1070
     0
  0
VISUALSTYLE
  5
7A1
102
{ACAD_REACTORS
330
795
102
}
102
{ACAD_XDICTIONARY
360
1AE2
102
}
330
795
100
AcDbVisualStyle
  2
Brighten
 70
    12
 71
     2
 72
     2
 73
     0
 90
        0
 40
-0.6
 41
-30.0
 62
     5
 63
     7
 74
     1
 91
        4
 64
     7
 65
   257
 75
     1
175
     1
 42
1.0
 92
        8
 66
     7
 43
1.0
 76
     1
 77
     6
 78
     2
 67
     7
 79
     5
170
     0
171
     0
290
     1
174
     0
 93
        1
 44
50.0
173
     0
291
     1
 45
0.0
1001
ACAD
1000
AcDbSavedByObjectVersion
1070
     0
  0
VISUALSTYLE
  5
7A5
102
{ACAD_REACTORS
330
795
102
}
102
{ACAD_XDICTIONARY
360
1AE4
102
}
330
795
100
AcDbVisualStyle
  2
ColorChange
 70
    16
 71
     2
 72
     2
 73
     3
 90
        0
 40
-0.6
 41
-30.0
 62
     5
 63
     8
 74
     1
 91
        4
 64
     7
 65
   257
 75
     1
175
     1
 42
1.0
 92
        8
 66
     8
 43
1.0
 76
     1
 77
     6
 78
     2
 67
     7
 79
     5
170
     0
171
     0
290
     1
174
     0
 93
        1
 44
0.0
173
     0
291
     1
 45
0.0
1001
ACAD
1000
AcDbSavedByObjectVersion
1070
     0
  0
VISUALSTYLE
  5
79E
102
{ACAD_REACTORS
330
795
102
}
102
{ACAD_XDICTIONARY
360
1AE6
102
}
330
795
100
AcDbVisualStyle
  2
Conceptual
 70
     9
 71
     3
 72
     2
 73
     0
 90
        0
 40
-0.6
 41
-30.0
 62
     5
 63
     7
 74
     2
 91
        2
 64
     7
 65
   257
 75
     1
175
     1
 42
40.0
 92
        8
 66
     7
 43
1.0
 76
     1
 77
     6
 78
     2
 67
     7
 79
     3
170
     0
171
     0
290
     1
174
     0
 93
        1
 44
0.0
173
     0
291
     1
 45
0.0
1001
ACAD
1000
AcDbSavedByObjectVersion
1070
     0
  0
VISUALSTYLE
  5
7A0
102
{ACAD_REACTORS
330
795
102
}
102
{ACAD_XDICTIONARY
360
1AE8
102
}
330
795
100
AcDbVisualStyle
  2
Dim
 70
    11
 71
     2
 72
     2
 73
     0
 90
        0
 40
-0.6
 41
-30.0
 62
     5
 63
     7
 74
     1
 91
        4
 64
     7
 65
   257
 75
     1
175
     1
 42
1.0
 92
        8
 66
     7
 43
1.0
 76
     1
 77
     6
 78
     2
 67
     7
 79
     5
170
     0
171
     0
290
     1
174
     0
 93
        1
 44
-50.0
173
     0
291
     1
 45
0.0
1001
ACAD
1000
AcDbSavedByObjectVersion
1070
     0
  0
VISUALSTYLE
  5
7A4
102
{ACAD_REACTORS
330
795
102
}
102
{ACAD_XDICTIONARY
360
1AEA
102
}
330
795
100
AcDbVisualStyle
  2
Facepattern
 70
    15
 71
     2
 72
     2
 73
     0
 90
        0
 40
-0.6
 41
-30.0
 62
     5
 63
     7
 74
     1
 91
        4
 64
     7
 65
   257
 75
     1
175
     1
 42
1.0
 92
        8
 66
     7
 43
1.0
 76
     1
 77
     6
 78
     2
 67
     7
 79
     5
170
     0
171
     0
290
     1
174
     0
 93
        1
 44
0.0
173
     0
291
     1
 45
0.0
1001
ACAD
1000
AcDbSavedByObjectVersion
1070
     0
  0
VISUALSTYLE
  5
796
102
{ACAD_REACTORS
330
795
102
}
102
{ACAD_XDICTIONARY
360
1AEC
102
}
330
795
100
AcDbVisualStyle
  2
Flat
 70
     0
 71
     2
 72
     1
 73
     1
 90
        2
 40
-0.6
 41
30.0
 62
     5
 63
     7
 74
     0
 91
        4
 64
     7
 65
   257
 75
     1
175
     1
 42
1.0
 92
        8
 66
     7
 43
1.0
 76
     1
 77
     6
 78
     2
 67
     7
 79
     5
170
     0
171
     0
290
     1
174
     0
 93
       13
 44
0.0
173
     0
291
     1
 45
0.0
1001
ACAD
1000
AcDbSavedByObjectVersion
1070
     0
  0
VISUALSTYLE
  5
797
102
{ACAD_REACTORS
330
795
102
}
102
{ACAD_XDICTIONARY
360
1AEE
102
}
330
795
100
AcDbVisualStyle
  2
FlatWithEdges
 70
     1
 71
     2
 72
     1
 73
     1
 90
        2
 40
-0.6
 41
30.0
 62
     5
 63
     7
 74
     1
 91
        4
 64
     7
 65
   257
 75
     1
175
     1
 42
1.0
 92
        0
 66
   257
 43
1.0
 76
     1
 77
     6
 78
     2
 67
     7
 79
     5
170
     0
171
     0
290
     1
174
     0
 93
       13
 44
0.0
173
     0
291
     1
 45
0.0
1001
ACAD
1000
AcDbSavedByObjectVersion
1070
     0
  0
VISUALSTYLE
  5
798
102
{ACAD_REACTORS
330
795
102
}
102
{ACAD_XDICTIONARY
360
1AF0
102
}
330
795
100
AcDbVisualStyle
  2
Gouraud
 70
     2
 71
     2
 72
     2
 73
     1
 90
        2
 40
-0.6
 41
30.0
 62
     5
 63
     7
 74
     0
 91
        4
 64
     7
 65
   257
 75
     1
175
     1
 42
1.0
 92
        0
 66
     7
 43
1.0
 76
     1
 77
     6
 78
     2
 67
     7
 79
     5
170
     0
171
     0
290
     1
174
     0
 93
       13
 44
0.0
173
     0
291
     1
 45
0.0
1001
ACAD
1000
AcDbSavedByObjectVersion
1070
     0
  0
VISUALSTYLE
  5
799
102
{ACAD_REACTORS
330
795
102
}
102
{ACAD_XDICTIONARY
360
1AF2
102
}
330
795
100
AcDbVisualStyle
  2
GouraudWithEdges
 70
     3
 71
     2
 72
     2
 73
     1
 90
        2
 40
-0.6
 41
30.0
 62
     5
 63
     7
 74
     1
 91
        4
 64
     7
 65
   257
 75
     1
175
     1
 42
1.0
 92
        0
 66
   257
 43
1.0
 76
     1
 77
     6
 78
     2
 67
     7
 79
     5
170
     0
171
     0
290
     1
174
     0
 93
       13
 44
0.0
173
     0
291
     1
 45
0.0
1001
ACAD
1000
AcDbSavedByObjectVersion
1070
     0
  0
VISUALSTYLE
  5
7A3
102
{ACAD_REACTORS
330
795
102
}
102
{ACAD_XDICTIONARY
360
1AF4
102
}
330
795
100
AcDbVisualStyle
  2
Linepattern
 70
    14
 71
     2
 72
     2
 73
     0
 90
        0
 40
-0.6
 41
-30.0
 62
     5
 63
     7
 74
     1
 91
        4
 64
     7
 65
   257
 75
     7
175
     7
 42
1.0
 92
        8
 66
     7
 43
1.0
 76
     1
 77
     6
 78
     2
 67
     7
 79
     5
170
     0
171
     0
290
     1
174
     0
 93
        1
 44
0.0
173
     0
291
     1
 45
0.0
1001
ACAD
1000
AcDbSavedByObjectVersion
1070
     0
  0
VISUALSTYLE
  5
79F
102
{ACAD_REACTORS
330
795
102
}
102
{ACAD_XDICTIONARY
360
1AF6
102
}
330
795
100
AcDbVisualStyle
  2
Realistic
 70
     8
 71
     2
 72
     2
 73
     0
 90
        0
 40
-0.6
 41
-30.0
 62
     5
 63
     7
 74
     1
 91
        0
 64
     7
 65
   257
 75
     1
175
     1
 42
1.0
 92
        8
 66
     8
 43
1.0
 76
     1
 77
     6
 78
     2
 67
     7
 79
     5
170
     0
171
     0
290
     1
174
     0
 93
       13
 44
0.0
173
     0
291
     1
 45
0.0
1001
ACAD
1000
AcDbSavedByObjectVersion
1070
     0
  0
VISUALSTYLE
  5
7A2
102
{ACAD_REACTORS
330
795
102
}
102
{ACAD_XDICTIONARY
360
1AF8
102
}
330
795
100
AcDbVisualStyle
  2
Thicken
 70
    13
 71
     2
 72
     2
 73
     0
 90
        0
 40
-0.6
 41
-30.0
 62
     5
 63
     7
 74
     1
 91
        4
 64
     7
 65
   257
 75
     1
175
     1
 42
1.0
 92
       12
 66
     7
 43
1.0
 76
     1
 77
     6
 78
     2
 67
     7
 79
     5
170
     0
171
     0
290
     1
174
     0
 93
        1
 44
0.0
173
     0
291
     1
 45
0.0
1001
ACAD
1000
AcDbSavedByObjectVersion
1070
     0
  0
XRECORD
  5
1ACE
102
{ACAD_REACTORS
330
1ACD
102
}
330
1ACD
100
AcDbXrecord
280
     1
340
6C
  0
XRECORD
  5
1ACF
102
{ACAD_REACTORS
330
1ACD
102
}
330
1ACD
100
AcDbXrecord
280
     1
340
6B
  0
DICTIONARYVAR
  5
1ACC
102
{ACAD_REACTORS
330
59
102
}
330
59
100
DictionaryVariables
280
     0
  1
1:1
  0
DICTIONARYVAR
  5
10E8
102
{ACAD_REACTORS
330
59
102
}
330
59
100
DictionaryVariables
280
     0
  1

  0
DICTIONARYVAR
  5
10E7
102
{ACAD_REACTORS
330
59
102
}
330
59
100
DictionaryVariables
280
     0
  1

  0
DICTIONARYVAR
  5
10EC
102
{ACAD_REACTORS
330
59
102
}
330
59
100
DictionaryVariables
280
     0
  1
1
  0
DICTIONARYVAR
  5
5E
102
{ACAD_REACTORS
330
59
102
}
330
59
100
DictionaryVariables
280
     0
  1
1
  0
DICTIONARYVAR
  5
10EB
102
{ACAD_REACTORS
330
59
102
}
330
59
100
DictionaryVariables
280
     0
  1
0
  0
DICTIONARYVAR
  5
10EA
102
{ACAD_REACTORS
330
59
102
}
330
59
100
DictionaryVariables
280
     0
  1
127
  0
DICTIONARYVAR
  5
1ACB
102
{ACAD_REACTORS
330
59
102
}
330
59
100
DictionaryVariables
280
     0
  1
0
  0
XRECORD
  5
560
102
{ACAD_REACTORS
330
540
102
}
330
540
100
AcDbXrecord
280
     1
  1
2.0.0
  0
DICTIONARY
  5
1AD1
330
785
100
AcDbDictionary
280
     1
281
     1
  3
ACAD_XREC_ROUNDTRIP
360
1AD3
  3
ADVMATERIAL
360
1AD2
  0
DICTIONARY
  5
1AD4
330
77D
100
AcDbDictionary
280
     1
281
     1
  3
ACAD_XREC_ROUNDTRIP
360
1AD6
  3
ADVMATERIAL
360
1AD5
  0
DICTIONARY
  5
1AD7
330
78D
100
AcDbDictionary
280
     1
281
     1
  3
ACAD_XREC_ROUNDTRIP
360
1AD9
  3
ADVMATERIAL
360
1AD8
  0
DICTIONARY
  5
1ADA
330
79B
100
AcDbDictionary
280
     1
281
     1
  3
ACAD_XREC_ROUNDTRIP
360
1ADB
  0
DICTIONARY
  5
1ADC
330
79D
100
AcDbDictionary
280
     1
281
     1
  3
ACAD_XREC_ROUNDTRIP
360
1ADD
  0
DICTIONARY
  5
1ADE
330
79C
100
AcDbDictionary
280
     1
281
     1
  3
ACAD_XREC_ROUNDTRIP
360
1ADF
  0
DICTIONARY
  5
1AE0
330
79A
100
AcDbDictionary
280
     1
281
     1
  3
ACAD_XREC_ROUNDTRIP
360
1AE1
  0
DICTIONARY
  5
1AE2
330
7A1
100
AcDbDictionary
280
     1
281
     1
  3
ACAD_XREC_ROUNDTRIP
360
1AE3
  0
DICTIONARY
  5
1AE4
330
7A5
100
AcDbDictionary
280
     1
281
     1
  3
ACAD_XREC_ROUNDTRIP
360
1AE5
  0
DICTIONARY
  5
1AE6
330
79E
100
AcDbDictionary
280
     1
281
     1
  3
ACAD_XREC_ROUNDTRIP
360
1AE7
  0
DICTIONARY
  5
1AE8
330
7A0
100
AcDbDictionary
280
     1
281
     1
  3
ACAD_XREC_ROUNDTRIP
360
1AE9
  0
DICTIONARY
  5
1AEA
330
7A4
100
AcDbDictionary
280
     1
281
     1
  3
ACAD_XREC_ROUNDTRIP
360
1AEB
  0
DICTIONARY
  5
1AEC
330
796
100
AcDbDictionary
280
     1
281
     1
  3
ACAD_XREC_ROUNDTRIP
360
1AED
  0
DICTIONARY
  5
1AEE
330
797
100
AcDbDictionary
280
     1
281
     1
  3
ACAD_XREC_ROUNDTRIP
360
1AEF
  0
DICTIONARY
  5
1AF0
330
798
100
AcDbDictionary
280
     1
281
     1
  3
ACAD_XREC_ROUNDTRIP
360
1AF1
  0
DICTIONARY
  5
1AF2
330
799
100
AcDbDictionary
280
     1
281
     1
  3
ACAD_XREC_ROUNDTRIP
360
1AF3
  0
DICTIONARY
  5
1AF4
330
7A3
100
AcDbDictionary
280
     1
281
     1
  3
ACAD_XREC_ROUNDTRIP
360
1AF5
  0
DICTIONARY
  5
1AF6
330
79F
100
AcDbDictionary
280
     1
281
     1
  3
ACAD_XREC_ROUNDTRIP
360
1AF7
  0
DICTIONARY
  5
1AF8
330
7A2
100
AcDbDictionary
280
     1
281
     1
  3
ACAD_XREC_ROUNDTRIP
360
1AF9
  0
XRECORD
  5
1AD3
102
{ACAD_REACTORS
330
1AD1
102
}
330
1AD1
100
AcDbXrecord
280
     1
102
MATERIAL
148
0.0
149
0.0
149
0.0
 93
        0
 94
      127
282
     0
 72
     1
 77
     1
171
     1
175
     1
179
     1
273
     0
  0
ACAD_PROXY_OBJECT
  5
1AD2
102
{ACAD_REACTORS
330
1AD1
102
}
330
1AD1
100
AcDbProxyObject
 90
      499
 91
      511
 95
       23
 70
     0
 93
      564
310
5133004000000000001650334040000000000016503380400000000000165033C040000000000016500880404380400034004000000000000000094040440040C0044040C01010
  0
XRECORD
  5
1AD6
102
{ACAD_REACTORS
330
1AD4
102
}
330
1AD4
100
AcDbXrecord
280
     1
102
MATERIAL
148
0.0
149
0.0
149
0.0
 93
        0
 94
      127
282
     0
 72
     1
 77
     1
171
     1
175
     1
179
     1
273
     0
  0
ACAD_PROXY_OBJECT
  5
1AD5
102
{ACAD_REACTORS
330
1AD4
102
}
330
1AD4
100
AcDbProxyObject
 90
      499
 91
      511
 95
       23
 70
     0
 93
      564
310
5133004000000000001650334040000000000016503380400000000000165033C040000000000016500880404380400034004000000000000000094040440040C0044040C01010
  0
XRECORD
  5
1AD9
102
{ACAD_REACTORS
330
1AD7
102
}
330
1AD7
100
AcDbXrecord
280
     1
102
MATERIAL
148
0.0
149
0.0
149
0.0
 93
        0
 94
      127
282
     0
 72
     1
 77
     1
171
     1
175
     1
179
     1
273
     0
  0
ACAD_PROXY_OBJECT
  5
1AD8
102
{ACAD_REACTORS
330
1AD7
102
}
330
1AD7
100
AcDbProxyObject
 90
      499
 91
      511
 95
       23
 70
     0
 93
      564
310
5133004000000000001650334040000000000016503380400000000000165033C040000000000016500880404380400034004000000000000000094040440040C0044040C01010
  0
XRECORD
  5
1ADB
102
{ACAD_REACTORS
330
1ADA
102
}
330
1ADA
100
AcDbXrecord
280
     1
102
RTVSPropertyOp0
 70
     1
102
RTVSPropertyOp1
 70
     1
102
RTVSPropertyOp2
 70
     1
102
RTVSPropertyOp3
 70
     1
102
RTVSPropertyOp4
 70
     1
102
RTVSPropertyOp5
 70
     1
102
RTVSPropertyOp6
 70
     1
102
RTVSPropertyOp7
 70
     1
102
RTVSPropertyOp8
 70
     1
102
RTVSPropertyOp9
 70
     1
102
RTVSPropertyOp10
 70
     1
102
RTVSPropertyOp11
 70
     1
102
RTVSPropertyOp12
 70
     1
102
RTVSPropertyOp13
 70
     1
102
RTVSPropertyOp14
 70
     1
102
RTVSPropertyOp15
 70
     1
102
RTVSPropertyOp16
 70
     1
102
RTVSPropertyOp17
 70
     1
102
RTVSPropertyOp18
 70
     1
102
RTVSPropertyOp19
 70
     1
102
RTVSPropertyOp20
 70
     1
102
RTVSPropertyOp21
 70
     1
102
RTVSPropertyOp22
 70
     1
102
RTVSPropertyOp23
 70
     1
102
RTVSPropertyOp24
 70
     1
102
RTVSPropertyOp25
 70
     1
102
RTVSPropertyOp26
 70
     1
102
RTVSPropertyOp27
 70
     1
  0
XRECORD
  5
1ADD
102
{ACAD_REACTORS
330
1ADC
102
}
330
1ADC
100
AcDbXrecord
280
     1
102
RTVSPropertyOp0
 70
     1
102
RTVSPropertyOp1
 70
     1
102
RTVSPropertyOp2
 70
     1
102
RTVSPropertyOp3
 70
     1
102
RTVSPropertyOp4
 70
     1
102
RTVSPropertyOp5
 70
     1
102
RTVSPropertyOp6
 70
     1
102
RTVSPropertyOp7
 70
     1
102
RTVSPropertyOp8
 70
     1
102
RTVSPropertyOp9
 70
     1
102
RTVSPropertyOp10
 70
     1
102
RTVSPropertyOp11
 70
     1
102
RTVSPropertyOp12
 70
     1
102
RTVSPropertyOp13
 70
     1
102
RTVSPropertyOp14
 70
     1
102
RTVSPropertyOp15
 70
     1
102
RTVSPropertyOp16
 70
     1
102
RTVSPropertyOp17
 70
     1
102
RTVSPropertyOp18
 70
     1
102
RTVSPropertyOp19
 70
     1
102
RTVSPropertyOp20
 70
     1
102
RTVSPropertyOp21
 70
     1
102
RTVSPropertyOp22
 70
     1
102
RTVSPropertyOp23
 70
     1
102
RTVSPropertyOp24
 70
     1
102
RTVSPropertyOp25
 70
     1
102
RTVSPropertyOp26
 70
     1
102
RTVSPropertyOp27
 70
     1
  0
XRECORD
  5
1ADF
102
{ACAD_REACTORS
330
1ADE
102
}
330
1ADE
100
AcDbXrecord
280
     1
102
RTVSPropertyOp0
 70
     1
102
RTVSPropertyOp1
 70
     1
102
RTVSPropertyOp2
 70
     1
102
RTVSPropertyOp3
 70
     1
102
RTVSPropertyOp4
 70
     1
102
RTVSPropertyOp5
 70
     1
102
RTVSPropertyOp6
 70
     1
102
RTVSPropertyOp7
 70
     1
102
RTVSPropertyOp8
 70
     1
102
RTVSPropertyOp9
 70
     1
102
RTVSPropertyOp10
 70
     1
102
RTVSPropertyOp11
 70
     1
102
RTVSPropertyOp12
 70
     1
102
RTVSPropertyOp13
 70
     1
102
RTVSPropertyOp14
 70
     1
102
RTVSPropertyOp15
 70
     1
102
RTVSPropertyOp16
 70
     1
102
RTVSPropertyOp17
 70
     1
102
RTVSPropertyOp18
 70
     1
102
RTVSPropertyOp19
 70
     1
102
RTVSPropertyOp20
 70
     1
102
RTVSPropertyOp21
 70
     1
102
RTVSPropertyOp22
 70
     1
102
RTVSPropertyOp23
 70
     1
102
RTVSPropertyOp24
 70
     1
102
RTVSPropertyOp25
 70
     1
102
RTVSPropertyOp26
 70
     1
102
RTVSPropertyOp27
 70
     1
  0
XRECORD
  5
1AE1
102
{ACAD_REACTORS
330
1AE0
102
}
330
1AE0
100
AcDbXrecord
280
     1
102
RTVSPropertyOp0
 70
     1
102
RTVSPropertyOp1
 70
     1
102
RTVSPropertyOp2
 70
     1
102
RTVSPropertyOp3
 70
     1
102
RTVSPropertyOp4
 70
     1
102
RTVSPropertyOp5
 70
     1
102
RTVSPropertyOp6
 70
     1
102
RTVSPropertyOp7
 70
     1
102
RTVSPropertyOp8
 70
     1
102
RTVSPropertyOp9
 70
     1
102
RTVSPropertyOp10
 70
     1
102
RTVSPropertyOp11
 70
     1
102
RTVSPropertyOp12
 70
     1
102
RTVSPropertyOp13
 70
     1
102
RTVSPropertyOp14
 70
     1
102
RTVSPropertyOp15
 70
     1
102
RTVSPropertyOp16
 70
     1
102
RTVSPropertyOp17
 70
     1
102
RTVSPropertyOp18
 70
     1
102
RTVSPropertyOp19
 70
     1
102
RTVSPropertyOp20
 70
     1
102
RTVSPropertyOp21
 70
     1
102
RTVSPropertyOp22
 70
     1
102
RTVSPropertyOp23
 70
     1
102
RTVSPropertyOp24
 70
     1
102
RTVSPropertyOp25
 70
     1
102
RTVSPropertyOp26
 70
     1
102
RTVSPropertyOp27
 70
     1
  0
XRECORD
  5
1AE3
102
{ACAD_REACTORS
330
1AE2
102
}
330
1AE2
100
AcDbXrecord
280
     1
102
RTVSPropertyOp0
 70
     1
102
RTVSPropertyOp1
 70
     1
102
RTVSPropertyOp2
 70
     1
102
RTVSPropertyOp3
 70
     1
102
RTVSPropertyOp4
 70
     1
102
RTVSPropertyOp5
 70
     1
102
RTVSPropertyOp6
 70
     1
102
RTVSPropertyOp7
 70
     1
102
RTVSPropertyOp8
 70
     1
102
RTVSPropertyOp9
 70
     1
102
RTVSPropertyOp10
 70
     1
102
RTVSPropertyOp11
 70
     1
102
RTVSPropertyOp12
 70
     1
102
RTVSPropertyOp13
 70
     1
102
RTVSPropertyOp14
 70
     1
102
RTVSPropertyOp15
 70
     1
102
RTVSPropertyOp16
 70
     1
102
RTVSPropertyOp17
 70
     1
102
RTVSPropertyOp18
 70
     1
102
RTVSPropertyOp19
 70
     1
102
RTVSPropertyOp20
 70
     1
102
RTVSPropertyOp21
 70
     1
102
RTVSPropertyOp22
 70
     1
102
RTVSPropertyOp23
 70
     1
102
RTVSPropertyOp24
 70
     1
102
RTVSPropertyOp25
 70
     1
102
RTVSPropertyOp26
 70
     1
102
RTVSPropertyOp27
 70
     1
  0
XRECORD
  5
1AE5
102
{ACAD_REACTORS
330
1AE4
102
}
330
1AE4
100
AcDbXrecord
280
     1
102
RTVSPropertyOp0
 70
     1
102
RTVSPropertyOp1
 70
     1
102
RTVSPropertyOp2
 70
     1
102
RTVSPropertyOp3
 70
     1
102
RTVSPropertyOp4
 70
     1
102
RTVSPropertyOp5
 70
     1
102
RTVSPropertyOp6
 70
     1
102
RTVSPropertyOp7
 70
     1
102
RTVSPropertyOp8
 70
     1
102
RTVSPropertyOp9
 70
     1
102
RTVSPropertyOp10
 70
     1
102
RTVSPropertyOp11
 70
     1
102
RTVSPropertyOp12
 70
     1
102
RTVSPropertyOp13
 70
     1
102
RTVSPropertyOp14
 70
     1
102
RTVSPropertyOp15
 70
     1
102
RTVSPropertyOp16
 70
     1
102
RTVSPropertyOp17
 70
     1
102
RTVSPropertyOp18
 70
     1
102
RTVSPropertyOp19
 70
     1
102
RTVSPropertyOp20
 70
     1
102
RTVSPropertyOp21
 70
     1
102
RTVSPropertyOp22
 70
     1
102
RTVSPropertyOp23
 70
     1
102
RTVSPropertyOp24
 70
     1
102
RTVSPropertyOp25
 70
     1
102
RTVSPropertyOp26
 70
     1
102
RTVSPropertyOp27
 70
     1
  0
XRECORD
  5
1AE7
102
{ACAD_REACTORS
330
1AE6
102
}
330
1AE6
100
AcDbXrecord
280
     1
102
RTVSPropertyOp0
 70
     1
102
RTVSPropertyOp1
 70
     1
102
RTVSPropertyOp2
 70
     1
102
RTVSPropertyOp3
 70
     1
102
RTVSPropertyOp4
 70
     1
102
RTVSPropertyOp5
 70
     1
102
RTVSPropertyOp6
 70
     1
102
RTVSPropertyOp7
 70
     1
102
RTVSPropertyOp8
 70
     1
102
RTVSPropertyOp9
 70
     1
102
RTVSPropertyOp10
 70
     1
102
RTVSPropertyOp11
 70
     1
102
RTVSPropertyOp12
 70
     1
102
RTVSPropertyOp13
 70
     1
102
RTVSPropertyOp14
 70
     1
102
RTVSPropertyOp15
 70
     1
102
RTVSPropertyOp16
 70
     1
102
RTVSPropertyOp17
 70
     1
102
RTVSPropertyOp18
 70
     1
102
RTVSPropertyOp19
 70
     1
102
RTVSPropertyOp20
 70
     1
102
RTVSPropertyOp21
 70
     1
102
RTVSPropertyOp22
 70
     1
102
RTVSPropertyOp23
 70
     1
102
RTVSPropertyOp24
 70
     1
102
RTVSPropertyOp25
 70
     1
102
RTVSPropertyOp26
 70
     1
102
RTVSPropertyOp27
 70
     1
  0
XRECORD
  5
1AE9
102
{ACAD_REACTORS
330
1AE8
102
}
330
1AE8
100
AcDbXrecord
280
     1
102
RTVSPropertyOp0
 70
     1
102
RTVSPropertyOp1
 70
     1
102
RTVSPropertyOp2
 70
     1
102
RTVSPropertyOp3
 70
     1
102
RTVSPropertyOp4
 70
     1
102
RTVSPropertyOp5
 70
     1
102
RTVSPropertyOp6
 70
     1
102
RTVSPropertyOp7
 70
     1
102
RTVSPropertyOp8
 70
     1
102
RTVSPropertyOp9
 70
     1
102
RTVSPropertyOp10
 70
     1
102
RTVSPropertyOp11
 70
     1
102
RTVSPropertyOp12
 70
     1
102
RTVSPropertyOp13
 70
     1
102
RTVSPropertyOp14
 70
     1
102
RTVSPropertyOp15
 70
     1
102
RTVSPropertyOp16
 70
     1
102
RTVSPropertyOp17
 70
     1
102
RTVSPropertyOp18
 70
     1
102
RTVSPropertyOp19
 70
     1
102
RTVSPropertyOp20
 70
     1
102
RTVSPropertyOp21
 70
     1
102
RTVSPropertyOp22
 70
     1
102
RTVSPropertyOp23
 70
     1
102
RTVSPropertyOp24
 70
     1
102
RTVSPropertyOp25
 70
     1
102
RTVSPropertyOp26
 70
     1
102
RTVSPropertyOp27
 70
     1
  0
XRECORD
  5
1AEB
102
{ACAD_REACTORS
330
1AEA
102
}
330
1AEA
100
AcDbXrecord
280
     1
102
RTVSPropertyOp0
 70
     1
102
RTVSPropertyOp1
 70
     1
102
RTVSPropertyOp2
 70
     1
102
RTVSPropertyOp3
 70
     1
102
RTVSPropertyOp4
 70
     1
102
RTVSPropertyOp5
 70
     1
102
RTVSPropertyOp6
 70
     1
102
RTVSPropertyOp7
 70
     1
102
RTVSPropertyOp8
 70
     1
102
RTVSPropertyOp9
 70
     1
102
RTVSPropertyOp10
 70
     1
102
RTVSPropertyOp11
 70
     1
102
RTVSPropertyOp12
 70
     1
102
RTVSPropertyOp13
 70
     1
102
RTVSPropertyOp14
 70
     1
102
RTVSPropertyOp15
 70
     1
102
RTVSPropertyOp16
 70
     1
102
RTVSPropertyOp17
 70
     1
102
RTVSPropertyOp18
 70
     1
102
RTVSPropertyOp19
 70
     1
102
RTVSPropertyOp20
 70
     1
102
RTVSPropertyOp21
 70
     1
102
RTVSPropertyOp22
 70
     1
102
RTVSPropertyOp23
 70
     1
102
RTVSPropertyOp24
 70
     1
102
RTVSPropertyOp25
 70
     1
102
RTVSPropertyOp26
 70
     1
102
RTVSPropertyOp27
 70
     1
  0
XRECORD
  5
1AED
102
{ACAD_REACTORS
330
1AEC
102
}
330
1AEC
100
AcDbXrecord
280
     1
102
RTVSPropertyOp0
 70
     1
102
RTVSPropertyOp1
 70
     1
102
RTVSPropertyOp2
 70
     1
102
RTVSPropertyOp3
 70
     1
102
RTVSPropertyOp4
 70
     1
102
RTVSPropertyOp5
 70
     1
102
RTVSPropertyOp6
 70
     1
102
RTVSPropertyOp7
 70
     1
102
RTVSPropertyOp8
 70
     1
102
RTVSPropertyOp9
 70
     1
102
RTVSPropertyOp10
 70
     1
102
RTVSPropertyOp11
 70
     1
102
RTVSPropertyOp12
 70
     1
102
RTVSPropertyOp13
 70
     1
102
RTVSPropertyOp14
 70
     1
102
RTVSPropertyOp15
 70
     1
102
RTVSPropertyOp16
 70
     1
102
RTVSPropertyOp17
 70
     1
102
RTVSPropertyOp18
 70
     1
102
RTVSPropertyOp19
 70
     1
102
RTVSPropertyOp20
 70
     1
102
RTVSPropertyOp21
 70
     1
102
RTVSPropertyOp22
 70
     1
102
RTVSPropertyOp23
 70
     1
102
RTVSPropertyOp24
 70
     1
102
RTVSPropertyOp25
 70
     1
102
RTVSPropertyOp26
 70
     1
102
RTVSPropertyOp27
 70
     1
  0
XRECORD
  5
1AEF
102
{ACAD_REACTORS
330
1AEE
102
}
330
1AEE
100
AcDbXrecord
280
     1
102
RTVSPropertyOp0
 70
     1
102
RTVSPropertyOp1
 70
     1
102
RTVSPropertyOp2
 70
     1
102
RTVSPropertyOp3
 70
     1
102
RTVSPropertyOp4
 70
     1
102
RTVSPropertyOp5
 70
     1
102
RTVSPropertyOp6
 70
     1
102
RTVSPropertyOp7
 70
     1
102
RTVSPropertyOp8
 70
     1
102
RTVSPropertyOp9
 70
     1
102
RTVSPropertyOp10
 70
     1
102
RTVSPropertyOp11
 70
     1
102
RTVSPropertyOp12
 70
     1
102
RTVSPropertyOp13
 70
     1
102
RTVSPropertyOp14
 70
     1
102
RTVSPropertyOp15
 70
     1
102
RTVSPropertyOp16
 70
     1
102
RTVSPropertyOp17
 70
     1
102
RTVSPropertyOp18
 70
     1
102
RTVSPropertyOp19
 70
     1
102
RTVSPropertyOp20
 70
     1
102
RTVSPropertyOp21
 70
     1
102
RTVSPropertyOp22
 70
     1
102
RTVSPropertyOp23
 70
     1
102
RTVSPropertyOp24
 70
     1
102
RTVSPropertyOp25
 70
     1
102
RTVSPropertyOp26
 70
     1
102
RTVSPropertyOp27
 70
     1
  0
XRECORD
  5
1AF1
102
{ACAD_REACTORS
330
1AF0
102
}
330
1AF0
100
AcDbXrecord
280
     1
102
RTVSPropertyOp0
 70
     1
102
RTVSPropertyOp1
 70
     1
102
RTVSPropertyOp2
 70
     1
102
RTVSPropertyOp3
 70
     1
102
RTVSPropertyOp4
 70
     1
102
RTVSPropertyOp5
 70
     1
102
RTVSPropertyOp6
 70
     1
102
RTVSPropertyOp7
 70
     1
102
RTVSPropertyOp8
 70
     1
102
RTVSPropertyOp9
 70
     1
102
RTVSPropertyOp10
 70
     1
102
RTVSPropertyOp11
 70
     1
102
RTVSPropertyOp12
 70
     1
102
RTVSPropertyOp13
 70
     1
102
RTVSPropertyOp14
 70
     1
102
RTVSPropertyOp15
 70
     1
102
RTVSPropertyOp16
 70
     1
102
RTVSPropertyOp17
 70
     1
102
RTVSPropertyOp18
 70
     1
102
RTVSPropertyOp19
 70
     1
102
RTVSPropertyOp20
 70
     1
102
RTVSPropertyOp21
 70
     1
102
RTVSPropertyOp22
 70
     1
102
RTVSPropertyOp23
 70
     1
102
RTVSPropertyOp24
 70
     1
102
RTVSPropertyOp25
 70
     1
102
RTVSPropertyOp26
 70
     1
102
RTVSPropertyOp27
 70
     1
  0
XRECORD
  5
1AF3
102
{ACAD_REACTORS
330
1AF2
102
}
330
1AF2
100
AcDbXrecord
280
     1
102
RTVSPropertyOp0
 70
     1
102
RTVSPropertyOp1
 70
     1
102
RTVSPropertyOp2
 70
     1
102
RTVSPropertyOp3
 70
     1
102
RTVSPropertyOp4
 70
     1
102
RTVSPropertyOp5
 70
     1
102
RTVSPropertyOp6
 70
     1
102
RTVSPropertyOp7
 70
     1
102
RTVSPropertyOp8
 70
     1
102
RTVSPropertyOp9
 70
     1
102
RTVSPropertyOp10
 70
     1
102
RTVSPropertyOp11
 70
     1
102
RTVSPropertyOp12
 70
     1
102
RTVSPropertyOp13
 70
     1
102
RTVSPropertyOp14
 70
     1
102
RTVSPropertyOp15
 70
     1
102
RTVSPropertyOp16
 70
     1
102
RTVSPropertyOp17
 70
     1
102
RTVSPropertyOp18
 70
     1
102
RTVSPropertyOp19
 70
     1
102
RTVSPropertyOp20
 70
     1
102
RTVSPropertyOp21
 70
     1
102
RTVSPropertyOp22
 70
     1
102
RTVSPropertyOp23
 70
     1
102
RTVSPropertyOp24
 70
     1
102
RTVSPropertyOp25
 70
     1
102
RTVSPropertyOp26
 70
     1
102
RTVSPropertyOp27
 70
     1
  0
XRECORD
  5
1AF5
102
{ACAD_REACTORS
330
1AF4
102
}
330
1AF4
100
AcDbXrecord
280
     1
102
RTVSPropertyOp0
 70
     1
102
RTVSPropertyOp1
 70
     1
102
RTVSPropertyOp2
 70
     1
102
RTVSPropertyOp3
 70
     1
102
RTVSPropertyOp4
 70
     1
102
RTVSPropertyOp5
 70
     1
102
RTVSPropertyOp6
 70
     1
102
RTVSPropertyOp7
 70
     1
102
RTVSPropertyOp8
 70
     1
102
RTVSPropertyOp9
 70
     1
102
RTVSPropertyOp10
 70
     1
102
RTVSPropertyOp11
 70
     1
102
RTVSPropertyOp12
 70
     1
102
RTVSPropertyOp13
 70
     1
102
RTVSPropertyOp14
 70
     1
102
RTVSPropertyOp15
 70
     1
102
RTVSPropertyOp16
 70
     1
102
RTVSPropertyOp17
 70
     1
102
RTVSPropertyOp18
 70
     1
102
RTVSPropertyOp19
 70
     1
102
RTVSPropertyOp20
 70
     1
102
RTVSPropertyOp21
 70
     1
102
RTVSPropertyOp22
 70
     1
102
RTVSPropertyOp23
 70
     1
102
RTVSPropertyOp24
 70
     1
102
RTVSPropertyOp25
 70
     1
102
RTVSPropertyOp26
 70
     1
102
RTVSPropertyOp27
 70
     1
  0
XRECORD
  5
1AF7
102
{ACAD_REACTORS
330
1AF6
102
}
330
1AF6
100
AcDbXrecord
280
     1
102
RTVSPropertyOp0
 70
     1
102
RTVSPropertyOp1
 70
     1
102
RTVSPropertyOp2
 70
     1
102
RTVSPropertyOp3
 70
     1
102
RTVSPropertyOp4
 70
     1
102
RTVSPropertyOp5
 70
     1
102
RTVSPropertyOp6
 70
     1
102
RTVSPropertyOp7
 70
     1
102
RTVSPropertyOp8
 70
     1
102
RTVSPropertyOp9
 70
     1
102
RTVSPropertyOp10
 70
     1
102
RTVSPropertyOp11
 70
     1
102
RTVSPropertyOp12
 70
     1
102
RTVSPropertyOp13
 70
     1
102
RTVSPropertyOp14
 70
     1
102
RTVSPropertyOp15
 70
     1
102
RTVSPropertyOp16
 70
     1
102
RTVSPropertyOp17
 70
     1
102
RTVSPropertyOp18
 70
     1
102
RTVSPropertyOp19
 70
     1
102
RTVSPropertyOp20
 70
     1
102
RTVSPropertyOp21
 70
     1
102
RTVSPropertyOp22
 70
     1
102
RTVSPropertyOp23
 70
     1
102
RTVSPropertyOp24
 70
     1
102
RTVSPropertyOp25
 70
     1
102
RTVSPropertyOp26
 70
     1
102
RTVSPropertyOp27
 70
     1
  0
XRECORD
  5
1AF9
102
{ACAD_REACTORS
330
1AF8
102
}
330
1AF8
100
AcDbXrecord
280
     1
102
RTVSPropertyOp0
 70
     1
102
RTVSPropertyOp1
 70
     1
102
RTVSPropertyOp2
 70
     1
102
RTVSPropertyOp3
 70
     1
102
RTVSPropertyOp4
 70
     1
102
RTVSPropertyOp5
 70
     1
102
RTVSPropertyOp6
 70
     1
102
RTVSPropertyOp7
 70
     1
102
RTVSPropertyOp8
 70
     1
102
RTVSPropertyOp9
 70
     1
102
RTVSPropertyOp10
 70
     1
102
RTVSPropertyOp11
 70
     1
102
RTVSPropertyOp12
 70
     1
102
RTVSPropertyOp13
 70
     1
102
RTVSPropertyOp14
 70
     1
102
RTVSPropertyOp15
 70
     1
102
RTVSPropertyOp16
 70
     1
102
RTVSPropertyOp17
 70
     1
102
RTVSPropertyOp18
 70
     1
102
RTVSPropertyOp19
 70
     1
102
RTVSPropertyOp20
 70
     1
102
RTVSPropertyOp21
 70
     1
102
RTVSPropertyOp22
 70
     1
102
RTVSPropertyOp23
 70
     1
102
RTVSPropertyOp24
 70
     1
102
RTVSPropertyOp25
 70
     1
102
RTVSPropertyOp26
 70
     1
102
RTVSPropertyOp27
 70
     1
  0
ENDSEC
  0
EOF
