  0
SECTION
  2
HEADER
  9
$ACADVER
  1
AC1014
  9
$ACADMAINTVER
 70
     9
  9
$DWGCODEPAGE
  3
ANSI_932
  9
$INSBASE
 10
0.0
 20
0.0
 30
0.0
  9
$EXTMIN
 10
-82.79999999999544
 20
-25.00000000000052
 30
-0.0000000000000002
  9
$EXTMAX
 10
15.0
 20
53.99999999999972
 30
0.0000000000000004
  9
$LIMMIN
 10
0.0
 20
0.0
  9
$LIMMAX
 10
297.0
 20
210.0
  9
$ORTHOMODE
 70
     0
  9
$REGENMODE
 70
     1
  9
$FILLMODE
 70
     1
  9
$QTEXTMODE
 70
     0
  9
$MIRRTEXT
 70
     1
  9
$DRAGMODE
 70
     2
  9
$LTSCALE
 40
10.0
  9
$OSMODE
 70
   613
  9
$ATTMODE
 70
     1
  9
$TEXTSIZE
 40
3.0
  9
$TRACEWID
 40
1.0
  9
$TEXTSTYLE
  7
YOKO
  9
$CLAYER
  8
240
  9
$CELTYPE
  6
BYLAYER
  9
$CECOLOR
 62
   256
  9
$CELTSCALE
 40
1.0
  9
$DELOBJ
 70
     1
  9
$DISPSILH
 70
     0
  9
$DIMSCALE
 40
1.0
  9
$DIMASZ
 40
2.229999999999999
  9
$DIMEXO
 40
0.5
  9
$DIMDLI
 40
2.5
  9
$DIMRND
 40
0.0
  9
$DIMDLE
 40
0.0
  9
$DIMEXE
 40
1.0
  9
$DIMTP
 40
0.0
  9
$DIMTM
 40
0.0
  9
$DIMTXT
 40
3.0
  9
$DIMCEN
 40
0.0
  9
$DIMTSZ
 40
0.0
  9
$DIMTOL
 70
     0
  9
$DIMLIM
 70
     0
  9
$DIMTIH
 70
     0
  9
$DIMTOH
 70
     0
  9
$DIMSE1
 70
     0
  9
$DIMSE2
 70
     0
  9
$DIMTAD
 70
     3
  9
$DIMZIN
 70
     8
  9
$DIMBLK
  1
OPEN
  9
$DIMASO
 70
     1
  9
$DIMSHO
 70
     1
  9
$DIMPOST
  1

  9
$DIMAPOST
  1

  9
$DIMALT
 70
     0
  9
$DIMALTD
 70
     2
  9
$DIMALTF
 40
25.4
  9
$DIMLFAC
 40
1.0
  9
$DIMTOFL
 70
     1
  9
$DIMTVP
 40
0.0
  9
$DIMTIX
 70
     0
  9
$DIMSOXD
 70
     0
  9
$DIMSAH
 70
     0
  9
$DIMBLK1
  1

  9
$DIMBLK2
  1

  9
$DIMSTYLE
  2
BIGT
  9
$DIMCLRD
 70
   256
  9
$DIMCLRE
 70
   256
  9
$DIMCLRT
 70
    40
  9
$DIMTFAC
 40
1.0
  9
$DIMGAP
 40
1.0
  9
$DIMJUST
 70
     0
  9
$DIMSD1
 70
     0
  9
$DIMSD2
 70
     0
  9
$DIMTOLJ
 70
     1
  9
$DIMTZIN
 70
     8
  9
$DIMALTZ
 70
     0
  9
$DIMALTTZ
 70
     0
  9
$DIMFIT
 70
     2
  9
$DIMUPT
 70
     0
  9
$DIMUNIT
 70
     2
  9
$DIMDEC
 70
     3
  9
$DIMTDEC
 70
     3
  9
$DIMALTU
 70
     2
  9
$DIMALTTD
 70
     2
  9
$DIMTXSTY
  7
STANDARD
  9
$DIMAUNIT
 70
     0
  9
$LUNITS
 70
     2
  9
$LUPREC
 70
     3
  9
$SKETCHINC
 40
1.0
  9
$FILLETRAD
 40
0.0
  9
$AUNITS
 70
     0
  9
$AUPREC
 70
     3
  9
$MENU
  1
.
  9
$ELEVATION
 40
0.0
  9
$PELEVATION
 40
0.0
  9
$THICKNESS
 40
0.0
  9
$LIMCHECK
 70
     0
  9
$BLIPMODE
 70
     0
  9
$CHAMFERA
 40
10.0
  9
$CHAMFERB
 40
10.0
  9
$CHAMFERC
 40
0.0
  9
$CHAMFERD
 40
0.0
  9
$SKPOLY
 70
     0
  9
$TDCREATE
 40
2452510.495628611
  9
$TDUPDATE
 40
2452516.379418403
  9
$TDINDWG
 40
0.0477479282
  9
$TDUSRTIMER
 40
0.0477479282
  9
$USRTIMER
 70
     1
  9
$ANGBASE
 50
0.0
  9
$ANGDIR
 70
     0
  9
$PDMODE
 70
    35
  9
$PDSIZE
 40
2.0
  9
$PLINEWID
 40
0.0
  9
$COORDS
 70
     0
  9
$SPLFRAME
 70
     0
  9
$SPLINETYPE
 70
     6
  9
$SPLINESEGS
 70
     8
  9
$ATTDIA
 70
     0
  9
$ATTREQ
 70
     0
  9
$HANDLING
 70
-16383
  9
$HANDSEED
  5
1396
  9
$SURFTAB1
 70
     6
  9
$SURFTAB2
 70
     6
  9
$SURFTYPE
 70
     6
  9
$SURFU
 70
     6
  9
$SURFV
 70
     6
  9
$UCSNAME
  2

  9
$UCSORG
 10
0.0
 20
0.0
 30
0.0
  9
$UCSXDIR
 10
1.0
 20
0.0
 30
0.0
  9
$UCSYDIR
 10
0.0
 20
1.0
 30
0.0
  9
$PUCSNAME
  2

  9
$PUCSORG
 10
0.0
 20
0.0
 30
0.0
  9
$PUCSXDIR
 10
1.0
 20
0.0
 30
0.0
  9
$PUCSYDIR
 10
0.0
 20
1.0
 30
0.0
  9
$USERI1
 70
     1
  9
$USERI2
 70
     0
  9
$USERI3
 70
     0
  9
$USERI4
 70
     0
  9
$USERI5
 70
     0
  9
$USERR1
 40
0.0
  9
$USERR2
 40
0.0
  9
$USERR3
 40
0.0
  9
$USERR4
 40
0.0
  9
$USERR5
 40
0.0
  9
$WORLDVIEW
 70
     1
  9
$SHADEDGE
 70
     3
  9
$SHADEDIF
 70
    70
  9
$TILEMODE
 70
     1
  9
$MAXACTVP
 70
    16
  9
$PINSBASE
 10
0.0
 20
0.0
 30
0.0
  9
$PLIMCHECK
 70
     0
  9
$PEXTMIN
 10
1.000000000000000E+20
 20
1.000000000000000E+20
 30
1.000000000000000E+20
  9
$PEXTMAX
 10
-1.000000000000000E+20
 20
-1.000000000000000E+20
 30
-1.000000000000000E+20
  9
$PLIMMIN
 10
0.0
 20
0.0
  9
$PLIMMAX
 10
420.0
 20
297.0
  9
$UNITMODE
 70
     0
  9
$VISRETAIN
 70
     0
  9
$PLINEGEN
 70
     0
  9
$PSLTSCALE
 70
     1
  9
$TREEDEPTH
 70
  3020
  9
$PICKSTYLE
 70
     0
  9
$CMLSTYLE
  2
STANDARD
  9
$CMLJUST
 70
     0
  9
$CMLSCALE
 40
1.0
  9
$PROXYGRAPHICS
 70
     1
  9
$MEASUREMENT
 70
     1
  0
ENDSEC
  0
SECTION
  2
CLASSES
  0
CLASS
  1
XRECORD
  2
AcDbXrecord
  3
AutoCAD 2000
 90
        0
280
     0
281
     0
  0
CLASS
  1
ACDBDICTIONARYWDFLT
  2
AcDbDictionaryWithDefault
  3
AutoCAD 2000
 90
        0
280
     0
281
     0
  0
CLASS
  1
ACDBPLACEHOLDER
  2
AcDbPlaceHolder
  3
AutoCAD 2000
 90
        0
280
     0
281
     0
  0
CLASS
  1
LAYOUT
  2
AcDbLayout
  3
AutoCAD 2000
 90
        0
280
     0
281
     0
  0
CLASS
  1
DICTIONARYVAR
  2
AcDbDictionaryVar
  3
AutoCAD 2000
 90
        0
280
     0
281
     0
  0
CLASS
  1
LONG_TRANSACTION
  2
AcDbLongTransaction
  3
AutoCAD 2000
 90
        0
280
     0
281
     0
  0
CLASS
  1
LWPOLYLINE
  2
AcDbPolyline
  3
AutoCAD 2000
 90
        0
280
     0
281
     1
  0
CLASS
  1
HATCH
  2
AcDbHatch
  3
AutoCAD 2000
 90
        0
280
     0
281
     1
  0
CLASS
  1
XRECORD
  2
AcDbXrecord
  3
AutoCAD 2000
 90
        0
280
     0
281
     0
  0
ENDSEC
  0
SECTION
  2
TABLES
  0
TABLE
  2
VPORT
  5
8
330
0
100
AcDbSymbolTable
 70
     2
  0
VPORT
  5
1370
330
8
100
AcDbSymbolTableRecord
100
AcDbViewportTableRecord
  2
*ACTIVE
 70
     0
 10
0.0
 20
0.0
 11
1.0
 21
1.0
 12
-33.89935841070951
 22
14.49955032206978
 13
0.0
 23
0.0
 14
7.0
 24
7.0
 15
7.0
 25
7.0
 16
0.0
 26
0.0
 36
1.0
 17
0.0
 27
0.0
 37
0.0
 40
79.63313316006971
 41
1.53185955786736
 42
50.0
 43
0.0
 44
0.0
 50
0.0
 51
0.0
 71
     0
 72
  2000
 73
     1
 74
     0
 75
     0
 76
     0
 77
     0
 78
     0
  0
ENDTAB
  0
TABLE
  2
LTYPE
  5
5
330
0
100
AcDbSymbolTable
 70
     3
  0
LTYPE
  5
14
330
5
100
AcDbSymbolTableRecord
100
AcDbLinetypeTableRecord
  2
BYBLOCK
 70
     0
  3

 72
    65
 73
     0
 40
0.0
  0
LTYPE
  5
15
330
5
100
AcDbSymbolTableRecord
100
AcDbLinetypeTableRecord
  2
BYLAYER
 70
     0
  3

 72
    65
 73
     0
 40
0.0
  0
LTYPE
  5
16
330
5
100
AcDbSymbolTableRecord
100
AcDbLinetypeTableRecord
  2
CONTINUOUS
 70
     0
  3
Solid line
 72
    65
 73
     0
 40
0.0
  0
LTYPE
  5
258
330
5
100
AcDbSymbolTableRecord
100
AcDbLinetypeTableRecord
  2
CENTER2
 70
     0
  3
___ _ ___ _ ___ _ ___ _ ___ _ ___ _ ___ _ ___ _
 72
    65
 73
     4
 40
1.125
 49
0.75
 74
     0
 49
-0.125
 74
     0
 49
0.125
 74
     0
 49
-0.125
 74
     0
  0
LTYPE
  5
25D
330
5
100
AcDbSymbolTableRecord
100
AcDbLinetypeTableRecord
  2
PHANTOM2
 70
     0
  3
___ _ _ ___ _ _ ___ _ _ ___ _ _ ___ _ _ ___ _ _
 72
    65
 73
     6
 40
1.25
 49
0.625
 74
     0
 49
-0.125
 74
     0
 49
0.125
 74
     0
 49
-0.125
 74
     0
 49
0.125
 74
     0
 49
-0.125
 74
     0
  0
ENDTAB
  0
TABLE
  2
LAYER
  5
2
330
0
100
AcDbSymbolTable
 70
     8
  0
LAYER
  5
F
330
2
100
AcDbSymbolTableRecord
100
AcDbLayerTableRecord
  2
0
 70
     0
 62
     7
  6
CONTINUOUS
  0
LAYER
  5
1AA
330
2
100
AcDbSymbolTableRecord
100
AcDbLayerTableRecord
  2
240
 70
     0
 62
     4
  6
CONTINUOUS
  0
LAYER
  5
1AB
330
2
100
AcDbSymbolTableRecord
100
AcDbLayerTableRecord
  2
241
 70
     0
 62
   211
  6
CONTINUOUS
  0
LAYER
  5
1AF
330
2
100
AcDbSymbolTableRecord
100
AcDbLayerTableRecord
  2
245
 70
     0
 62
     2
  6
CENTER2
  0
LAYER
  5
21A
330
2
100
AcDbSymbolTableRecord
100
AcDbLayerTableRecord
  2
246
 70
     0
 62
     3
  6
PHANTOM2
  0
LAYER
  5
21B
330
2
100
AcDbSymbolTableRecord
100
AcDbLayerTableRecord
  2
247
 70
     0
 62
    60
  6
CONTINUOUS
  0
LAYER
  5
21E
330
2
100
AcDbSymbolTableRecord
100
AcDbLayerTableRecord
  2
250
 70
     0
 62
     3
  6
CONTINUOUS
  0
LAYER
  5
5C4
330
2
100
AcDbSymbolTableRecord
100
AcDbLayerTableRecord
  2
DEFPOINTS
 70
     0
 62
     7
  6
CONTINUOUS
  0
ENDTAB
  0
TABLE
  2
STYLE
  5
3
330
0
100
AcDbSymbolTable
 70
     2
  0
STYLE
  5
10
330
3
100
AcDbSymbolTableRecord
100
AcDbTextStyleTableRecord
  2
STANDARD
 70
     0
 40
0.0
 41
1.0
 50
0.0
 71
     0
 42
3.0
  3
romans.shx
  4
BIGFONT.SHX
  0
STYLE
  5
339
330
3
100
AcDbSymbolTableRecord
100
AcDbTextStyleTableRecord
  2
YOKO
 70
     0
 40
0.0
 41
1.0
 50
0.0
 71
     0
 42
3.0
  3
romans.shx
  4
extfont.shx
  0
ENDTAB
  0
TABLE
  2
VIEW
  5
6
330
0
100
AcDbSymbolTable
 70
     0
  0
ENDTAB
  0
TABLE
  2
UCS
  5
7
330
0
100
AcDbSymbolTable
 70
     0
  0
ENDTAB
  0
TABLE
  2
APPID
  5
9
330
0
100
AcDbSymbolTable
 70
     9
  0
APPID
  5
11
330
9
100
AcDbSymbolTableRecord
100
AcDbRegAppTableRecord
  2
ACAD
 70
     0
  0
APPID
  5
1B1
330
9
100
AcDbSymbolTableRecord
100
AcDbRegAppTableRecord
  2
GLOBAL
 70
     0
  0
APPID
  5
2A4
330
9
100
AcDbSymbolTableRecord
100
AcDbRegAppTableRecord
  2
DETAIL
 70
     0
  0
APPID
  5
5FD
330
9
100
AcDbSymbolTableRecord
100
AcDbRegAppTableRecord
  2
GRPNAME
 70
     0
  0
APPID
  5
5FE
330
9
100
AcDbSymbolTableRecord
100
AcDbRegAppTableRecord
  2
GPARA
 70
     0
  0
APPID
  5
7F4
330
9
100
AcDbSymbolTableRecord
100
AcDbRegAppTableRecord
  2
ITEMNAME
 70
     0
  0
APPID
  5
A2E
330
9
100
AcDbSymbolTableRecord
100
AcDbRegAppTableRecord
  2
HATCH_TYPE
 70
     0
  0
APPID
  5
A2F
330
9
100
AcDbSymbolTableRecord
100
AcDbRegAppTableRecord
  2
HATCH_DISPLAY
 70
     0
  0
APPID
  5
A30
330
9
100
AcDbSymbolTableRecord
100
AcDbRegAppTableRecord
  2
HATCH_DISTANCE
 70
     0
  0
ENDTAB
  0
TABLE
  2
DIMSTYLE
  5
A
330
0
100
AcDbSymbolTable
 70
     2
  0
DIMSTYLE
105
48F
330
A
100
AcDbSymbolTableRecord
100
AcDbDimStyleTableRecord
  2
STANDARD
 70
     0
  3

  4

  5

  6

  7

 40
1.0
 41
2.0
 42
2.0
 43
3.75
 44
2.0
 45
0.0
 46
0.0
 47
0.0
 48
0.0
140
4.0
141
0.09
142
0.0
143
25.4
144
1.0
145
0.0
146
1.0
147
1.0
 71
     0
 72
     0
 73
     1
 74
     1
 75
     0
 76
     0
 77
     0
 78
     8
170
     0
171
     2
172
     0
173
     1
174
     0
175
     0
176
   256
177
   256
178
   256
270
     2
271
     3
272
     4
273
     2
274
     2
340
10
275
     0
280
     0
281
     0
282
     0
283
     1
284
     8
285
     0
286
     0
287
     3
288
     0
  0
DIMSTYLE
105
59A
102
{ACAD_REACTORS
330
B17
330
B29
102
}
330
A
100
AcDbSymbolTableRecord
100
AcDbDimStyleTableRecord
  2
BIGT
 70
     0
  3

  4

  5
OPEN
  6

  7

 40
1.0
 41
2.229999999999999
 42
0.5
 43
2.5
 44
1.0
 45
0.0
 46
0.0
 47
0.0
 48
0.0
140
3.5
141
0.0
142
0.0
143
25.4
144
1.0
145
0.0
146
1.0
147
1.0
 71
     0
 72
     0
 73
     0
 74
     0
 75
     0
 76
     0
 77
     3
 78
     9
170
     0
171
     2
172
     1
173
     0
174
     0
175
     0
176
   256
177
   256
178
    40
270
     2
271
     3
272
     3
273
     2
274
     2
340
10
275
     0
280
     0
281
     0
282
     0
283
     1
284
     8
285
     0
286
     0
287
     2
288
     0
  0
ENDTAB
  0
TABLE
  2
BLOCK_RECORD
  5
1
330
0
100
AcDbSymbolTable
 70
     7
  0
BLOCK_RECORD
  5
1A
102
{ACAD_XDICTIONARY
360
1394
102
}
330
1
100
AcDbSymbolTableRecord
100
AcDbBlockTableRecord
  2
*MODEL_SPACE
  0
BLOCK_RECORD
  5
17
102
{ACAD_XDICTIONARY
360
1392
102
}
330
1
100
AcDbSymbolTableRecord
100
AcDbBlockTableRecord
  2
*PAPER_SPACE
  0
BLOCK_RECORD
  5
594
330
1
100
AcDbSymbolTableRecord
100
AcDbBlockTableRecord
  2
_OPEN
  0
BLOCK_RECORD
  5
B18
330
1
100
AcDbSymbolTableRecord
100
AcDbBlockTableRecord
  2
*D1
  0
BLOCK_RECORD
  5
B2A
330
1
100
AcDbSymbolTableRecord
100
AcDbBlockTableRecord
  2
*D2
  0
BLOCK_RECORD
  5
1257
330
1
100
AcDbSymbolTableRecord
100
AcDbBlockTableRecord
  2
*X3
  0
BLOCK_RECORD
  5
1287
330
1
100
AcDbSymbolTableRecord
100
AcDbBlockTableRecord
  2
*X4
  0
BLOCK_RECORD
  5
1293
330
1
100
AcDbSymbolTableRecord
100
AcDbBlockTableRecord
  2
*X5
  0
BLOCK_RECORD
  5
12A6
330
1
100
AcDbSymbolTableRecord
100
AcDbBlockTableRecord
  2
A$C03BD52A2
  0
ENDTAB
  0
ENDSEC
  0
SECTION
  2
BLOCKS
  0
BLOCK
  5
1B
330
1A
100
AcDbEntity
  8
0
100
AcDbBlockBegin
  2
*MODEL_SPACE
 70
     0
 10
0.0
 20
0.0
 30
0.0
  3
*MODEL_SPACE
  1

  0
ENDBLK
  5
1C
330
1A
100
AcDbEntity
  8
0
100
AcDbBlockEnd
  0
BLOCK
  5
18
330
17
100
AcDbEntity
 67
     1
  8
0
100
AcDbBlockBegin
  2
*PAPER_SPACE
 70
     0
 10
0.0
 20
0.0
 30
0.0
  3
*PAPER_SPACE
  1

  0
ENDBLK
  5
19
330
17
100
AcDbEntity
 67
     1
  8
0
100
AcDbBlockEnd
  0
BLOCK
  5
598
330
594
100
AcDbEntity
  8
0
100
AcDbBlockBegin
  2
_OPEN
 70
     0
 10
0.0
 20
0.0
 30
0.0
  3
_OPEN
  1

  0
LINE
  5
595
330
594
100
AcDbEntity
  8
0
  6
BYBLOCK
 62
     0
100
AcDbLine
 10
-1.0
 20
0.1666666666666666
 30
0.0
 11
0.0
 21
0.0
 31
0.0
  0
LINE
  5
596
330
594
100
AcDbEntity
  8
0
  6
BYBLOCK
 62
     0
100
AcDbLine
 10
-1.0
 20
-0.1666666666666666
 30
0.0
 11
0.0
 21
0.0
 31
0.0
  0
LINE
  5
597
330
594
100
AcDbEntity
  8
0
  6
BYBLOCK
 62
     0
100
AcDbLine
 10
0.0
 20
0.0
 30
0.0
 11
-1.0
 21
0.0
 31
0.0
  0
ENDBLK
  5
599
330
594
100
AcDbEntity
  8
0
100
AcDbBlockEnd
  0
BLOCK
  5
B22
330
B18
100
AcDbEntity
  8
0
100
AcDbBlockBegin
  2
*D1
 70
     1
 10
0.0
 20
0.0
 30
0.0
  3
*D1
  1

  0
LINE
  5
C97
330
B18
100
AcDbEntity
  8
250
  6
CONTINUOUS
100
AcDbLine
 10
-49.99999999999996
 20
25.19999999999924
 30
0.0
 11
-49.99999999999996
 21
35.99999999999971
 31
0.0
  0
LINE
  5
C98
330
B18
100
AcDbEntity
  8
250
  6
CONTINUOUS
100
AcDbLine
 10
0.0
 20
0.5
 30
0.0
 11
0.0000000000000022
 21
35.99999999999971
 31
0.0
  0
LINE
  5
C99
330
B18
100
AcDbEntity
  8
250
  6
CONTINUOUS
100
AcDbLine
 10
-47.76999999999996
 20
34.99999999999971
 30
0.0
 11
-2.229999999999997
 21
34.99999999999971
 31
0.0
  0
INSERT
  5
C9A
330
B18
100
AcDbEntity
  8
250
  6
CONTINUOUS
100
AcDbBlockReference
  2
_OPEN
 10
-49.99999999999996
 20
34.99999999999971
 30
0.0
 41
2.229999999999999
 42
2.229999999999999
 43
2.229999999999999
 50
180.0
  0
INSERT
  5
C9B
330
B18
100
AcDbEntity
  8
250
  6
CONTINUOUS
100
AcDbBlockReference
  2
_OPEN
 10
0.0000000000000021
 20
34.99999999999971
 30
0.0
 41
2.229999999999999
 42
2.229999999999999
 43
2.229999999999999
  0
MTEXT
  5
C9C
330
B18
100
AcDbEntity
  8
250
  6
CONTINUOUS
 62
    40
100
AcDbMText
 10
-24.99999999999998
 20
37.49999999999971
 30
0.0
 40
3.0
 41
0.0
 71
     5
 72
     1
  1
\A1;50
1001
ACAD
1000
MTEXTBEGIN
1070
    73
1070
     1
1070
    44
1040
1.0
1070
    74
1070
     0
1000
MTEXTEND
  0
POINT
  5
C9D
330
B18
100
AcDbEntity
  8
DEFPOINTS
  6
CONTINUOUS
 62
     0
100
AcDbPoint
 10
-49.99999999999996
 20
24.69999999999925
 30
0.0
  0
POINT
  5
C9E
330
B18
100
AcDbEntity
  8
DEFPOINTS
  6
CONTINUOUS
 62
     0
100
AcDbPoint
 10
0.0
 20
0.0
 30
0.0
  0
POINT
  5
C9F
330
B18
100
AcDbEntity
  8
DEFPOINTS
  6
CONTINUOUS
 62
     0
100
AcDbPoint
 10
0.0000000000000021
 20
34.99999999999971
 30
0.0
  0
ENDBLK
  5
B23
330
B18
100
AcDbEntity
  8
0
100
AcDbBlockEnd
  0
BLOCK
  5
B34
330
B2A
100
AcDbEntity
  8
0
100
AcDbBlockBegin
  2
*D2
 70
     1
 10
0.0
 20
0.0
 30
0.0
  3
*D2
  1

  0
LINE
  5
CA0
330
B2A
100
AcDbEntity
  8
250
  6
CONTINUOUS
100
AcDbLine
 10
-38.23677899865613
 20
-25.00000000000003
 30
0.0
 11
14.99999999999999
 21
-25.00000000000004
 31
0.0
  0
LINE
  5
CA1
330
B2A
100
AcDbEntity
  8
250
  6
CONTINUOUS
100
AcDbLine
 10
-39.05853538679349
 20
24.99999999999997
 30
0.0
 11
15.0
 21
24.99999999999996
 31
0.0
  0
LINE
  5
CA2
330
B2A
100
AcDbEntity
  8
250
  6
CONTINUOUS
100
AcDbLine
 10
13.99999999999999
 20
-22.77000000000004
 30
0.0
 11
14.0
 21
22.76999999999995
 31
0.0
  0
INSERT
  5
CA3
330
B2A
100
AcDbEntity
  8
250
  6
CONTINUOUS
100
AcDbBlockReference
  2
_OPEN
 10
13.99999999999999
 20
-25.00000000000004
 30
0.0
 41
2.229999999999999
 42
2.229999999999999
 43
2.229999999999999
 50
270.0
  0
INSERT
  5
CA4
330
B2A
100
AcDbEntity
  8
250
  6
CONTINUOUS
100
AcDbBlockReference
  2
_OPEN
 10
14.0
 20
24.99999999999996
 30
0.0
 41
2.229999999999999
 42
2.229999999999999
 43
2.229999999999999
 50
90.0
  0
MTEXT
  5
CA5
330
B2A
100
AcDbEntity
  8
250
  6
CONTINUOUS
 62
    40
100
AcDbMText
 10
11.5
 20
-0.0000000000000396
 30
0.0
 40
3.0
 41
0.0
 71
     5
 72
     1
  1
\A1;{\H3;\U+2205}50
 11
0.0000000000000001
 21
1.0
 31
0.0
1001
ACAD
1000
MTEXTBEGIN
1070
    73
1070
     1
1070
    44
1040
1.0
1070
    74
1070
     0
1000
MTEXTEND
  0
POINT
  5
CA6
330
B2A
100
AcDbEntity
  8
DEFPOINTS
  6
CONTINUOUS
 62
     0
100
AcDbPoint
 10
-38.73677899865613
 20
-25.00000000000003
 30
0.0
  0
POINT
  5
CA7
330
B2A
100
AcDbEntity
  8
DEFPOINTS
  6
CONTINUOUS
 62
     0
100
AcDbPoint
 10
-39.55853538679349
 20
24.99999999999997
 30
0.0
  0
POINT
  5
CA8
330
B2A
100
AcDbEntity
  8
DEFPOINTS
  6
CONTINUOUS
 62
     0
100
AcDbPoint
 10
14.0
 20
24.99999999999996
 30
0.0
  0
ENDBLK
  5
B35
330
B2A
100
AcDbEntity
  8
0
100
AcDbBlockEnd
  0
BLOCK
  5
1285
330
1257
100
AcDbEntity
  8
0
100
AcDbBlockBegin
  2
*X3
 70
     1
 10
0.0
 20
0.0
 30
0.0
  3
*X3
  1

  0
LINE
  5
1258
330
1257
100
AcDbEntity
  8
0
 62
     0
100
AcDbLine
 10
3.235364125939702
 20
-8.207738569426133
 30
0.0
 11
2.539878131093039
 21
-7.512252574579474
 31
0.0
  0
LINE
  5
1259
330
1257
100
AcDbEntity
  8
0
 62
     0
100
AcDbLine
 10
2.525255410929922
 20
-7.733361577594422
 30
0.0
 11
2.246640667466748
 21
-7.454746834131247
 31
0.0
  0
LINE
  5
125A
330
1257
100
AcDbEntity
  8
0
 62
     0
100
AcDbLine
 10
3.292869866387924
 20
-8.500976033052424
 30
0.0
 11
3.014255122924751
 21
-8.222361289589251
 31
0.0
  0
LINE
  5
125B
330
1257
100
AcDbEntity
  8
0
 62
     0
100
AcDbLine
 10
2.222099748833683
 20
-7.665937638676258
 30
0.0
 11
2.020551260265142
 21
-7.464389150107711
 31
0.0
  0
LINE
  5
125C
330
1257
100
AcDbEntity
  8
0
 62
     0
100
AcDbLine
 10
3.294816471809426
 20
-8.738654361651997
 30
0.0
 11
3.081679061842919
 21
-8.525516951685489
 31
0.0
  0
LINE
  5
125D
330
1257
100
AcDbEntity
  8
0
 62
     0
100
AcDbLine
 10
2.003106040329284
 20
-7.68267565334991
 30
0.0
 11
1.829933989769265
 21
-7.509503602789891
 31
0.0
  0
LINE
  5
125E
330
1257
100
AcDbEntity
  8
0
 62
     0
100
AcDbLine
 10
3.294816471809419
 20
-8.974386084830044
 30
0.0
 11
3.082624704809468
 21
-8.762194317830092
 31
0.0
  0
LINE
  5
125F
330
1257
100
AcDbEntity
  8
0
 62
     0
100
AcDbLine
 10
1.823500176191735
 20
-7.738801512390431
 30
0.0
 11
1.66441861575032
 21
-7.579719951949016
 31
0.0
  0
LINE
  5
1260
330
1257
100
AcDbEntity
  8
0
 62
     0
100
AcDbLine
 10
3.294816471809426
 20
-9.210117808008119
 30
0.0
 11
3.082624704809468
 21
-8.997926041008163
 31
0.0
  0
LINE
  5
1261
330
1257
100
AcDbEntity
  8
0
 62
     0
100
AcDbLine
 10
1.671532121270381
 20
-7.822565180647145
 30
0.0
 11
1.519384621186254
 21
-7.67041768056301
 31
0.0
  0
LINE
  5
1262
330
1257
100
AcDbEntity
  8
0
 62
     0
100
AcDbLine
 10
3.294816471809432
 20
-9.445849531186189
 30
0.0
 11
3.082624704809474
 21
-9.233657764186231
 31
0.0
  0
LINE
  5
1263
330
1257
100
AcDbEntity
  8
0
 62
     0
100
AcDbLine
 10
1.542752218501775
 20
-7.929517001056601
 30
0.0
 11
1.39270995439402
 21
-7.779474736948849
 31
0.0
  0
LINE
  5
1264
330
1257
100
AcDbEntity
  8
0
 62
     0
100
AcDbLine
 10
3.294816471809419
 20
-9.681581254364253
 30
0.0
 11
3.082624704809468
 21
-9.469389487364303
 31
0.0
  0
LINE
  5
1265
330
1257
100
AcDbEntity
  8
0
 62
     0
100
AcDbLine
 10
1.43594765315619
 20
-8.058444158889074
 30
0.0
 11
1.28377138416043
 21
-7.906267889893321
 31
0.0
  0
LINE
  5
1266
330
1257
100
AcDbEntity
  8
0
 62
     0
100
AcDbLine
 10
3.294816471809432
 20
-9.917312977542316
 30
0.0
 11
3.082624704809474
 21
-9.705121210542358
 31
0.0
  0
LINE
  5
1267
330
1257
100
AcDbEntity
  8
0
 62
     0
100
AcDbLine
 10
1.352348231689353
 20
-8.210576460600307
 30
0.0
 11
1.193200727397836
 21
-8.051428956308786
 31
0.0
  0
LINE
  5
1268
330
1257
100
AcDbEntity
  8
0
 62
     0
100
AcDbLine
 10
3.294816471809419
 20
-10.15304470072036
 30
0.0
 11
3.082624704809468
 21
-9.940852933720428
 31
0.0
  0
LINE
  5
1269
330
1257
100
AcDbEntity
  8
0
 62
     0
100
AcDbLine
 10
1.296432579310397
 20
-8.390392531399429
 30
0.0
 11
1.123132130201639
 21
-8.217092082290662
 31
0.0
  0
LINE
  5
126A
330
1257
100
AcDbEntity
  8
0
 62
     0
100
AcDbLine
 10
3.294816471809426
 20
-10.38877642389844
 30
0.0
 11
3.082624704809468
 21
-10.17658465689848
 31
0.0
  0
LINE
  5
126B
330
1257
100
AcDbEntity
  8
0
 62
     0
100
AcDbLine
 10
1.280032579818636
 20
-8.609724255085723
 30
0.0
 11
1.078209318544381
 21
-8.407900993811464
 31
0.0
  0
LINE
  5
126C
330
1257
100
AcDbEntity
  8
0
 62
     0
100
AcDbLine
 10
3.294816471809419
 20
-10.62450814707651
 30
0.0
 11
3.082624704809468
 21
-10.41231638007656
 31
0.0
  0
LINE
  5
126D
330
1257
100
AcDbEntity
  8
0
 62
     0
100
AcDbLine
 10
1.241817425899255
 20
-8.807240824344411
 30
0.0
 11
1.068864846956123
 21
-8.634288245401286
 31
0.0
  0
LINE
  5
126E
330
1257
100
AcDbEntity
  8
0
 62
     0
100
AcDbLine
 10
3.294816471809419
 20
-10.86023987025457
 30
0.0
 11
3.082624704809461
 21
-10.6480481032546
 31
0.0
  0
LINE
  5
126F
330
1257
100
AcDbEntity
  8
0
 62
     0
100
AcDbLine
 10
3.294816471809426
 20
-11.09597159343263
 30
0.0
 11
3.082624704809474
 21
-10.88377982643268
 31
0.0
  0
LINE
  5
1270
330
1257
100
AcDbEntity
  8
0
 62
     0
100
AcDbLine
 10
3.294816471809426
 20
-11.33170331661069
 30
0.0
 11
3.082624704809468
 21
-11.11951154961074
 31
0.0
  0
LINE
  5
1271
330
1257
100
AcDbEntity
  8
0
 62
     0
100
AcDbLine
 10
3.294816471809419
 20
-11.56743503978875
 30
0.0
 11
3.082624704809468
 21
-11.35524327278881
 31
0.0
  0
LINE
  5
1272
330
1257
100
AcDbEntity
  8
0
 62
     0
100
AcDbLine
 10
3.294816471809426
 20
-11.80316676296683
 30
0.0
 11
3.082624704809468
 21
-11.59097499596687
 31
0.0
  0
LINE
  5
1273
330
1257
100
AcDbEntity
  8
0
 62
     0
100
AcDbLine
 10
3.294816471809411
 20
-12.03889848614488
 30
0.0
 11
3.082624704809461
 21
-11.82670671914494
 31
0.0
  0
LINE
  5
1274
330
1257
100
AcDbEntity
  8
0
 62
     0
100
AcDbLine
 10
3.294816471809426
 20
-12.27463020932296
 30
0.0
 11
3.082624704809474
 21
-12.06243844232302
 31
0.0
  0
LINE
  5
1275
330
1257
100
AcDbEntity
  8
0
 62
     0
100
AcDbLine
 10
3.294816471809426
 20
-12.51036193250103
 30
0.0
 11
3.082624704809468
 21
-12.29817016550107
 31
0.0
  0
LINE
  5
1276
330
1257
100
AcDbEntity
  8
0
 62
     0
100
AcDbLine
 10
3.294816471809419
 20
-12.7460936556791
 30
0.0
 11
3.082624704809468
 21
-12.53390188867915
 31
0.0
  0
LINE
  5
1277
330
1257
100
AcDbEntity
  8
0
 62
     0
100
AcDbLine
 10
3.290062309988357
 20
-12.97707121703608
 30
0.0
 11
3.082624704809468
 21
-12.7696336118572
 31
0.0
  0
LINE
  5
1278
330
1257
100
AcDbEntity
  8
0
 62
     0
100
AcDbLine
 10
3.253193000403448
 20
-13.17593363062925
 30
0.0
 11
3.074236505306537
 21
-12.99697713553234
 31
0.0
  0
LINE
  5
1279
330
1257
100
AcDbEntity
  8
0
 62
     0
100
AcDbLine
 10
3.18921464459015
 20
-13.34768699799401
 30
0.0
 11
3.027164552993986
 21
-13.18563690639785
 31
0.0
  0
LINE
  5
127A
330
1257
100
AcDbEntity
  8
0
 62
     0
100
AcDbLine
 10
3.103814893826012
 20
-13.49801897040793
 30
0.0
 11
2.950311173986341
 21
-13.34451525056827
 31
0.0
  0
LINE
  5
127B
330
1257
100
AcDbEntity
  8
0
 62
     0
100
AcDbLine
 10
2.999649062445164
 20
-13.62958486220516
 30
0.0
 11
2.849455977199872
 21
-13.47939177695987
 31
0.0
  0
LINE
  5
127C
330
1257
100
AcDbEntity
  8
0
 62
     0
100
AcDbLine
 10
2.877702818340999
 20
-13.74337034127906
 30
0.0
 11
2.726540528425259
 21
-13.59220805136332
 31
0.0
  0
LINE
  5
127D
330
1257
100
AcDbEntity
  8
0
 62
     0
100
AcDbLine
 10
2.737690149594256
 20
-13.83908939571039
 30
0.0
 11
2.581011949389086
 21
-13.68241119550521
 31
0.0
  0
LINE
  5
127E
330
1257
100
AcDbEntity
  8
0
 62
     0
100
AcDbLine
 10
1.279010410280513
 20
-12.6161413795747
 30
0.0
 11
1.11184125484943
 21
-12.44897222414361
 31
0.0
  0
LINE
  5
127F
330
1257
100
AcDbEntity
  8
0
 62
     0
100
AcDbLine
 10
2.577943456406103
 20
-13.91507442570029
 30
0.0
 11
2.409471764917056
 21
-13.74660273421124
 31
0.0
  0
LINE
  5
1280
330
1257
100
AcDbEntity
  8
0
 62
     0
100
AcDbLine
 10
1.279010410280505
 20
-12.85187310275276
 30
0.0
 11
1.066818637819558
 21
-12.63968133029182
 31
0.0
  0
LINE
  5
1281
330
1257
100
AcDbEntity
  8
0
 62
     0
100
AcDbLine
 10
2.3946800115431
 20
-13.96754270401536
 30
0.0
 11
2.202938001470086
 21
-13.77580069394234
 31
0.0
  0
LINE
  5
1282
330
1257
100
AcDbEntity
  8
0
 62
     0
100
AcDbLine
 10
1.313825469159445
 20
-13.12241988480975
 30
0.0
 11
1.066819229992219
 21
-12.87541364564252
 31
0.0
  0
LINE
  5
1283
330
1257
100
AcDbEntity
  8
0
 62
     0
100
AcDbLine
 10
2.179668798895193
 20
-13.98826321454551
 30
0.0
 11
1.932662559727964
 21
-13.74125697537827
 31
0.0
  0
LINE
  5
1284
330
1257
100
AcDbEntity
  8
0
 62
     0
100
AcDbLine
 10
1.910690917046075
 20
-13.95501705587446
 30
0.0
 11
1.10006538866326
 21
-13.14439152749164
 31
0.0
  0
ENDBLK
  5
1286
330
1257
100
AcDbEntity
  8
0
100
AcDbBlockEnd
  0
BLOCK
  5
1291
330
1287
100
AcDbEntity
  8
0
100
AcDbBlockBegin
  2
*X4
 70
     1
 10
0.0
 20
0.0
 30
0.0
  3
*X4
  1

  0
LINE
  5
1288
330
1287
100
AcDbEntity
  8
0
 62
     0
100
AcDbLine
 10
2.976528818578984
 20
-10.77768394020218
 30
0.0
 11
2.959043916706504
 21
-10.76019903832972
 31
0.0
  0
LINE
  5
1289
330
1287
100
AcDbEntity
  8
0
 62
     0
100
AcDbLine
 10
2.976528818578976
 20
-11.01341566338025
 30
0.0
 11
2.628542881455238
 21
-10.66542972625651
 31
0.0
  0
LINE
  5
128A
330
1287
100
AcDbEntity
  8
0
 62
     0
100
AcDbLine
 10
2.963435272440881
 20
-11.23605384042024
 30
0.0
 11
2.298041846203978
 21
-10.57066041418333
 31
0.0
  0
LINE
  5
128B
330
1287
100
AcDbEntity
  8
0
 62
     0
100
AcDbLine
 10
2.632932943878123
 20
-11.14128323503552
 30
0.0
 11
1.967540810952725
 21
-10.47589110211013
 31
0.0
  0
LINE
  5
128C
330
1287
100
AcDbEntity
  8
0
 62
     0
100
AcDbLine
 10
2.302430615315357
 20
-11.04651262965084
 30
0.0
 11
1.637039775701452
 21
-10.38112179003694
 31
0.0
  0
LINE
  5
128D
330
1287
100
AcDbEntity
  8
0
 62
     0
100
AcDbLine
 10
1.971928286752606
 20
-10.95174202426614
 30
0.0
 11
1.3065387404502
 21
-10.28635247796372
 31
0.0
  0
LINE
  5
128E
330
1287
100
AcDbEntity
  8
0
 62
     0
100
AcDbLine
 10
1.641425958189841
 20
-10.85697141888145
 30
0.0
 11
1.066818637819564
 21
-10.28236409851116
 31
0.0
  0
LINE
  5
128F
330
1287
100
AcDbEntity
  8
0
 62
     0
100
AcDbLine
 10
1.310923629627082
 20
-10.76220081349676
 30
0.0
 11
1.066818637819558
 21
-10.51809582168922
 31
0.0
  0
LINE
  5
1290
330
1287
100
AcDbEntity
  8
0
 62
     0
100
AcDbLine
 10
1.088745240343236
 20
-10.77575414739097
 30
0.0
 11
1.066818637819564
 21
-10.7538275448673
 31
0.0
  0
ENDBLK
  5
1292
330
1287
100
AcDbEntity
  8
0
100
AcDbBlockEnd
  0
BLOCK
  5
12A4
330
1293
100
AcDbEntity
  8
0
100
AcDbBlockBegin
  2
*X5
 70
     1
 10
0.0
 20
0.0
 30
0.0
  3
*X5
  1

  0
LINE
  5
1294
330
1293
100
AcDbEntity
  8
0
 62
     0
100
AcDbLine
 10
2.866267759626282
 20
-9.253032542181106
 30
0.0
 11
2.667341175677612
 21
-9.05410595823244
 31
0.0
  0
LINE
  5
1295
330
1293
100
AcDbEntity
  8
0
 62
     0
100
AcDbLine
 10
2.973311016767503
 20
-9.595807522500384
 30
0.0
 11
2.336839223885135
 21
-8.959335729618025
 31
0.0
  0
LINE
  5
1296
330
1293
100
AcDbEntity
  8
0
 62
     0
100
AcDbLine
 10
2.637468497805876
 20
-9.495696726716834
 30
0.0
 11
2.006337272092656
 21
-8.864565501003609
 31
0.0
  0
LINE
  5
1297
330
1293
100
AcDbEntity
  8
0
 62
     0
100
AcDbLine
 10
2.958949796291014
 20
-9.817178025201977
 30
0.0
 11
2.709833181810154
 21
-9.568061410721107
 31
0.0
  0
LINE
  5
1298
330
1293
100
AcDbEntity
  8
0
 62
     0
100
AcDbLine
 10
2.294807617108893
 20
-9.388767569197922
 30
0.0
 11
1.894356937380115
 21
-8.988316889469144
 31
0.0
  0
LINE
  5
1299
330
1293
100
AcDbEntity
  8
0
 62
     0
100
AcDbLine
 10
2.894565644714723
 20
-9.988525596803743
 30
0.0
 11
2.709284972303904
 21
-9.803244924392927
 31
0.0
  0
LINE
  5
129A
330
1293
100
AcDbEntity
  8
0
 62
     0
100
AcDbLine
 10
2.106548709841042
 20
-9.436240385108128
 30
0.0
 11
1.894356937380115
 21
-9.224048612647202
 31
0.0
  0
LINE
  5
129B
330
1293
100
AcDbEntity
  8
0
 62
     0
100
AcDbLine
 10
2.79692411133888
 20
-10.12661578660596
 30
0.0
 11
2.572197230405548
 21
-9.901888905672636
 31
0.0
  0
LINE
  5
129C
330
1293
100
AcDbEntity
  8
0
 62
     0
100
AcDbLine
 10
1.348486654973547
 20
-8.913910053418701
 30
0.0
 11
1.326394182066565
 21
-8.89181758051172
 31
0.0
  0
LINE
  5
129D
330
1293
100
AcDbEntity
  8
0
 62
     0
100
AcDbLine
 10
2.670262681894576
 20
-10.23568608033973
 30
0.0
 11
2.283726833106142
 21
-9.849150231551298
 31
0.0
  0
LINE
  5
129E
330
1293
100
AcDbEntity
  8
0
 62
     0
100
AcDbLine
 10
1.407547880493345
 20
-9.208703002116557
 30
0.0
 11
1.147176011686227
 21
-8.948331133309435
 31
0.0
  0
LINE
  5
129F
330
1293
100
AcDbEntity
  8
0
 62
     0
100
AcDbLine
 10
2.512839522459095
 20
-10.3139946440823
 30
0.0
 11
1.953224559176234
 21
-9.754379680799443
 31
0.0
  0
LINE
  5
12A0
330
1293
100
AcDbEntity
  8
0
 62
     0
100
AcDbLine
 10
1.307170115995851
 20
-9.344056960797132
 30
0.0
 11
1.148282362821553
 21
-9.185169207622832
 31
0.0
  0
LINE
  5
12A1
330
1293
100
AcDbEntity
  8
0
 62
     0
100
AcDbLine
 10
2.314609196777708
 20
-10.35149604157899
 30
0.0
 11
1.622722285246303
 21
-9.65960913004759
 31
0.0
  0
LINE
  5
12A2
330
1293
100
AcDbEntity
  8
0
 62
     0
100
AcDbLine
 10
2.0454755090717
 20
-10.31809407705103
 30
0.0
 11
1.0841334982329
 21
-9.356752066212255
 31
0.0
  0
LINE
  5
12A3
330
1293
100
AcDbEntity
  8
0
 62
     0
100
AcDbLine
 10
1.731482545935462
 20
-10.23983283709287
 30
0.0
 11
1.070201539477138
 21
-9.578551830634543
 31
0.0
  0
ENDBLK
  5
12A5
330
1293
100
AcDbEntity
  8
0
100
AcDbBlockEnd
  0
BLOCK
  5
1361
330
12A6
100
AcDbEntity
  8
0
100
AcDbBlockBegin
  2
A$C03BD52A2
 70
     0
 10
0.0
 20
0.0
 30
0.0
  3
A$C03BD52A2
  1

  0
ELLIPSE
  5
12A7
330
12A6
100
AcDbEntity
  8
240
100
AcDbEllipse
 10
-10.80059431021924
 20
-0.0000000000004076
 30
0.0
 11
-29.00379168331788
 21
-24.91449358448238
 31
0.0000000000000001
210
0.0
220
0.0
230
1.0
 40
0.07122917396198
 41
0.0827309868607729
 42
0.4228883856168665
  0
LINE
  5
12A8
330
12A6
100
AcDbEntity
  8
240
100
AcDbLine
 10
-15.79521567881708
 20
13.99102491698536
 30
0.0
 11
-11.0448797814895
 21
9.714382485276473
 31
0.0
  0
LINE
  5
12A9
330
12A6
100
AcDbEntity
  8
245
100
AcDbLine
 10
-82.79999999999544
 20
-0.0000000000002243
 30
0.0
 11
1.737644361513744
 21
-0.0000000000004005
 31
0.0
  0
SPLINE
  5
12AA
330
12A6
100
AcDbEntity
  8
241
100
AcDbSpline
210
0.0
220
0.0
230
1.0
 70
     8
 71
     3
 72
    18
 73
    14
 74
     0
 42
0.0000000001
 43
0.0000000001
 40
8.989072812039331
 40
8.989072812039331
 40
8.989072812039331
 40
8.989072812039331
 40
9.215365212352196
 40
9.215365212352196
 40
9.677542433350721
 40
9.677542433350721
 40
10.13971965434924
 40
10.13971965434924
 40
10.60189687534776
 40
10.60189687534776
 40
11.06407409634629
 40
11.06407409634629
 40
11.12066051618087
 40
11.12066051618087
 40
11.12066051618087
 40
11.12066051618087
 10
-13.1596510243339
 20
0.8890567107304498
 30
0.0
 10
-13.10178528345503
 20
0.8816453296094332
 30
0.0
 10
-13.04274911162778
 20
0.8766952031049331
 30
0.0
 10
-12.8639578707434
 20
0.869679971220901
 30
0.0
 10
-12.732169330549
 20
0.8755611745544706
 30
0.0
 10
-12.45813978945668
 20
0.9186142120959372
 30
0.0
 10
-12.31596779334367
 20
0.9558810705115153
 30
0.0
 10
-12.0371804220407
 20
1.065004382715709
 30
0.0
 10
-11.9001233355755
 20
1.137037716579975
 30
0.0
 10
-11.64495809188131
 20
1.312457064130041
 30
0.0
 10
-11.52685919746617
 20
1.415836090224951
 30
0.0
 10
-11.41075589027915
 20
1.54398353724183
 30
0.0
 10
-11.39827041761708
 20
1.558161729637108
 30
0.0
 10
-11.38597424279806
 20
1.572531420815705
 30
0.0
  0
SPLINE
  5
12AB
330
12A6
100
AcDbEntity
  8
241
100
AcDbSpline
210
0.0
220
0.0
230
1.0
 70
     8
 71
     3
 72
    19
 73
    15
 74
     0
 42
0.0000000001
 43
0.0000000001
 40
-0.0565864198345793
 40
-0.0565864198345793
 40
-0.0565864198345793
 40
-0.0565864198345793
 40
0.0
 40
0.0
 40
0.0
 40
0.4621772209985248
 40
0.4621772209985248
 40
0.9243544419970495
 40
0.9243544419970495
 40
1.386531662995574
 40
1.386531662995574
 40
1.848708883994099
 40
1.848708883994099
 40
2.075001284306947
 40
2.075001284306947
 40
2.075001284306947
 40
2.075001284306947
 10
-11.52127415374049
 20
4.31636416920667
 30
0.0
 10
-11.53492439390093
 20
4.329454428306883
 30
0.0
 10
-11.54874417355852
 20
4.342335494156001
 30
0.0
 10
-11.56272241849866
 20
4.354999971709039
 30
0.0
 10
-11.67689162057537
 20
4.458438801343008
 30
0.0
 10
-11.80458820968441
 20
4.549697516150584
 30
0.0
 10
-12.07577366568056
 20
4.69916221947734
 30
0.0
 10
-12.21925262723785
 20
4.757362165597515
 30
0.0
 10
-12.50742328451038
 20
4.838528463723735
 30
0.0
 10
-12.65257195043817
 20
4.861627381324042
 30
0.0
 10
-12.92950774063549
 20
4.877512013539259
 30
0.0
 10
-13.06123554354157
 20
4.87039908019512
 30
0.0
 10
-13.23846924892031
 20
4.845828061227886
 30
0.0
 10
-13.29673201782266
 20
4.835093859056349
 30
0.0
 10
-13.35358789097161
 20
4.822025491673914
 30
0.0
  0
LINE
  5
12AC
330
12A6
100
AcDbEntity
  8
241
100
AcDbLine
 10
-10.93207997974983
 20
9.740424371463435
 30
0.0
 11
-20.34647182795718
 21
7.566940754920508
 31
0.0
  0
CIRCLE
  5
12AD
330
12A6
100
AcDbEntity
  8
246
100
AcDbCircle
 10
-12.30039145817835
 20
2.974203458060814
 30
0.0
 40
6.285
  0
LINE
  5
12AE
330
12A6
100
AcDbEntity
  8
240
  6
CONTINUOUS
100
AcDbLine
 10
-13.66870293660694
 20
-3.792017455341842
 30
0.0
 11
-0.6200391565249007
 21
-0.7794960518285871
 31
0.0
  0
TEXT
  5
12AF
330
12A6
100
AcDbEntity
  8
247
100
AcDbText
 10
-44.86292048998514
 20
-8.875052282521723
 30
0.0
 40
2.5
  1
S50-DDJNR-0050-15
 50
90.0
 41
0.7
  7
YOKO
 11
-44.86292048998514
 21
-8.875052282521723
 31
0.0
100
AcDbText
 73
     1
  0
ELLIPSE
  5
12B0
330
12A6
100
AcDbEntity
  8
240
100
AcDbEllipse
 10
-16.16073352559455
 20
38.99070553834397
 30
0.0
 11
-0.4918195144274801
 21
-24.99516180314159
 31
0.0
210
0.0
220
0.0
230
0.9999999999999998
 40
0.9869811297838273
 41
5.637020595824755
 42
6.303118801100335
  0
LINE
  5
12B1
330
12A6
100
AcDbEntity
  8
241
100
AcDbLine
 10
-31.40776932049485
 20
19.32687656788945
 30
0.0
 11
-31.4077693204948
 21
8.468395535437796
 31
0.0
  0
LINE
  5
12B2
330
12A6
100
AcDbEntity
  8
241
100
AcDbLine
 10
-38.0811283764399
 20
21.65914211779221
 30
0.0
 11
-38.08112837643983
 21
-5.416067150910008
 31
0.0
  0
LINE
  5
12B3
330
12A6
100
AcDbEntity
  8
240
100
AcDbLine
 10
-49.99318384927684
 20
24.70681615072198
 30
0.0
 11
-49.99318384927679
 21
13.99999999998763
 31
0.0
  0
ELLIPSE
  5
12B4
330
12A6
100
AcDbEntity
  8
241
100
AcDbEllipse
 10
-36.83172058587645
 20
-0.0000000000005057
 30
0.0
 11
0.0081475976373439
 21
24.99999998655543
 31
0.0
210
0.0
220
0.0
230
1.0
 40
0.1006303112345961
 41
0.5229506079168477
 42
2.625119274298116
  0
LINE
  5
12B5
330
12A6
100
AcDbEntity
  8
240
100
AcDbLine
 10
-76.50000000000024
 20
13.99999999999968
 30
0.0
 11
-49.99318384927679
 21
13.99999999998763
 31
0.0
  0
LINE
  5
12B6
330
12A6
100
AcDbEntity
  8
240
100
AcDbLine
 10
-76.50000000000035
 20
-14.00000000000031
 30
0.0
 11
-49.99318384927669
 21
-13.99999991975954
 31
0.0
  0
LINE
  5
12B7
330
12A6
100
AcDbEntity
  8
241
100
AcDbLine
 10
-76.50000000000012
 20
13.99999999999963
 30
0.0
 11
-76.50000000000007
 21
-0.0000000000003427
 31
0.0
  0
LINE
  5
12B8
330
12A6
100
AcDbEntity
  8
241
100
AcDbLine
 10
-78.45947063619651
 20
13.72461436121385
 30
0.0
 11
-78.45947063619696
 21
-0.0000000000004638
 31
0.0
  0
LINE
  5
12B9
330
12A6
100
AcDbEntity
  8
240
100
AcDbLine
 10
-81.0
 20
13.09999999999972
 30
0.0
 11
-81.00000000000003
 21
-13.10000000000043
 31
0.0
  0
LINE
  5
12BA
330
12A6
100
AcDbEntity
  8
241
100
AcDbLine
 10
-76.50000000000002
 20
-14.00000000000031
 30
0.0
 11
-76.50000000000007
 21
-0.0000000000003427
 31
0.0
  0
LINE
  5
12BB
330
12A6
100
AcDbEntity
  8
241
100
AcDbLine
 10
-78.4594706361964
 20
-13.72461436121455
 30
0.0
 11
-78.45947063619696
 21
-0.0000000000002364
 31
0.0
  0
LINE
  5
12BC
330
12A6
100
AcDbEntity
  8
240
100
AcDbLine
 10
-78.4594706361964
 20
-13.72461436121455
 30
0.0
 11
-76.50000000000035
 21
-14.00000000000031
 31
0.0
  0
LINE
  5
12BD
330
12A6
100
AcDbEntity
  8
240
100
AcDbLine
 10
-78.4594706361964
 20
-13.72461436121455
 30
0.0
 11
-79.94371664009976
 21
-13.98632697771144
 31
0.0
  0
ARC
  5
12BE
330
12A6
100
AcDbEntity
  8
240
100
AcDbCircle
 10
-80.09999999999999
 20
-13.10000000000043
 30
0.0
 40
0.9000000000000088
100
AcDbArc
 50
180.0000176000938
 51
279.9999999999987
  0
LINE
  5
12BF
330
12A6
100
AcDbEntity
  8
240
100
AcDbLine
 10
-78.45947063619651
 20
13.72461436121385
 30
0.0
 11
-76.50000000000024
 21
13.99999999999968
 31
0.0
  0
LINE
  5
12C0
330
12A6
100
AcDbEntity
  8
240
100
AcDbLine
 10
-78.45947063619651
 20
13.72461436121385
 30
0.0
 11
-79.94371664009988
 21
13.98632697771073
 31
0.0
  0
ARC
  5
12C1
330
12A6
100
AcDbEntity
  8
240
100
AcDbCircle
 10
-80.10000000000008
 20
13.09999999999972
 30
0.0
 40
0.9000000000000088
100
AcDbArc
 50
79.99999999999841
 51
180.0000176000938
  0
LINE
  5
12C2
330
12A6
100
AcDbEntity
  8
241
100
AcDbLine
 10
-31.40776932049468
 20
-18.67634886925808
 30
0.0
 11
-31.40776932049469
 21
-13.89489420456621
 31
0.0
  0
SPLINE
  5
12C3
330
12A6
100
AcDbEntity
  8
241
100
AcDbSpline
210
0.0
220
0.0
230
1.0
 70
     8
 71
     3
 72
    18
 73
    14
 74
     0
 42
0.0000000001
 43
0.0000000001
 40
28.53035448964592
 40
28.53035448964592
 40
28.53035448964592
 40
28.53035448964592
 40
29.13272252400944
 40
29.13272252400944
 40
30.14658394600718
 40
30.14658394600718
 40
31.16044536800492
 40
31.16044536800492
 40
32.17430679000266
 40
32.17430679000266
 40
33.1881682120004
 40
33.1881682120004
 40
33.97776394418313
 40
33.97776394418313
 40
33.97776394418313
 40
33.97776394418313
 10
-35.79318384927663
 20
-17.38141098358038
 30
0.0
 10
-35.92339791626941
 20
-17.49104580164776
 30
0.0
 10
-36.04906957055625
 20
-17.59157214509655
 30
0.0
 10
-36.36460257337692
 20
-17.83387929751654
 30
0.0
 10
-36.56298734843474
 20
-17.97472204306217
 30
0.0
 10
-36.93849344313156
 20
-18.22066333035365
 30
0.0
 10
-37.11554515938328
 20
-18.3258166479772
 30
0.0
 10
-37.43135712942811
 20
-18.49383006816157
 30
0.0
 10
-37.57029138400713
 20
-18.55682873094286
 30
0.0
 10
-37.80071922037231
 20
-18.63984919979321
 30
0.0
 10
-37.89220294794322
 20
-18.65986717426466
 30
0.0
 10
-38.01240384774385
 20
-18.66175543876676
 30
0.0
 10
-38.05368588370635
 20
-18.65119469987064
 30
0.0
 10
-38.08112837643978
 20
-18.62784892648738
 30
0.0
  0
ELLIPSE
  5
12C4
330
12A6
100
AcDbEntity
  8
241
100
AcDbEllipse
 10
-38.02267991641662
 20
-12.02009603659706
 30
0.0
 11
0.0021393999938961
 21
6.631666990138617
 31
0.0
210
0.0
220
0.0
230
0.9999999999999998
 40
0.1001246394246738
 41
0.0913613090135652
 42
3.056675363513253
  0
LINE
  5
12C5
330
12A6
100
AcDbEntity
  8
240
100
AcDbLine
 10
-31.40776932049468
 20
-18.67634886925808
 30
0.0
 11
-14.45345656159823
 21
-3.544469720759456
 31
0.0
  0
LINE
  5
12C6
330
12A6
100
AcDbEntity
  8
240
100
AcDbLine
 10
-49.99318384927669
 20
-13.99999991975954
 30
0.0
 11
-49.99318384927665
 21
-24.70681615072304
 31
0.0
  0
LINE
  5
12C7
330
12A6
100
AcDbEntity
  8
247
100
AcDbLine
 10
-45.21767321720988
 20
-19.09418553868604
 30
0.0
 11
-46.75696096983749
 21
-17.5548977860584
 31
0.0
  0
ARC
  5
12C8
330
12A6
100
AcDbEntity
  8
247
100
AcDbCircle
 10
-45.79941886911401
 20
-17.67845570741256
 30
0.0
 40
0.9094932500839236
100
AcDbArc
 50
0.0
 51
130.3298406541675
  0
LINE
  5
12C9
330
12A6
100
AcDbEntity
  8
247
100
AcDbLine
 10
-44.88992518982293
 20
-17.80528540851776
 30
0.0
 11
-45.91842819746138
 21
-16.77678240087939
 31
0.0
  0
LINE
  5
12CA
330
12A6
100
AcDbEntity
  8
247
100
AcDbLine
 10
-44.88992518982299
 20
-18.20944744790659
 30
0.0
 11
-46.2248003561932
 21
-16.87457228153635
 31
0.0
  0
LINE
  5
12CB
330
12A6
100
AcDbEntity
  8
247
100
AcDbLine
 10
-47.79081161559848
 20
-17.4480488440429
 30
0.0
 11
-46.7510774522414
 21
-17.74618114374062
 31
0.0
  0
ARC
  5
12CC
330
12A6
100
AcDbEntity
  8
247
100
AcDbCircle
 10
-47.29099933633814
 20
-17.66705596719345
 30
0.0
 40
0.545688953974843
100
AcDbArc
 50
351.6626016879293
 51
156.3381550951898
  0
LINE
  5
12CD
330
12A6
100
AcDbEntity
  8
247
100
AcDbLine
 10
-46.21540679704987
 20
-17.69228991945725
 30
0.0
 11
-47.51726735840064
 21
-16.39042935810644
 31
0.0
  0
ARC
  5
12CE
330
12A6
100
AcDbEntity
  8
247
100
AcDbCircle
 10
-45.83580189542779
 20
-18.0843276630934
 30
0.0
 40
0.5457045663826169
100
AcDbArc
 50
351.6628542111504
 51
156.3381921591102
  0
LINE
  5
12CF
330
12A6
100
AcDbEntity
  8
247
100
AcDbLine
 10
-46.91760849694309
 20
-18.6067363771192
 30
0.0
 11
-48.16412329473492
 21
-17.36022157932738
 31
0.0
  0
LINE
  5
12D0
330
12A6
100
AcDbEntity
  8
247
100
AcDbLine
 10
-48.16412329473506
 20
-18.43854368749201
 30
0.0
 11
-48.16412329473492
 21
-17.26493275183892
 31
0.0
  0
LINE
  5
12D1
330
12A6
100
AcDbEntity
  8
247
100
AcDbLine
 10
-46.35096340369871
 20
-18.76921943097483
 30
0.0
 11
-47.6244242490723
 21
-17.49575858560116
 31
0.0
  0
LINE
  5
12D2
330
12A6
100
AcDbEntity
  8
247
100
AcDbLine
 10
-44.70802379288087
 20
-19.37906345944962
 30
0.0
 11
-44.70802379288087
 21
-11.99391344132979
 31
0.0
1001
ACAD
1000
ASC_BOUNDS
1002
{
1070
    19
1005
0
1002
}
  0
LINE
  5
12D3
330
12A6
100
AcDbEntity
  8
247
100
AcDbLine
 10
-44.34422100835944
 20
-19.37906345944962
 30
0.0
 11
-44.34422100835944
 21
-11.99391344132979
 31
0.0
1001
ACAD
1000
ASC_BOUNDS
1002
{
1070
    19
1005
0
1002
}
  0
INSERT
  5
12D4
330
12A6
100
AcDbEntity
  8
247
  6
CONTINUOUS
100
AcDbBlockReference
  2
*X3
 10
-49.99318384927669
 20
2.693863903902978
 30
0.0
 41
1.714499999999986
 42
1.714500000000001
 43
1.7145
1001
ACAD
1000
HATCH
1002
{
1070
    19
1000
ANSI31
1040
0.0525
1040
1.570796326794895
1002
}
  0
LINE
  5
12D5
330
12A6
100
AcDbEntity
  8
240
100
AcDbLine
 10
-39.55853538679336
 20
-25.00000000000051
 30
0.0
 11
-49.69999999999985
 21
-24.99999999999979
 31
0.0
  0
LINE
  5
12D6
330
12A6
100
AcDbEntity
  8
240
100
AcDbLine
 10
-49.69999999999985
 20
-24.99999999999979
 30
0.0
 11
-49.99999999999986
 21
-24.69999999999983
 31
0.0
  0
LINE
  5
12D7
330
12A6
100
AcDbEntity
  8
247
100
AcDbLine
 10
-44.88992518982299
 20
-19.18816588197304
 30
0.0
 11
-47.80032050084968
 21
-18.35362249017359
 31
0.0
  0
LINE
  5
12D8
330
12A6
100
AcDbEntity
  8
247
100
AcDbLine
 10
-44.88992518982299
 20
-19.01777152668418
 30
0.0
 11
-45.92449338270436
 21
-17.98320333380277
 31
0.0
  0
ARC
  5
12D9
330
12A6
100
AcDbEntity
  8
247
100
AcDbCircle
 10
-46.25417236146937
 20
-19.37906345944962
 30
0.0
 40
1.909950933265685
100
AcDbArc
 50
180.0
 51
0.0
1001
ACAD
1000
ASC_BOUNDS
1002
{
1070
    19
1005
0
1002
}
  0
ARC
  5
12DA
330
12A6
100
AcDbEntity
  8
247
100
AcDbCircle
 10
-46.25417236146937
 20
-19.37906345944962
 30
0.0
 40
1.546148139381408
100
AcDbArc
 50
180.0
 51
0.0
1001
ACAD
1000
ASC_BOUNDS
1002
{
1070
    19
1005
0
1002
}
  0
LINE
  5
12DB
330
12A6
100
AcDbEntity
  8
247
100
AcDbLine
 10
-44.88992518982299
 20
-18.61360948729537
 30
0.0
 11
-45.35785666159237
 21
-18.14567801552593
 31
0.0
  0
LINE
  5
12DC
330
12A6
100
AcDbEntity
  8
247
100
AcDbLine
 10
-48.16412329473506
 20
-19.37906345944962
 30
0.0
 11
-48.16412329473506
 21
-18.62776564050274
 31
0.0
1001
ACAD
1000
ASC_BOUNDS
1002
{
1070
    19
1005
0
1002
}
  0
LINE
  5
12DD
330
12A6
100
AcDbEntity
  8
247
100
AcDbLine
 10
-47.80032050085075
 20
-19.37906345944962
 30
0.0
 11
-47.80032050085075
 21
-18.73208013082107
 31
0.0
1001
ACAD
1000
ASC_BOUNDS
1002
{
1070
    19
1005
0
1002
}
  0
LINE
  5
12DE
330
12A6
100
AcDbEntity
  8
247
100
AcDbLine
 10
-45.78431831045422
 20
-18.93170248483048
 30
0.0
 11
-47.05778451894666
 21
-17.65823627633798
 31
0.0
  0
LINE
  5
12DF
330
12A6
100
AcDbEntity
  8
247
100
AcDbLine
 10
-47.8003205008507
 20
-18.5323484519892
 30
0.0
 11
-48.16412329473495
 21
-18.16854565810493
 31
0.0
  0
LINE
  5
12E0
330
12A6
100
AcDbEntity
  8
247
100
AcDbLine
 10
-48.16412329473506
 20
-18.62776564050274
 30
0.0
 11
-47.80032050085075
 21
-18.73208013082107
 31
0.0
1001
ACAD
1000
ASC_BOUNDS
1002
{
1070
    19
1005
0
1002
}
  0
LINE
  5
12E1
330
12A6
100
AcDbEntity
  8
247
100
AcDbLine
 10
-48.16412329473506
 20
-18.43854368749201
 30
0.0
 11
-47.80032050085075
 21
-18.54285817781089
 31
0.0
  0
LINE
  5
12E2
330
12A6
100
AcDbEntity
  8
247
100
AcDbLine
 10
-47.80032050085075
 20
-18.54285817781089
 30
0.0
 11
-47.80032050084968
 21
-18.35362249017359
 31
0.0
  0
LINE
  5
12E3
330
12A6
100
AcDbEntity
  8
247
100
AcDbLine
 10
-47.48425359018749
 20
-18.44425332326359
 30
0.0
 11
-48.16412329473495
 21
-17.76438361871612
 31
0.0
  0
LINE
  5
12E4
330
12A6
100
AcDbEntity
  8
247
100
AcDbLine
 10
-46.33562931752486
 20
-17.86531619788998
 30
0.0
 11
-45.29586431461377
 21
-18.1634534022408
 31
0.0
  0
LINE
  5
12E5
330
12A6
100
AcDbEntity
  8
247
100
AcDbLine
 10
-44.88992518982299
 20
-19.18816588197304
 30
0.0
 11
-44.88992518982299
 21
-17.67845570741256
 31
0.0
  0
ELLIPSE
  5
12E6
330
12A6
100
AcDbEntity
  8
240
100
AcDbEllipse
 10
-30.12132957074001
 20
-18.70166161527069
 30
0.0
 11
-7.979248466411203
 21
-7.016709121455693
 31
0.0000000000000001
210
0.0
220
0.0
230
1.0
 40
0.0820672348260286
 41
4.80185262023357
 42
5.567585639350759
  0
SPLINE
  5
12E7
330
12A6
100
AcDbEntity
  8
241
100
AcDbSpline
210
0.0
220
0.0
230
1.0
 70
     8
 71
     3
 72
    14
 73
    10
 74
     0
 42
0.0000000001
 43
0.0000000001
 40
34.44685080504377
 40
34.44685080504377
 40
34.44685080504377
 40
34.44685080504377
 40
34.86785371944147
 40
34.86785371944147
 40
36.53282394320152
 40
36.53282394320152
 40
38.19779416696157
 40
38.19779416696157
 40
38.94542682800265
 40
38.94542682800265
 40
38.94542682800265
 40
38.94542682800265
 10
-36.52106067681581
 20
-23.56755408492579
 30
0.0
 10
-36.60483623074971
 20
-23.52798114286491
 30
0.0
 10
-36.68578252723902
 20
-23.48668701817126
 30
0.0
 10
-37.07175429264761
 20
-23.27345957461079
 30
0.0
 10
-37.33145220605599
 20
-23.07557137794793
 30
0.0
 10
-37.73939971827447
 20
-22.62842018237398
 30
0.0
 10
-37.88813948362887
 20
-22.37861176404976
 30
0.0
 10
-38.02645483696609
 20
-21.98970571692819
 30
0.0
 10
-38.05870762084278
 20
-21.86551512549829
 30
0.0
 10
-38.08112837643976
 20
-21.73874729236479
 30
0.0
  0
LINE
  5
12E8
330
12A6
100
AcDbEntity
  8
241
100
AcDbLine
 10
-38.08112837643978
 20
-18.62784892648738
 30
0.0
 11
-38.08112837643976
 21
-21.73874729236479
 31
0.0
  0
LINE
  5
12E9
330
12A6
100
AcDbEntity
  8
241
100
AcDbLine
 10
-49.99318384927679
 20
13.99999999998763
 30
0.0
 11
-49.99318384927669
 21
-13.99999991975954
 31
0.0
  0
LINE
  5
12EA
330
12A6
100
AcDbEntity
  8
245
100
AcDbLine
 10
-63.99999999999942
 20
-6.585300982583946
 30
0.0
 11
-63.99999999999992
 21
6.535064604361066
 31
0.0
  0
CIRCLE
  5
12EB
330
12A6
100
AcDbEntity
  8
241
100
AcDbCircle
 10
-64.00000000000004
 20
-0.0000000000004705
 30
0.0
 40
4.0
  0
SPLINE
  5
12EC
330
12A6
100
AcDbEntity
  8
241
100
AcDbSpline
210
0.0
220
0.0
230
1.0
 70
    11
 71
     3
 72
    70
 73
    66
 74
     0
 42
0.0000000001
 43
0.0000000001
 40
0.0
 40
0.0
 40
0.0
 40
0.0
 40
0.9197496568304652
 40
0.9197496568304652
 40
1.83949931366093
 40
1.83949931366093
 40
2.759248970491396
 40
2.759248970491396
 40
3.678998627321861
 40
3.678998627321861
 40
4.631875395981221
 40
4.631875395981221
 40
5.584752164640583
 40
5.584752164640583
 40
6.537628933299944
 40
6.537628933299944
 40
7.490505701959305
 40
7.490505701959305
 40
8.443382470618661
 40
8.443382470618661
 40
9.39625923927802
 40
9.39625923927802
 40
10.34913600793737
 40
10.34913600793737
 40
11.30201277659673
 40
11.30201277659673
 40
12.2217624334272
 40
12.2217624334272
 40
13.14151209025766
 40
13.14151209025766
 40
14.06126174708813
 40
14.06126174708813
 40
14.9810114039186
 40
14.9810114039186
 40
15.91208227998781
 40
15.91208227998781
 40
16.84315315605702
 40
16.84315315605702
 40
17.77422403212622
 40
17.77422403212622
 40
18.70529490819543
 40
18.70529490819543
 40
19.64673146562238
 40
19.64673146562238
 40
20.58816802304932
 40
20.58816802304932
 40
21.52960458047627
 40
21.52960458047627
 40
22.47104113790322
 40
22.47104113790322
 40
23.41247769533016
 40
23.41247769533016
 40
24.3539142527571
 40
24.3539142527571
 40
25.29535081018405
 40
25.29535081018405
 40
26.23678736761099
 40
26.23678736761099
 40
27.1678582436802
 40
27.1678582436802
 40
28.0989291197494
 40
28.0989291197494
 40
29.0299999958186
 40
29.0299999958186
 40
29.96107087188781
 40
29.96107087188781
 40
29.96107087188781
 40
29.96107087188781
 10
-64.00000000000005
 20
4.813238667570415
 30
0.0
 10
-63.69341678105656
 20
4.813238667570416
 30
0.0
 10
-63.37626085482512
 20
4.786140626473511
 30
0.0
 10
-62.74440677204077
 20
4.671798730367118
 30
0.0
 10
-62.42970138435771
 20
4.584583114443366
 30
0.0
 10
-61.8242622734997
 20
4.353455323821428
 30
0.0
 10
-61.53306955977737
 20
4.209379306697763
 30
0.0
 10
-60.99166717234232
 20
3.875324214316886
 30
0.0
 10
-60.74146009689255
 20
3.685312193028263
 30
0.0
 10
-60.28684645229731
 20
3.27100997357496
 30
0.0
 10
-60.06785585213075
 20
3.030604788969866
 30
0.0
 10
-59.67913298603701
 20
2.502017360458296
 30
0.0
 10
-59.50937594437323
 20
2.213831988604
 30
0.0
 10
-59.23491531454834
 20
1.607725564507918
 30
0.0
 10
-59.12996812109028
 20
1.289204275586544
 30
0.0
 10
-58.99153386157944
 20
0.6441601606738945
 30
0.0
 10
-58.95808984297817
 20
0.3176255895526797
 30
0.0
 10
-58.95808984297817
 20
-0.3176255895535259
 30
0.0
 10
-58.99153386157944
 20
-0.644160160674741
 30
0.0
 10
-59.12996812109026
 20
-1.289204275587392
 30
0.0
 10
-59.23491531454829
 20
-1.607725564508766
 30
0.0
 10
-59.50937594437321
 20
-2.21383198860485
 30
0.0
 10
-59.679132986037
 20
-2.502017360459148
 30
0.0
 10
-60.06785585213069
 20
-3.030604788970721
 30
0.0
 10
-60.28684645229728
 20
-3.271009973575816
 30
0.0
 10
-60.74146009689252
 20
-3.685312193029123
 30
0.0
 10
-60.99166717234229
 20
-3.875324214317747
 30
0.0
 10
-61.53306955977732
 20
-4.209379306698628
 30
0.0
 10
-61.82426227349964
 20
-4.353455323822295
 30
0.0
 10
-62.42970138435769
 20
-4.584583114444238
 30
0.0
 10
-62.74440677204075
 20
-4.671798730367992
 30
0.0
 10
-63.37626085482505
 20
-4.786140626474447
 30
0.0
 10
-63.69341678105651
 20
-4.813238667571297
 30
0.0
 10
-64.31035695868977
 20
-4.8132386675713
 30
0.0
 10
-64.63129234204448
 20
-4.785470431102528
 30
0.0
 10
-65.27026933877604
 20
-4.668421595239713
 30
0.0
 10
-65.58831874294359
 20
-4.579171023035051
 30
0.0
 10
-66.19963276822364
 20
-4.342762119793429
 30
0.0
 10
-66.49336985375026
 20
-4.195433199442643
 30
0.0
 10
-67.03879695522312
 20
-3.85389981812588
 30
0.0
 10
-67.29048375056203
 20
-3.659660585884665
 30
0.0
 10
-67.74130660191113
 20
-3.241308021639811
 30
0.0
 10
-67.95583231479625
 20
-3.001992855305191
 30
0.0
 10
-68.33652384033476
 20
-2.476737516738726
 30
0.0
 10
-68.50271248665896
 20
-2.190793541029994
 30
0.0
 10
-68.77130233774948
 20
-1.590081060247177
 30
0.0
 10
-68.87393747752195
 20
-1.274727792169335
 30
0.0
 10
-69.00926202767094
 20
-0.6365989058261113
 30
0.0
 10
-69.04191015702192
 20
-0.3138121858094458
 30
0.0
 10
-69.04191015702192
 20
0.3138121858085235
 30
0.0
 10
-69.00926202767094
 20
0.6365989058252462
 30
0.0
 10
-68.87393747752195
 20
1.27472779216847
 30
0.0
 10
-68.77130233774945
 20
1.590081060246314
 30
0.0
 10
-68.50271248665896
 20
2.190793541029132
 30
0.0
 10
-68.33652384033479
 20
2.476737516737866
 30
0.0
 10
-67.95583231479625
 20
3.001992855304278
 30
0.0
 10
-67.74130660191116
 20
3.241308021638899
 30
0.0
 10
-67.29048375056206
 20
3.659660585883756
 30
0.0
 10
-67.03879695522312
 20
3.853899818124973
 30
0.0
 10
-66.49336985375026
 20
4.195433199441684
 30
0.0
 10
-66.19963276822367
 20
4.342762119792529
 30
0.0
 10
-65.58831874294361
 20
4.579171023034156
 30
0.0
 10
-65.27026933877607
 20
4.668421595238819
 30
0.0
 10
-64.6312923420445
 20
4.785470431101639
 30
0.0
 10
-64.31035695868979
 20
4.813238667570414
 30
0.0
 10
-64.00000000000005
 20
4.813238667570415
 30
0.0
  0
LINE
  5
12ED
330
12A6
100
AcDbEntity
  8
247
100
AcDbLine
 10
-45.10332008594879
 20
-13.19481426759324
 30
0.0
 11
-44.88992518982299
 21
-12.98140563684066
 31
0.0
1001
ACAD
1000
ASC_BOUNDS
1002
{
1070
    19
1005
0
1002
}
  0
LINE
  5
12EE
330
12A6
100
AcDbEntity
  8
247
100
AcDbLine
 10
-46.74530888013849
 20
-13.50907626271805
 30
0.0
 11
-46.74530888013849
 21
-12.44938113427719
 31
0.0
1001
ACAD
1000
ASC_BOUNDS
1002
{
1070
    19
1005
0
1002
}
  0
ARC
  5
12EF
330
12A6
100
AcDbEntity
  8
247
100
AcDbCircle
 10
-47.3819500348092
 20
-13.42113344750962
 30
0.0
 40
0.3819927511654794
100
AcDbArc
 50
91.7101213820627
 51
253.9983983544487
1001
ACAD
1000
ASC_BOUNDS
1002
{
1070
    19
1005
0
1002
}
  0
ARC
  5
12F0
330
12A6
100
AcDbEntity
  8
247
100
AcDbCircle
 10
-46.98177794923792
 20
-13.6115777823027
 30
0.0
 40
1.182347062325477
100
AcDbArc
 50
143.4440121970577
 51
254.0001843876854
1001
ACAD
1000
ASC_BOUNDS
1002
{
1070
    19
1005
0
1002
}
  0
INSERT
  5
12F1
330
12A6
100
AcDbEntity
  8
247
  6
CONTINUOUS
100
AcDbBlockReference
  2
*X5
 10
-49.99318384927669
 20
2.693863903902978
 30
0.0
 41
1.714499999999986
 42
1.714500000000001
 43
1.7145
1001
ACAD
1000
HATCH
1002
{
1070
    19
1000
ANSI31
1040
0.0525
1040
1.570796326794895
1002
}
  0
ARC
  5
12F2
330
12A6
100
AcDbEntity
  8
247
100
AcDbCircle
 10
-46.25417236146937
 20
-11.99391344132979
 30
0.0
 40
1.909950933265685
100
AcDbArc
 50
0.0
 51
194.770793966094
1001
ACAD
1000
ASC_BOUNDS
1002
{
1070
    19
1005
0
1002
}
  0
ARC
  5
12F3
330
12A6
100
AcDbEntity
  8
247
100
AcDbCircle
 10
-46.25417236146937
 20
-11.99391344132979
 30
0.0
 40
1.546148139381408
100
AcDbArc
 50
0.0
 51
194.1274364964119
1001
ACAD
1000
ASC_BOUNDS
1002
{
1070
    19
1005
0
1002
}
  0
LINE
  5
12F4
330
12A6
100
AcDbEntity
  8
247
100
AcDbLine
 10
-44.95811478147122
 20
-17.33293377748073
 30
0.0
 11
-45.45389693918209
 21
-16.83715161976982
 31
0.0
  0
INSERT
  5
12F5
330
12A6
100
AcDbEntity
  8
247
  6
CONTINUOUS
100
AcDbBlockReference
  2
*X4
 10
-49.99318384927669
 20
2.693863903902978
 30
0.0
 41
1.714499999999986
 42
1.714500000000001
 43
1.7145
1001
ACAD
1000
HATCH
1002
{
1070
    19
1000
ANSI31
1040
0.0525
1040
1.570796326794895
1002
}
  0
POLYLINE
  5
12F6
330
12A6
100
AcDbEntity
  8
247
100
AcDb2dPolyline
 66
     1
 10
0.0
 20
0.0
 30
0.0
 70
     1
  0
VERTEX
  5
12F7
330
12F6
100
AcDbEntity
  8
247
100
AcDbVertex
100
AcDb2dVertex
 10
-48.16412329473506
 20
-15.77038641801438
 30
0.0
  0
VERTEX
  5
12F8
330
12F6
100
AcDbEntity
  8
247
100
AcDbVertex
100
AcDb2dVertex
 10
-47.76395120916378
 20
-15.88513922467788
 30
0.0
  0
VERTEX
  5
12F9
330
12F6
100
AcDbEntity
  8
247
100
AcDbVertex
100
AcDb2dVertex
 10
-47.76395120916378
 20
-15.75266874948104
 30
0.0
  0
VERTEX
  5
12FA
330
12F6
100
AcDbEntity
  8
247
100
AcDbVertex
100
AcDb2dVertex
 10
-44.88992518982299
 20
-16.57678755956254
 30
0.0
  0
VERTEX
  5
12FB
330
12F6
100
AcDbEntity
  8
247
100
AcDbVertex
100
AcDb2dVertex
 10
-44.88992518982299
 20
-15.76309333119948
 30
0.0
  0
VERTEX
  5
12FC
330
12F6
100
AcDbEntity
  8
247
100
AcDbVertex
100
AcDb2dVertex
 10
-48.16412329473506
 20
-14.82423544908126
 30
0.0
  0
SEQEND
  5
12FD
330
12F6
100
AcDbEntity
  8
247
  0
POLYLINE
  5
12FE
330
12A6
100
AcDbEntity
  8
247
100
AcDb2dPolyline
 66
     1
 10
0.0
 20
0.0
 30
0.0
 70
     1
1001
HATCH_DISTANCE
1040
1.0
1001
HATCH_DISPLAY
1070
     0
1001
HATCH_TYPE
1070
     7
  0
VERTEX
  5
12FF
330
12FE
100
AcDbEntity
  8
247
100
AcDbVertex
100
AcDb2dVertex
 10
-48.16412329473506
 20
-15.77038641801438
 30
0.0
  0
VERTEX
  5
1300
330
12FE
100
AcDbEntity
  8
247
100
AcDbVertex
100
AcDb2dVertex
 10
-47.76395120916378
 20
-15.88513922467788
 30
0.0
  0
VERTEX
  5
1301
330
12FE
100
AcDbEntity
  8
247
100
AcDbVertex
100
AcDb2dVertex
 10
-47.76395120916378
 20
-15.75266874948104
 30
0.0
  0
VERTEX
  5
1302
330
12FE
100
AcDbEntity
  8
247
100
AcDbVertex
100
AcDb2dVertex
 10
-44.88992518982299
 20
-16.57678755956254
 30
0.0
  0
VERTEX
  5
1303
330
12FE
100
AcDbEntity
  8
247
100
AcDbVertex
100
AcDb2dVertex
 10
-44.88992518982299
 20
-15.76309333119948
 30
0.0
  0
VERTEX
  5
1304
330
12FE
100
AcDbEntity
  8
247
100
AcDbVertex
100
AcDb2dVertex
 10
-48.16412329473506
 20
-14.82423544908126
 30
0.0
  0
SEQEND
  5
1305
330
12FE
100
AcDbEntity
  8
247
  0
LINE
  5
1306
330
12A6
100
AcDbEntity
  8
247
100
AcDbLine
 10
-44.88992518982299
 20
-16.57678755956254
 30
0.0
 11
-47.76395120916378
 21
-15.75266874948104
 31
0.0
  0
LINE
  5
1307
330
12A6
100
AcDbEntity
  8
247
100
AcDbLine
 10
-44.88992518982299
 20
-15.76309333119948
 30
0.0
 11
-48.16412329473506
 21
-14.82423544908126
 31
0.0
  0
ARC
  5
1308
330
12A6
100
AcDbEntity
  8
247
100
AcDbCircle
 10
-46.07227096452724
 20
-13.87237087541183
 30
0.0
 40
1.182359080123901
100
AcDbArc
 50
253.9997507017292
 51
34.96387329163151
1001
ACAD
1000
ASC_BOUNDS
1002
{
1070
    19
1005
0
1002
}
  0
ARC
  5
1309
330
12A6
100
AcDbEntity
  8
247
100
AcDbCircle
 10
-47.25463004465114
 20
-17.26118401151258
 30
0.0
 40
0.9095009758114816
100
AcDbArc
 50
17.66957754739822
 51
180.2361598426716
  0
ARC
  5
130A
330
12A6
100
AcDbEntity
  8
247
100
AcDbCircle
 10
-45.67209887895593
 20
-13.91143215394578
 30
0.0
 40
0.3819924829110504
100
AcDbArc
 50
254.0002730571841
 51
74.00027305718409
1001
ACAD
1000
ASC_BOUNDS
1002
{
1070
    19
1005
0
1002
}
  0
LINE
  5
130B
330
12A6
100
AcDbEntity
  8
247
100
AcDbLine
 10
-47.76395120916378
 20
-15.88513922467788
 30
0.0
 11
-48.16412329473506
 21
-15.77038641801438
 31
0.0
  0
LINE
  5
130C
330
12A6
100
AcDbEntity
  8
247
100
AcDbLine
 10
-47.74931220151903
 20
-17.37087063315446
 30
0.0
 11
-48.12451207120209
 21
-16.99567076347133
 31
0.0
  0
LINE
  5
130D
330
12A6
100
AcDbEntity
  8
247
100
AcDbLine
 10
-48.16412329473506
 20
-15.77038641801438
 30
0.0
 11
-48.16412329473506
 21
-14.82423544908126
 31
0.0
  0
LINE
  5
130E
330
12A6
100
AcDbEntity
  8
247
100
AcDbLine
 10
-47.76395120916378
 20
-15.88513922467788
 30
0.0
 11
-47.76395120916378
 21
-15.75266874948104
 31
0.0
  0
LINE
  5
130F
330
12A6
100
AcDbEntity
  8
247
100
AcDbLine
 10
-47.53637400550108
 20
-17.17964678978363
 30
0.0
 11
-47.99000920306527
 21
-16.72601159221946
 31
0.0
  0
LINE
  5
1310
330
12A6
100
AcDbEntity
  8
247
100
AcDbLine
 10
-47.17884115520307
 20
-17.13301760069285
 30
0.0
 11
-47.7876300093779
 21
-16.52422874651802
 31
0.0
  0
LINE
  5
1311
330
12A6
100
AcDbEntity
  8
247
100
AcDbLine
 10
-45.77738852777493
 20
-14.27862740064222
 30
0.0
 11
-47.48725341825495
 21
-13.78832869420608
 31
0.0
1001
ACAD
1000
ASC_BOUNDS
1002
{
1070
    19
1005
0
1002
}
  0
ARC
  5
1312
330
12A6
100
AcDbEntity
  8
247
100
AcDbCircle
 10
-46.01010804376612
 20
-11.93927709603865
 30
0.0
 40
3.094081780242919
100
AcDbArc
 50
245.2051773698406
 51
262.7948259620521
1001
ACAD
1000
ASC_BOUNDS
1002
{
1070
    19
1005
0
1002
}
  0
LINE
  5
1313
330
12A6
100
AcDbEntity
  8
247
100
AcDbLine
 10
-45.95232581037073
 20
-17.55120886674762
 30
0.0
 11
-47.14525051843982
 21
-16.35828415867851
 31
0.0
  0
LINE
  5
1314
330
12A6
100
AcDbEntity
  8
247
100
AcDbLine
 10
-46.38150608625422
 20
-13.61339075303634
 30
0.0
 11
-46.38150608625422
 21
-13.31062464051803
 31
0.0
1001
ACAD
1000
ASC_BOUNDS
1002
{
1070
    19
1005
0
1002
}
  0
LINE
  5
1315
330
12A6
100
AcDbEntity
  8
247
100
AcDbLine
 10
-45.56680923013693
 20
-13.5442369072493
 30
0.0
 11
-46.38150608625422
 21
-13.31062464051803
 31
0.0
1001
ACAD
1000
ASC_BOUNDS
1002
{
1070
    19
1005
0
1002
}
  0
LINE
  5
1316
330
12A6
100
AcDbEntity
  8
247
100
AcDbLine
 10
-46.38150608625422
 20
-13.61339075303634
 30
0.0
 11
-46.74530888013849
 21
-13.50907626271805
 31
0.0
1001
ACAD
1000
ASC_BOUNDS
1002
{
1070
    19
1005
0
1002
}
  0
LINE
  5
1317
330
12A6
100
AcDbEntity
  8
247
100
AcDbLine
 10
-44.88992518982299
 20
-16.57678755956254
 30
0.0
 11
-44.88992518982299
 21
-15.76309333119948
 31
0.0
  0
LINE
  5
1318
330
12A6
100
AcDbEntity
  8
247
100
AcDbLine
 10
-44.88992518982299
 20
-12.98140563684066
 30
0.0
 11
-46.74530888013849
 21
-12.44938113427719
 31
0.0
1001
ACAD
1000
ASC_BOUNDS
1002
{
1070
    19
1005
0
1002
}
  0
LINE
  5
1319
330
12A6
100
AcDbEntity
  8
247
100
AcDbLine
 10
-47.75356783132564
 20
-12.37129978108962
 30
0.0
 11
-48.1010126847268
 21
-12.48086089883406
 31
0.0
1001
ACAD
1000
ASC_BOUNDS
1002
{
1070
    19
1005
0
1002
}
  0
POLYLINE
  5
131A
330
12A6
100
AcDbEntity
  8
247
100
AcDb2dPolyline
 66
     1
 10
0.0
 20
0.0
 30
0.0
 70
     1
  0
VERTEX
  5
131B
330
131A
100
AcDbEntity
  8
247
100
AcDbVertex
100
AcDb2dVertex
 10
-47.75356783132564
 20
-12.37129978108962
 30
0.0
  0
VERTEX
  5
131C
330
131A
100
AcDbEntity
  8
247
100
AcDbVertex
100
AcDb2dVertex
 10
-48.1010126847268
 20
-12.48086089883406
 30
0.0
  0
VERTEX
  5
131D
330
131A
100
AcDbEntity
  8
247
100
AcDbVertex
100
AcDb2dVertex
 10
-48.1010126847268
 20
-12.48086089883406
 30
0.0
  0
VERTEX
  5
131E
330
131A
100
AcDbEntity
  8
247
100
AcDbVertex
100
AcDb2dVertex
 10
-47.75356783132564
 20
-12.37129978108962
 30
0.0
  0
SEQEND
  5
131F
330
131A
100
AcDbEntity
  8
247
  0
POLYLINE
  5
1320
330
12A6
100
AcDbEntity
  8
247
100
AcDb2dPolyline
 66
     1
 10
0.0
 20
0.0
 30
0.0
 70
     1
1001
HATCH_DISTANCE
1040
1.0
1001
HATCH_DISPLAY
1070
     0
1001
HATCH_TYPE
1070
     7
  0
VERTEX
  5
1321
330
1320
100
AcDbEntity
  8
247
100
AcDbVertex
100
AcDb2dVertex
 10
-47.75356783132564
 20
-12.37129978108962
 30
0.0
  0
VERTEX
  5
1322
330
1320
100
AcDbEntity
  8
247
100
AcDbVertex
100
AcDb2dVertex
 10
-48.1010126847268
 20
-12.48086089883406
 30
0.0
  0
VERTEX
  5
1323
330
1320
100
AcDbEntity
  8
247
100
AcDbVertex
100
AcDb2dVertex
 10
-48.1010126847268
 20
-12.48086089883406
 30
0.0
  0
VERTEX
  5
1324
330
1320
100
AcDbEntity
  8
247
100
AcDbVertex
100
AcDb2dVertex
 10
-47.75356783132564
 20
-12.37129978108962
 30
0.0
  0
SEQEND
  5
1325
330
1320
100
AcDbEntity
  8
247
  0
POLYLINE
  5
1326
330
12A6
100
AcDbEntity
  8
247
100
AcDb2dPolyline
 66
     1
 10
0.0
 20
0.0
 30
0.0
 70
     1
  0
VERTEX
  5
1327
330
1326
100
AcDbEntity
  8
247
100
AcDbVertex
100
AcDb2dVertex
 10
-47.75356783132564
 20
-12.37129978108962
 30
0.0
  0
VERTEX
  5
1328
330
1326
100
AcDbEntity
  8
247
100
AcDbVertex
100
AcDb2dVertex
 10
-48.1010126847268
 20
-12.48086089883406
 30
0.0
  0
VERTEX
  5
1329
330
1326
100
AcDbEntity
  8
247
100
AcDbVertex
100
AcDb2dVertex
 10
-48.1010126847268
 20
-12.48086089883406
 30
0.0
  0
VERTEX
  5
132A
330
1326
100
AcDbEntity
  8
247
100
AcDbVertex
100
AcDb2dVertex
 10
-47.75356783132564
 20
-12.37129978108962
 30
0.0
  0
SEQEND
  5
132B
330
1326
100
AcDbEntity
  8
247
  0
POLYLINE
  5
132C
330
12A6
100
AcDbEntity
  8
247
100
AcDb2dPolyline
 66
     1
 10
0.0
 20
0.0
 30
0.0
 70
     1
1001
HATCH_DISTANCE
1040
1.0
1001
HATCH_DISPLAY
1070
     0
1001
HATCH_TYPE
1070
     7
  0
VERTEX
  5
132D
330
132C
100
AcDbEntity
  8
247
100
AcDbVertex
100
AcDb2dVertex
 10
-47.75356783132564
 20
-12.37129978108962
 30
0.0
  0
VERTEX
  5
132E
330
132C
100
AcDbEntity
  8
247
100
AcDbVertex
100
AcDb2dVertex
 10
-48.1010126847268
 20
-12.48086089883406
 30
0.0
  0
VERTEX
  5
132F
330
132C
100
AcDbEntity
  8
247
100
AcDbVertex
100
AcDb2dVertex
 10
-48.1010126847268
 20
-12.48086089883406
 30
0.0
  0
VERTEX
  5
1330
330
132C
100
AcDbEntity
  8
247
100
AcDbVertex
100
AcDb2dVertex
 10
-47.75356783132564
 20
-12.37129978108962
 30
0.0
  0
SEQEND
  5
1331
330
132C
100
AcDbEntity
  8
247
  0
LINE
  5
1332
330
12A6
100
AcDbEntity
  8
247
100
AcDbLine
 10
-47.69886281290065
 20
-12.54478185182174
 30
0.0
 11
-48.04630766630179
 21
-12.6543429695662
 31
0.0
1001
ACAD
1000
ASC_BOUNDS
1002
{
1070
    19
1005
0
1002
}
  0
ARC
  5
1333
330
12A6
100
AcDbEntity
  8
247
100
AcDbCircle
 10
-46.25417236146937
 20
-11.99391344132979
 30
0.0
 40
1.909951791679857
100
AcDbArc
 50
200.2296450633199
 51
208.5716889237171
1001
ACAD
1000
ASC_BOUNDS
1002
{
1070
    19
1005
0
1002
}
  0
ARC
  5
1334
330
12A6
100
AcDbEntity
  8
247
100
AcDbCircle
 10
-46.25417236146937
 20
-11.99391344132979
 30
0.0
 40
1.546152431452272
100
AcDbArc
 50
200.8721834020772
 51
222.5419489373864
1001
ACAD
1000
ASC_BOUNDS
1002
{
1070
    19
1005
0
1002
}
  0
LINE
  5
1335
330
12A6
100
AcDbEntity
  8
241
100
AcDbLine
 10
-13.1596510243339
 20
0.8890567107304498
 30
0.0
 11
-15.26153515660843
 21
-0.1096974508318434
 31
0.0
  0
LINE
  5
1336
330
12A6
100
AcDbEntity
  8
241
100
AcDbLine
 10
-29.27180546543903
 20
-0.2463836436428911
 30
0.0
 11
-27.33110239485674
 21
1.005417029454089
 31
0.0
  0
LINE
  5
1337
330
12A6
100
AcDbEntity
  8
241
100
AcDbLine
 10
-31.32624818410648
 20
0.808414180135367
 30
0.0
 11
-29.27180546543903
 21
-0.2463836436428911
 31
0.0
  0
CIRCLE
  5
1338
330
12A6
100
AcDbEntity
  8
241
100
AcDbCircle
 10
-29.38554511352448
 20
2.06021485323219
 30
0.0
 40
4.25
  0
LINE
  5
1339
330
12A6
100
AcDbEntity
  8
241
100
AcDbLine
 10
-36.63018990671895
 20
-3.30309772580291
 30
0.0
 11
-37.12269703001625
 21
6.684766747321529
 31
0.0
  0
LINE
  5
133A
330
12A6
100
AcDbEntity
  8
241
100
AcDbLine
 10
-24.63383545181157
 20
-4.213373391018668
 30
0.0
 11
-30.77394709369043
 21
-4.516145693306491
 31
0.0
  0
LINE
  5
133B
330
12A6
100
AcDbEntity
  8
241
100
AcDbLine
 10
-31.40776932049471
 20
-10.10353210187972
 30
0.0
 11
-31.40776932049473
 21
-4.547399817994028
 31
0.0
  0
SPLINE
  5
133C
330
12A6
100
AcDbEntity
  8
241
100
AcDbSpline
210
0.0
220
0.0
230
1.0
 70
     8
 71
     3
 72
    18
 73
    14
 74
     0
 42
0.0000000001
 43
0.0000000001
 40
41.75313454275257
 40
41.75313454275257
 40
41.75313454275257
 40
41.75313454275257
 40
41.75386041430014
 40
41.75386041430014
 40
43.90042176731692
 40
43.90042176731692
 40
44.97370244382532
 40
44.97370244382532
 40
46.04698312033371
 40
46.04698312033371
 40
46.5836234585879
 40
46.5836234585879
 40
46.65183579630929
 40
46.65183579630929
 40
46.65183579630929
 40
46.65183579630929
 10
-34.87774513881896
 20
-7.402356748843639
 30
0.0
 10
-34.87758319329354
 20
-7.402493637974703
 30
0.0
 10
-34.87742124490497
 20
-7.402630529530258
 30
0.0
 10
-34.39833392797995
 20
-7.807592940820071
 30
0.0
 10
-33.8946214805626
 20
-8.234358584383567
 30
0.0
 10
-33.13070830932355
 20
-8.859628696983669
 30
0.0
 10
-32.87613100187833
 20
-9.064292522394204
 30
0.0
 10
-32.36574751597488
 20
-9.458626948349921
 30
0.0
 10
-32.11014531634885
 20
-9.648556651383135
 30
0.0
 10
-31.72087565125375
 20
-9.91186779330056
 30
0.0
 10
-31.59068841087594
 20
-9.995582225953656
 30
0.0
 10
-31.44153085328736
 20
-10.08388139100982
 30
0.0
 10
-31.42467390434973
 20
-10.09375092501767
 30
0.0
 10
-31.40777675191794
 20
-10.10352780198455
 30
0.0
  0
LINE
  5
133D
330
12A6
100
AcDbEntity
  8
241
100
AcDbLine
 10
-35.79318384927663
 20
-17.38141098358038
 30
0.0
 11
-35.79318384927668
 21
-6.720765768406161
 31
0.0
  0
SPLINE
  5
133E
330
12A6
100
AcDbEntity
  8
241
100
AcDbSpline
210
0.0
220
0.0
230
1.0
 70
     8
 71
     3
 72
    18
 73
    14
 74
     0
 42
0.0000000001
 43
0.0000000001
 40
1.541698677037262
 40
1.541698677037262
 40
1.541698677037262
 40
1.541698677037262
 40
1.60992101476259
 40
1.60992101476259
 40
2.146561353016787
 40
2.146561353016787
 40
3.219842029525181
 40
3.219842029525181
 40
4.293122706033575
 40
4.293122706033575
 40
6.439684059050362
 40
6.439684059050362
 40
7.866642932527432
 40
7.866642932527432
 40
7.866642932527432
 40
7.866642932527432
 10
-31.40776932049472
 20
-13.89489420456621
 30
0.0
 10
-31.42466896185728
 20
-13.90469014129414
 30
0.0
 10
-31.4415283872717
 20
-13.91457907787648
 30
0.0
 10
-31.59068841087593
 20
-14.00304181694869
 30
0.0
 10
-31.72087565125373
 20
-14.08691950850843
 30
0.0
 10
-32.11014531634886
 20
-14.3507832250896
 30
0.0
 10
-32.36574751597486
 20
-14.54116171161278
 30
0.0
 10
-32.8761310018783
 20
-14.93657248792167
 30
0.0
 10
-33.13070830932353
 20
-15.14186394716527
 30
0.0
 10
-33.89462148056257
 20
-15.76932289365599
 30
0.0
 10
-34.39833392797991
 20
-16.19794380895557
 30
0.0
 10
-35.19563211785553
 20
-16.87566256725533
 30
0.0
 10
-35.50294691479056
 20
-17.13704357963029
 30
0.0
 10
-35.79318384927663
 20
-17.38141098358038
 30
0.0
  0
LINE
  5
133F
330
12A6
100
AcDbEntity
  8
241
100
AcDbLine
 10
-30.77394709369043
 20
-4.516145693306491
 30
0.0
 11
-35.05813416725569
 21
-4.727401328276984
 31
0.0
  0
ARC
  5
1340
330
12A6
100
AcDbEntity
  8
241
100
AcDbCircle
 10
-35.13201023575029
 20
-3.229221657308313
 30
0.0
 40
1.5
100
AcDbArc
 50
182.8230000000002
 51
272.8230000000003
  0
SPLINE
  5
1341
330
12A6
100
AcDbEntity
  8
241
100
AcDbSpline
210
0.0
220
0.0
230
1.0
 70
     8
 71
     3
 72
    12
 73
     8
 74
     0
 42
0.0000000001
 43
0.0000000001
 40
11.06222924000089
 40
11.06222924000089
 40
11.06222924000089
 40
11.06222924000089
 40
11.06272273733347
 40
11.06272273733347
 40
12.07658415933121
 40
12.07658415933121
 40
13.06790387600222
 40
13.06790387600222
 40
13.06790387600222
 40
13.06790387600222
 10
-37.95987574372182
 20
-5.37786857089663
 30
0.0
 10
-37.9598428608568
 20
-5.377868045245098
 30
0.0
 10
-37.95980997355964
 20
-5.377867524067506
 30
0.0
 10
-37.89220294794326
 20
-5.376805469234509
 30
0.0
 10
-37.80071922037233
 20
-5.394649171070736
 30
0.0
 10
-37.57285299463449
 20
-5.47250354603261
 30
0.0
 10
-37.43753758321095
 20
-5.531553946803451
 30
0.0
 10
-37.2839558488428
 20
-5.610809703422868
 30
0.0
  0
LINE
  5
1342
330
12A6
100
AcDbEntity
  8
241
100
AcDbLine
 10
-38.08112837643983
 20
-5.416067150910008
 30
0.0
 11
-37.95987574372182
 21
-5.37786857089663
 31
0.0
  0
LINE
  5
1343
330
12A6
100
AcDbEntity
  8
241
100
AcDbLine
 10
-34.87774513881896
 20
-7.402356748843639
 30
0.0
 11
-37.2839558488428
 21
-5.610809703422868
 31
0.0
  0
LINE
  5
1344
330
12A6
100
AcDbEntity
  8
241
100
AcDbLine
 10
-21.52225321013229
 20
-3.413812141104774
 30
0.0
 11
-15.26153515660843
 21
-0.1096974508318434
 31
0.0
  0
ELLIPSE
  5
1345
330
12A6
100
AcDbEntity
  8
241
100
AcDbEllipse
 10
-24.78158758880084
 20
-1.21701404908139
 30
0.0
 11
5.072884426625304
 21
0.2501467378236795
 31
0.0
210
0.0
220
0.0
230
-1.0
 40
0.5906618582143878
 41
0.9025114294229034
 42
1.570796326794896
  0
LINE
  5
1346
330
12A6
100
AcDbEntity
  8
241
100
AcDbLine
 10
-14.45345656159824
 20
-3.544469720759455
 30
0.0
 11
-17.15710711324055
 21
-1.110091829692647
 31
0.0
  0
LINE
  5
1347
330
12A6
100
AcDbEntity
  8
240
  6
CONTINUOUS
100
AcDbLine
 10
-14.38396826516914
 20
-3.60703726389558
 30
0.0
 11
-14.45345656159824
 21
-3.544469720759455
 31
0.0
  0
ARC
  5
1348
330
12A6
100
AcDbEntity
  8
240
  6
CONTINUOUS
100
AcDbCircle
 10
-13.84866378008204
 20
-3.012521403513654
 30
0.0
 40
0.8
100
AcDbArc
 50
227.9999999999998
 51
283.0000000000003
  0
LINE
  5
1349
330
12A6
100
AcDbEntity
  8
241
100
AcDbLine
 10
-31.41420635397647
 20
8.468078121755306
 30
0.0
 11
-25.27409471209819
 21
8.770850424043043
 31
0.0
  0
LINE
  5
134A
330
12A6
100
AcDbEntity
  8
241
100
AcDbLine
 10
-35.69839342754217
 20
8.256822486784791
 30
0.0
 11
-31.41420635397647
 21
8.468078121755306
 31
0.0
  0
ARC
  5
134B
330
12A6
100
AcDbEntity
  8
241
100
AcDbCircle
 10
-35.62451735904758
 20
6.758642815816127
 30
0.0
 40
1.5
100
AcDbArc
 50
92.82300000000041
 51
182.8230000000002
  0
LINE
  5
134C
330
12A6
100
AcDbEntity
  8
241
100
AcDbLine
 10
-29.49928476160945
 20
4.36681335010749
 30
0.0
 11
-31.43998783219183
 21
3.115012677010573
 31
0.0
  0
LINE
  5
134D
330
12A6
100
AcDbEntity
  8
241
100
AcDbLine
 10
-31.43998783219183
 20
3.115012677010573
 30
0.0
 11
-31.32624818410648
 21
0.808414180135367
 31
0.0
  0
LINE
  5
134E
330
12A6
100
AcDbEntity
  8
241
100
AcDbLine
 10
-27.33110239485674
 20
1.005417029454089
 30
0.0
 11
-27.444842042942
 21
3.312015526329217
 31
0.0
  0
LINE
  5
134F
330
12A6
100
AcDbEntity
  8
241
100
AcDbLine
 10
-27.444842042942
 20
3.312015526329217
 30
0.0
 11
-29.49928476160945
 21
4.36681335010749
 31
0.0
  0
LINE
  5
1350
330
12A6
100
AcDbEntity
  8
241
100
AcDbLine
 10
-22.09894523613849
 20
8.281291393473642
 30
0.0
 11
-15.5435345456893
 21
5.609147102531037
 31
0.0
  0
ELLIPSE
  5
1351
330
12A6
100
AcDbEntity
  8
241
100
AcDbEllipse
 10
-25.12634257510901
 20
5.774491082105715
 30
0.0
 11
5.072884426625022
 21
0.250146737823666
 31
0.0
210
0.0
220
0.0
230
-1.0
 40
0.5906618582144205
 41
4.712388980384689
 42
5.380673877756678
  0
LINE
  5
1352
330
12A6
100
AcDbEntity
  8
241
100
AcDbLine
 10
-13.35358789097161
 20
4.822025491673913
 30
0.0
 11
-15.5435345456893
 21
5.609147102531037
 31
0.0
  0
LINE
  5
1353
330
12A6
100
AcDbEntity
  8
240
100
AcDbLine
 10
-16.16073352559449
 20
13.99083400413727
 30
0.0
 11
-17.14417713929874
 21
14.01018481948178
 31
0.0
  0
LINE
  5
1354
330
12A6
100
AcDbEntity
  8
240
100
AcDbLine
 10
-15.79521567881705
 20
13.99102491698531
 30
0.0
 11
-16.16073352559446
 21
13.99083400413727
 31
0.0
  0
LINE
  5
1355
330
12A6
100
AcDbEntity
  8
240
100
AcDbLine
 10
-17.42759113154555
 20
14.02314449707872
 30
0.0
 11
-15.79521567881705
 21
13.99102491698531
 31
0.0
  0
LINE
  5
1356
330
12A6
100
AcDbEntity
  8
240
100
AcDbLine
 10
-38.73677899865617
 20
24.99999999999948
 30
0.0
 11
-49.70000000000001
 21
24.99999999999876
 31
0.0
  0
LINE
  5
1357
330
12A6
100
AcDbEntity
  8
240
100
AcDbLine
 10
-49.70000000000001
 20
24.99999999999876
 30
0.0
 11
-50.00000000000002
 21
24.6999999999988
 31
0.0
  0
ELLIPSE
  5
1358
330
12A6
100
AcDbEntity
  8
240
100
AcDbEllipse
 10
-30.12132957074015
 20
19.22622052771541
 30
0.0
 11
-7.980057202959854
 21
7.17165850546036
 31
0.0
210
0.0
220
0.0
230
0.9999999999999998
 40
0.0787159240517542
 41
0.8097182708993823
 42
1.319199435622741
  0
SPLINE
  5
1359
330
12A6
100
AcDbEntity
  8
241
100
AcDbSpline
210
0.0
220
0.0
230
1.0
 70
     8
 71
     3
 72
    14
 73
    10
 74
     0
 42
0.0000000001
 43
0.0000000001
 40
15.49858216616525
 40
15.49858216616525
 40
15.49858216616525
 40
15.49858216616525
 40
16.24621482720633
 40
16.24621482720633
 40
17.91118505096638
 40
17.91118505096638
 40
19.57615527472643
 40
19.57615527472643
 40
20.76810292835652
 40
20.76810292835652
 40
20.76810292835652
 40
20.76810292835652
 10
-38.0811283764399
 20
21.65914211779221
 30
0.0
 10
-38.05870762084295
 20
21.78733847424439
 30
0.0
 10
-38.02645483696626
 20
21.91298015061437
 30
0.0
 10
-37.88813948362902
 20
22.30660333624172
 30
0.0
 10
-37.73939971827464
 20
22.55972097097776
 30
0.0
 10
-37.33145220605617
 20
23.01332512488312
 30
0.0
 10
-37.07175429264778
 20
23.21436289998627
 30
0.0
 10
-36.54313308627045
 20
23.51144539657963
 30
0.0
 10
-36.29795617696171
 20
23.6212643285358
 30
0.0
 10
-36.03396226005951
 20
23.71768659192821
 30
0.0
  0
ELLIPSE
  5
135A
330
12A6
100
AcDbEntity
  8
240
100
AcDbEllipse
 10
-10.59245649635481
 20
-0.0000000000004068
 30
0.0
 11
28.37143655116169
 21
-24.9213836048986
 31
0.0000000000000002
210
0.0
220
0.0
230
1.0
 40
0.0698262217585814
 41
2.740592549156884
 42
3.06226667637053
  0
SPLINE
  5
135B
330
12A6
100
AcDbEntity
  8
240
100
AcDbSpline
210
0.0
220
0.0
230
1.0
 70
     8
 71
     3
 72
     8
 73
     4
 74
     0
 42
0.0000000001
 43
0.0000000001
 40
14.89302224642641
 40
14.89302224642641
 40
14.89302224642641
 40
14.89302224642641
 40
16.53840453868777
 40
16.53840453868777
 40
16.53840453868777
 40
16.53840453868777
 10
-32.6547222433261
 20
20.40323056924303
 30
0.0
 10
-32.2511442939354
 20
20.02575445595911
 30
0.0
 10
-31.83337854908208
 20
19.6655590242565
 30
0.0
 10
-31.40776932049482
 20
19.32687656788945
 30
0.0
  0
LINE
  5
135C
330
12A6
100
AcDbEntity
  8
240
  6
CONTINUOUS
100
AcDbLine
 10
-0.2646955149128751
 20
0.5945158603815256
 30
0.0
 11
-10.21681465118765
 21
9.555444180017147
 31
0.0
  0
ARC
  5
135D
330
12A6
100
AcDbEntity
  8
240
  6
CONTINUOUS
100
AcDbCircle
 10
-0.7999999999999972
 20
-0.0000000000003999
 30
0.0
 40
0.8
100
AcDbArc
 50
283.0000000000003
 51
47.99999999999983
  0
ARC
  5
135E
330
12A6
100
AcDbEntity
  8
241
100
AcDbCircle
 10
-12.90556873286912
 20
2.872851606672071
 30
0.0
 40
1.999999999999999
100
AcDbArc
 50
319.446326718662
 51
46.19967328133865
  0
ARC
  5
135F
330
12A6
100
AcDbEntity
  8
240
  6
CONTINUOUS
100
AcDbCircle
 10
-10.75211913627474
 20
8.960928319635222
 30
0.0
 40
0.8
100
AcDbArc
 50
47.99999999999983
 51
103.0
  0
ELLIPSE
  5
1360
330
12A6
100
AcDbEntity
  8
241
100
AcDbEllipse
 10
-72.7667611789949
 20
-12.02081528017193
 30
0.0
 11
-42.96448946461131
 21
-0.0230526075887433
 31
-0.0000000000000004
210
0.0
220
0.0
230
1.0
 40
0.1629243621502191
 41
2.86726777648036
 42
3.415742696484992
  0
ENDBLK
  5
1362
330
12A6
100
AcDbEntity
  8
0
100
AcDbBlockEnd
  0
ENDSEC
  0
SECTION
  2
ENTITIES
  0
TEXT
  5
B02
330
1A
100
AcDbEntity
  8
241
100
AcDbText
 10
-77.99318384927673
 20
48.99999999999972
 30
0.0
 40
5.0
  1
S50-DDJNR-0050-15
  7
YOKO
 11
-77.99318384927673
 21
48.99999999999972
 31
0.0
100
AcDbText
 73
     1
  0
DIMENSION
  5
B17
330
1A
100
AcDbEntity
  8
250
  6
CONTINUOUS
100
AcDbDimension
  2
*D1
 10
0.0000000000000021
 20
34.99999999999971
 30
0.0
 11
-24.99999999999998
 21
37.49999999999971
 31
0.0
 70
    32
  3
BIGT
100
AcDbAlignedDimension
 13
-49.99999999999996
 23
24.69999999999925
 33
0.0
 14
0.0
 24
0.0
 34
0.0
100
AcDbRotatedDimension
1001
ACAD
1000
DSTYLE
1002
{
1070
    78
1070
     8
1070
   140
1040
3.0
1002
}
  0
DIMENSION
  5
B29
330
1A
100
AcDbEntity
  8
250
  6
CONTINUOUS
100
AcDbDimension
  2
*D2
 10
14.0
 20
24.99999999999996
 30
0.0
 11
11.5
 21
-0.0000000000000396
 31
0.0
 70
    32
  1
{\H3;\U+2205}<>
  3
BIGT
100
AcDbAlignedDimension
 13
-38.73677899865613
 23
-25.00000000000003
 33
0.0
 14
-39.55853538679349
 24
24.99999999999997
 34
0.0
 50
90.0
100
AcDbRotatedDimension
1001
ACAD
1000
DSTYLE
1002
{
1070
    78
1070
     8
1070
   140
1040
3.0
1002
}
  0
INSERT
  5
1363
330
1A
100
AcDbEntity
  8
240
100
AcDbBlockReference
  2
A$C03BD52A2
 10
0.0
 20
0.0
 30
0.0
  0
VIEWPORT
  5
22
330
17
100
AcDbEntity
 67
     1
  8
0
100
AcDbViewport
 10
261.5176991150442
 20
148.5
 30
0.0
 40
523.0353982300885
 41
297.0
 68
     1
 69
     1
1001
ACAD
1000
MVIEW
1002
{
1070
    16
1010
0.0
1020
0.0
1030
0.0
1010
0.0
1020
0.0
1030
1.0
1040
0.0
1040
297.0
1040
261.5176991150442
1040
148.5
1040
50.0
1040
0.0
1040
0.0
1070
     0
1070
   100
1070
     1
1070
     1
1070
     0
1070
     0
1070
     0
1070
     0
1040
0.0
1040
0.0
1040
0.0
1040
1.0
1040
1.0
1040
10.0
1040
10.0
1070
     0
1002
{
1002
}
1002
}
  0
ENDSEC
  0
SECTION
  2
OBJECTS
  0
DICTIONARY
  5
C
330
0
100
AcDbDictionary
  3
ACAD_GROUP
350
D
  3
ACAD_LAYOUT
350
565
  3
ACAD_MLINESTYLE
350
E
  3
ACAD_PLOTSETTINGS
350
566
  3
ACAD_PLOTSTYLENAME
350
563
  3
ACDBHEADERROUNDTRIPXREC
350
1371
  3
ACDBVARIABLEDICTIONARY
350
68E
  3
GRADE_DWG
350
540
  0
DICTIONARY
  5
1394
330
1A
100
AcDbDictionary
280
     1
  3
ACAD_LAYOUTSELFREF
360
1395
  0
DICTIONARY
  5
1392
330
17
100
AcDbDictionary
280
     1
  3
ACAD_LAYOUTSELFREF
360
1393
  0
DICTIONARY
  5
D
102
{ACAD_REACTORS
330
C
102
}
330
C
100
AcDbDictionary
  3
DREC-1
350
5FC
  3
DREC-2
350
654
  3
DREC-3
350
673
  3
GROUP-1
350
89A
  0
DICTIONARY
  5
565
102
{ACAD_REACTORS
330
C
102
}
330
C
100
AcDbDictionary
  0
DICTIONARY
  5
E
102
{ACAD_REACTORS
330
C
102
}
330
C
100
AcDbDictionary
  3
STANDARD
350
13
  0
DICTIONARY
  5
566
102
{ACAD_REACTORS
330
C
102
}
330
C
100
AcDbDictionary
  0
ACDBDICTIONARYWDFLT
  5
563
102
{ACAD_REACTORS
330
C
102
}
330
C
100
AcDbDictionary
281
     1
  3
Normal
350
564
100
AcDbDictionaryWithDefault
340
564
  0
DICTIONARY
  5
1371
102
{ACAD_REACTORS
330
C
102
}
330
C
100
AcDbDictionary
  3
CEPSNTYPE
350
137B
  3
DIMSTYLEDATA
350
137F
  3
FINGERPRINTGUID
350
137C
  3
HYPERLINKBASE
350
1374
  3
INSUNITS
350
137A
  3
LAYOUTDICT
350
1376
  3
LWETCUNION
350
1379
  3
PLOTSETDICT
350
1377
  3
PLOTSTYLNAMDICT
350
1378
  3
PSVPSCALE
350
137E
  3
PUCSBASE
350
1382
  3
PUCSORGBACK
350
1388
  3
PUCSORGBOTTOM
350
1384
  3
PUCSORGFRONT
350
1387
  3
PUCSORGLEFT
350
1385
  3
PUCSORGRIGHT
350
1386
  3
PUCSORGTOP
350
1383
  3
PUCSORTHOREF
350
1380
  3
PUCSORTHOVIEW
350
1381
  3
STYLESHEET
350
1375
  3
TSTACKALIGN
350
1372
  3
TSTACKSIZE
350
1373
  3
UCSBASE
350
138B
  3
UCSORGBACK
350
1391
  3
UCSORGBOTTOM
350
138D
  3
UCSORGFRONT
350
1390
  3
UCSORGLEFT
350
138E
  3
UCSORGRIGHT
350
138F
  3
UCSORGTOP
350
138C
  3
UCSORTHOREF
350
1389
  3
UCSORTHOVIEW
350
138A
  3
VERSIONGUID
350
137D
  0
DICTIONARY
  5
68E
102
{ACAD_REACTORS
330
C
102
}
330
C
100
AcDbDictionary
  3
DIMASSOC
350
68F
  0
DICTIONARY
  5
540
102
{ACAD_REACTORS
330
C
102
}
330
C
100
AcDbDictionary
  3
VERSION
350
560
  0
XRECORD
  5
1395
102
{ACAD_REACTORS
330
1394
102
}
330
1394
100
AcDbXrecord
340
1A
  0
XRECORD
  5
1393
102
{ACAD_REACTORS
330
1392
102
}
330
1392
100
AcDbXrecord
340
17
  0
GROUP
  5
5FC
102
{ACAD_REACTORS
330
D
102
}
330
D
100
AcDbGroup
300

 70
     0
 71
     1
1001
GRPNAME
1000
DREC-
1001
GPARA
1000
xsiz
1000
44.182
1000
ysiz
1000
40.677
1000
angl
1000
0
1000
ctyp
1000
0
1000
csiz
1000
5
1000
lfnt
1000
cont
1000
hcnt
1000
hoff
1000
vcnt
1000
voff
1000
opnt
1000
4
1000
dxpt
1000
0
1000
dypt
1000
0
  0
GROUP
  5
654
102
{ACAD_REACTORS
330
D
102
}
330
D
100
AcDbGroup
300

 70
     0
 71
     1
1001
GRPNAME
1000
DREC-
1001
GPARA
1000
xsiz
1000
54.592
1000
ysiz
1000
53.036
1000
angl
1000
0
1000
ctyp
1000
0
1000
csiz
1000
5
1000
lfnt
1000
cont
1000
hcnt
1000
hoff
1000
vcnt
1000
voff
1000
opnt
1000
4
1000
dxpt
1000
0
1000
dypt
1000
0
  0
GROUP
  5
673
102
{ACAD_REACTORS
330
D
102
}
330
D
100
AcDbGroup
300

 70
     0
 71
     1
1001
GRPNAME
1000
DREC-
1001
GPARA
1000
xsiz
1000
30.363
1000
ysiz
1000
36.175
1000
angl
1000
0
1000
ctyp
1000
0
1000
csiz
1000
5
1000
lfnt
1000
cont
1000
hcnt
1000
hoff
1000
vcnt
1000
voff
1000
opnt
1000
4
1000
dxpt
1000
0
1000
dypt
1000
0
  0
GROUP
  5
89A
102
{ACAD_REACTORS
330
D
102
}
330
D
100
AcDbGroup
300

 70
     0
 71
     1
  0
MLINESTYLE
  5
13
102
{ACAD_REACTORS
330
E
102
}
330
E
100
AcDbMlineStyle
  2
STANDARD
 70
     0
  3

 62
     0
 51
90.0
 52
90.0
 71
     2
 49
0.5
 62
   256
  6
BYLAYER
 49
-0.5
 62
   256
  6
BYLAYER
  0
ACDBPLACEHOLDER
  5
564
102
{ACAD_REACTORS
330
563
102
}
330
563
100
AcDbPlaceHolder
280
     0
  0
XRECORD
  5
137B
102
{ACAD_REACTORS
330
1371
102
}
330
1371
100
AcDbXrecord
 90
        0
  0
XRECORD
  5
137F
102
{ACAD_REACTORS
330
1371
102
}
330
1371
100
AcDbXrecord
1000
DSTYLE
1002
{
1070
    79
 70
     2
1070
   179
 70
     3
1070
   289
 70
     2
1070
   341
340
594
1070
   342
340
594
1070
   371
 70
    -1
1070
   372
 70
    -1
1002
}
  0
XRECORD
  5
137C
102
{ACAD_REACTORS
330
1371
102
}
330
1371
100
AcDbXrecord
  1
{51294030-9CB4-11D3-8E18-00A0C925D94D}
  0
XRECORD
  5
1374
102
{ACAD_REACTORS
330
1371
102
}
330
1371
100
AcDbXrecord
  1

  0
XRECORD
  5
137A
102
{ACAD_REACTORS
330
1371
102
}
330
1371
100
AcDbXrecord
 90
        0
  0
XRECORD
  5
1376
102
{ACAD_REACTORS
330
1371
102
}
330
1371
100
AcDbXrecord
340
565
  0
XRECORD
  5
1379
102
{ACAD_REACTORS
330
1371
102
}
330
1371
100
AcDbXrecord
 90
    10781
  0
XRECORD
  5
1377
102
{ACAD_REACTORS
330
1371
102
}
330
1371
100
AcDbXrecord
340
566
  0
XRECORD
  5
1378
102
{ACAD_REACTORS
330
1371
102
}
330
1371
100
AcDbXrecord
340
563
  0
XRECORD
  5
137E
102
{ACAD_REACTORS
330
1371
102
}
330
1371
100
AcDbXrecord
 40
0.0
  0
XRECORD
  5
1382
102
{ACAD_REACTORS
330
1371
102
}
330
1371
100
AcDbXrecord
340
0
  0
XRECORD
  5
1388
102
{ACAD_REACTORS
330
1371
102
}
330
1371
100
AcDbXrecord
 10
0.0
 20
0.0
 30
0.0
  0
XRECORD
  5
1384
102
{ACAD_REACTORS
330
1371
102
}
330
1371
100
AcDbXrecord
 10
0.0
 20
0.0
 30
0.0
  0
XRECORD
  5
1387
102
{ACAD_REACTORS
330
1371
102
}
330
1371
100
AcDbXrecord
 10
0.0
 20
0.0
 30
0.0
  0
XRECORD
  5
1385
102
{ACAD_REACTORS
330
1371
102
}
330
1371
100
AcDbXrecord
 10
0.0
 20
0.0
 30
0.0
  0
XRECORD
  5
1386
102
{ACAD_REACTORS
330
1371
102
}
330
1371
100
AcDbXrecord
 10
0.0
 20
0.0
 30
0.0
  0
XRECORD
  5
1383
102
{ACAD_REACTORS
330
1371
102
}
330
1371
100
AcDbXrecord
 10
0.0
 20
0.0
 30
0.0
  0
XRECORD
  5
1380
102
{ACAD_REACTORS
330
1371
102
}
330
1371
100
AcDbXrecord
340
0
  0
XRECORD
  5
1381
102
{ACAD_REACTORS
330
1371
102
}
330
1371
100
AcDbXrecord
 70
     0
  0
XRECORD
  5
1375
102
{ACAD_REACTORS
330
1371
102
}
330
1371
100
AcDbXrecord
  1
technical_osaka.ctb
  0
XRECORD
  5
1372
102
{ACAD_REACTORS
330
1371
102
}
330
1371
100
AcDbXrecord
 90
        1
  0
XRECORD
  5
1373
102
{ACAD_REACTORS
330
1371
102
}
330
1371
100
AcDbXrecord
 90
       70
  0
XRECORD
  5
138B
102
{ACAD_REACTORS
330
1371
102
}
330
1371
100
AcDbXrecord
340
0
  0
XRECORD
  5
1391
102
{ACAD_REACTORS
330
1371
102
}
330
1371
100
AcDbXrecord
 10
0.0
 20
0.0
 30
0.0
  0
XRECORD
  5
138D
102
{ACAD_REACTORS
330
1371
102
}
330
1371
100
AcDbXrecord
 10
0.0
 20
0.0
 30
0.0
  0
XRECORD
  5
1390
102
{ACAD_REACTORS
330
1371
102
}
330
1371
100
AcDbXrecord
 10
0.0
 20
0.0
 30
0.0
  0
XRECORD
  5
138E
102
{ACAD_REACTORS
330
1371
102
}
330
1371
100
AcDbXrecord
 10
0.0
 20
0.0
 30
0.0
  0
XRECORD
  5
138F
102
{ACAD_REACTORS
330
1371
102
}
330
1371
100
AcDbXrecord
 10
0.0
 20
0.0
 30
0.0
  0
XRECORD
  5
138C
102
{ACAD_REACTORS
330
1371
102
}
330
1371
100
AcDbXrecord
 10
0.0
 20
0.0
 30
0.0
  0
XRECORD
  5
1389
102
{ACAD_REACTORS
330
1371
102
}
330
1371
100
AcDbXrecord
340
0
  0
XRECORD
  5
138A
102
{ACAD_REACTORS
330
1371
102
}
330
1371
100
AcDbXrecord
 70
     0
  0
XRECORD
  5
137D
102
{ACAD_REACTORS
330
1371
102
}
330
1371
100
AcDbXrecord
  1
{DC13A5C4-BA77-11D6-9637-006094EB2375}
  0
DICTIONARYVAR
  5
68F
102
{ACAD_REACTORS
330
68E
102
}
330
68E
100
DictionaryVariables
280
     0
  1
1
  0
XRECORD
  5
560
102
{ACAD_REACTORS
330
540
102
}
330
540
100
AcDbXrecord
  1
2.0.0
  0
ENDSEC
  0
EOF
