  0
SECTION
  2
HEADER
  9
$ACADVER
  1
AC1014
  9
$ACADMAINTVER
 70
     9
  9
$DWGCODEPAGE
  3
ANSI_932
  9
$INSBASE
 10
0.0
 20
0.0
 30
0.0
  9
$EXTMIN
 10
-82.79999999999544
 20
-25.00000000000004
 30
-0.0000000000000002
  9
$EXTMAX
 10
15.0
 20
53.99999999999973
 30
0.0000000000000004
  9
$LIMMIN
 10
0.0
 20
0.0
  9
$LIMMAX
 10
297.0
 20
210.0
  9
$ORTHOMODE
 70
     0
  9
$REGENMODE
 70
     1
  9
$FILLMODE
 70
     1
  9
$QTEXTMODE
 70
     0
  9
$MIRRTEXT
 70
     1
  9
$DRAGMODE
 70
     2
  9
$LTSCALE
 40
10.0
  9
$OSMODE
 70
   613
  9
$ATTMODE
 70
     1
  9
$TEXTSIZE
 40
3.0
  9
$TRACEWID
 40
1.0
  9
$TEXTSTYLE
  7
YOKO
  9
$CLAYER
  8
240
  9
$CELTYPE
  6
BYLAYER
  9
$CECOLOR
 62
   256
  9
$CELTSCALE
 40
1.0
  9
$DELOBJ
 70
     1
  9
$DISPSILH
 70
     0
  9
$DIMSCALE
 40
1.0
  9
$DIMASZ
 40
2.229999999999999
  9
$DIMEXO
 40
0.5
  9
$DIMDLI
 40
2.5
  9
$DIMRND
 40
0.0
  9
$DIMDLE
 40
0.0
  9
$DIMEXE
 40
1.0
  9
$DIMTP
 40
0.0
  9
$DIMTM
 40
0.0
  9
$DIMTXT
 40
3.0
  9
$DIMCEN
 40
0.0
  9
$DIMTSZ
 40
0.0
  9
$DIMTOL
 70
     0
  9
$DIMLIM
 70
     0
  9
$DIMTIH
 70
     0
  9
$DIMTOH
 70
     0
  9
$DIMSE1
 70
     0
  9
$DIMSE2
 70
     0
  9
$DIMTAD
 70
     3
  9
$DIMZIN
 70
     8
  9
$DIMBLK
  1
OPEN
  9
$DIMASO
 70
     1
  9
$DIMSHO
 70
     1
  9
$DIMPOST
  1

  9
$DIMAPOST
  1

  9
$DIMALT
 70
     0
  9
$DIMALTD
 70
     2
  9
$DIMALTF
 40
25.4
  9
$DIMLFAC
 40
1.0
  9
$DIMTOFL
 70
     1
  9
$DIMTVP
 40
0.0
  9
$DIMTIX
 70
     0
  9
$DIMSOXD
 70
     0
  9
$DIMSAH
 70
     0
  9
$DIMBLK1
  1

  9
$DIMBLK2
  1

  9
$DIMSTYLE
  2
BIGT
  9
$DIMCLRD
 70
   256
  9
$DIMCLRE
 70
   256
  9
$DIMCLRT
 70
    40
  9
$DIMTFAC
 40
1.0
  9
$DIMGAP
 40
1.0
  9
$DIMJUST
 70
     0
  9
$DIMSD1
 70
     0
  9
$DIMSD2
 70
     0
  9
$DIMTOLJ
 70
     1
  9
$DIMTZIN
 70
     8
  9
$DIMALTZ
 70
     0
  9
$DIMALTTZ
 70
     0
  9
$DIMFIT
 70
     2
  9
$DIMUPT
 70
     0
  9
$DIMUNIT
 70
     2
  9
$DIMDEC
 70
     3
  9
$DIMTDEC
 70
     3
  9
$DIMALTU
 70
     2
  9
$DIMALTTD
 70
     2
  9
$DIMTXSTY
  7
STANDARD
  9
$DIMAUNIT
 70
     0
  9
$LUNITS
 70
     2
  9
$LUPREC
 70
     3
  9
$SKETCHINC
 40
1.0
  9
$FILLETRAD
 40
0.0
  9
$AUNITS
 70
     0
  9
$AUPREC
 70
     3
  9
$MENU
  1
.
  9
$ELEVATION
 40
0.0
  9
$PELEVATION
 40
0.0
  9
$THICKNESS
 40
0.0
  9
$LIMCHECK
 70
     0
  9
$BLIPMODE
 70
     0
  9
$CHAMFERA
 40
10.0
  9
$CHAMFERB
 40
10.0
  9
$CHAMFERC
 40
0.0
  9
$CHAMFERD
 40
0.0
  9
$SKPOLY
 70
     0
  9
$TDCREATE
 40
2452510.495628611
  9
$TDUPDATE
 40
2452516.379467407
  9
$TDINDWG
 40
0.0465255787
  9
$TDUSRTIMER
 40
0.0465255787
  9
$USRTIMER
 70
     1
  9
$ANGBASE
 50
0.0
  9
$ANGDIR
 70
     0
  9
$PDMODE
 70
    35
  9
$PDSIZE
 40
2.0
  9
$PLINEWID
 40
0.0
  9
$COORDS
 70
     0
  9
$SPLFRAME
 70
     0
  9
$SPLINETYPE
 70
     6
  9
$SPLINESEGS
 70
     8
  9
$ATTDIA
 70
     0
  9
$ATTREQ
 70
     0
  9
$HANDLING
 70
-16383
  9
$HANDSEED
  5
11CA
  9
$SURFTAB1
 70
     6
  9
$SURFTAB2
 70
     6
  9
$SURFTYPE
 70
     6
  9
$SURFU
 70
     6
  9
$SURFV
 70
     6
  9
$UCSNAME
  2

  9
$UCSORG
 10
0.0
 20
0.0
 30
0.0
  9
$UCSXDIR
 10
1.0
 20
0.0
 30
0.0
  9
$UCSYDIR
 10
0.0
 20
1.0
 30
0.0
  9
$PUCSNAME
  2

  9
$PUCSORG
 10
0.0
 20
0.0
 30
0.0
  9
$PUCSXDIR
 10
1.0
 20
0.0
 30
0.0
  9
$PUCSYDIR
 10
0.0
 20
1.0
 30
0.0
  9
$USERI1
 70
     1
  9
$USERI2
 70
     0
  9
$USERI3
 70
     0
  9
$USERI4
 70
     0
  9
$USERI5
 70
     0
  9
$USERR1
 40
0.0
  9
$USERR2
 40
0.0
  9
$USERR3
 40
0.0
  9
$USERR4
 40
0.0
  9
$USERR5
 40
0.0
  9
$WORLDVIEW
 70
     1
  9
$SHADEDGE
 70
     3
  9
$SHADEDIF
 70
    70
  9
$TILEMODE
 70
     1
  9
$MAXACTVP
 70
    16
  9
$PINSBASE
 10
0.0
 20
0.0
 30
0.0
  9
$PLIMCHECK
 70
     0
  9
$PEXTMIN
 10
1.000000000000000E+20
 20
1.000000000000000E+20
 30
1.000000000000000E+20
  9
$PEXTMAX
 10
-1.000000000000000E+20
 20
-1.000000000000000E+20
 30
-1.000000000000000E+20
  9
$PLIMMIN
 10
0.0
 20
0.0
  9
$PLIMMAX
 10
420.0
 20
297.0
  9
$UNITMODE
 70
     0
  9
$VISRETAIN
 70
     0
  9
$PLINEGEN
 70
     0
  9
$PSLTSCALE
 70
     1
  9
$TREEDEPTH
 70
  3020
  9
$PICKSTYLE
 70
     0
  9
$CMLSTYLE
  2
STANDARD
  9
$CMLJUST
 70
     0
  9
$CMLSCALE
 40
1.0
  9
$PROXYGRAPHICS
 70
     1
  9
$MEASUREMENT
 70
     1
  0
ENDSEC
  0
SECTION
  2
CLASSES
  0
CLASS
  1
XRECORD
  2
AcDbXrecord
  3
AutoCAD 2000
 90
        0
280
     0
281
     0
  0
CLASS
  1
ACDBDICTIONARYWDFLT
  2
AcDbDictionaryWithDefault
  3
AutoCAD 2000
 90
        0
280
     0
281
     0
  0
CLASS
  1
ACDBPLACEHOLDER
  2
AcDbPlaceHolder
  3
AutoCAD 2000
 90
        0
280
     0
281
     0
  0
CLASS
  1
LAYOUT
  2
AcDbLayout
  3
AutoCAD 2000
 90
        0
280
     0
281
     0
  0
CLASS
  1
DICTIONARYVAR
  2
AcDbDictionaryVar
  3
AutoCAD 2000
 90
        0
280
     0
281
     0
  0
CLASS
  1
LONG_TRANSACTION
  2
AcDbLongTransaction
  3
AutoCAD 2000
 90
        0
280
     0
281
     0
  0
CLASS
  1
LWPOLYLINE
  2
AcDbPolyline
  3
AutoCAD 2000
 90
        0
280
     0
281
     1
  0
CLASS
  1
HATCH
  2
AcDbHatch
  3
AutoCAD 2000
 90
        0
280
     0
281
     1
  0
CLASS
  1
XRECORD
  2
AcDbXrecord
  3
AutoCAD 2000
 90
        0
280
     0
281
     0
  0
ENDSEC
  0
SECTION
  2
TABLES
  0
TABLE
  2
VPORT
  5
8
330
0
100
AcDbSymbolTable
 70
     2
  0
VPORT
  5
11A4
330
8
100
AcDbSymbolTableRecord
100
AcDbViewportTableRecord
  2
*ACTIVE
 70
     0
 10
0.0
 20
0.0
 11
1.0
 21
1.0
 12
-33.89935841070951
 22
14.49955032207012
 13
0.0
 23
0.0
 14
7.0
 24
7.0
 15
7.0
 25
7.0
 16
0.0
 26
0.0
 36
1.0
 17
0.0
 27
0.0
 37
0.0
 40
79.66793876652997
 41
1.53185955786736
 42
50.0
 43
0.0
 44
0.0
 50
0.0
 51
0.0
 71
     0
 72
  2000
 73
     1
 74
     0
 75
     0
 76
     0
 77
     0
 78
     0
  0
ENDTAB
  0
TABLE
  2
LTYPE
  5
5
330
0
100
AcDbSymbolTable
 70
     3
  0
LTYPE
  5
14
330
5
100
AcDbSymbolTableRecord
100
AcDbLinetypeTableRecord
  2
BYBLOCK
 70
     0
  3

 72
    65
 73
     0
 40
0.0
  0
LTYPE
  5
15
330
5
100
AcDbSymbolTableRecord
100
AcDbLinetypeTableRecord
  2
BYLAYER
 70
     0
  3

 72
    65
 73
     0
 40
0.0
  0
LTYPE
  5
16
330
5
100
AcDbSymbolTableRecord
100
AcDbLinetypeTableRecord
  2
CONTINUOUS
 70
     0
  3
Solid line
 72
    65
 73
     0
 40
0.0
  0
LTYPE
  5
258
330
5
100
AcDbSymbolTableRecord
100
AcDbLinetypeTableRecord
  2
CENTER2
 70
     0
  3
___ _ ___ _ ___ _ ___ _ ___ _ ___ _ ___ _ ___ _
 72
    65
 73
     4
 40
1.125
 49
0.75
 74
     0
 49
-0.125
 74
     0
 49
0.125
 74
     0
 49
-0.125
 74
     0
  0
LTYPE
  5
25D
330
5
100
AcDbSymbolTableRecord
100
AcDbLinetypeTableRecord
  2
PHANTOM2
 70
     0
  3
___ _ _ ___ _ _ ___ _ _ ___ _ _ ___ _ _ ___ _ _
 72
    65
 73
     6
 40
1.25
 49
0.625
 74
     0
 49
-0.125
 74
     0
 49
0.125
 74
     0
 49
-0.125
 74
     0
 49
0.125
 74
     0
 49
-0.125
 74
     0
  0
ENDTAB
  0
TABLE
  2
LAYER
  5
2
330
0
100
AcDbSymbolTable
 70
     8
  0
LAYER
  5
F
330
2
100
AcDbSymbolTableRecord
100
AcDbLayerTableRecord
  2
0
 70
     0
 62
     7
  6
CONTINUOUS
  0
LAYER
  5
1AA
330
2
100
AcDbSymbolTableRecord
100
AcDbLayerTableRecord
  2
240
 70
     0
 62
     4
  6
CONTINUOUS
  0
LAYER
  5
1AB
330
2
100
AcDbSymbolTableRecord
100
AcDbLayerTableRecord
  2
241
 70
     0
 62
   211
  6
CONTINUOUS
  0
LAYER
  5
1AF
330
2
100
AcDbSymbolTableRecord
100
AcDbLayerTableRecord
  2
245
 70
     0
 62
     2
  6
CENTER2
  0
LAYER
  5
21A
330
2
100
AcDbSymbolTableRecord
100
AcDbLayerTableRecord
  2
246
 70
     0
 62
     3
  6
PHANTOM2
  0
LAYER
  5
21B
330
2
100
AcDbSymbolTableRecord
100
AcDbLayerTableRecord
  2
247
 70
     0
 62
    60
  6
CONTINUOUS
  0
LAYER
  5
21E
330
2
100
AcDbSymbolTableRecord
100
AcDbLayerTableRecord
  2
250
 70
     0
 62
     3
  6
CONTINUOUS
  0
LAYER
  5
5C4
330
2
100
AcDbSymbolTableRecord
100
AcDbLayerTableRecord
  2
DEFPOINTS
 70
     0
 62
     7
  6
CONTINUOUS
  0
ENDTAB
  0
TABLE
  2
STYLE
  5
3
330
0
100
AcDbSymbolTable
 70
     2
  0
STYLE
  5
10
330
3
100
AcDbSymbolTableRecord
100
AcDbTextStyleTableRecord
  2
STANDARD
 70
     0
 40
0.0
 41
1.0
 50
0.0
 71
     0
 42
3.0
  3
romans.shx
  4
BIGFONT.SHX
  0
STYLE
  5
339
330
3
100
AcDbSymbolTableRecord
100
AcDbTextStyleTableRecord
  2
YOKO
 70
     0
 40
0.0
 41
1.0
 50
0.0
 71
     0
 42
3.0
  3
romans.shx
  4
extfont.shx
  0
ENDTAB
  0
TABLE
  2
VIEW
  5
6
330
0
100
AcDbSymbolTable
 70
     0
  0
ENDTAB
  0
TABLE
  2
UCS
  5
7
330
0
100
AcDbSymbolTable
 70
     0
  0
ENDTAB
  0
TABLE
  2
APPID
  5
9
330
0
100
AcDbSymbolTable
 70
     9
  0
APPID
  5
11
330
9
100
AcDbSymbolTableRecord
100
AcDbRegAppTableRecord
  2
ACAD
 70
     0
  0
APPID
  5
1B1
330
9
100
AcDbSymbolTableRecord
100
AcDbRegAppTableRecord
  2
GLOBAL
 70
     0
  0
APPID
  5
2A4
330
9
100
AcDbSymbolTableRecord
100
AcDbRegAppTableRecord
  2
DETAIL
 70
     0
  0
APPID
  5
5FD
330
9
100
AcDbSymbolTableRecord
100
AcDbRegAppTableRecord
  2
GRPNAME
 70
     0
  0
APPID
  5
5FE
330
9
100
AcDbSymbolTableRecord
100
AcDbRegAppTableRecord
  2
GPARA
 70
     0
  0
APPID
  5
7F4
330
9
100
AcDbSymbolTableRecord
100
AcDbRegAppTableRecord
  2
ITEMNAME
 70
     0
  0
APPID
  5
A2E
330
9
100
AcDbSymbolTableRecord
100
AcDbRegAppTableRecord
  2
HATCH_TYPE
 70
     0
  0
APPID
  5
A2F
330
9
100
AcDbSymbolTableRecord
100
AcDbRegAppTableRecord
  2
HATCH_DISPLAY
 70
     0
  0
APPID
  5
A30
330
9
100
AcDbSymbolTableRecord
100
AcDbRegAppTableRecord
  2
HATCH_DISTANCE
 70
     0
  0
ENDTAB
  0
TABLE
  2
DIMSTYLE
  5
A
330
0
100
AcDbSymbolTable
 70
     2
  0
DIMSTYLE
105
48F
330
A
100
AcDbSymbolTableRecord
100
AcDbDimStyleTableRecord
  2
STANDARD
 70
     0
  3

  4

  5

  6

  7

 40
1.0
 41
2.0
 42
2.0
 43
3.75
 44
2.0
 45
0.0
 46
0.0
 47
0.0
 48
0.0
140
4.0
141
0.09
142
0.0
143
25.4
144
1.0
145
0.0
146
1.0
147
1.0
 71
     0
 72
     0
 73
     1
 74
     1
 75
     0
 76
     0
 77
     0
 78
     8
170
     0
171
     2
172
     0
173
     1
174
     0
175
     0
176
   256
177
   256
178
   256
270
     2
271
     3
272
     4
273
     2
274
     2
340
10
275
     0
280
     0
281
     0
282
     0
283
     1
284
     8
285
     0
286
     0
287
     3
288
     0
  0
DIMSTYLE
105
59A
102
{ACAD_REACTORS
330
B17
330
B29
102
}
330
A
100
AcDbSymbolTableRecord
100
AcDbDimStyleTableRecord
  2
BIGT
 70
     0
  3

  4

  5
OPEN
  6

  7

 40
1.0
 41
2.229999999999999
 42
0.5
 43
2.5
 44
1.0
 45
0.0
 46
0.0
 47
0.0
 48
0.0
140
3.5
141
0.0
142
0.0
143
25.4
144
1.0
145
0.0
146
1.0
147
1.0
 71
     0
 72
     0
 73
     0
 74
     0
 75
     0
 76
     0
 77
     3
 78
     9
170
     0
171
     2
172
     1
173
     0
174
     0
175
     0
176
   256
177
   256
178
    40
270
     2
271
     3
272
     3
273
     2
274
     2
340
10
275
     0
280
     0
281
     0
282
     0
283
     1
284
     8
285
     0
286
     0
287
     2
288
     0
  0
ENDTAB
  0
TABLE
  2
BLOCK_RECORD
  5
1
330
0
100
AcDbSymbolTable
 70
     7
  0
BLOCK_RECORD
  5
1A
102
{ACAD_XDICTIONARY
360
11C8
102
}
330
1
100
AcDbSymbolTableRecord
100
AcDbBlockTableRecord
  2
*MODEL_SPACE
  0
BLOCK_RECORD
  5
17
102
{ACAD_XDICTIONARY
360
11C6
102
}
330
1
100
AcDbSymbolTableRecord
100
AcDbBlockTableRecord
  2
*PAPER_SPACE
  0
BLOCK_RECORD
  5
594
330
1
100
AcDbSymbolTableRecord
100
AcDbBlockTableRecord
  2
_OPEN
  0
BLOCK_RECORD
  5
B18
330
1
100
AcDbSymbolTableRecord
100
AcDbBlockTableRecord
  2
*D1
  0
BLOCK_RECORD
  5
B2A
330
1
100
AcDbSymbolTableRecord
100
AcDbBlockTableRecord
  2
*D2
  0
BLOCK_RECORD
  5
108B
330
1
100
AcDbSymbolTableRecord
100
AcDbBlockTableRecord
  2
*X3
  0
BLOCK_RECORD
  5
10BB
330
1
100
AcDbSymbolTableRecord
100
AcDbBlockTableRecord
  2
*X4
  0
BLOCK_RECORD
  5
10C7
330
1
100
AcDbSymbolTableRecord
100
AcDbBlockTableRecord
  2
*X5
  0
BLOCK_RECORD
  5
10DA
330
1
100
AcDbSymbolTableRecord
100
AcDbBlockTableRecord
  2
A$C10A47444
  0
ENDTAB
  0
ENDSEC
  0
SECTION
  2
BLOCKS
  0
BLOCK
  5
1B
330
1A
100
AcDbEntity
  8
0
100
AcDbBlockBegin
  2
*MODEL_SPACE
 70
     0
 10
0.0
 20
0.0
 30
0.0
  3
*MODEL_SPACE
  1

  0
ENDBLK
  5
1C
330
1A
100
AcDbEntity
  8
0
100
AcDbBlockEnd
  0
BLOCK
  5
18
330
17
100
AcDbEntity
 67
     1
  8
0
100
AcDbBlockBegin
  2
*PAPER_SPACE
 70
     0
 10
0.0
 20
0.0
 30
0.0
  3
*PAPER_SPACE
  1

  0
ENDBLK
  5
19
330
17
100
AcDbEntity
 67
     1
  8
0
100
AcDbBlockEnd
  0
BLOCK
  5
598
330
594
100
AcDbEntity
  8
0
100
AcDbBlockBegin
  2
_OPEN
 70
     0
 10
0.0
 20
0.0
 30
0.0
  3
_OPEN
  1

  0
LINE
  5
595
330
594
100
AcDbEntity
  8
0
  6
BYBLOCK
 62
     0
100
AcDbLine
 10
-1.0
 20
0.1666666666666666
 30
0.0
 11
0.0
 21
0.0
 31
0.0
  0
LINE
  5
596
330
594
100
AcDbEntity
  8
0
  6
BYBLOCK
 62
     0
100
AcDbLine
 10
-1.0
 20
-0.1666666666666666
 30
0.0
 11
0.0
 21
0.0
 31
0.0
  0
LINE
  5
597
330
594
100
AcDbEntity
  8
0
  6
BYBLOCK
 62
     0
100
AcDbLine
 10
0.0
 20
0.0
 30
0.0
 11
-1.0
 21
0.0
 31
0.0
  0
ENDBLK
  5
599
330
594
100
AcDbEntity
  8
0
100
AcDbBlockEnd
  0
BLOCK
  5
B22
330
B18
100
AcDbEntity
  8
0
100
AcDbBlockBegin
  2
*D1
 70
     1
 10
0.0
 20
0.0
 30
0.0
  3
*D1
  1

  0
LINE
  5
C97
330
B18
100
AcDbEntity
  8
250
  6
CONTINUOUS
100
AcDbLine
 10
-49.99999999999996
 20
25.19999999999924
 30
0.0
 11
-49.99999999999996
 21
35.99999999999971
 31
0.0
  0
LINE
  5
C98
330
B18
100
AcDbEntity
  8
250
  6
CONTINUOUS
100
AcDbLine
 10
0.0
 20
0.5
 30
0.0
 11
0.0000000000000022
 21
35.99999999999971
 31
0.0
  0
LINE
  5
C99
330
B18
100
AcDbEntity
  8
250
  6
CONTINUOUS
100
AcDbLine
 10
-47.76999999999996
 20
34.99999999999971
 30
0.0
 11
-2.229999999999997
 21
34.99999999999971
 31
0.0
  0
INSERT
  5
C9A
330
B18
100
AcDbEntity
  8
250
  6
CONTINUOUS
100
AcDbBlockReference
  2
_OPEN
 10
-49.99999999999996
 20
34.99999999999971
 30
0.0
 41
2.229999999999999
 42
2.229999999999999
 43
2.229999999999999
 50
180.0
  0
INSERT
  5
C9B
330
B18
100
AcDbEntity
  8
250
  6
CONTINUOUS
100
AcDbBlockReference
  2
_OPEN
 10
0.0000000000000021
 20
34.99999999999971
 30
0.0
 41
2.229999999999999
 42
2.229999999999999
 43
2.229999999999999
  0
MTEXT
  5
C9C
330
B18
100
AcDbEntity
  8
250
  6
CONTINUOUS
 62
    40
100
AcDbMText
 10
-24.99999999999998
 20
37.49999999999971
 30
0.0
 40
3.0
 41
0.0
 71
     5
 72
     1
  1
\A1;50
1001
ACAD
1000
MTEXTBEGIN
1070
    73
1070
     1
1070
    44
1040
1.0
1070
    74
1070
     0
1000
MTEXTEND
  0
POINT
  5
C9D
330
B18
100
AcDbEntity
  8
DEFPOINTS
  6
CONTINUOUS
 62
     0
100
AcDbPoint
 10
-49.99999999999996
 20
24.69999999999925
 30
0.0
  0
POINT
  5
C9E
330
B18
100
AcDbEntity
  8
DEFPOINTS
  6
CONTINUOUS
 62
     0
100
AcDbPoint
 10
0.0
 20
0.0
 30
0.0
  0
POINT
  5
C9F
330
B18
100
AcDbEntity
  8
DEFPOINTS
  6
CONTINUOUS
 62
     0
100
AcDbPoint
 10
0.0000000000000021
 20
34.99999999999971
 30
0.0
  0
ENDBLK
  5
B23
330
B18
100
AcDbEntity
  8
0
100
AcDbBlockEnd
  0
BLOCK
  5
B34
330
B2A
100
AcDbEntity
  8
0
100
AcDbBlockBegin
  2
*D2
 70
     1
 10
0.0
 20
0.0
 30
0.0
  3
*D2
  1

  0
LINE
  5
CA0
330
B2A
100
AcDbEntity
  8
250
  6
CONTINUOUS
100
AcDbLine
 10
-38.23677899865613
 20
-25.00000000000003
 30
0.0
 11
14.99999999999999
 21
-25.00000000000004
 31
0.0
  0
LINE
  5
CA1
330
B2A
100
AcDbEntity
  8
250
  6
CONTINUOUS
100
AcDbLine
 10
-39.05853538679349
 20
24.99999999999997
 30
0.0
 11
15.0
 21
24.99999999999996
 31
0.0
  0
LINE
  5
CA2
330
B2A
100
AcDbEntity
  8
250
  6
CONTINUOUS
100
AcDbLine
 10
13.99999999999999
 20
-22.77000000000004
 30
0.0
 11
14.0
 21
22.76999999999995
 31
0.0
  0
INSERT
  5
CA3
330
B2A
100
AcDbEntity
  8
250
  6
CONTINUOUS
100
AcDbBlockReference
  2
_OPEN
 10
13.99999999999999
 20
-25.00000000000004
 30
0.0
 41
2.229999999999999
 42
2.229999999999999
 43
2.229999999999999
 50
270.0
  0
INSERT
  5
CA4
330
B2A
100
AcDbEntity
  8
250
  6
CONTINUOUS
100
AcDbBlockReference
  2
_OPEN
 10
14.0
 20
24.99999999999996
 30
0.0
 41
2.229999999999999
 42
2.229999999999999
 43
2.229999999999999
 50
90.0
  0
MTEXT
  5
CA5
330
B2A
100
AcDbEntity
  8
250
  6
CONTINUOUS
 62
    40
100
AcDbMText
 10
11.5
 20
-0.0000000000000396
 30
0.0
 40
3.0
 41
0.0
 71
     5
 72
     1
  1
\A1;{\H3;\U+2205}50
 11
0.0000000000000001
 21
1.0
 31
0.0
1001
ACAD
1000
MTEXTBEGIN
1070
    73
1070
     1
1070
    44
1040
1.0
1070
    74
1070
     0
1000
MTEXTEND
  0
POINT
  5
CA6
330
B2A
100
AcDbEntity
  8
DEFPOINTS
  6
CONTINUOUS
 62
     0
100
AcDbPoint
 10
-38.73677899865613
 20
-25.00000000000003
 30
0.0
  0
POINT
  5
CA7
330
B2A
100
AcDbEntity
  8
DEFPOINTS
  6
CONTINUOUS
 62
     0
100
AcDbPoint
 10
-39.55853538679349
 20
24.99999999999997
 30
0.0
  0
POINT
  5
CA8
330
B2A
100
AcDbEntity
  8
DEFPOINTS
  6
CONTINUOUS
 62
     0
100
AcDbPoint
 10
14.0
 20
24.99999999999996
 30
0.0
  0
ENDBLK
  5
B35
330
B2A
100
AcDbEntity
  8
0
100
AcDbBlockEnd
  0
BLOCK
  5
10B9
330
108B
100
AcDbEntity
  8
0
100
AcDbBlockBegin
  2
*X3
 70
     1
 10
0.0
 20
0.0
 30
0.0
  3
*X3
  1

  0
LINE
  5
108C
330
108B
100
AcDbEntity
  8
0
 62
     0
100
AcDbLine
 10
3.235364125939702
 20
-8.207738569426133
 30
0.0
 11
2.539878131093039
 21
-7.512252574579474
 31
0.0
  0
LINE
  5
108D
330
108B
100
AcDbEntity
  8
0
 62
     0
100
AcDbLine
 10
2.525255410929922
 20
-7.733361577594422
 30
0.0
 11
2.246640667466748
 21
-7.454746834131247
 31
0.0
  0
LINE
  5
108E
330
108B
100
AcDbEntity
  8
0
 62
     0
100
AcDbLine
 10
3.292869866387924
 20
-8.500976033052424
 30
0.0
 11
3.014255122924751
 21
-8.222361289589251
 31
0.0
  0
LINE
  5
108F
330
108B
100
AcDbEntity
  8
0
 62
     0
100
AcDbLine
 10
2.222099748833683
 20
-7.665937638676258
 30
0.0
 11
2.020551260265142
 21
-7.464389150107711
 31
0.0
  0
LINE
  5
1090
330
108B
100
AcDbEntity
  8
0
 62
     0
100
AcDbLine
 10
3.294816471809426
 20
-8.738654361651997
 30
0.0
 11
3.081679061842919
 21
-8.525516951685489
 31
0.0
  0
LINE
  5
1091
330
108B
100
AcDbEntity
  8
0
 62
     0
100
AcDbLine
 10
2.003106040329284
 20
-7.68267565334991
 30
0.0
 11
1.829933989769265
 21
-7.509503602789891
 31
0.0
  0
LINE
  5
1092
330
108B
100
AcDbEntity
  8
0
 62
     0
100
AcDbLine
 10
3.294816471809419
 20
-8.974386084830044
 30
0.0
 11
3.082624704809468
 21
-8.762194317830092
 31
0.0
  0
LINE
  5
1093
330
108B
100
AcDbEntity
  8
0
 62
     0
100
AcDbLine
 10
1.823500176191735
 20
-7.738801512390431
 30
0.0
 11
1.66441861575032
 21
-7.579719951949016
 31
0.0
  0
LINE
  5
1094
330
108B
100
AcDbEntity
  8
0
 62
     0
100
AcDbLine
 10
3.294816471809426
 20
-9.210117808008119
 30
0.0
 11
3.082624704809468
 21
-8.997926041008163
 31
0.0
  0
LINE
  5
1095
330
108B
100
AcDbEntity
  8
0
 62
     0
100
AcDbLine
 10
1.671532121270381
 20
-7.822565180647145
 30
0.0
 11
1.519384621186254
 21
-7.67041768056301
 31
0.0
  0
LINE
  5
1096
330
108B
100
AcDbEntity
  8
0
 62
     0
100
AcDbLine
 10
3.294816471809432
 20
-9.445849531186189
 30
0.0
 11
3.082624704809474
 21
-9.233657764186231
 31
0.0
  0
LINE
  5
1097
330
108B
100
AcDbEntity
  8
0
 62
     0
100
AcDbLine
 10
1.542752218501775
 20
-7.929517001056601
 30
0.0
 11
1.39270995439402
 21
-7.779474736948849
 31
0.0
  0
LINE
  5
1098
330
108B
100
AcDbEntity
  8
0
 62
     0
100
AcDbLine
 10
3.294816471809419
 20
-9.681581254364253
 30
0.0
 11
3.082624704809468
 21
-9.469389487364303
 31
0.0
  0
LINE
  5
1099
330
108B
100
AcDbEntity
  8
0
 62
     0
100
AcDbLine
 10
1.43594765315619
 20
-8.058444158889074
 30
0.0
 11
1.28377138416043
 21
-7.906267889893321
 31
0.0
  0
LINE
  5
109A
330
108B
100
AcDbEntity
  8
0
 62
     0
100
AcDbLine
 10
3.294816471809432
 20
-9.917312977542316
 30
0.0
 11
3.082624704809474
 21
-9.705121210542358
 31
0.0
  0
LINE
  5
109B
330
108B
100
AcDbEntity
  8
0
 62
     0
100
AcDbLine
 10
1.352348231689353
 20
-8.210576460600307
 30
0.0
 11
1.193200727397836
 21
-8.051428956308786
 31
0.0
  0
LINE
  5
109C
330
108B
100
AcDbEntity
  8
0
 62
     0
100
AcDbLine
 10
3.294816471809419
 20
-10.15304470072036
 30
0.0
 11
3.082624704809468
 21
-9.940852933720428
 31
0.0
  0
LINE
  5
109D
330
108B
100
AcDbEntity
  8
0
 62
     0
100
AcDbLine
 10
1.296432579310397
 20
-8.390392531399429
 30
0.0
 11
1.123132130201639
 21
-8.217092082290662
 31
0.0
  0
LINE
  5
109E
330
108B
100
AcDbEntity
  8
0
 62
     0
100
AcDbLine
 10
3.294816471809426
 20
-10.38877642389844
 30
0.0
 11
3.082624704809468
 21
-10.17658465689848
 31
0.0
  0
LINE
  5
109F
330
108B
100
AcDbEntity
  8
0
 62
     0
100
AcDbLine
 10
1.280032579818636
 20
-8.609724255085723
 30
0.0
 11
1.078209318544381
 21
-8.407900993811464
 31
0.0
  0
LINE
  5
10A0
330
108B
100
AcDbEntity
  8
0
 62
     0
100
AcDbLine
 10
3.294816471809419
 20
-10.62450814707651
 30
0.0
 11
3.082624704809468
 21
-10.41231638007656
 31
0.0
  0
LINE
  5
10A1
330
108B
100
AcDbEntity
  8
0
 62
     0
100
AcDbLine
 10
1.241817425899255
 20
-8.807240824344411
 30
0.0
 11
1.068864846956123
 21
-8.634288245401286
 31
0.0
  0
LINE
  5
10A2
330
108B
100
AcDbEntity
  8
0
 62
     0
100
AcDbLine
 10
3.294816471809419
 20
-10.86023987025457
 30
0.0
 11
3.082624704809461
 21
-10.6480481032546
 31
0.0
  0
LINE
  5
10A3
330
108B
100
AcDbEntity
  8
0
 62
     0
100
AcDbLine
 10
3.294816471809426
 20
-11.09597159343263
 30
0.0
 11
3.082624704809474
 21
-10.88377982643268
 31
0.0
  0
LINE
  5
10A4
330
108B
100
AcDbEntity
  8
0
 62
     0
100
AcDbLine
 10
3.294816471809426
 20
-11.33170331661069
 30
0.0
 11
3.082624704809468
 21
-11.11951154961074
 31
0.0
  0
LINE
  5
10A5
330
108B
100
AcDbEntity
  8
0
 62
     0
100
AcDbLine
 10
3.294816471809419
 20
-11.56743503978875
 30
0.0
 11
3.082624704809468
 21
-11.35524327278881
 31
0.0
  0
LINE
  5
10A6
330
108B
100
AcDbEntity
  8
0
 62
     0
100
AcDbLine
 10
3.294816471809426
 20
-11.80316676296683
 30
0.0
 11
3.082624704809468
 21
-11.59097499596687
 31
0.0
  0
LINE
  5
10A7
330
108B
100
AcDbEntity
  8
0
 62
     0
100
AcDbLine
 10
3.294816471809411
 20
-12.03889848614488
 30
0.0
 11
3.082624704809461
 21
-11.82670671914494
 31
0.0
  0
LINE
  5
10A8
330
108B
100
AcDbEntity
  8
0
 62
     0
100
AcDbLine
 10
3.294816471809426
 20
-12.27463020932296
 30
0.0
 11
3.082624704809474
 21
-12.06243844232302
 31
0.0
  0
LINE
  5
10A9
330
108B
100
AcDbEntity
  8
0
 62
     0
100
AcDbLine
 10
3.294816471809426
 20
-12.51036193250103
 30
0.0
 11
3.082624704809468
 21
-12.29817016550107
 31
0.0
  0
LINE
  5
10AA
330
108B
100
AcDbEntity
  8
0
 62
     0
100
AcDbLine
 10
3.294816471809419
 20
-12.7460936556791
 30
0.0
 11
3.082624704809468
 21
-12.53390188867915
 31
0.0
  0
LINE
  5
10AB
330
108B
100
AcDbEntity
  8
0
 62
     0
100
AcDbLine
 10
3.290062309988357
 20
-12.97707121703608
 30
0.0
 11
3.082624704809468
 21
-12.7696336118572
 31
0.0
  0
LINE
  5
10AC
330
108B
100
AcDbEntity
  8
0
 62
     0
100
AcDbLine
 10
3.253193000403448
 20
-13.17593363062925
 30
0.0
 11
3.074236505306537
 21
-12.99697713553234
 31
0.0
  0
LINE
  5
10AD
330
108B
100
AcDbEntity
  8
0
 62
     0
100
AcDbLine
 10
3.18921464459015
 20
-13.34768699799401
 30
0.0
 11
3.027164552993986
 21
-13.18563690639785
 31
0.0
  0
LINE
  5
10AE
330
108B
100
AcDbEntity
  8
0
 62
     0
100
AcDbLine
 10
3.103814893826012
 20
-13.49801897040793
 30
0.0
 11
2.950311173986341
 21
-13.34451525056827
 31
0.0
  0
LINE
  5
10AF
330
108B
100
AcDbEntity
  8
0
 62
     0
100
AcDbLine
 10
2.999649062445164
 20
-13.62958486220516
 30
0.0
 11
2.849455977199872
 21
-13.47939177695987
 31
0.0
  0
LINE
  5
10B0
330
108B
100
AcDbEntity
  8
0
 62
     0
100
AcDbLine
 10
2.877702818340999
 20
-13.74337034127906
 30
0.0
 11
2.726540528425259
 21
-13.59220805136332
 31
0.0
  0
LINE
  5
10B1
330
108B
100
AcDbEntity
  8
0
 62
     0
100
AcDbLine
 10
2.737690149594256
 20
-13.83908939571039
 30
0.0
 11
2.581011949389086
 21
-13.68241119550521
 31
0.0
  0
LINE
  5
10B2
330
108B
100
AcDbEntity
  8
0
 62
     0
100
AcDbLine
 10
1.279010410280513
 20
-12.6161413795747
 30
0.0
 11
1.11184125484943
 21
-12.44897222414361
 31
0.0
  0
LINE
  5
10B3
330
108B
100
AcDbEntity
  8
0
 62
     0
100
AcDbLine
 10
2.577943456406103
 20
-13.91507442570029
 30
0.0
 11
2.409471764917056
 21
-13.74660273421124
 31
0.0
  0
LINE
  5
10B4
330
108B
100
AcDbEntity
  8
0
 62
     0
100
AcDbLine
 10
1.279010410280505
 20
-12.85187310275276
 30
0.0
 11
1.066818637819558
 21
-12.63968133029182
 31
0.0
  0
LINE
  5
10B5
330
108B
100
AcDbEntity
  8
0
 62
     0
100
AcDbLine
 10
2.3946800115431
 20
-13.96754270401536
 30
0.0
 11
2.202938001470086
 21
-13.77580069394234
 31
0.0
  0
LINE
  5
10B6
330
108B
100
AcDbEntity
  8
0
 62
     0
100
AcDbLine
 10
1.313825469159445
 20
-13.12241988480975
 30
0.0
 11
1.066819229992219
 21
-12.87541364564252
 31
0.0
  0
LINE
  5
10B7
330
108B
100
AcDbEntity
  8
0
 62
     0
100
AcDbLine
 10
2.179668798895193
 20
-13.98826321454551
 30
0.0
 11
1.932662559727964
 21
-13.74125697537827
 31
0.0
  0
LINE
  5
10B8
330
108B
100
AcDbEntity
  8
0
 62
     0
100
AcDbLine
 10
1.910690917046075
 20
-13.95501705587446
 30
0.0
 11
1.10006538866326
 21
-13.14439152749164
 31
0.0
  0
ENDBLK
  5
10BA
330
108B
100
AcDbEntity
  8
0
100
AcDbBlockEnd
  0
BLOCK
  5
10C5
330
10BB
100
AcDbEntity
  8
0
100
AcDbBlockBegin
  2
*X4
 70
     1
 10
0.0
 20
0.0
 30
0.0
  3
*X4
  1

  0
LINE
  5
10BC
330
10BB
100
AcDbEntity
  8
0
 62
     0
100
AcDbLine
 10
2.976528818578984
 20
-10.77768394020218
 30
0.0
 11
2.959043916706504
 21
-10.76019903832972
 31
0.0
  0
LINE
  5
10BD
330
10BB
100
AcDbEntity
  8
0
 62
     0
100
AcDbLine
 10
2.976528818578976
 20
-11.01341566338025
 30
0.0
 11
2.628542881455238
 21
-10.66542972625651
 31
0.0
  0
LINE
  5
10BE
330
10BB
100
AcDbEntity
  8
0
 62
     0
100
AcDbLine
 10
2.963435272440881
 20
-11.23605384042024
 30
0.0
 11
2.298041846203978
 21
-10.57066041418333
 31
0.0
  0
LINE
  5
10BF
330
10BB
100
AcDbEntity
  8
0
 62
     0
100
AcDbLine
 10
2.632932943878123
 20
-11.14128323503552
 30
0.0
 11
1.967540810952725
 21
-10.47589110211013
 31
0.0
  0
LINE
  5
10C0
330
10BB
100
AcDbEntity
  8
0
 62
     0
100
AcDbLine
 10
2.302430615315357
 20
-11.04651262965084
 30
0.0
 11
1.637039775701452
 21
-10.38112179003694
 31
0.0
  0
LINE
  5
10C1
330
10BB
100
AcDbEntity
  8
0
 62
     0
100
AcDbLine
 10
1.971928286752606
 20
-10.95174202426614
 30
0.0
 11
1.3065387404502
 21
-10.28635247796372
 31
0.0
  0
LINE
  5
10C2
330
10BB
100
AcDbEntity
  8
0
 62
     0
100
AcDbLine
 10
1.641425958189841
 20
-10.85697141888145
 30
0.0
 11
1.066818637819564
 21
-10.28236409851116
 31
0.0
  0
LINE
  5
10C3
330
10BB
100
AcDbEntity
  8
0
 62
     0
100
AcDbLine
 10
1.310923629627082
 20
-10.76220081349676
 30
0.0
 11
1.066818637819558
 21
-10.51809582168922
 31
0.0
  0
LINE
  5
10C4
330
10BB
100
AcDbEntity
  8
0
 62
     0
100
AcDbLine
 10
1.088745240343236
 20
-10.77575414739097
 30
0.0
 11
1.066818637819564
 21
-10.7538275448673
 31
0.0
  0
ENDBLK
  5
10C6
330
10BB
100
AcDbEntity
  8
0
100
AcDbBlockEnd
  0
BLOCK
  5
10D8
330
10C7
100
AcDbEntity
  8
0
100
AcDbBlockBegin
  2
*X5
 70
     1
 10
0.0
 20
0.0
 30
0.0
  3
*X5
  1

  0
LINE
  5
10C8
330
10C7
100
AcDbEntity
  8
0
 62
     0
100
AcDbLine
 10
2.866267759626282
 20
-9.253032542181106
 30
0.0
 11
2.667341175677612
 21
-9.05410595823244
 31
0.0
  0
LINE
  5
10C9
330
10C7
100
AcDbEntity
  8
0
 62
     0
100
AcDbLine
 10
2.973311016767503
 20
-9.595807522500384
 30
0.0
 11
2.336839223885135
 21
-8.959335729618025
 31
0.0
  0
LINE
  5
10CA
330
10C7
100
AcDbEntity
  8
0
 62
     0
100
AcDbLine
 10
2.637468497805876
 20
-9.495696726716834
 30
0.0
 11
2.006337272092656
 21
-8.864565501003609
 31
0.0
  0
LINE
  5
10CB
330
10C7
100
AcDbEntity
  8
0
 62
     0
100
AcDbLine
 10
2.958949796291014
 20
-9.817178025201977
 30
0.0
 11
2.709833181810154
 21
-9.568061410721107
 31
0.0
  0
LINE
  5
10CC
330
10C7
100
AcDbEntity
  8
0
 62
     0
100
AcDbLine
 10
2.294807617108893
 20
-9.388767569197922
 30
0.0
 11
1.894356937380115
 21
-8.988316889469144
 31
0.0
  0
LINE
  5
10CD
330
10C7
100
AcDbEntity
  8
0
 62
     0
100
AcDbLine
 10
2.894565644714723
 20
-9.988525596803743
 30
0.0
 11
2.709284972303904
 21
-9.803244924392927
 31
0.0
  0
LINE
  5
10CE
330
10C7
100
AcDbEntity
  8
0
 62
     0
100
AcDbLine
 10
2.106548709841042
 20
-9.436240385108128
 30
0.0
 11
1.894356937380115
 21
-9.224048612647202
 31
0.0
  0
LINE
  5
10CF
330
10C7
100
AcDbEntity
  8
0
 62
     0
100
AcDbLine
 10
2.79692411133888
 20
-10.12661578660596
 30
0.0
 11
2.572197230405548
 21
-9.901888905672636
 31
0.0
  0
LINE
  5
10D0
330
10C7
100
AcDbEntity
  8
0
 62
     0
100
AcDbLine
 10
1.348486654973547
 20
-8.913910053418701
 30
0.0
 11
1.326394182066565
 21
-8.89181758051172
 31
0.0
  0
LINE
  5
10D1
330
10C7
100
AcDbEntity
  8
0
 62
     0
100
AcDbLine
 10
2.670262681894576
 20
-10.23568608033973
 30
0.0
 11
2.283726833106142
 21
-9.849150231551298
 31
0.0
  0
LINE
  5
10D2
330
10C7
100
AcDbEntity
  8
0
 62
     0
100
AcDbLine
 10
1.407547880493345
 20
-9.208703002116557
 30
0.0
 11
1.147176011686227
 21
-8.948331133309435
 31
0.0
  0
LINE
  5
10D3
330
10C7
100
AcDbEntity
  8
0
 62
     0
100
AcDbLine
 10
2.512839522459095
 20
-10.3139946440823
 30
0.0
 11
1.953224559176234
 21
-9.754379680799443
 31
0.0
  0
LINE
  5
10D4
330
10C7
100
AcDbEntity
  8
0
 62
     0
100
AcDbLine
 10
1.307170115995851
 20
-9.344056960797132
 30
0.0
 11
1.148282362821553
 21
-9.185169207622832
 31
0.0
  0
LINE
  5
10D5
330
10C7
100
AcDbEntity
  8
0
 62
     0
100
AcDbLine
 10
2.314609196777708
 20
-10.35149604157899
 30
0.0
 11
1.622722285246303
 21
-9.65960913004759
 31
0.0
  0
LINE
  5
10D6
330
10C7
100
AcDbEntity
  8
0
 62
     0
100
AcDbLine
 10
2.0454755090717
 20
-10.31809407705103
 30
0.0
 11
1.0841334982329
 21
-9.356752066212255
 31
0.0
  0
LINE
  5
10D7
330
10C7
100
AcDbEntity
  8
0
 62
     0
100
AcDbLine
 10
1.731482545935462
 20
-10.23983283709287
 30
0.0
 11
1.070201539477138
 21
-9.578551830634543
 31
0.0
  0
ENDBLK
  5
10D9
330
10C7
100
AcDbEntity
  8
0
100
AcDbBlockEnd
  0
BLOCK
  5
1195
330
10DA
100
AcDbEntity
  8
0
100
AcDbBlockBegin
  2
A$C10A47444
 70
     0
 10
0.0
 20
0.0
 30
0.0
  3
A$C10A47444
  1

  0
ELLIPSE
  5
10DB
330
10DA
100
AcDbEntity
  8
240
100
AcDbEllipse
 10
-10.80059431021924
 20
-0.00000000000003
 30
0.0
 11
-29.00379168331797
 21
24.91449358448226
 31
0.0000000000000001
210
0.0
220
0.0
230
-1.0
 40
0.07122917396198
 41
0.0827309868607729
 42
0.4228883856168665
  0
LINE
  5
10DC
330
10DA
100
AcDbEntity
  8
240
100
AcDbLine
 10
-15.79521567881703
 20
-13.99102491698582
 30
0.0
 11
-11.04487978148946
 21
-9.71438248527691
 31
0.0
  0
LINE
  5
10DD
330
10DA
100
AcDbEntity
  8
245
100
AcDbLine
 10
-82.79999999999544
 20
-0.0000000000004848
 30
0.0
 11
1.737644361513744
 21
0.0000000000000102
 31
0.0
  0
SPLINE
  5
10DE
330
10DA
100
AcDbEntity
  8
241
100
AcDbSpline
210
0.0
220
0.0
230
1.0
 70
     8
 71
     3
 72
    18
 73
    14
 74
     0
 42
0.0000000001
 43
0.0000000001
 40
8.989072812039331
 40
8.989072812039331
 40
8.989072812039331
 40
8.989072812039331
 40
9.215365212352196
 40
9.215365212352196
 40
9.677542433350721
 40
9.677542433350721
 40
10.13971965434924
 40
10.13971965434924
 40
10.60189687534776
 40
10.60189687534776
 40
11.06407409634629
 40
11.06407409634629
 40
11.12066051618087
 40
11.12066051618087
 40
11.12066051618087
 40
11.12066051618087
 10
-13.15965102433389
 20
-0.8890567107308962
 30
0.0
 10
-13.10178528345502
 20
-0.8816453296098794
 30
0.0
 10
-13.04274911162778
 20
-0.8766952031053792
 30
0.0
 10
-12.8639578707434
 20
-0.8696799712213463
 30
0.0
 10
-12.73216933054899
 20
-0.8755611745549154
 30
0.0
 10
-12.45813978945668
 20
-0.9186142120963809
 30
0.0
 10
-12.31596779334367
 20
-0.9558810705119585
 30
0.0
 10
-12.0371804220407
 20
-1.065004382716151
 30
0.0
 10
-11.9001233355755
 20
-1.137037716580417
 30
0.0
 10
-11.6449580918813
 20
-1.312457064130482
 30
0.0
 10
-11.52685919746616
 20
-1.415836090225391
 30
0.0
 10
-11.41075589027914
 20
-1.54398353724227
 30
0.0
 10
-11.39827041761708
 20
-1.558161729637548
 30
0.0
 10
-11.38597424279805
 20
-1.572531420816145
 30
0.0
  0
SPLINE
  5
10DF
330
10DA
100
AcDbEntity
  8
241
100
AcDbSpline
210
0.0
220
0.0
230
1.0
 70
     8
 71
     3
 72
    19
 73
    15
 74
     0
 42
0.0000000001
 43
0.0000000001
 40
-0.0565864198345793
 40
-0.0565864198345793
 40
-0.0565864198345793
 40
-0.0565864198345793
 40
0.0
 40
0.0
 40
0.0
 40
0.4621772209985248
 40
0.4621772209985248
 40
0.9243544419970495
 40
0.9243544419970495
 40
1.386531662995574
 40
1.386531662995574
 40
1.848708883994099
 40
1.848708883994099
 40
2.075001284306947
 40
2.075001284306947
 40
2.075001284306947
 40
2.075001284306947
 10
-11.52127415374047
 20
-4.31636416920711
 30
0.0
 10
-11.53492439390092
 20
-4.329454428307323
 30
0.0
 10
-11.5487441735585
 20
-4.342335494156442
 30
0.0
 10
-11.56272241849865
 20
-4.35499997170948
 30
0.0
 10
-11.67689162057536
 20
-4.458438801343449
 30
0.0
 10
-11.80458820968439
 20
-4.549697516151026
 30
0.0
 10
-12.07577366568054
 20
-4.699162219477782
 30
0.0
 10
-12.21925262723783
 20
-4.757362165597958
 30
0.0
 10
-12.50742328451036
 20
-4.838528463724179
 30
0.0
 10
-12.65257195043815
 20
-4.861627381324487
 30
0.0
 10
-12.92950774063547
 20
-4.877512013539705
 30
0.0
 10
-13.06123554354155
 20
-4.870399080195566
 30
0.0
 10
-13.23846924892029
 20
-4.845828061228333
 30
0.0
 10
-13.29673201782265
 20
-4.835093859056796
 30
0.0
 10
-13.35358789097159
 20
-4.822025491674361
 30
0.0
  0
LINE
  5
10E0
330
10DA
100
AcDbEntity
  8
241
100
AcDbLine
 10
-10.93207997974979
 20
-9.740424371463872
 30
0.0
 11
-20.34647182795715
 21
-7.566940754920981
 31
0.0
  0
CIRCLE
  5
10E1
330
10DA
100
AcDbEntity
  8
246
100
AcDbCircle
 10
-12.30039145817833
 20
-2.974203458061257
 30
0.0
 40
6.285
  0
LINE
  5
10E2
330
10DA
100
AcDbEntity
  8
240
  6
CONTINUOUS
100
AcDbLine
 10
-13.66870293660696
 20
3.792017455341394
 30
0.0
 11
-0.6200391565249035
 21
0.7794960518281879
 31
0.0
  0
ELLIPSE
  5
10E3
330
10DA
100
AcDbEntity
  8
241
100
AcDbEllipse
 10
-36.83172058587645
 20
-0.00000000000003
 30
0.0
 11
0.0081475976374382
 21
-24.99999998655543
 31
0.0
210
0.0
220
0.0
230
-1.0
 40
0.1006303112345961
 41
0.5229506079168477
 42
2.625119274298116
  0
LINE
  5
10E4
330
10DA
100
AcDbEntity
  8
241
100
AcDbLine
 10
-38.08112837643985
 20
18.62784892648685
 30
0.0
 11
-38.08112837643985
 21
21.73874729236425
 31
0.0
  0
ELLIPSE
  5
10E5
330
10DA
100
AcDbEntity
  8
240
100
AcDbEllipse
 10
-30.12132957074008
 20
18.70166161527018
 30
0.0
 11
-7.979248466411229
 21
7.016709121455662
 31
0.0000000000000001
210
0.0
220
0.0
230
-1.0
 40
0.0820672348260286
 41
4.80185262023357
 42
5.567585639350759
  0
TEXT
  5
10E6
330
10DA
100
AcDbEntity
  8
247
100
AcDbText
 10
-44.86292048998514
 20
-8.875052282521723
 30
0.0
 40
2.5
  1
S50-DDJNL-0050-15
 50
90.0
 41
0.7
  7
YOKO
 11
-44.86292048998514
 21
-8.875052282521723
 31
0.0
100
AcDbText
 73
     1
  0
LINE
  5
10E7
330
10DA
100
AcDbEntity
  8
240
100
AcDbLine
 10
-49.99318384927675
 20
13.99999991975896
 30
0.0
 11
-49.99318384927675
 21
24.70681615072246
 31
0.0
  0
LINE
  5
10E8
330
10DA
100
AcDbEntity
  8
240
100
AcDbLine
 10
-76.50000000000019
 20
-14.00000000000037
 30
0.0
 11
-49.99318384927675
 21
-13.99999999998821
 31
0.0
  0
LINE
  5
10E9
330
10DA
100
AcDbEntity
  8
240
100
AcDbLine
 10
-76.50000000000041
 20
13.99999999999963
 30
0.0
 11
-49.99318384927675
 21
13.99999991975896
 31
0.0
  0
LINE
  5
10EA
330
10DA
100
AcDbEntity
  8
240
100
AcDbLine
 10
-80.99999999999996
 20
-13.10000000000042
 30
0.0
 11
-81.00000000000006
 21
13.09999999999973
 31
0.0
  0
LINE
  5
10EB
330
10DA
100
AcDbEntity
  8
241
100
AcDbLine
 10
-76.50000000000007
 20
13.99999999999963
 30
0.0
 11
-76.50000000000007
 21
-0.0000000000003427
 31
0.0
  0
LINE
  5
10EC
330
10DA
100
AcDbEntity
  8
241
100
AcDbLine
 10
-78.45947063619646
 20
13.72461436121386
 30
0.0
 11
-78.45947063619696
 21
-0.0000000000004564
 31
0.0
  0
LINE
  5
10ED
330
10DA
100
AcDbEntity
  8
241
100
AcDbLine
 10
-76.50000000000007
 20
-14.00000000000031
 30
0.0
 11
-76.50000000000007
 21
-0.0000000000003427
 31
0.0
  0
LINE
  5
10EE
330
10DA
100
AcDbEntity
  8
241
100
AcDbLine
 10
-78.45947063619646
 20
-13.72461436121455
 30
0.0
 11
-78.45947063619696
 21
-0.000000000000229
 31
0.0
  0
LINE
  5
10EF
330
10DA
100
AcDbEntity
  8
240
100
AcDbLine
 10
-78.45947063619646
 20
-13.72461436121455
 30
0.0
 11
-76.50000000000019
 21
-14.00000000000037
 31
0.0
  0
LINE
  5
10F0
330
10DA
100
AcDbEntity
  8
240
100
AcDbLine
 10
-78.45947063619646
 20
-13.72461436121455
 30
0.0
 11
-79.94371664009982
 21
-13.98632697771143
 31
0.0
  0
ARC
  5
10F1
330
10DA
100
AcDbEntity
  8
240
100
AcDbCircle
 10
-80.10000000000003
 20
-13.10000000000042
 30
0.0
 40
0.9000000000000088
100
AcDbArc
 50
179.9999823999063
 51
280.0000000000018
  0
LINE
  5
10F2
330
10DA
100
AcDbEntity
  8
240
100
AcDbLine
 10
-78.45947063619646
 20
13.72461436121386
 30
0.0
 11
-76.50000000000041
 21
13.99999999999963
 31
0.0
  0
LINE
  5
10F3
330
10DA
100
AcDbEntity
  8
240
100
AcDbLine
 10
-78.45947063619646
 20
13.72461436121386
 30
0.0
 11
-79.94371664009982
 21
13.98632697771074
 31
0.0
  0
ARC
  5
10F4
330
10DA
100
AcDbEntity
  8
240
100
AcDbCircle
 10
-80.10000000000003
 20
13.09999999999973
 30
0.0
 40
0.9000000000000088
100
AcDbArc
 50
80.00000000000147
 51
179.9999823999063
  0
ELLIPSE
  5
10F5
330
10DA
100
AcDbEntity
  8
240
100
AcDbEllipse
 10
-16.16073352559441
 20
-38.99070553834443
 30
0.0
 11
-0.4918195144275745
 21
24.99516180314159
 31
0.0
210
0.0
220
0.0
230
-1.0
 40
0.9869811297838273
 41
5.637020595824755
 42
6.303118801100335
  0
INSERT
  5
10F6
330
10DA
100
AcDbEntity
  8
247
  6
CONTINUOUS
100
AcDbBlockReference
  2
*X3
 10
-49.99318384927669
 20
2.693863903902978
 30
0.0
 41
1.714499999999986
 42
1.714500000000001
 43
1.7145
1001
ACAD
1000
HATCH
1002
{
1070
    19
1000
ANSI31
1040
0.0525
1040
1.570796326794895
1002
}
  0
LINE
  5
10F7
330
10DA
100
AcDbEntity
  8
247
100
AcDbLine
 10
-44.34422100835944
 20
-19.37906345944962
 30
0.0
 11
-44.34422100835944
 21
-11.99391344132979
 31
0.0
1001
ACAD
1000
ASC_BOUNDS
1002
{
1070
    19
1005
0
1002
}
  0
LINE
  5
10F8
330
10DA
100
AcDbEntity
  8
247
100
AcDbLine
 10
-44.70802379288087
 20
-19.37906345944962
 30
0.0
 11
-44.70802379288087
 21
-11.99391344132979
 31
0.0
1001
ACAD
1000
ASC_BOUNDS
1002
{
1070
    19
1005
0
1002
}
  0
LINE
  5
10F9
330
10DA
100
AcDbEntity
  8
241
100
AcDbLine
 10
-31.40776932049478
 20
-19.32687656788997
 30
0.0
 11
-31.40776932049477
 21
-8.468395535438311
 31
0.0
  0
LINE
  5
10FA
330
10DA
100
AcDbEntity
  8
241
100
AcDbLine
 10
-38.08112837643982
 20
-21.65914211779275
 30
0.0
 11
-38.08112837643985
 21
5.416067150909467
 31
0.0
  0
LINE
  5
10FB
330
10DA
100
AcDbEntity
  8
247
100
AcDbLine
 10
-46.35096340369871
 20
-18.76921943097483
 30
0.0
 11
-47.6244242490723
 21
-17.49575858560116
 31
0.0
  0
LINE
  5
10FC
330
10DA
100
AcDbEntity
  8
247
100
AcDbLine
 10
-48.16412329473506
 20
-18.43854368749201
 30
0.0
 11
-48.16412329473492
 21
-17.26493275183892
 31
0.0
  0
LINE
  5
10FD
330
10DA
100
AcDbEntity
  8
247
100
AcDbLine
 10
-46.91760849694309
 20
-18.6067363771192
 30
0.0
 11
-48.16412329473492
 21
-17.36022157932738
 31
0.0
  0
ARC
  5
10FE
330
10DA
100
AcDbEntity
  8
247
100
AcDbCircle
 10
-45.83580189542779
 20
-18.0843276630934
 30
0.0
 40
0.5457045663826169
100
AcDbArc
 50
351.6628542111504
 51
156.3381921591102
  0
LINE
  5
10FF
330
10DA
100
AcDbEntity
  8
247
100
AcDbLine
 10
-46.21540679704987
 20
-17.69228991945725
 30
0.0
 11
-47.51726735840064
 21
-16.39042935810644
 31
0.0
  0
ARC
  5
1100
330
10DA
100
AcDbEntity
  8
247
100
AcDbCircle
 10
-47.29099933633814
 20
-17.66705596719345
 30
0.0
 40
0.545688953974843
100
AcDbArc
 50
351.6626016879293
 51
156.3381550951898
  0
LINE
  5
1101
330
10DA
100
AcDbEntity
  8
247
100
AcDbLine
 10
-47.79081161559848
 20
-17.4480488440429
 30
0.0
 11
-46.7510774522414
 21
-17.74618114374062
 31
0.0
  0
LINE
  5
1102
330
10DA
100
AcDbEntity
  8
247
100
AcDbLine
 10
-44.88992518982299
 20
-18.20944744790659
 30
0.0
 11
-46.2248003561932
 21
-16.87457228153635
 31
0.0
  0
LINE
  5
1103
330
10DA
100
AcDbEntity
  8
247
100
AcDbLine
 10
-44.88992518982293
 20
-17.80528540851776
 30
0.0
 11
-45.91842819746138
 21
-16.77678240087939
 31
0.0
  0
ARC
  5
1104
330
10DA
100
AcDbEntity
  8
247
100
AcDbCircle
 10
-45.79941886911401
 20
-17.67845570741256
 30
0.0
 40
0.9094932500839236
100
AcDbArc
 50
0.0
 51
130.3298406541675
  0
LINE
  5
1105
330
10DA
100
AcDbEntity
  8
247
100
AcDbLine
 10
-45.21767321720988
 20
-19.09418553868604
 30
0.0
 11
-46.75696096983749
 21
-17.5548977860584
 31
0.0
  0
LINE
  5
1106
330
10DA
100
AcDbEntity
  8
240
100
AcDbLine
 10
-49.99318384927675
 20
-24.70681615072257
 30
0.0
 11
-49.99318384927675
 21
-13.99999999998821
 31
0.0
  0
LINE
  5
1107
330
10DA
100
AcDbEntity
  8
240
100
AcDbLine
 10
-38.73677899865608
 20
-25.00000000000003
 30
0.0
 11
-49.69999999999991
 21
-24.99999999999934
 31
0.0
  0
LINE
  5
1108
330
10DA
100
AcDbEntity
  8
240
100
AcDbLine
 10
-49.69999999999991
 20
-24.99999999999934
 30
0.0
 11
-49.99999999999992
 21
-24.69999999999939
 31
0.0
  0
LINE
  5
1109
330
10DA
100
AcDbEntity
  8
247
100
AcDbLine
 10
-44.88992518982299
 20
-18.61360948729537
 30
0.0
 11
-45.35785666159237
 21
-18.14567801552593
 31
0.0
  0
ARC
  5
110A
330
10DA
100
AcDbEntity
  8
247
100
AcDbCircle
 10
-46.25417236146937
 20
-19.37906345944962
 30
0.0
 40
1.546148139381408
100
AcDbArc
 50
180.0
 51
0.0
1001
ACAD
1000
ASC_BOUNDS
1002
{
1070
    19
1005
0
1002
}
  0
ARC
  5
110B
330
10DA
100
AcDbEntity
  8
247
100
AcDbCircle
 10
-46.25417236146937
 20
-19.37906345944962
 30
0.0
 40
1.909950933265685
100
AcDbArc
 50
180.0
 51
0.0
1001
ACAD
1000
ASC_BOUNDS
1002
{
1070
    19
1005
0
1002
}
  0
LINE
  5
110C
330
10DA
100
AcDbEntity
  8
247
100
AcDbLine
 10
-44.88992518982299
 20
-19.01777152668418
 30
0.0
 11
-45.92449338270436
 21
-17.98320333380277
 31
0.0
  0
LINE
  5
110D
330
10DA
100
AcDbEntity
  8
247
100
AcDbLine
 10
-44.88992518982299
 20
-19.18816588197304
 30
0.0
 11
-47.80032050084968
 21
-18.35362249017359
 31
0.0
  0
LINE
  5
110E
330
10DA
100
AcDbEntity
  8
247
100
AcDbLine
 10
-46.33562931752486
 20
-17.86531619788998
 30
0.0
 11
-45.29586431461377
 21
-18.1634534022408
 31
0.0
  0
LINE
  5
110F
330
10DA
100
AcDbEntity
  8
247
100
AcDbLine
 10
-47.48425359018749
 20
-18.44425332326359
 30
0.0
 11
-48.16412329473495
 21
-17.76438361871612
 31
0.0
  0
LINE
  5
1110
330
10DA
100
AcDbEntity
  8
247
100
AcDbLine
 10
-47.80032050085075
 20
-18.54285817781089
 30
0.0
 11
-47.80032050084968
 21
-18.35362249017359
 31
0.0
  0
LINE
  5
1111
330
10DA
100
AcDbEntity
  8
247
100
AcDbLine
 10
-48.16412329473506
 20
-18.43854368749201
 30
0.0
 11
-47.80032050085075
 21
-18.54285817781089
 31
0.0
  0
LINE
  5
1112
330
10DA
100
AcDbEntity
  8
247
100
AcDbLine
 10
-48.16412329473506
 20
-18.62776564050274
 30
0.0
 11
-47.80032050085075
 21
-18.73208013082107
 31
0.0
1001
ACAD
1000
ASC_BOUNDS
1002
{
1070
    19
1005
0
1002
}
  0
LINE
  5
1113
330
10DA
100
AcDbEntity
  8
247
100
AcDbLine
 10
-47.8003205008507
 20
-18.5323484519892
 30
0.0
 11
-48.16412329473495
 21
-18.16854565810493
 31
0.0
  0
LINE
  5
1114
330
10DA
100
AcDbEntity
  8
247
100
AcDbLine
 10
-45.78431831045422
 20
-18.93170248483048
 30
0.0
 11
-47.05778451894666
 21
-17.65823627633798
 31
0.0
  0
LINE
  5
1115
330
10DA
100
AcDbEntity
  8
247
100
AcDbLine
 10
-47.80032050085075
 20
-19.37906345944962
 30
0.0
 11
-47.80032050085075
 21
-18.73208013082107
 31
0.0
1001
ACAD
1000
ASC_BOUNDS
1002
{
1070
    19
1005
0
1002
}
  0
LINE
  5
1116
330
10DA
100
AcDbEntity
  8
247
100
AcDbLine
 10
-48.16412329473506
 20
-19.37906345944962
 30
0.0
 11
-48.16412329473506
 21
-18.62776564050274
 31
0.0
1001
ACAD
1000
ASC_BOUNDS
1002
{
1070
    19
1005
0
1002
}
  0
LINE
  5
1117
330
10DA
100
AcDbEntity
  8
247
100
AcDbLine
 10
-44.88992518982299
 20
-19.18816588197304
 30
0.0
 11
-44.88992518982299
 21
-17.67845570741256
 31
0.0
  0
ELLIPSE
  5
1118
330
10DA
100
AcDbEntity
  8
240
100
AcDbEllipse
 10
-30.12132957074008
 20
-19.22622052771592
 30
0.0
 11
-7.980057202959827
 21
-7.171658505460389
 31
0.0
210
0.0
220
0.0
230
-1.0
 40
0.0787159240517542
 41
0.8097182708993823
 42
1.319199435622741
  0
SPLINE
  5
1119
330
10DA
100
AcDbEntity
  8
241
100
AcDbSpline
210
0.0
220
0.0
230
1.0
 70
     8
 71
     3
 72
    14
 73
    10
 74
     0
 42
0.0000000001
 43
0.0000000001
 40
15.49858216616525
 40
15.49858216616525
 40
15.49858216616525
 40
15.49858216616525
 40
16.24621482720633
 40
16.24621482720633
 40
17.91118505096638
 40
17.91118505096638
 40
19.57615527472643
 40
19.57615527472643
 40
20.76810292835652
 40
20.76810292835652
 40
20.76810292835652
 40
20.76810292835652
 10
-38.08112837643982
 20
-21.65914211779275
 30
0.0
 10
-38.05870762084286
 20
-21.78733847424493
 30
0.0
 10
-38.02645483696618
 20
-21.91298015061491
 30
0.0
 10
-37.88813948362893
 20
-22.30660333624226
 30
0.0
 10
-37.73939971827455
 20
-22.5597209709783
 30
0.0
 10
-37.33145220605608
 20
-23.01332512488366
 30
0.0
 10
-37.07175429264769
 20
-23.2143628999868
 30
0.0
 10
-36.54313308627037
 20
-23.51144539658017
 30
0.0
 10
-36.29795617696162
 20
-23.62126432853634
 30
0.0
 10
-36.03396226005942
 20
-23.71768659192875
 30
0.0
  0
ELLIPSE
  5
111A
330
10DA
100
AcDbEntity
  8
240
100
AcDbEllipse
 10
-10.59245649635481
 20
-0.00000000000003
 30
0.0
 11
28.3714365511616
 21
24.92138360489871
 31
0.0000000000000002
210
0.0
220
0.0
230
-1.0
 40
0.0698262217585814
 41
2.740592549156884
 42
3.06226667637053
  0
SPLINE
  5
111B
330
10DA
100
AcDbEntity
  8
240
100
AcDbSpline
210
0.0
220
0.0
230
1.0
 70
     8
 71
     3
 72
     8
 73
     4
 74
     0
 42
0.0000000001
 43
0.0000000001
 40
14.89302224642641
 40
14.89302224642641
 40
14.89302224642641
 40
14.89302224642641
 40
16.53840453868777
 40
16.53840453868777
 40
16.53840453868777
 40
16.53840453868777
 10
-32.65472224332602
 20
-20.40323056924356
 30
0.0
 10
-32.25114429393532
 20
-20.02575445595963
 30
0.0
 10
-31.83337854908201
 20
-19.66555902425702
 30
0.0
 10
-31.40776932049475
 20
-19.32687656788997
 30
0.0
  0
LINE
  5
111C
330
10DA
100
AcDbEntity
  8
241
100
AcDbLine
 10
-49.99318384927675
 20
-13.99999999998821
 30
0.0
 11
-49.99318384927675
 21
13.99999991975896
 31
0.0
  0
LINE
  5
111D
330
10DA
100
AcDbEntity
  8
245
100
AcDbLine
 10
-63.99999999999945
 20
6.585300982583308
 30
0.0
 11
-63.9999999999999
 21
-6.535064604361704
 31
0.0
  0
CIRCLE
  5
111E
330
10DA
100
AcDbEntity
  8
241
100
AcDbCircle
 10
-64.00000000000004
 20
-0.0000000000001677
 30
0.0
 40
4.0
  0
SPLINE
  5
111F
330
10DA
100
AcDbEntity
  8
241
100
AcDbSpline
210
0.0
220
0.0
230
1.0
 70
    11
 71
     3
 72
    70
 73
    66
 74
     0
 42
0.0000000001
 43
0.0000000001
 40
0.0
 40
0.0
 40
0.0
 40
0.0
 40
0.9197496568304652
 40
0.9197496568304652
 40
1.83949931366093
 40
1.83949931366093
 40
2.759248970491396
 40
2.759248970491396
 40
3.678998627321861
 40
3.678998627321861
 40
4.631875395981221
 40
4.631875395981221
 40
5.584752164640583
 40
5.584752164640583
 40
6.537628933299944
 40
6.537628933299944
 40
7.490505701959305
 40
7.490505701959305
 40
8.443382470618661
 40
8.443382470618661
 40
9.39625923927802
 40
9.39625923927802
 40
10.34913600793737
 40
10.34913600793737
 40
11.30201277659673
 40
11.30201277659673
 40
12.2217624334272
 40
12.2217624334272
 40
13.14151209025766
 40
13.14151209025766
 40
14.06126174708813
 40
14.06126174708813
 40
14.9810114039186
 40
14.9810114039186
 40
15.91208227998781
 40
15.91208227998781
 40
16.84315315605702
 40
16.84315315605702
 40
17.77422403212622
 40
17.77422403212622
 40
18.70529490819543
 40
18.70529490819543
 40
19.64673146562238
 40
19.64673146562238
 40
20.58816802304932
 40
20.58816802304932
 40
21.52960458047627
 40
21.52960458047627
 40
22.47104113790322
 40
22.47104113790322
 40
23.41247769533016
 40
23.41247769533016
 40
24.3539142527571
 40
24.3539142527571
 40
25.29535081018405
 40
25.29535081018405
 40
26.23678736761099
 40
26.23678736761099
 40
27.1678582436802
 40
27.1678582436802
 40
28.0989291197494
 40
28.0989291197494
 40
29.0299999958186
 40
29.0299999958186
 40
29.96107087188781
 40
29.96107087188781
 40
29.96107087188781
 40
29.96107087188781
 10
-64.00000000000004
 20
-4.813238667571053
 30
0.0
 10
-63.69341678105654
 20
-4.813238667571053
 30
0.0
 10
-63.37626085482511
 20
-4.786140626474147
 30
0.0
 10
-62.74440677204076
 20
-4.671798730367751
 30
0.0
 10
-62.4297013843577
 20
-4.584583114443998
 30
0.0
 10
-61.82426227349968
 20
-4.353455323822058
 30
0.0
 10
-61.53306955977736
 20
-4.209379306698392
 30
0.0
 10
-60.9916671723423
 20
-3.875324214317513
 30
0.0
 10
-60.74146009689254
 20
-3.685312193028889
 30
0.0
 10
-60.2868464522973
 20
-3.271009973575584
 30
0.0
 10
-60.06785585213073
 20
-3.03060478897049
 30
0.0
 10
-59.67913298603701
 20
-2.502017360458919
 30
0.0
 10
-59.50937594437322
 20
-2.213831988604622
 30
0.0
 10
-59.23491531454833
 20
-1.607725564508538
 30
0.0
 10
-59.12996812109027
 20
-1.289204275587164
 30
0.0
 10
-58.99153386157944
 20
-0.6441601606745139
 30
0.0
 10
-58.95808984297817
 20
-0.3176255895532989
 30
0.0
 10
-58.95808984297817
 20
0.3176255895529067
 30
0.0
 10
-58.99153386157944
 20
0.6441601606741215
 30
0.0
 10
-59.12996812109027
 20
1.289204275586772
 30
0.0
 10
-59.2349153145483
 20
1.607725564508146
 30
0.0
 10
-59.50937594437322
 20
2.213831988604229
 30
0.0
 10
-59.67913298603701
 20
2.502017360458526
 30
0.0
 10
-60.0678558521307
 20
3.030604788970097
 30
0.0
 10
-60.2868464522973
 20
3.271009973575192
 30
0.0
 10
-60.74146009689254
 20
3.685312193028496
 30
0.0
 10
-60.9916671723423
 20
3.87532421431712
 30
0.0
 10
-61.53306955977733
 20
4.209379306697999
 30
0.0
 10
-61.82426227349965
 20
4.353455323821665
 30
0.0
 10
-62.4297013843577
 20
4.584583114443606
 30
0.0
 10
-62.74440677204076
 20
4.671798730367359
 30
0.0
 10
-63.37626085482508
 20
4.786140626473811
 30
0.0
 10
-63.69341678105654
 20
4.813238667570661
 30
0.0
 10
-64.31035695868978
 20
4.813238667570661
 30
0.0
 10
-64.63129234204449
 20
4.785470431101887
 30
0.0
 10
-65.27026933877606
 20
4.668421595239069
 30
0.0
 10
-65.5883187429436
 20
4.579171023034407
 30
0.0
 10
-66.19963276822365
 20
4.342762119792783
 30
0.0
 10
-66.49336985375028
 20
4.195433199441995
 30
0.0
 10
-67.03879695522314
 20
3.85389981812523
 30
0.0
 10
-67.29048375056205
 20
3.659660585884014
 30
0.0
 10
-67.74130660191115
 20
3.241308021639158
 30
0.0
 10
-67.95583231479627
 20
3.001992855304538
 30
0.0
 10
-68.33652384033477
 20
2.476737516738071
 30
0.0
 10
-68.50271248665897
 20
2.190793541029338
 30
0.0
 10
-68.77130233774948
 20
1.590081060246521
 30
0.0
 10
-68.87393747752195
 20
1.274727792168678
 30
0.0
 10
-69.00926202767094
 20
0.6365989058254541
 30
0.0
 10
-69.04191015702192
 20
0.3138121858087885
 30
0.0
 10
-69.04191015702192
 20
-0.3138121858091807
 30
0.0
 10
-69.00926202767094
 20
-0.6365989058259033
 30
0.0
 10
-68.87393747752195
 20
-1.274727792169127
 30
0.0
 10
-68.77130233774945
 20
-1.59008106024697
 30
0.0
 10
-68.50271248665895
 20
-2.190793541029788
 30
0.0
 10
-68.33652384033477
 20
-2.476737516738521
 30
0.0
 10
-67.95583231479624
 20
-3.001992855304931
 30
0.0
 10
-67.74130660191115
 20
-3.241308021639551
 30
0.0
 10
-67.29048375056205
 20
-3.659660585884407
 30
0.0
 10
-67.0387969552231
 20
-3.853899818125623
 30
0.0
 10
-66.49336985375025
 20
-4.195433199442331
 30
0.0
 10
-66.19963276822365
 20
-4.342762119793175
 30
0.0
 10
-65.5883187429436
 20
-4.5791710230348
 30
0.0
 10
-65.27026933877606
 20
-4.668421595239462
 30
0.0
 10
-64.63129234204449
 20
-4.78547043110228
 30
0.0
 10
-64.31035695868978
 20
-4.813238667571053
 30
0.0
 10
-64.00000000000004
 20
-4.813238667571053
 30
0.0
  0
ARC
  5
1120
330
10DA
100
AcDbEntity
  8
247
100
AcDbCircle
 10
-46.25417236146937
 20
-11.99391344132979
 30
0.0
 40
1.546148139381408
100
AcDbArc
 50
0.0
 51
194.1274364964119
1001
ACAD
1000
ASC_BOUNDS
1002
{
1070
    19
1005
0
1002
}
  0
ARC
  5
1121
330
10DA
100
AcDbEntity
  8
247
100
AcDbCircle
 10
-46.25417236146937
 20
-11.99391344132979
 30
0.0
 40
1.909950933265685
100
AcDbArc
 50
0.0
 51
194.770793966094
1001
ACAD
1000
ASC_BOUNDS
1002
{
1070
    19
1005
0
1002
}
  0
INSERT
  5
1122
330
10DA
100
AcDbEntity
  8
247
  6
CONTINUOUS
100
AcDbBlockReference
  2
*X5
 10
-49.99318384927669
 20
2.693863903902978
 30
0.0
 41
1.714499999999986
 42
1.714500000000001
 43
1.7145
1001
ACAD
1000
HATCH
1002
{
1070
    19
1000
ANSI31
1040
0.0525
1040
1.570796326794895
1002
}
  0
ARC
  5
1123
330
10DA
100
AcDbEntity
  8
247
100
AcDbCircle
 10
-46.98177794923792
 20
-13.6115777823027
 30
0.0
 40
1.182347062325477
100
AcDbArc
 50
143.4440121970577
 51
254.0001843876854
1001
ACAD
1000
ASC_BOUNDS
1002
{
1070
    19
1005
0
1002
}
  0
ARC
  5
1124
330
10DA
100
AcDbEntity
  8
247
100
AcDbCircle
 10
-47.3819500348092
 20
-13.42113344750962
 30
0.0
 40
0.3819927511654794
100
AcDbArc
 50
91.71012138206274
 51
253.9983983544487
1001
ACAD
1000
ASC_BOUNDS
1002
{
1070
    19
1005
0
1002
}
  0
LINE
  5
1125
330
10DA
100
AcDbEntity
  8
247
100
AcDbLine
 10
-46.74530888013849
 20
-13.50907626271805
 30
0.0
 11
-46.74530888013849
 21
-12.44938113427719
 31
0.0
1001
ACAD
1000
ASC_BOUNDS
1002
{
1070
    19
1005
0
1002
}
  0
LINE
  5
1126
330
10DA
100
AcDbEntity
  8
247
100
AcDbLine
 10
-45.10332008594879
 20
-13.19481426759324
 30
0.0
 11
-44.88992518982299
 21
-12.98140563684066
 31
0.0
1001
ACAD
1000
ASC_BOUNDS
1002
{
1070
    19
1005
0
1002
}
  0
ARC
  5
1127
330
10DA
100
AcDbEntity
  8
247
100
AcDbCircle
 10
-46.07227096452724
 20
-13.87237087541183
 30
0.0
 40
1.182359080123901
100
AcDbArc
 50
253.9997507017292
 51
34.96387329163151
1001
ACAD
1000
ASC_BOUNDS
1002
{
1070
    19
1005
0
1002
}
  0
LINE
  5
1128
330
10DA
100
AcDbEntity
  8
247
100
AcDbLine
 10
-44.88992518982299
 20
-15.76309333119948
 30
0.0
 11
-48.16412329473506
 21
-14.82423544908126
 31
0.0
  0
LINE
  5
1129
330
10DA
100
AcDbEntity
  8
247
100
AcDbLine
 10
-44.88992518982299
 20
-16.57678755956254
 30
0.0
 11
-47.76395120916378
 21
-15.75266874948104
 31
0.0
  0
POLYLINE
  5
112A
330
10DA
100
AcDbEntity
  8
247
100
AcDb2dPolyline
 66
     1
 10
0.0
 20
0.0
 30
0.0
 70
     1
1001
HATCH_DISTANCE
1040
1.0
1001
HATCH_DISPLAY
1070
     0
1001
HATCH_TYPE
1070
     7
  0
VERTEX
  5
112B
330
112A
100
AcDbEntity
  8
247
100
AcDbVertex
100
AcDb2dVertex
 10
-48.16412329473506
 20
-15.77038641801438
 30
0.0
  0
VERTEX
  5
112C
330
112A
100
AcDbEntity
  8
247
100
AcDbVertex
100
AcDb2dVertex
 10
-47.76395120916378
 20
-15.88513922467788
 30
0.0
  0
VERTEX
  5
112D
330
112A
100
AcDbEntity
  8
247
100
AcDbVertex
100
AcDb2dVertex
 10
-47.76395120916378
 20
-15.75266874948104
 30
0.0
  0
VERTEX
  5
112E
330
112A
100
AcDbEntity
  8
247
100
AcDbVertex
100
AcDb2dVertex
 10
-44.88992518982299
 20
-16.57678755956254
 30
0.0
  0
VERTEX
  5
112F
330
112A
100
AcDbEntity
  8
247
100
AcDbVertex
100
AcDb2dVertex
 10
-44.88992518982299
 20
-15.76309333119948
 30
0.0
  0
VERTEX
  5
1130
330
112A
100
AcDbEntity
  8
247
100
AcDbVertex
100
AcDb2dVertex
 10
-48.16412329473506
 20
-14.82423544908126
 30
0.0
  0
SEQEND
  5
1131
330
112A
100
AcDbEntity
  8
247
  0
POLYLINE
  5
1132
330
10DA
100
AcDbEntity
  8
247
100
AcDb2dPolyline
 66
     1
 10
0.0
 20
0.0
 30
0.0
 70
     1
  0
VERTEX
  5
1133
330
1132
100
AcDbEntity
  8
247
100
AcDbVertex
100
AcDb2dVertex
 10
-48.16412329473506
 20
-15.77038641801438
 30
0.0
  0
VERTEX
  5
1134
330
1132
100
AcDbEntity
  8
247
100
AcDbVertex
100
AcDb2dVertex
 10
-47.76395120916378
 20
-15.88513922467788
 30
0.0
  0
VERTEX
  5
1135
330
1132
100
AcDbEntity
  8
247
100
AcDbVertex
100
AcDb2dVertex
 10
-47.76395120916378
 20
-15.75266874948104
 30
0.0
  0
VERTEX
  5
1136
330
1132
100
AcDbEntity
  8
247
100
AcDbVertex
100
AcDb2dVertex
 10
-44.88992518982299
 20
-16.57678755956254
 30
0.0
  0
VERTEX
  5
1137
330
1132
100
AcDbEntity
  8
247
100
AcDbVertex
100
AcDb2dVertex
 10
-44.88992518982299
 20
-15.76309333119948
 30
0.0
  0
VERTEX
  5
1138
330
1132
100
AcDbEntity
  8
247
100
AcDbVertex
100
AcDb2dVertex
 10
-48.16412329473506
 20
-14.82423544908126
 30
0.0
  0
SEQEND
  5
1139
330
1132
100
AcDbEntity
  8
247
  0
INSERT
  5
113A
330
10DA
100
AcDbEntity
  8
247
  6
CONTINUOUS
100
AcDbBlockReference
  2
*X4
 10
-49.99318384927669
 20
2.693863903902978
 30
0.0
 41
1.714499999999986
 42
1.714500000000001
 43
1.7145
1001
ACAD
1000
HATCH
1002
{
1070
    19
1000
ANSI31
1040
0.0525
1040
1.570796326794895
1002
}
  0
LINE
  5
113B
330
10DA
100
AcDbEntity
  8
247
100
AcDbLine
 10
-44.95811478147122
 20
-17.33293377748073
 30
0.0
 11
-45.45389693918209
 21
-16.83715161976982
 31
0.0
  0
LINE
  5
113C
330
10DA
100
AcDbEntity
  8
247
100
AcDbLine
 10
-46.38150608625422
 20
-13.61339075303634
 30
0.0
 11
-46.74530888013849
 21
-13.50907626271805
 31
0.0
1001
ACAD
1000
ASC_BOUNDS
1002
{
1070
    19
1005
0
1002
}
  0
LINE
  5
113D
330
10DA
100
AcDbEntity
  8
247
100
AcDbLine
 10
-45.56680923013693
 20
-13.5442369072493
 30
0.0
 11
-46.38150608625422
 21
-13.31062464051803
 31
0.0
1001
ACAD
1000
ASC_BOUNDS
1002
{
1070
    19
1005
0
1002
}
  0
LINE
  5
113E
330
10DA
100
AcDbEntity
  8
247
100
AcDbLine
 10
-46.38150608625422
 20
-13.61339075303634
 30
0.0
 11
-46.38150608625422
 21
-13.31062464051803
 31
0.0
1001
ACAD
1000
ASC_BOUNDS
1002
{
1070
    19
1005
0
1002
}
  0
LINE
  5
113F
330
10DA
100
AcDbEntity
  8
247
100
AcDbLine
 10
-45.95232581037073
 20
-17.55120886674762
 30
0.0
 11
-47.14525051843982
 21
-16.35828415867851
 31
0.0
  0
ARC
  5
1140
330
10DA
100
AcDbEntity
  8
247
100
AcDbCircle
 10
-46.01010804376612
 20
-11.93927709603865
 30
0.0
 40
3.094081780242919
100
AcDbArc
 50
245.2051773698406
 51
262.7948259620521
1001
ACAD
1000
ASC_BOUNDS
1002
{
1070
    19
1005
0
1002
}
  0
LINE
  5
1141
330
10DA
100
AcDbEntity
  8
247
100
AcDbLine
 10
-45.77738852777493
 20
-14.27862740064222
 30
0.0
 11
-47.48725341825495
 21
-13.78832869420608
 31
0.0
1001
ACAD
1000
ASC_BOUNDS
1002
{
1070
    19
1005
0
1002
}
  0
LINE
  5
1142
330
10DA
100
AcDbEntity
  8
247
100
AcDbLine
 10
-47.17884115520307
 20
-17.13301760069285
 30
0.0
 11
-47.7876300093779
 21
-16.52422874651802
 31
0.0
  0
LINE
  5
1143
330
10DA
100
AcDbEntity
  8
247
100
AcDbLine
 10
-47.53637400550108
 20
-17.17964678978363
 30
0.0
 11
-47.99000920306527
 21
-16.72601159221946
 31
0.0
  0
LINE
  5
1144
330
10DA
100
AcDbEntity
  8
247
100
AcDbLine
 10
-47.76395120916378
 20
-15.88513922467788
 30
0.0
 11
-47.76395120916378
 21
-15.75266874948104
 31
0.0
  0
LINE
  5
1145
330
10DA
100
AcDbEntity
  8
247
100
AcDbLine
 10
-48.16412329473506
 20
-15.77038641801438
 30
0.0
 11
-48.16412329473506
 21
-14.82423544908126
 31
0.0
  0
LINE
  5
1146
330
10DA
100
AcDbEntity
  8
247
100
AcDbLine
 10
-47.74931220151903
 20
-17.37087063315446
 30
0.0
 11
-48.12451207120209
 21
-16.99567076347133
 31
0.0
  0
LINE
  5
1147
330
10DA
100
AcDbEntity
  8
247
100
AcDbLine
 10
-47.76395120916378
 20
-15.88513922467788
 30
0.0
 11
-48.16412329473506
 21
-15.77038641801438
 31
0.0
  0
ARC
  5
1148
330
10DA
100
AcDbEntity
  8
247
100
AcDbCircle
 10
-45.67209887895593
 20
-13.91143215394578
 30
0.0
 40
0.3819924829110504
100
AcDbArc
 50
254.0002730571841
 51
74.00027305718409
1001
ACAD
1000
ASC_BOUNDS
1002
{
1070
    19
1005
0
1002
}
  0
ARC
  5
1149
330
10DA
100
AcDbEntity
  8
247
100
AcDbCircle
 10
-47.25463004465114
 20
-17.26118401151258
 30
0.0
 40
0.9095009758114816
100
AcDbArc
 50
17.66957754739822
 51
180.2361598426716
  0
LINE
  5
114A
330
10DA
100
AcDbEntity
  8
247
100
AcDbLine
 10
-44.88992518982299
 20
-16.57678755956254
 30
0.0
 11
-44.88992518982299
 21
-15.76309333119948
 31
0.0
  0
LINE
  5
114B
330
10DA
100
AcDbEntity
  8
247
100
AcDbLine
 10
-44.88992518982299
 20
-12.98140563684066
 30
0.0
 11
-46.74530888013849
 21
-12.44938113427719
 31
0.0
1001
ACAD
1000
ASC_BOUNDS
1002
{
1070
    19
1005
0
1002
}
  0
ARC
  5
114C
330
10DA
100
AcDbEntity
  8
247
100
AcDbCircle
 10
-46.25417236146937
 20
-11.99391344132979
 30
0.0
 40
1.546152431452272
100
AcDbArc
 50
200.8721834020772
 51
222.5419489373864
1001
ACAD
1000
ASC_BOUNDS
1002
{
1070
    19
1005
0
1002
}
  0
ARC
  5
114D
330
10DA
100
AcDbEntity
  8
247
100
AcDbCircle
 10
-46.25417236146937
 20
-11.99391344132979
 30
0.0
 40
1.909951791679857
100
AcDbArc
 50
200.2296450633199
 51
208.5716889237171
1001
ACAD
1000
ASC_BOUNDS
1002
{
1070
    19
1005
0
1002
}
  0
LINE
  5
114E
330
10DA
100
AcDbEntity
  8
247
100
AcDbLine
 10
-47.69886281290065
 20
-12.54478185182174
 30
0.0
 11
-48.04630766630179
 21
-12.6543429695662
 31
0.0
1001
ACAD
1000
ASC_BOUNDS
1002
{
1070
    19
1005
0
1002
}
  0
POLYLINE
  5
114F
330
10DA
100
AcDbEntity
  8
247
100
AcDb2dPolyline
 66
     1
 10
0.0
 20
0.0
 30
0.0
 70
     1
1001
HATCH_DISTANCE
1040
1.0
1001
HATCH_DISPLAY
1070
     0
1001
HATCH_TYPE
1070
     7
  0
VERTEX
  5
1150
330
114F
100
AcDbEntity
  8
247
100
AcDbVertex
100
AcDb2dVertex
 10
-47.75356783132564
 20
-12.37129978108962
 30
0.0
  0
VERTEX
  5
1151
330
114F
100
AcDbEntity
  8
247
100
AcDbVertex
100
AcDb2dVertex
 10
-48.1010126847268
 20
-12.48086089883406
 30
0.0
  0
VERTEX
  5
1152
330
114F
100
AcDbEntity
  8
247
100
AcDbVertex
100
AcDb2dVertex
 10
-48.1010126847268
 20
-12.48086089883406
 30
0.0
  0
VERTEX
  5
1153
330
114F
100
AcDbEntity
  8
247
100
AcDbVertex
100
AcDb2dVertex
 10
-47.75356783132564
 20
-12.37129978108962
 30
0.0
  0
SEQEND
  5
1154
330
114F
100
AcDbEntity
  8
247
  0
POLYLINE
  5
1155
330
10DA
100
AcDbEntity
  8
247
100
AcDb2dPolyline
 66
     1
 10
0.0
 20
0.0
 30
0.0
 70
     1
  0
VERTEX
  5
1156
330
1155
100
AcDbEntity
  8
247
100
AcDbVertex
100
AcDb2dVertex
 10
-47.75356783132564
 20
-12.37129978108962
 30
0.0
  0
VERTEX
  5
1157
330
1155
100
AcDbEntity
  8
247
100
AcDbVertex
100
AcDb2dVertex
 10
-48.1010126847268
 20
-12.48086089883406
 30
0.0
  0
VERTEX
  5
1158
330
1155
100
AcDbEntity
  8
247
100
AcDbVertex
100
AcDb2dVertex
 10
-48.1010126847268
 20
-12.48086089883406
 30
0.0
  0
VERTEX
  5
1159
330
1155
100
AcDbEntity
  8
247
100
AcDbVertex
100
AcDb2dVertex
 10
-47.75356783132564
 20
-12.37129978108962
 30
0.0
  0
SEQEND
  5
115A
330
1155
100
AcDbEntity
  8
247
  0
POLYLINE
  5
115B
330
10DA
100
AcDbEntity
  8
247
100
AcDb2dPolyline
 66
     1
 10
0.0
 20
0.0
 30
0.0
 70
     1
1001
HATCH_DISTANCE
1040
1.0
1001
HATCH_DISPLAY
1070
     0
1001
HATCH_TYPE
1070
     7
  0
VERTEX
  5
115C
330
115B
100
AcDbEntity
  8
247
100
AcDbVertex
100
AcDb2dVertex
 10
-47.75356783132564
 20
-12.37129978108962
 30
0.0
  0
VERTEX
  5
115D
330
115B
100
AcDbEntity
  8
247
100
AcDbVertex
100
AcDb2dVertex
 10
-48.1010126847268
 20
-12.48086089883406
 30
0.0
  0
VERTEX
  5
115E
330
115B
100
AcDbEntity
  8
247
100
AcDbVertex
100
AcDb2dVertex
 10
-48.1010126847268
 20
-12.48086089883406
 30
0.0
  0
VERTEX
  5
115F
330
115B
100
AcDbEntity
  8
247
100
AcDbVertex
100
AcDb2dVertex
 10
-47.75356783132564
 20
-12.37129978108962
 30
0.0
  0
SEQEND
  5
1160
330
115B
100
AcDbEntity
  8
247
  0
POLYLINE
  5
1161
330
10DA
100
AcDbEntity
  8
247
100
AcDb2dPolyline
 66
     1
 10
0.0
 20
0.0
 30
0.0
 70
     1
  0
VERTEX
  5
1162
330
1161
100
AcDbEntity
  8
247
100
AcDbVertex
100
AcDb2dVertex
 10
-47.75356783132564
 20
-12.37129978108962
 30
0.0
  0
VERTEX
  5
1163
330
1161
100
AcDbEntity
  8
247
100
AcDbVertex
100
AcDb2dVertex
 10
-48.1010126847268
 20
-12.48086089883406
 30
0.0
  0
VERTEX
  5
1164
330
1161
100
AcDbEntity
  8
247
100
AcDbVertex
100
AcDb2dVertex
 10
-48.1010126847268
 20
-12.48086089883406
 30
0.0
  0
VERTEX
  5
1165
330
1161
100
AcDbEntity
  8
247
100
AcDbVertex
100
AcDb2dVertex
 10
-47.75356783132564
 20
-12.37129978108962
 30
0.0
  0
SEQEND
  5
1166
330
1161
100
AcDbEntity
  8
247
  0
LINE
  5
1167
330
10DA
100
AcDbEntity
  8
247
100
AcDbLine
 10
-47.75356783132564
 20
-12.37129978108962
 30
0.0
 11
-48.1010126847268
 21
-12.48086089883406
 31
0.0
1001
ACAD
1000
ASC_BOUNDS
1002
{
1070
    19
1005
0
1002
}
  0
LINE
  5
1168
330
10DA
100
AcDbEntity
  8
241
100
AcDbLine
 10
-21.5222532101323
 20
3.413812141104296
 30
0.0
 11
-15.26153515660843
 21
0.109697450831389
 31
0.0
  0
CIRCLE
  5
1169
330
10DA
100
AcDbEntity
  8
241
100
AcDbCircle
 10
-29.38554511352447
 20
-2.060214853232698
 30
0.0
 40
4.25
  0
LINE
  5
116A
330
10DA
100
AcDbEntity
  8
241
100
AcDbLine
 10
-36.63018990671897
 20
3.303097725802375
 30
0.0
 11
-37.12269703001622
 21
-6.684766747322067
 31
0.0
  0
LINE
  5
116B
330
10DA
100
AcDbEntity
  8
241
100
AcDbLine
 10
-31.41420635397644
 20
-8.468078121755821
 30
0.0
 11
-25.27409471209816
 21
-8.770850424043535
 31
0.0
  0
ARC
  5
116C
330
10DA
100
AcDbEntity
  8
241
100
AcDbCircle
 10
-35.62451735904756
 20
-6.758642815816658
 30
0.0
 40
1.5
100
AcDbArc
 50
177.177
 51
267.1769999999998
  0
LINE
  5
116D
330
10DA
100
AcDbEntity
  8
241
100
AcDbLine
 10
-35.69839342754214
 20
-8.256822486785322
 30
0.0
 11
-31.41420635397644
 21
-8.468078121755821
 31
0.0
  0
LINE
  5
116E
330
10DA
100
AcDbEntity
  8
241
100
AcDbLine
 10
-29.49928476160943
 20
-4.366813350107998
 30
0.0
 11
-31.43998783219182
 21
-3.115012677011089
 31
0.0
  0
LINE
  5
116F
330
10DA
100
AcDbEntity
  8
241
100
AcDbLine
 10
-27.44484204294198
 20
-3.312015526329718
 30
0.0
 11
-29.49928476160943
 21
-4.366813350107998
 31
0.0
  0
LINE
  5
1170
330
10DA
100
AcDbEntity
  8
241
100
AcDbLine
 10
-31.32624818410648
 20
-0.8084141801358819
 30
0.0
 11
-29.27180546543903
 21
0.2463836436423838
 31
0.0
  0
LINE
  5
1171
330
10DA
100
AcDbEntity
  8
241
100
AcDbLine
 10
-31.43998783219182
 20
-3.115012677011089
 30
0.0
 11
-31.32624818410648
 21
-0.8084141801358819
 31
0.0
  0
LINE
  5
1172
330
10DA
100
AcDbEntity
  8
241
100
AcDbLine
 10
-29.27180546543903
 20
0.2463836436423838
 30
0.0
 11
-27.33110239485674
 21
-1.005417029454589
 31
0.0
  0
LINE
  5
1173
330
10DA
100
AcDbEntity
  8
241
100
AcDbLine
 10
-27.33110239485674
 20
-1.005417029454589
 30
0.0
 11
-27.44484204294198
 21
-3.312015526329718
 31
0.0
  0
ELLIPSE
  5
1174
330
10DA
100
AcDbEntity
  8
241
100
AcDbEllipse
 10
-25.12634257510899
 20
-5.774491082106207
 30
0.0
 11
5.072884426625023
 21
-0.2501467378236469
 31
0.0
210
0.0
220
0.0
230
1.0
 40
0.5906618582144205
 41
4.712388980384689
 42
5.380673877756678
  0
LINE
  5
1175
330
10DA
100
AcDbEntity
  8
240
100
AcDbLine
 10
-16.16073352559443
 20
-13.99083400413772
 30
0.0
 11
-17.14417713929869
 21
-14.01018481948224
 31
0.0
  0
LINE
  5
1176
330
10DA
100
AcDbEntity
  8
240
100
AcDbLine
 10
-15.795215678817
 20
-13.99102491698576
 30
0.0
 11
-16.16073352559441
 21
-13.99083400413772
 31
0.0
  0
LINE
  5
1177
330
10DA
100
AcDbEntity
  8
240
100
AcDbLine
 10
-17.42759113154549
 20
-14.02314449707918
 30
0.0
 11
-15.795215678817
 21
-13.99102491698576
 31
0.0
  0
LINE
  5
1178
330
10DA
100
AcDbEntity
  8
241
100
AcDbLine
 10
-22.09894523613846
 20
-8.281291393474122
 30
0.0
 11
-15.54353454568928
 21
-5.609147102531492
 31
0.0
  0
LINE
  5
1179
330
10DA
100
AcDbEntity
  8
241
100
AcDbLine
 10
-13.35358789097159
 20
-4.82202549167436
 30
0.0
 11
-15.54353454568928
 21
-5.609147102531492
 31
0.0
  0
LINE
  5
117A
330
10DA
100
AcDbEntity
  8
241
100
AcDbLine
 10
-13.15965102433389
 20
-0.8890567107308962
 30
0.0
 11
-15.26153515660843
 21
0.109697450831389
 31
0.0
  0
LINE
  5
117B
330
10DA
100
AcDbEntity
  8
241
100
AcDbLine
 10
-24.63383545181159
 20
4.213373391018178
 30
0.0
 11
-30.77394709369045
 21
4.516145693305977
 31
0.0
  0
LINE
  5
117C
330
10DA
100
AcDbEntity
  8
240
100
AcDbLine
 10
-31.40776932049475
 20
18.67634886925756
 30
0.0
 11
-14.45345656159825
 21
3.544469720759004
 31
0.0
  0
LINE
  5
117D
330
10DA
100
AcDbEntity
  8
241
100
AcDbLine
 10
-31.40776932049475
 20
10.1035321018792
 30
0.0
 11
-31.40776932049475
 21
4.547399817993513
 31
0.0
  0
ELLIPSE
  5
117E
330
10DA
100
AcDbEntity
  8
241
100
AcDbEllipse
 10
-38.02267991641666
 20
12.02009603659652
 30
0.0
 11
0.0021393999939211
 21
-6.631666990138617
 31
0.0
210
0.0
220
0.0
230
-0.9999999999999998
 40
0.1001246394246738
 41
0.0913613090135652
 42
3.056675363513253
  0
SPLINE
  5
117F
330
10DA
100
AcDbEntity
  8
241
100
AcDbSpline
210
0.0
220
0.0
230
1.0
 70
     8
 71
     3
 72
    18
 73
    14
 74
     0
 42
0.0000000001
 43
0.0000000001
 40
41.75313454275257
 40
41.75313454275257
 40
41.75313454275257
 40
41.75313454275257
 40
41.75386041430014
 40
41.75386041430014
 40
43.90042176731692
 40
43.90042176731692
 40
44.97370244382532
 40
44.97370244382532
 40
46.04698312033371
 40
46.04698312033371
 40
46.5836234585879
 40
46.5836234585879
 40
46.65183579630929
 40
46.65183579630929
 40
46.65183579630929
 40
46.65183579630929
 10
-34.87774513881898
 20
7.402356748843111
 30
0.0
 10
-34.87758319329357
 20
7.402493637974174
 30
0.0
 10
-34.877421244905
 20
7.402630529529729
 30
0.0
 10
-34.39833392797997
 20
7.807592940819544
 30
0.0
 10
-33.89462148056263
 20
8.234358584383043
 30
0.0
 10
-33.13070830932359
 20
8.859628696983149
 30
0.0
 10
-32.87613100187836
 20
9.064292522393683
 30
0.0
 10
-32.36574751597491
 20
9.458626948349403
 30
0.0
 10
-32.11014531634889
 20
9.648556651382618
 30
0.0
 10
-31.72087565125379
 20
9.911867793300045
 30
0.0
 10
-31.59068841087598
 20
9.995582225953141
 30
0.0
 10
-31.4415308532874
 20
10.08388139100931
 30
0.0
 10
-31.42467390434977
 20
10.09375092501715
 30
0.0
 10
-31.40777675191798
 20
10.10352780198404
 30
0.0
  0
LINE
  5
1180
330
10DA
100
AcDbEntity
  8
241
100
AcDbLine
 10
-35.7931838492767
 20
17.38141098357985
 30
0.0
 11
-35.7931838492767
 21
6.720765768405629
 31
0.0
  0
LINE
  5
1181
330
10DA
100
AcDbEntity
  8
241
100
AcDbLine
 10
-30.77394709369045
 20
4.516145693305977
 30
0.0
 11
-35.05813416725571
 21
4.727401328276455
 31
0.0
  0
ARC
  5
1182
330
10DA
100
AcDbEntity
  8
241
100
AcDbCircle
 10
-35.1320102357503
 20
3.229221657307784
 30
0.0
 40
1.5
100
AcDbArc
 50
87.17699999999982
 51
177.177
  0
SPLINE
  5
1183
330
10DA
100
AcDbEntity
  8
241
100
AcDbSpline
210
0.0
220
0.0
230
1.0
 70
     8
 71
     3
 72
    12
 73
     8
 74
     0
 42
0.0000000001
 43
0.0000000001
 40
11.06222924000089
 40
11.06222924000089
 40
11.06222924000089
 40
11.06222924000089
 40
11.06272273733347
 40
11.06272273733347
 40
12.07658415933121
 40
12.07658415933121
 40
13.06790387600222
 40
13.06790387600222
 40
13.06790387600222
 40
13.06790387600222
 10
-37.95987574372183
 20
5.37786857089609
 30
0.0
 10
-37.95984286085682
 20
5.377868045244558
 30
0.0
 10
-37.95980997355966
 20
5.377867524066966
 30
0.0
 10
-37.89220294794329
 20
5.376805469233969
 30
0.0
 10
-37.80071922037235
 20
5.394649171070197
 30
0.0
 10
-37.5728529946345
 20
5.472503546032071
 30
0.0
 10
-37.43753758321097
 20
5.531553946802913
 30
0.0
 10
-37.28395584884283
 20
5.610809703422331
 30
0.0
  0
LINE
  5
1184
330
10DA
100
AcDbEntity
  8
241
100
AcDbLine
 10
-38.08112837643985
 20
5.416067150909467
 30
0.0
 11
-37.95987574372183
 21
5.37786857089609
 31
0.0
  0
LINE
  5
1185
330
10DA
100
AcDbEntity
  8
241
100
AcDbLine
 10
-34.87774513881898
 20
7.402356748843111
 30
0.0
 11
-37.28395584884283
 21
5.610809703422331
 31
0.0
  0
SPLINE
  5
1186
330
10DA
100
AcDbEntity
  8
241
100
AcDbSpline
210
0.0
220
0.0
230
1.0
 70
     8
 71
     3
 72
    18
 73
    14
 74
     0
 42
0.0000000001
 43
0.0000000001
 40
1.541698677037262
 40
1.541698677037262
 40
1.541698677037262
 40
1.541698677037262
 40
1.60992101476259
 40
1.60992101476259
 40
2.146561353016787
 40
2.146561353016787
 40
3.219842029525181
 40
3.219842029525181
 40
4.293122706033575
 40
4.293122706033575
 40
6.439684059050362
 40
6.439684059050362
 40
7.866642932527432
 40
7.866642932527432
 40
7.866642932527432
 40
7.866642932527432
 10
-31.40776932049478
 20
13.8948942045657
 30
0.0
 10
-31.42466896185733
 20
13.90469014129362
 30
0.0
 10
-31.44152838727176
 20
13.91457907787597
 30
0.0
 10
-31.59068841087598
 20
14.00304181694818
 30
0.0
 10
-31.72087565125379
 20
14.08691950850791
 30
0.0
 10
-32.11014531634892
 20
14.35078322508908
 30
0.0
 10
-32.36574751597491
 20
14.54116171161226
 30
0.0
 10
-32.87613100187836
 20
14.93657248792115
 30
0.0
 10
-33.13070830932359
 20
15.14186394716475
 30
0.0
 10
-33.89462148056263
 20
15.76932289365546
 30
0.0
 10
-34.39833392797997
 20
16.19794380895504
 30
0.0
 10
-35.19563211785559
 20
16.8756625672548
 30
0.0
 10
-35.50294691479062
 20
17.13704357962976
 30
0.0
 10
-35.7931838492767
 20
17.38141098357985
 30
0.0
  0
SPLINE
  5
1187
330
10DA
100
AcDbEntity
  8
241
100
AcDbSpline
210
0.0
220
0.0
230
1.0
 70
     8
 71
     3
 72
    18
 73
    14
 74
     0
 42
0.0000000001
 43
0.0000000001
 40
28.53035448964592
 40
28.53035448964592
 40
28.53035448964592
 40
28.53035448964592
 40
29.13272252400944
 40
29.13272252400944
 40
30.14658394600718
 40
30.14658394600718
 40
31.16044536800492
 40
31.16044536800492
 40
32.17430679000266
 40
32.17430679000266
 40
33.1881682120004
 40
33.1881682120004
 40
33.97776394418313
 40
33.97776394418313
 40
33.97776394418313
 40
33.97776394418313
 10
-35.7931838492767
 20
17.38141098357985
 30
0.0
 10
-35.92339791626947
 20
17.49104580164723
 30
0.0
 10
-36.04906957055631
 20
17.59157214509602
 30
0.0
 10
-36.36460257337698
 20
17.833879297516
 30
0.0
 10
-36.56298734843481
 20
17.97472204306163
 30
0.0
 10
-36.93849344313163
 20
18.22066333035311
 30
0.0
 10
-37.11554515938336
 20
18.32581664797666
 30
0.0
 10
-37.43135712942818
 20
18.49383006816103
 30
0.0
 10
-37.5702913840072
 20
18.55682873094233
 30
0.0
 10
-37.80071922037238
 20
18.63984919979268
 30
0.0
 10
-37.89220294794329
 20
18.65986717426412
 30
0.0
 10
-38.01240384774392
 20
18.66175543876622
 30
0.0
 10
-38.05368588370642
 20
18.6511946998701
 30
0.0
 10
-38.08112837643985
 20
18.62784892648685
 30
0.0
  0
LINE
  5
1188
330
10DA
100
AcDbEntity
  8
241
100
AcDbLine
 10
-31.40776932049475
 20
18.67634886925756
 30
0.0
 11
-31.40776932049475
 21
13.8948942045657
 31
0.0
  0
ELLIPSE
  5
1189
330
10DA
100
AcDbEntity
  8
241
100
AcDbEllipse
 10
-24.78158758880084
 20
1.2170140490809
 30
0.0
 11
5.072884426625305
 21
-0.2501467378236604
 31
0.0
210
0.0
220
0.0
230
0.9999999999999998
 40
0.5906618582143878
 41
0.9025114294229034
 42
1.570796326794896
  0
LINE
  5
118A
330
10DA
100
AcDbEntity
  8
241
100
AcDbLine
 10
-14.45345656159825
 20
3.544469720759003
 30
0.0
 11
-17.15710711324055
 21
1.110091829692185
 31
0.0
  0
LINE
  5
118B
330
10DA
100
AcDbEntity
  8
240
  6
CONTINUOUS
100
AcDbLine
 10
-14.38396826516916
 20
3.607037263895129
 30
0.0
 11
-14.45345656159825
 21
3.544469720759003
 31
0.0
  0
ARC
  5
118C
330
10DA
100
AcDbEntity
  8
240
  6
CONTINUOUS
100
AcDbCircle
 10
-13.84866378008204
 20
3.012521403513205
 30
0.0
 40
0.8
100
AcDbArc
 50
76.99999999999978
 51
132.0000000000004
  0
LINE
  5
118D
330
10DA
100
AcDbEntity
  8
240
100
AcDbLine
 10
-39.55853538679345
 20
24.99999999999997
 30
0.0
 11
-49.69999999999995
 21
24.9999999999992
 31
0.0
  0
LINE
  5
118E
330
10DA
100
AcDbEntity
  8
240
100
AcDbLine
 10
-49.69999999999995
 20
24.9999999999992
 30
0.0
 11
-49.99999999999996
 21
24.69999999999925
 31
0.0
  0
SPLINE
  5
118F
330
10DA
100
AcDbEntity
  8
241
100
AcDbSpline
210
0.0
220
0.0
230
1.0
 70
     8
 71
     3
 72
    14
 73
    10
 74
     0
 42
0.0000000001
 43
0.0000000001
 40
34.44685080504377
 40
34.44685080504377
 40
34.44685080504377
 40
34.44685080504377
 40
34.86785371944147
 40
34.86785371944147
 40
36.53282394320152
 40
36.53282394320152
 40
38.19779416696157
 40
38.19779416696157
 40
38.94542682800265
 40
38.94542682800265
 40
38.94542682800265
 40
38.94542682800265
 10
-36.5210606768159
 20
23.56755408492526
 30
0.0
 10
-36.60483623074979
 20
23.52798114286437
 30
0.0
 10
-36.68578252723911
 20
23.48668701817072
 30
0.0
 10
-37.07175429264769
 20
23.27345957461025
 30
0.0
 10
-37.33145220605608
 20
23.07557137794739
 30
0.0
 10
-37.73939971827455
 20
22.62842018237344
 30
0.0
 10
-37.88813948362896
 20
22.37861176404922
 30
0.0
 10
-38.02645483696618
 20
21.98970571692766
 30
0.0
 10
-38.05870762084286
 20
21.86551512549775
 30
0.0
 10
-38.08112837643985
 20
21.73874729236425
 30
0.0
  0
ARC
  5
1190
330
10DA
100
AcDbEntity
  8
240
  6
CONTINUOUS
100
AcDbCircle
 10
-0.7999999999999972
 20
0.0
 30
0.0
 40
0.8
100
AcDbArc
 50
312.0000000000004
 51
76.99999999999978
  0
LINE
  5
1191
330
10DA
100
AcDbEntity
  8
240
  6
CONTINUOUS
100
AcDbLine
 10
-0.2646955149128729
 20
-0.5945158603819235
 30
0.0
 11
-10.21681465118762
 21
-9.555444180017582
 31
0.0
  0
ARC
  5
1192
330
10DA
100
AcDbEntity
  8
240
  6
CONTINUOUS
100
AcDbCircle
 10
-10.7521191362747
 20
-8.960928319635659
 30
0.0
 40
0.8
100
AcDbArc
 50
257.0000000000001
 51
312.0000000000004
  0
ARC
  5
1193
330
10DA
100
AcDbEntity
  8
241
100
AcDbCircle
 10
-12.90556873286911
 20
-2.872851606672517
 30
0.0
 40
1.999999999999999
100
AcDbArc
 50
313.8003267186616
 51
40.55367328133815
  0
ELLIPSE
  5
1194
330
10DA
100
AcDbEntity
  8
241
100
AcDbEllipse
 10
-72.76676117899494
 20
12.02081528017126
 30
0.0
 11
-42.96448946461131
 21
0.0230526075885813
 31
-0.0000000000000004
210
0.0
220
0.0
230
-1.0
 40
0.1629243621502191
 41
2.86726777648036
 42
3.415742696484992
  0
ENDBLK
  5
1196
330
10DA
100
AcDbEntity
  8
0
100
AcDbBlockEnd
  0
ENDSEC
  0
SECTION
  2
ENTITIES
  0
TEXT
  5
B02
330
1A
100
AcDbEntity
  8
241
100
AcDbText
 10
-77.99318384927673
 20
48.99999999999972
 30
0.0
 40
5.0
  1
S50-DDJNL-0050-15
  7
YOKO
 11
-77.99318384927673
 21
48.99999999999972
 31
0.0
100
AcDbText
 73
     1
  0
DIMENSION
  5
B17
330
1A
100
AcDbEntity
  8
250
  6
CONTINUOUS
100
AcDbDimension
  2
*D1
 10
0.0000000000000021
 20
34.99999999999971
 30
0.0
 11
-24.99999999999998
 21
37.49999999999971
 31
0.0
 70
    32
  3
BIGT
100
AcDbAlignedDimension
 13
-49.99999999999996
 23
24.69999999999925
 33
0.0
 14
0.0
 24
0.0
 34
0.0
100
AcDbRotatedDimension
1001
ACAD
1000
DSTYLE
1002
{
1070
    78
1070
     8
1070
   140
1040
3.0
1002
}
  0
DIMENSION
  5
B29
330
1A
100
AcDbEntity
  8
250
  6
CONTINUOUS
100
AcDbDimension
  2
*D2
 10
14.0
 20
24.99999999999996
 30
0.0
 11
11.5
 21
-0.0000000000000396
 31
0.0
 70
    32
  1
{\H3;\U+2205}<>
  3
BIGT
100
AcDbAlignedDimension
 13
-38.73677899865613
 23
-25.00000000000003
 33
0.0
 14
-39.55853538679349
 24
24.99999999999997
 34
0.0
 50
90.0
100
AcDbRotatedDimension
1001
ACAD
1000
DSTYLE
1002
{
1070
    78
1070
     8
1070
   140
1040
3.0
1002
}
  0
INSERT
  5
1197
330
1A
100
AcDbEntity
  8
240
100
AcDbBlockReference
  2
A$C10A47444
 10
0.0
 20
0.0
 30
0.0
  0
VIEWPORT
  5
22
330
17
100
AcDbEntity
 67
     1
  8
0
100
AcDbViewport
 10
261.5176991150442
 20
148.5
 30
0.0
 40
523.0353982300885
 41
297.0
 68
     1
 69
     1
1001
ACAD
1000
MVIEW
1002
{
1070
    16
1010
0.0
1020
0.0
1030
0.0
1010
0.0
1020
0.0
1030
1.0
1040
0.0
1040
297.0
1040
261.5176991150442
1040
148.5
1040
50.0
1040
0.0
1040
0.0
1070
     0
1070
   100
1070
     1
1070
     1
1070
     0
1070
     0
1070
     0
1070
     0
1040
0.0
1040
0.0
1040
0.0
1040
1.0
1040
1.0
1040
10.0
1040
10.0
1070
     0
1002
{
1002
}
1002
}
  0
ENDSEC
  0
SECTION
  2
OBJECTS
  0
DICTIONARY
  5
C
330
0
100
AcDbDictionary
  3
ACAD_GROUP
350
D
  3
ACAD_LAYOUT
350
565
  3
ACAD_MLINESTYLE
350
E
  3
ACAD_PLOTSETTINGS
350
566
  3
ACAD_PLOTSTYLENAME
350
563
  3
ACDBHEADERROUNDTRIPXREC
350
11A5
  3
ACDBVARIABLEDICTIONARY
350
68E
  3
GRADE_DWG
350
540
  0
DICTIONARY
  5
11C8
330
1A
100
AcDbDictionary
280
     1
  3
ACAD_LAYOUTSELFREF
360
11C9
  0
DICTIONARY
  5
11C6
330
17
100
AcDbDictionary
280
     1
  3
ACAD_LAYOUTSELFREF
360
11C7
  0
DICTIONARY
  5
D
102
{ACAD_REACTORS
330
C
102
}
330
C
100
AcDbDictionary
  3
DREC-1
350
5FC
  3
DREC-2
350
654
  3
DREC-3
350
673
  3
GROUP-1
350
89A
  0
DICTIONARY
  5
565
102
{ACAD_REACTORS
330
C
102
}
330
C
100
AcDbDictionary
  0
DICTIONARY
  5
E
102
{ACAD_REACTORS
330
C
102
}
330
C
100
AcDbDictionary
  3
STANDARD
350
13
  0
DICTIONARY
  5
566
102
{ACAD_REACTORS
330
C
102
}
330
C
100
AcDbDictionary
  0
ACDBDICTIONARYWDFLT
  5
563
102
{ACAD_REACTORS
330
C
102
}
330
C
100
AcDbDictionary
281
     1
  3
Normal
350
564
100
AcDbDictionaryWithDefault
340
564
  0
DICTIONARY
  5
11A5
102
{ACAD_REACTORS
330
C
102
}
330
C
100
AcDbDictionary
  3
CEPSNTYPE
350
11AF
  3
DIMSTYLEDATA
350
11B3
  3
FINGERPRINTGUID
350
11B0
  3
HYPERLINKBASE
350
11A8
  3
INSUNITS
350
11AE
  3
LAYOUTDICT
350
11AA
  3
LWETCUNION
350
11AD
  3
PLOTSETDICT
350
11AB
  3
PLOTSTYLNAMDICT
350
11AC
  3
PSVPSCALE
350
11B2
  3
PUCSBASE
350
11B6
  3
PUCSORGBACK
350
11BC
  3
PUCSORGBOTTOM
350
11B8
  3
PUCSORGFRONT
350
11BB
  3
PUCSORGLEFT
350
11B9
  3
PUCSORGRIGHT
350
11BA
  3
PUCSORGTOP
350
11B7
  3
PUCSORTHOREF
350
11B4
  3
PUCSORTHOVIEW
350
11B5
  3
STYLESHEET
350
11A9
  3
TSTACKALIGN
350
11A6
  3
TSTACKSIZE
350
11A7
  3
UCSBASE
350
11BF
  3
UCSORGBACK
350
11C5
  3
UCSORGBOTTOM
350
11C1
  3
UCSORGFRONT
350
11C4
  3
UCSORGLEFT
350
11C2
  3
UCSORGRIGHT
350
11C3
  3
UCSORGTOP
350
11C0
  3
UCSORTHOREF
350
11BD
  3
UCSORTHOVIEW
350
11BE
  3
VERSIONGUID
350
11B1
  0
DICTIONARY
  5
68E
102
{ACAD_REACTORS
330
C
102
}
330
C
100
AcDbDictionary
  3
DIMASSOC
350
68F
  0
DICTIONARY
  5
540
102
{ACAD_REACTORS
330
C
102
}
330
C
100
AcDbDictionary
  3
VERSION
350
560
  0
XRECORD
  5
11C9
102
{ACAD_REACTORS
330
11C8
102
}
330
11C8
100
AcDbXrecord
340
1A
  0
XRECORD
  5
11C7
102
{ACAD_REACTORS
330
11C6
102
}
330
11C6
100
AcDbXrecord
340
17
  0
GROUP
  5
5FC
102
{ACAD_REACTORS
330
D
102
}
330
D
100
AcDbGroup
300

 70
     0
 71
     1
1001
GRPNAME
1000
DREC-
1001
GPARA
1000
xsiz
1000
44.182
1000
ysiz
1000
40.677
1000
angl
1000
0
1000
ctyp
1000
0
1000
csiz
1000
5
1000
lfnt
1000
cont
1000
hcnt
1000
hoff
1000
vcnt
1000
voff
1000
opnt
1000
4
1000
dxpt
1000
0
1000
dypt
1000
0
  0
GROUP
  5
654
102
{ACAD_REACTORS
330
D
102
}
330
D
100
AcDbGroup
300

 70
     0
 71
     1
1001
GRPNAME
1000
DREC-
1001
GPARA
1000
xsiz
1000
54.592
1000
ysiz
1000
53.036
1000
angl
1000
0
1000
ctyp
1000
0
1000
csiz
1000
5
1000
lfnt
1000
cont
1000
hcnt
1000
hoff
1000
vcnt
1000
voff
1000
opnt
1000
4
1000
dxpt
1000
0
1000
dypt
1000
0
  0
GROUP
  5
673
102
{ACAD_REACTORS
330
D
102
}
330
D
100
AcDbGroup
300

 70
     0
 71
     1
1001
GRPNAME
1000
DREC-
1001
GPARA
1000
xsiz
1000
30.363
1000
ysiz
1000
36.175
1000
angl
1000
0
1000
ctyp
1000
0
1000
csiz
1000
5
1000
lfnt
1000
cont
1000
hcnt
1000
hoff
1000
vcnt
1000
voff
1000
opnt
1000
4
1000
dxpt
1000
0
1000
dypt
1000
0
  0
GROUP
  5
89A
102
{ACAD_REACTORS
330
D
102
}
330
D
100
AcDbGroup
300

 70
     0
 71
     1
  0
MLINESTYLE
  5
13
102
{ACAD_REACTORS
330
E
102
}
330
E
100
AcDbMlineStyle
  2
STANDARD
 70
     0
  3

 62
     0
 51
90.0
 52
90.0
 71
     2
 49
0.5
 62
   256
  6
BYLAYER
 49
-0.5
 62
   256
  6
BYLAYER
  0
ACDBPLACEHOLDER
  5
564
102
{ACAD_REACTORS
330
563
102
}
330
563
100
AcDbPlaceHolder
280
     0
  0
XRECORD
  5
11AF
102
{ACAD_REACTORS
330
11A5
102
}
330
11A5
100
AcDbXrecord
 90
        0
  0
XRECORD
  5
11B3
102
{ACAD_REACTORS
330
11A5
102
}
330
11A5
100
AcDbXrecord
1000
DSTYLE
1002
{
1070
    79
 70
     2
1070
   179
 70
     3
1070
   289
 70
     2
1070
   341
340
594
1070
   342
340
594
1070
   371
 70
    -1
1070
   372
 70
    -1
1002
}
  0
XRECORD
  5
11B0
102
{ACAD_REACTORS
330
11A5
102
}
330
11A5
100
AcDbXrecord
  1
{51294030-9CB4-11D3-8E18-00A0C925D94D}
  0
XRECORD
  5
11A8
102
{ACAD_REACTORS
330
11A5
102
}
330
11A5
100
AcDbXrecord
  1

  0
XRECORD
  5
11AE
102
{ACAD_REACTORS
330
11A5
102
}
330
11A5
100
AcDbXrecord
 90
        0
  0
XRECORD
  5
11AA
102
{ACAD_REACTORS
330
11A5
102
}
330
11A5
100
AcDbXrecord
340
565
  0
XRECORD
  5
11AD
102
{ACAD_REACTORS
330
11A5
102
}
330
11A5
100
AcDbXrecord
 90
    10781
  0
XRECORD
  5
11AB
102
{ACAD_REACTORS
330
11A5
102
}
330
11A5
100
AcDbXrecord
340
566
  0
XRECORD
  5
11AC
102
{ACAD_REACTORS
330
11A5
102
}
330
11A5
100
AcDbXrecord
340
563
  0
XRECORD
  5
11B2
102
{ACAD_REACTORS
330
11A5
102
}
330
11A5
100
AcDbXrecord
 40
0.0
  0
XRECORD
  5
11B6
102
{ACAD_REACTORS
330
11A5
102
}
330
11A5
100
AcDbXrecord
340
0
  0
XRECORD
  5
11BC
102
{ACAD_REACTORS
330
11A5
102
}
330
11A5
100
AcDbXrecord
 10
0.0
 20
0.0
 30
0.0
  0
XRECORD
  5
11B8
102
{ACAD_REACTORS
330
11A5
102
}
330
11A5
100
AcDbXrecord
 10
0.0
 20
0.0
 30
0.0
  0
XRECORD
  5
11BB
102
{ACAD_REACTORS
330
11A5
102
}
330
11A5
100
AcDbXrecord
 10
0.0
 20
0.0
 30
0.0
  0
XRECORD
  5
11B9
102
{ACAD_REACTORS
330
11A5
102
}
330
11A5
100
AcDbXrecord
 10
0.0
 20
0.0
 30
0.0
  0
XRECORD
  5
11BA
102
{ACAD_REACTORS
330
11A5
102
}
330
11A5
100
AcDbXrecord
 10
0.0
 20
0.0
 30
0.0
  0
XRECORD
  5
11B7
102
{ACAD_REACTORS
330
11A5
102
}
330
11A5
100
AcDbXrecord
 10
0.0
 20
0.0
 30
0.0
  0
XRECORD
  5
11B4
102
{ACAD_REACTORS
330
11A5
102
}
330
11A5
100
AcDbXrecord
340
0
  0
XRECORD
  5
11B5
102
{ACAD_REACTORS
330
11A5
102
}
330
11A5
100
AcDbXrecord
 70
     0
  0
XRECORD
  5
11A9
102
{ACAD_REACTORS
330
11A5
102
}
330
11A5
100
AcDbXrecord
  1
technical_osaka.ctb
  0
XRECORD
  5
11A6
102
{ACAD_REACTORS
330
11A5
102
}
330
11A5
100
AcDbXrecord
 90
        1
  0
XRECORD
  5
11A7
102
{ACAD_REACTORS
330
11A5
102
}
330
11A5
100
AcDbXrecord
 90
       70
  0
XRECORD
  5
11BF
102
{ACAD_REACTORS
330
11A5
102
}
330
11A5
100
AcDbXrecord
340
0
  0
XRECORD
  5
11C5
102
{ACAD_REACTORS
330
11A5
102
}
330
11A5
100
AcDbXrecord
 10
0.0
 20
0.0
 30
0.0
  0
XRECORD
  5
11C1
102
{ACAD_REACTORS
330
11A5
102
}
330
11A5
100
AcDbXrecord
 10
0.0
 20
0.0
 30
0.0
  0
XRECORD
  5
11C4
102
{ACAD_REACTORS
330
11A5
102
}
330
11A5
100
AcDbXrecord
 10
0.0
 20
0.0
 30
0.0
  0
XRECORD
  5
11C2
102
{ACAD_REACTORS
330
11A5
102
}
330
11A5
100
AcDbXrecord
 10
0.0
 20
0.0
 30
0.0
  0
XRECORD
  5
11C3
102
{ACAD_REACTORS
330
11A5
102
}
330
11A5
100
AcDbXrecord
 10
0.0
 20
0.0
 30
0.0
  0
XRECORD
  5
11C0
102
{ACAD_REACTORS
330
11A5
102
}
330
11A5
100
AcDbXrecord
 10
0.0
 20
0.0
 30
0.0
  0
XRECORD
  5
11BD
102
{ACAD_REACTORS
330
11A5
102
}
330
11A5
100
AcDbXrecord
340
0
  0
XRECORD
  5
11BE
102
{ACAD_REACTORS
330
11A5
102
}
330
11A5
100
AcDbXrecord
 70
     0
  0
XRECORD
  5
11B1
102
{ACAD_REACTORS
330
11A5
102
}
330
11A5
100
AcDbXrecord
  1
{DC13A5C3-BA77-11D6-9637-006094EB2375}
  0
DICTIONARYVAR
  5
68F
102
{ACAD_REACTORS
330
68E
102
}
330
68E
100
DictionaryVariables
280
     0
  1
1
  0
XRECORD
  5
560
102
{ACAD_REACTORS
330
540
102
}
330
540
100
AcDbXrecord
  1
2.0.0
  0
ENDSEC
  0
EOF
