  0
SECTION
  2
HEADER
  9
$ACADVER
  1
AC1014
  9
$ACADMAINTVER
 70
     9
  9
$DWGCODEPAGE
  3
ANSI_932
  9
$INSBASE
 10
0.0
 20
0.0
 30
0.0
  9
$EXTMIN
 10
-32.01379289
 20
-25.00982591
 30
0.0
  9
$EXTMAX
 10
75.02722233
 20
54.02108811
 30
0.0
  9
$LIMMIN
 10
0.0
 20
0.0
  9
$LIMMAX
 10
420.0
 20
297.0
  9
$ORTHOMODE
 70
     0
  9
$REGENMODE
 70
     1
  9
$FILLMODE
 70
     1
  9
$QTEXTMODE
 70
     0
  9
$MIRRTEXT
 70
     1
  9
$DRAGMODE
 70
     2
  9
$LTSCALE
 40
10.0
  9
$OSMODE
 70
   549
  9
$ATTMODE
 70
     1
  9
$TEXTSIZE
 40
3.0
  9
$TRACEWID
 40
1.0
  9
$TEXTSTYLE
  7
YOKO
  9
$CLAYER
  8
245
  9
$CELTYPE
  6
BYLAYER
  9
$CECOLOR
 62
   256
  9
$CELTSCALE
 40
1.0
  9
$DELOBJ
 70
     1
  9
$DISPSILH
 70
     0
  9
$DIMSCALE
 40
1.0
  9
$DIMASZ
 40
2.0
  9
$DIMEXO
 40
2.0
  9
$DIMDLI
 40
2.5
  9
$DIMRND
 40
0.0
  9
$DIMDLE
 40
0.0
  9
$DIMEXE
 40
2.0
  9
$DIMTP
 40
0.0
  9
$DIMTM
 40
0.0
  9
$DIMTXT
 40
4.0
  9
$DIMCEN
 40
0.0
  9
$DIMTSZ
 40
0.0
  9
$DIMTOL
 70
     0
  9
$DIMLIM
 70
     0
  9
$DIMTIH
 70
     0
  9
$DIMTOH
 70
     0
  9
$DIMSE1
 70
     0
  9
$DIMSE2
 70
     0
  9
$DIMTAD
 70
     3
  9
$DIMZIN
 70
     8
  9
$DIMBLK
  1

  9
$DIMASO
 70
     1
  9
$DIMSHO
 70
     1
  9
$DIMPOST
  1

  9
$DIMAPOST
  1

  9
$DIMALT
 70
     0
  9
$DIMALTD
 70
     2
  9
$DIMALTF
 40
25.4
  9
$DIMLFAC
 40
1.0
  9
$DIMTOFL
 70
     1
  9
$DIMTVP
 40
0.0
  9
$DIMTIX
 70
     1
  9
$DIMSOXD
 70
     0
  9
$DIMSAH
 70
     1
  9
$DIMBLK1
  1
OPEN
  9
$DIMBLK2
  1
OPEN
  9
$DIMSTYLE
  2
BIGT
  9
$DIMCLRD
 70
   256
  9
$DIMCLRE
 70
   256
  9
$DIMCLRT
 70
    40
  9
$DIMTFAC
 40
1.0
  9
$DIMGAP
 40
1.0
  9
$DIMJUST
 70
     0
  9
$DIMSD1
 70
     0
  9
$DIMSD2
 70
     0
  9
$DIMTOLJ
 70
     1
  9
$DIMTZIN
 70
     8
  9
$DIMALTZ
 70
     0
  9
$DIMALTTZ
 70
     0
  9
$DIMFIT
 70
     3
  9
$DIMUPT
 70
     0
  9
$DIMUNIT
 70
     2
  9
$DIMDEC
 70
     3
  9
$DIMTDEC
 70
     3
  9
$DIMALTU
 70
     2
  9
$DIMALTTD
 70
     2
  9
$DIMTXSTY
  7
STANDARD
  9
$DIMAUNIT
 70
     0
  9
$LUNITS
 70
     2
  9
$LUPREC
 70
     3
  9
$SKETCHINC
 40
1.0
  9
$FILLETRAD
 40
0.0
  9
$AUNITS
 70
     0
  9
$AUPREC
 70
     3
  9
$MENU
  1
.
  9
$ELEVATION
 40
0.0
  9
$PELEVATION
 40
0.0
  9
$THICKNESS
 40
0.0
  9
$LIMCHECK
 70
     0
  9
$BLIPMODE
 70
     0
  9
$CHAMFERA
 40
10.0
  9
$CHAMFERB
 40
10.0
  9
$CHAMFERC
 40
0.0
  9
$CHAMFERD
 40
0.0
  9
$SKPOLY
 70
     0
  9
$TDCREATE
 40
2455099.596152882
  9
$TDUPDATE
 40
2455300.389004803
  9
$TDINDWG
 40
0.0079153935
  9
$TDUSRTIMER
 40
0.0079153935
  9
$USRTIMER
 70
     1
  9
$ANGBASE
 50
0.0
  9
$ANGDIR
 70
     0
  9
$PDMODE
 70
     1
  9
$PDSIZE
 40
-5.0
  9
$PLINEWID
 40
0.0
  9
$COORDS
 70
     2
  9
$SPLFRAME
 70
     0
  9
$SPLINETYPE
 70
     6
  9
$SPLINESEGS
 70
     8
  9
$ATTDIA
 70
     0
  9
$ATTREQ
 70
     1
  9
$HANDLING
 70
-16383
  9
$HANDSEED
  5
D41
  9
$SURFTAB1
 70
     6
  9
$SURFTAB2
 70
     6
  9
$SURFTYPE
 70
     6
  9
$SURFU
 70
     6
  9
$SURFV
 70
     6
  9
$UCSNAME
  2

  9
$UCSORG
 10
0.0
 20
0.0
 30
0.0
  9
$UCSXDIR
 10
1.0
 20
0.0
 30
0.0
  9
$UCSYDIR
 10
0.0
 20
1.0
 30
0.0
  9
$PUCSNAME
  2

  9
$PUCSORG
 10
0.0
 20
0.0
 30
0.0
  9
$PUCSXDIR
 10
1.0
 20
0.0
 30
0.0
  9
$PUCSYDIR
 10
0.0
 20
1.0
 30
0.0
  9
$USERI1
 70
     1
  9
$USERI2
 70
     0
  9
$USERI3
 70
     0
  9
$USERI4
 70
     0
  9
$USERI5
 70
     0
  9
$USERR1
 40
0.0
  9
$USERR2
 40
0.0
  9
$USERR3
 40
0.0
  9
$USERR4
 40
0.0
  9
$USERR5
 40
0.0
  9
$WORLDVIEW
 70
     1
  9
$SHADEDGE
 70
     3
  9
$SHADEDIF
 70
    70
  9
$TILEMODE
 70
     1
  9
$MAXACTVP
 70
    16
  9
$PINSBASE
 10
0.0
 20
0.0
 30
0.0
  9
$PLIMCHECK
 70
     0
  9
$PEXTMIN
 10
1.00000000E+20
 20
1.00000000E+20
 30
1.00000000E+20
  9
$PEXTMAX
 10
-1.00000000E+20
 20
-1.00000000E+20
 30
-1.00000000E+20
  9
$PLIMMIN
 10
0.0
 20
0.0
  9
$PLIMMAX
 10
420.0
 20
297.0
  9
$UNITMODE
 70
     0
  9
$VISRETAIN
 70
     0
  9
$PLINEGEN
 70
     0
  9
$PSLTSCALE
 70
     1
  9
$TREEDEPTH
 70
  3020
  9
$PICKSTYLE
 70
     0
  9
$CMLSTYLE
  2
STANDARD
  9
$CMLJUST
 70
     0
  9
$CMLSCALE
 40
1.0
  9
$PROXYGRAPHICS
 70
     1
  9
$MEASUREMENT
 70
     1
  0
ENDSEC
  0
SECTION
  2
CLASSES
  0
CLASS
  1
XRECORD
  2
AcDbXrecord
  3
AutoCAD 2000
 90
        0
280
     0
281
     0
  0
CLASS
  1
ACDBDICTIONARYWDFLT
  2
AcDbDictionaryWithDefault
  3
AutoCAD 2000
 90
        0
280
     0
281
     0
  0
CLASS
  1
ACDBPLACEHOLDER
  2
AcDbPlaceHolder
  3
AutoCAD 2000
 90
        0
280
     0
281
     0
  0
CLASS
  1
LAYOUT
  2
AcDbLayout
  3
AutoCAD 2000
 90
        0
280
     0
281
     0
  0
CLASS
  1
PLOTSETTINGS
  2
AcDbPlotSettings
  3
AutoCAD 2000
 90
        0
280
     0
281
     0
  0
CLASS
  1
LONG_TRANSACTION
  2
AcDbLongTransaction
  3
AutoCAD 2000
 90
        0
280
     0
281
     0
  0
CLASS
  1
LWPOLYLINE
  2
AcDbPolyline
  3
AutoCAD 2000
 90
        0
280
     0
281
     1
  0
CLASS
  1
HATCH
  2
AcDbHatch
  3
AutoCAD 2000
 90
        0
280
     0
281
     1
  0
CLASS
  1
XRECORD
  2
AcDbXrecord
  3
AutoCAD 2000
 90
        0
280
     0
281
     0
  0
CLASS
  1
LONG_TRANSACTION
  2
AcDbLongTransaction
  3
AutoCAD 2000
 90
        0
280
     0
281
     0
  0
CLASS
  1
LWPOLYLINE
  2
AcDbPolyline
  3
AutoCAD 2000
 90
        0
280
     0
281
     1
  0
CLASS
  1
HATCH
  2
AcDbHatch
  3
AutoCAD 2000
 90
        0
280
     0
281
     1
  0
CLASS
  1
XRECORD
  2
AcDbXrecord
  3
AutoCAD 2000
 90
        0
280
     0
281
     0
  0
CLASS
  1
LONG_TRANSACTION
  2
AcDbLongTransaction
  3
AutoCAD 2000
 90
        0
280
     0
281
     0
  0
CLASS
  1
LWPOLYLINE
  2
AcDbPolyline
  3
AutoCAD 2000
 90
        0
280
     0
281
     1
  0
CLASS
  1
HATCH
  2
AcDbHatch
  3
AutoCAD 2000
 90
        0
280
     0
281
     1
  0
CLASS
  1
XRECORD
  2
AcDbXrecord
  3
AutoCAD 2000
 90
        0
280
     0
281
     0
  0
ENDSEC
  0
SECTION
  2
TABLES
  0
TABLE
  2
VPORT
  5
8
330
0
100
AcDbSymbolTable
 70
     4
  0
VPORT
  5
D1C
330
8
100
AcDbSymbolTableRecord
100
AcDbViewportTableRecord
  2
*ACTIVE
 70
     0
 10
0.0
 20
0.0
 11
1.0
 21
1.0
 12
21.50671472
 22
14.5056311
 13
0.0
 23
0.0
 14
7.0
 24
7.0
 15
7.0
 25
7.0
 16
0.0
 26
0.0
 36
1.0
 17
0.0
 27
0.0
 37
0.0
 40
79.63420344
 41
1.43184713
 42
50.0
 43
0.0
 44
0.0
 50
0.0
 51
0.0
 71
     0
 72
  2000
 73
     1
 74
     0
 75
     0
 76
     0
 77
     0
 78
     0
  0
ENDTAB
  0
TABLE
  2
LTYPE
  5
5
330
0
100
AcDbSymbolTable
 70
     2
  0
LTYPE
  5
14
330
5
100
AcDbSymbolTableRecord
100
AcDbLinetypeTableRecord
  2
BYBLOCK
 70
     0
  3

 72
    65
 73
     0
 40
0.0
  0
LTYPE
  5
15
330
5
100
AcDbSymbolTableRecord
100
AcDbLinetypeTableRecord
  2
BYLAYER
 70
     0
  3

 72
    65
 73
     0
 40
0.0
  0
LTYPE
  5
16
330
5
100
AcDbSymbolTableRecord
100
AcDbLinetypeTableRecord
  2
CONTINUOUS
 70
     0
  3
Solid line
 72
    65
 73
     0
 40
0.0
  0
LTYPE
  5
258
330
5
100
AcDbSymbolTableRecord
100
AcDbLinetypeTableRecord
  2
CENTER2
 70
     0
  3
___ _ ___ _ ___ _ ___ _ ___ _ ___ _ ___ _ ___ _
 72
    65
 73
     4
 40
1.125
 49
0.75
 74
     0
 49
-0.125
 74
     0
 49
0.125
 74
     0
 49
-0.125
 74
     0
  0
ENDTAB
  0
TABLE
  2
LAYER
  5
2
330
0
100
AcDbSymbolTable
 70
     9
  0
LAYER
  5
F
330
2
100
AcDbSymbolTableRecord
100
AcDbLayerTableRecord
  2
0
 70
     0
 62
     7
  6
CONTINUOUS
  0
LAYER
  5
1AA
330
2
100
AcDbSymbolTableRecord
100
AcDbLayerTableRecord
  2
240
 70
     0
 62
     4
  6
CONTINUOUS
  0
LAYER
  5
1AB
330
2
100
AcDbSymbolTableRecord
100
AcDbLayerTableRecord
  2
241
 70
     0
 62
   211
  6
CONTINUOUS
  0
LAYER
  5
1AF
330
2
100
AcDbSymbolTableRecord
100
AcDbLayerTableRecord
  2
245
 70
     0
 62
     2
  6
CENTER2
  0
LAYER
  5
21B
330
2
100
AcDbSymbolTableRecord
100
AcDbLayerTableRecord
  2
247
 70
     0
 62
    60
  6
CONTINUOUS
  0
LAYER
  5
21E
330
2
100
AcDbSymbolTableRecord
100
AcDbLayerTableRecord
  2
250
 70
     0
 62
     3
  6
CONTINUOUS
  0
LAYER
  5
21F
330
2
100
AcDbSymbolTableRecord
100
AcDbLayerTableRecord
  2
251
 70
     0
 62
    40
  6
CONTINUOUS
  0
LAYER
  5
5C4
330
2
100
AcDbSymbolTableRecord
100
AcDbLayerTableRecord
  2
DEFPOINTS
 70
     0
 62
     7
  6
CONTINUOUS
  0
ENDTAB
  0
TABLE
  2
STYLE
  5
3
330
0
100
AcDbSymbolTable
 70
     2
  0
STYLE
  5
10
330
3
100
AcDbSymbolTableRecord
100
AcDbTextStyleTableRecord
  2
STANDARD
 70
     0
 40
0.0
 41
1.0
 50
0.0
 71
     0
 42
3.0
  3
romans.shx
  4
BIGFONT.SHX
  0
STYLE
  5
339
330
3
100
AcDbSymbolTableRecord
100
AcDbTextStyleTableRecord
  2
YOKO
 70
     0
 40
0.0
 41
1.0
 50
0.0
 71
     0
 42
3.0
  3
romans.shx
  4
extfont.shx
  0
ENDTAB
  0
TABLE
  2
VIEW
  5
6
330
0
100
AcDbSymbolTable
 70
     0
  0
ENDTAB
  0
TABLE
  2
UCS
  5
7
330
0
100
AcDbSymbolTable
 70
     0
  0
ENDTAB
  0
TABLE
  2
APPID
  5
9
330
0
100
AcDbSymbolTable
 70
    12
  0
APPID
  5
11
330
9
100
AcDbSymbolTableRecord
100
AcDbRegAppTableRecord
  2
ACAD
 70
     0
  0
APPID
  5
1B1
330
9
100
AcDbSymbolTableRecord
100
AcDbRegAppTableRecord
  2
GLOBAL
 70
     0
  0
APPID
  5
2A4
330
9
100
AcDbSymbolTableRecord
100
AcDbRegAppTableRecord
  2
DETAIL
 70
     0
  0
APPID
  5
5FD
330
9
100
AcDbSymbolTableRecord
100
AcDbRegAppTableRecord
  2
GRPNAME
 70
     0
  0
APPID
  5
5FE
330
9
100
AcDbSymbolTableRecord
100
AcDbRegAppTableRecord
  2
GPARA
 70
     0
  0
APPID
  5
6C4
330
9
100
AcDbSymbolTableRecord
100
AcDbRegAppTableRecord
  2
DCO15
 70
     0
  0
APPID
  5
6C5
330
9
100
AcDbSymbolTableRecord
100
AcDbRegAppTableRecord
  2
ITEMNAME
 70
     0
  0
APPID
  5
6C6
330
9
100
AcDbSymbolTableRecord
100
AcDbRegAppTableRecord
  2
GRADE_0
 70
     0
  0
APPID
  5
88D
330
9
100
AcDbSymbolTableRecord
100
AcDbRegAppTableRecord
  2
HATCH_TYPE
 70
     0
  0
APPID
  5
88E
330
9
100
AcDbSymbolTableRecord
100
AcDbRegAppTableRecord
  2
HATCH_DISPLAY
 70
     0
  0
APPID
  5
88F
330
9
100
AcDbSymbolTableRecord
100
AcDbRegAppTableRecord
  2
HATCH_DISTANCE
 70
     0
  0
APPID
  5
B27
330
9
100
AcDbSymbolTableRecord
100
AcDbRegAppTableRecord
  2
CONTENTBLOCKICON
 70
     0
  0
ENDTAB
  0
TABLE
  2
DIMSTYLE
  5
A
330
0
100
AcDbSymbolTable
 70
     1
  0
DIMSTYLE
105
725
102
{ACAD_REACTORS
330
89A
330
89B
102
}
330
A
100
AcDbSymbolTableRecord
100
AcDbDimStyleTableRecord
  2
BIGT
 70
     0
  3

  4

  5

  6
OPEN
  7
OPEN
 40
1.0
 41
2.23
 42
0.5
 43
2.5
 44
1.0
 45
0.0
 46
0.0
 47
0.0
 48
0.0
140
2.8
141
0.0
142
0.0
143
25.4
144
1.0
145
0.0
146
1.0
147
1.0
 71
     0
 72
     0
 73
     0
 74
     0
 75
     0
 76
     0
 77
     3
 78
     8
170
     0
171
     2
172
     1
173
     1
174
     1
175
     0
176
   256
177
   256
178
    40
270
     2
271
     3
272
     3
273
     2
274
     2
340
10
275
     0
280
     0
281
     0
282
     0
283
     1
284
     8
285
     0
286
     0
287
     3
288
     0
  0
ENDTAB
  0
TABLE
  2
BLOCK_RECORD
  5
1
330
0
100
AcDbSymbolTable
 70
     9
  0
BLOCK_RECORD
  5
1A
102
{ACAD_XDICTIONARY
360
B25
102
}
330
1
100
AcDbSymbolTableRecord
100
AcDbBlockTableRecord
  2
*MODEL_SPACE
  0
BLOCK_RECORD
  5
17
102
{ACAD_XDICTIONARY
360
B23
102
}
330
1
100
AcDbSymbolTableRecord
100
AcDbBlockTableRecord
  2
*PAPER_SPACE
  0
BLOCK_RECORD
  5
594
330
1
100
AcDbSymbolTableRecord
100
AcDbBlockTableRecord
  2
_OPEN
  0
BLOCK_RECORD
  5
6E3
330
1
100
AcDbSymbolTableRecord
100
AcDbBlockTableRecord
  2
矢印なし
  0
BLOCK_RECORD
  5
784
330
1
100
AcDbSymbolTableRecord
100
AcDbBlockTableRecord
  2
*X2
  0
BLOCK_RECORD
  5
7B4
330
1
100
AcDbSymbolTableRecord
100
AcDbBlockTableRecord
  2
*X3
  0
BLOCK_RECORD
  5
7C0
330
1
100
AcDbSymbolTableRecord
100
AcDbBlockTableRecord
  2
*X4
  0
BLOCK_RECORD
  5
89C
330
1
100
AcDbSymbolTableRecord
100
AcDbBlockTableRecord
  2
*D5
  0
BLOCK_RECORD
  5
8A8
330
1
100
AcDbSymbolTableRecord
100
AcDbBlockTableRecord
  2
*D6
  0
BLOCK_RECORD
  5
98B
330
1
100
AcDbSymbolTableRecord
100
AcDbBlockTableRecord
  2
_DOT
  0
BLOCK_RECORD
  5
A21
330
1
100
AcDbSymbolTableRecord
100
AcDbBlockTableRecord
  2
1
1001
CONTENTBLOCKICON
1071
        0
1004
2800000020000000200000000100080000000000000400000000000000000000000000000000000000000000000080000080000000808000800000008000800080800000C0C0C000C0DCC000F0CAA6000020400000206000002080000020A0000020C0000020E00000400000004020000040400000406000004080000040A0
1004
000040C0000040E00000600000006020000060400000606000006080000060A0000060C0000060E00000800000008020000080400000806000008080000080A0000080C0000080E00000A0000000A0200000A0400000A0600000A0800000A0A00000A0C00000A0E00000C0000000C0200000C0400000C0600000C0800000C0
1004
A00000C0C00000C0E00000E0000000E0200000E0400000E0600000E0800000E0A00000E0C00000E0E00040000000400020004000400040006000400080004000A0004000C0004000E00040200000402020004020400040206000402080004020A0004020C0004020E000404000004040200040404000404060004040800040
1004
40A0004040C0004040E00040600000406020004060400040606000406080004060A0004060C0004060E00040800000408020004080400040806000408080004080A0004080C0004080E00040A0000040A0200040A0400040A0600040A0800040A0A00040A0C00040A0E00040C0000040C0200040C0400040C0600040C08000
1004
40C0A00040C0C00040C0E00040E0000040E0200040E0400040E0600040E0800040E0A00040E0C00040E0E00080000000800020008000400080006000800080008000A0008000C0008000E00080200000802020008020400080206000802080008020A0008020C0008020E00080400000804020008040400080406000804080
1004
008040A0008040C0008040E00080600000806020008060400080606000806080008060A0008060C0008060E00080800000808020008080400080806000808080008080A0008080C0008080E00080A0000080A0200080A0400080A0600080A0800080A0A00080A0C00080A0E00080C0000080C0200080C0400080C0600080C0
1004
800080C0A00080C0C00080C0E00080E0000080E0200080E0400080E0600080E0800080E0A00080E0C00080E0E000C0000000C0002000C0004000C0006000C0008000C000A000C000C000C000E000C0200000C0202000C0204000C0206000C0208000C020A000C020C000C020E000C0400000C0402000C0404000C0406000C0
1004
408000C040A000C040C000C040E000C0600000C0602000C0604000C0606000C0608000C060A000C060C000C060E000C0800000C0802000C0804000C0806000C0808000C080A000C080C000C080E000C0A00000C0A02000C0A04000C0A06000C0A08000C0A0A000C0A0C000C0A0E000C0C00000C0C02000C0C04000C0C06000
1004
C0C08000C0C0A000F0FBFF00A4A0A000808080000000FF0000FF000000FFFF00FF000000FF00FF00FFFF0000FFFFFF0000000000000000000000000000000000000000000000000000000000000000000000000000000000000000000000000000000000000000000000000000000000000000000000000000000000000000
1004
00000000000000000000000000000000000000000000000000000000000000000000000000000000000000000000000000000000000000000000000000000000000000000000000000000000000000000000000000000000000000000000000000000000000000000000000000000000000000000000000000000000000000
1004
000000000000000000000000000000000000000000000000000000000000FEFEFE0000000000000000000000000000000000000000000000000000000000FE3EFEFEFE000000000000000000000000000000000000000000000000000000FE3E3E00FEFE0000000000000000000000000000000000000000000000000000FE
1004
3E3E00E700FEFE0000000000000000000000000000FEFEFEFEFEFEFEFEFEFEE73E3E00E7E7E7FEFE00000000000000000000000000FE000000000000000000E73E3E00E7E700E7E7E7E7FE00000000000000000000FE00000000FB00000000E73E3E00E7E7E7E7E7E7E7FEFEFE0000000000000000FE000000E7FBE7E70000
1004
E73E3E00E700E7E7E7E700E7E700FEFE000000000000FE000000E7FB00E70000E73E3E00E7E7E7E7E700000000E70000FEFE000000FBFEFBFBFBE7FBFBE7FBFBE73E3EFBE7FBE7E7E7E7E7E7E7E7FBFBFBFEFB000000FE000000E7FBE7E70000E73E3E00E700E700000000E7E70000FEFE0000000000FE00000000FB000000
1004
00E73E3E00E7E7E700000000FEFEFEFE00000000000000FE000000000000000000E73E3E00E700E7E700FEFEFE00000000000000000000FEFEFEFEFEFEFEFEFEFEFE3E3E00E700E7E7FE0000000000000000000000000000000000000000000000FE3E3E00E7E7E7FE00000000000000000000000000000000000000000000
1004
0000FE3E3E00E7FE0000000000000000000000000000000000000000000000000000FE3EFEFEFE000000000000000000000000000000000000000000000000000000FEFEFE00000000000000000000000000000000000000000000000000000000000000000000000000000000000000000000000000000000000000000000
1004
00000000000000000000000000000000000000000000000000000000000000000000000000000000000000000000000000000000000000000000000000000000000000000000000000000000000000000000000000000000000000000000000000000000000000000000000000000000000000000000000000000000000000
1004
0000000000000000000000000000000000000000000000000000000000000000000000000000000000000000000000000000000000000000
  0
ENDTAB
  0
ENDSEC
  0
SECTION
  2
BLOCKS
  0
BLOCK
  5
1B
330
1A
100
AcDbEntity
  8
0
100
AcDbBlockBegin
  2
*MODEL_SPACE
 70
     0
 10
0.0
 20
0.0
 30
0.0
  3
*MODEL_SPACE
  1

  0
ENDBLK
  5
1C
330
1A
100
AcDbEntity
  8
0
100
AcDbBlockEnd
  0
BLOCK
  5
18
330
17
100
AcDbEntity
 67
     1
  8
0
100
AcDbBlockBegin
  2
*PAPER_SPACE
 70
     0
 10
0.0
 20
0.0
 30
0.0
  3
*PAPER_SPACE
  1

  0
ENDBLK
  5
19
330
17
100
AcDbEntity
 67
     1
  8
0
100
AcDbBlockEnd
  0
BLOCK
  5
598
330
594
100
AcDbEntity
  8
0
100
AcDbBlockBegin
  2
_OPEN
 70
     0
 10
0.0
 20
0.0
 30
0.0
  3
_OPEN
  1

  0
LINE
  5
595
330
594
100
AcDbEntity
  8
0
  6
BYBLOCK
 62
     0
100
AcDbLine
 10
-1.0
 20
0.16666667
 30
0.0
 11
0.0
 21
0.0
 31
0.0
  0
LINE
  5
596
330
594
100
AcDbEntity
  8
0
  6
BYBLOCK
 62
     0
100
AcDbLine
 10
-1.0
 20
-0.16666667
 30
0.0
 11
0.0
 21
0.0
 31
0.0
  0
LINE
  5
597
330
594
100
AcDbEntity
  8
0
  6
BYBLOCK
 62
     0
100
AcDbLine
 10
0.0
 20
0.0
 30
0.0
 11
-1.0
 21
0.0
 31
0.0
  0
ENDBLK
  5
599
330
594
100
AcDbEntity
  8
0
100
AcDbBlockEnd
  0
BLOCK
  5
6E4
330
6E3
100
AcDbEntity
  8
0
100
AcDbBlockBegin
  2
矢印なし
 70
     0
 10
0.0
 20
0.0
 30
0.0
  3
矢印なし
  1

  0
ENDBLK
  5
6E5
330
6E3
100
AcDbEntity
  8
0
100
AcDbBlockEnd
  0
BLOCK
  5
7B2
330
784
100
AcDbEntity
  8
0
100
AcDbBlockBegin
  2
*X2
 70
     1
 10
0.0
 20
0.0
 30
0.0
  3
*X2
  1

  0
LINE
  5
785
330
784
100
AcDbEntity
  8
0
 62
     0
100
AcDbLine
 10
3.23536413
 20
-8.20773857
 30
0.0
 11
2.53987813
 21
-7.51225257
 31
0.0
  0
LINE
  5
786
330
784
100
AcDbEntity
  8
0
 62
     0
100
AcDbLine
 10
2.52525541
 20
-7.73336158
 30
0.0
 11
2.24664067
 21
-7.45474683
 31
0.0
  0
LINE
  5
787
330
784
100
AcDbEntity
  8
0
 62
     0
100
AcDbLine
 10
3.29286987
 20
-8.50097603
 30
0.0
 11
3.01425512
 21
-8.22236129
 31
0.0
  0
LINE
  5
788
330
784
100
AcDbEntity
  8
0
 62
     0
100
AcDbLine
 10
2.22209975
 20
-7.66593764
 30
0.0
 11
2.02055126
 21
-7.46438915
 31
0.0
  0
LINE
  5
789
330
784
100
AcDbEntity
  8
0
 62
     0
100
AcDbLine
 10
3.29481647
 20
-8.73865436
 30
0.0
 11
3.08167906
 21
-8.52551695
 31
0.0
  0
LINE
  5
78A
330
784
100
AcDbEntity
  8
0
 62
     0
100
AcDbLine
 10
2.00310604
 20
-7.68267565
 30
0.0
 11
1.82993399
 21
-7.5095036
 31
0.0
  0
LINE
  5
78B
330
784
100
AcDbEntity
  8
0
 62
     0
100
AcDbLine
 10
3.29481647
 20
-8.97438608
 30
0.0
 11
3.0826247
 21
-8.76219432
 31
0.0
  0
LINE
  5
78C
330
784
100
AcDbEntity
  8
0
 62
     0
100
AcDbLine
 10
1.82350018
 20
-7.73880151
 30
0.0
 11
1.66441862
 21
-7.57971995
 31
0.0
  0
LINE
  5
78D
330
784
100
AcDbEntity
  8
0
 62
     0
100
AcDbLine
 10
3.29481647
 20
-9.21011781
 30
0.0
 11
3.0826247
 21
-8.99792604
 31
0.0
  0
LINE
  5
78E
330
784
100
AcDbEntity
  8
0
 62
     0
100
AcDbLine
 10
1.67153212
 20
-7.82256518
 30
0.0
 11
1.51938462
 21
-7.67041768
 31
0.0
  0
LINE
  5
78F
330
784
100
AcDbEntity
  8
0
 62
     0
100
AcDbLine
 10
3.29481647
 20
-9.44584953
 30
0.0
 11
3.0826247
 21
-9.23365776
 31
0.0
  0
LINE
  5
790
330
784
100
AcDbEntity
  8
0
 62
     0
100
AcDbLine
 10
1.54275222
 20
-7.929517
 30
0.0
 11
1.39270995
 21
-7.77947474
 31
0.0
  0
LINE
  5
791
330
784
100
AcDbEntity
  8
0
 62
     0
100
AcDbLine
 10
3.29481647
 20
-9.68158125
 30
0.0
 11
3.0826247
 21
-9.46938949
 31
0.0
  0
LINE
  5
792
330
784
100
AcDbEntity
  8
0
 62
     0
100
AcDbLine
 10
1.43594765
 20
-8.05844416
 30
0.0
 11
1.28377138
 21
-7.90626789
 31
0.0
  0
LINE
  5
793
330
784
100
AcDbEntity
  8
0
 62
     0
100
AcDbLine
 10
3.29481647
 20
-9.91731298
 30
0.0
 11
3.0826247
 21
-9.70512121
 31
0.0
  0
LINE
  5
794
330
784
100
AcDbEntity
  8
0
 62
     0
100
AcDbLine
 10
1.35234823
 20
-8.21057646
 30
0.0
 11
1.19320073
 21
-8.05142896
 31
0.0
  0
LINE
  5
795
330
784
100
AcDbEntity
  8
0
 62
     0
100
AcDbLine
 10
3.29481647
 20
-10.1530447
 30
0.0
 11
3.0826247
 21
-9.94085293
 31
0.0
  0
LINE
  5
796
330
784
100
AcDbEntity
  8
0
 62
     0
100
AcDbLine
 10
1.29643258
 20
-8.39039253
 30
0.0
 11
1.12313213
 21
-8.21709208
 31
0.0
  0
LINE
  5
797
330
784
100
AcDbEntity
  8
0
 62
     0
100
AcDbLine
 10
3.29481647
 20
-10.38877642
 30
0.0
 11
3.0826247
 21
-10.17658466
 31
0.0
  0
LINE
  5
798
330
784
100
AcDbEntity
  8
0
 62
     0
100
AcDbLine
 10
1.28003258
 20
-8.60972426
 30
0.0
 11
1.07820932
 21
-8.40790099
 31
0.0
  0
LINE
  5
799
330
784
100
AcDbEntity
  8
0
 62
     0
100
AcDbLine
 10
3.29481647
 20
-10.62450815
 30
0.0
 11
3.0826247
 21
-10.41231638
 31
0.0
  0
LINE
  5
79A
330
784
100
AcDbEntity
  8
0
 62
     0
100
AcDbLine
 10
1.24181743
 20
-8.80724082
 30
0.0
 11
1.06886485
 21
-8.63428825
 31
0.0
  0
LINE
  5
79B
330
784
100
AcDbEntity
  8
0
 62
     0
100
AcDbLine
 10
3.29481647
 20
-10.86023987
 30
0.0
 11
3.0826247
 21
-10.6480481
 31
0.0
  0
LINE
  5
79C
330
784
100
AcDbEntity
  8
0
 62
     0
100
AcDbLine
 10
3.29481647
 20
-11.09597159
 30
0.0
 11
3.0826247
 21
-10.88377983
 31
0.0
  0
LINE
  5
79D
330
784
100
AcDbEntity
  8
0
 62
     0
100
AcDbLine
 10
3.29481647
 20
-11.33170332
 30
0.0
 11
3.0826247
 21
-11.11951155
 31
0.0
  0
LINE
  5
79E
330
784
100
AcDbEntity
  8
0
 62
     0
100
AcDbLine
 10
3.29481647
 20
-11.56743504
 30
0.0
 11
3.0826247
 21
-11.35524327
 31
0.0
  0
LINE
  5
79F
330
784
100
AcDbEntity
  8
0
 62
     0
100
AcDbLine
 10
3.29481647
 20
-11.80316676
 30
0.0
 11
3.0826247
 21
-11.590975
 31
0.0
  0
LINE
  5
7A0
330
784
100
AcDbEntity
  8
0
 62
     0
100
AcDbLine
 10
3.29481647
 20
-12.03889849
 30
0.0
 11
3.0826247
 21
-11.82670672
 31
0.0
  0
LINE
  5
7A1
330
784
100
AcDbEntity
  8
0
 62
     0
100
AcDbLine
 10
3.29481647
 20
-12.27463021
 30
0.0
 11
3.0826247
 21
-12.06243844
 31
0.0
  0
LINE
  5
7A2
330
784
100
AcDbEntity
  8
0
 62
     0
100
AcDbLine
 10
3.29481647
 20
-12.51036193
 30
0.0
 11
3.0826247
 21
-12.29817017
 31
0.0
  0
LINE
  5
7A3
330
784
100
AcDbEntity
  8
0
 62
     0
100
AcDbLine
 10
3.29481647
 20
-12.74609366
 30
0.0
 11
3.0826247
 21
-12.53390189
 31
0.0
  0
LINE
  5
7A4
330
784
100
AcDbEntity
  8
0
 62
     0
100
AcDbLine
 10
3.29006231
 20
-12.97707122
 30
0.0
 11
3.0826247
 21
-12.76963361
 31
0.0
  0
LINE
  5
7A5
330
784
100
AcDbEntity
  8
0
 62
     0
100
AcDbLine
 10
3.253193
 20
-13.17593363
 30
0.0
 11
3.07423651
 21
-12.99697714
 31
0.0
  0
LINE
  5
7A6
330
784
100
AcDbEntity
  8
0
 62
     0
100
AcDbLine
 10
3.18921464
 20
-13.347687
 30
0.0
 11
3.02716455
 21
-13.18563691
 31
0.0
  0
LINE
  5
7A7
330
784
100
AcDbEntity
  8
0
 62
     0
100
AcDbLine
 10
3.10381489
 20
-13.49801897
 30
0.0
 11
2.95031117
 21
-13.34451525
 31
0.0
  0
LINE
  5
7A8
330
784
100
AcDbEntity
  8
0
 62
     0
100
AcDbLine
 10
2.99964906
 20
-13.62958486
 30
0.0
 11
2.84945598
 21
-13.47939178
 31
0.0
  0
LINE
  5
7A9
330
784
100
AcDbEntity
  8
0
 62
     0
100
AcDbLine
 10
2.87770282
 20
-13.74337034
 30
0.0
 11
2.72654053
 21
-13.59220805
 31
0.0
  0
LINE
  5
7AA
330
784
100
AcDbEntity
  8
0
 62
     0
100
AcDbLine
 10
2.73769015
 20
-13.8390894
 30
0.0
 11
2.58101195
 21
-13.6824112
 31
0.0
  0
LINE
  5
7AB
330
784
100
AcDbEntity
  8
0
 62
     0
100
AcDbLine
 10
1.27901041
 20
-12.61614138
 30
0.0
 11
1.11184125
 21
-12.44897222
 31
0.0
  0
LINE
  5
7AC
330
784
100
AcDbEntity
  8
0
 62
     0
100
AcDbLine
 10
2.57794346
 20
-13.91507443
 30
0.0
 11
2.40947176
 21
-13.74660273
 31
0.0
  0
LINE
  5
7AD
330
784
100
AcDbEntity
  8
0
 62
     0
100
AcDbLine
 10
1.27901041
 20
-12.8518731
 30
0.0
 11
1.06681864
 21
-12.63968133
 31
0.0
  0
LINE
  5
7AE
330
784
100
AcDbEntity
  8
0
 62
     0
100
AcDbLine
 10
2.39468001
 20
-13.9675427
 30
0.0
 11
2.202938
 21
-13.77580069
 31
0.0
  0
LINE
  5
7AF
330
784
100
AcDbEntity
  8
0
 62
     0
100
AcDbLine
 10
1.31382547
 20
-13.12241988
 30
0.0
 11
1.06681923
 21
-12.87541365
 31
0.0
  0
LINE
  5
7B0
330
784
100
AcDbEntity
  8
0
 62
     0
100
AcDbLine
 10
2.1796688
 20
-13.98826321
 30
0.0
 11
1.93266256
 21
-13.74125698
 31
0.0
  0
LINE
  5
7B1
330
784
100
AcDbEntity
  8
0
 62
     0
100
AcDbLine
 10
1.91069092
 20
-13.95501706
 30
0.0
 11
1.10006539
 21
-13.14439153
 31
0.0
  0
ENDBLK
  5
7B3
330
784
100
AcDbEntity
  8
0
100
AcDbBlockEnd
  0
BLOCK
  5
7BE
330
7B4
100
AcDbEntity
  8
0
100
AcDbBlockBegin
  2
*X3
 70
     1
 10
0.0
 20
0.0
 30
0.0
  3
*X3
  1

  0
LINE
  5
7B5
330
7B4
100
AcDbEntity
  8
0
 62
     0
100
AcDbLine
 10
2.97652882
 20
-10.77768394
 30
0.0
 11
2.95904392
 21
-10.76019904
 31
0.0
  0
LINE
  5
7B6
330
7B4
100
AcDbEntity
  8
0
 62
     0
100
AcDbLine
 10
2.97652882
 20
-11.01341566
 30
0.0
 11
2.62854288
 21
-10.66542973
 31
0.0
  0
LINE
  5
7B7
330
7B4
100
AcDbEntity
  8
0
 62
     0
100
AcDbLine
 10
2.96343527
 20
-11.23605384
 30
0.0
 11
2.29804185
 21
-10.57066041
 31
0.0
  0
LINE
  5
7B8
330
7B4
100
AcDbEntity
  8
0
 62
     0
100
AcDbLine
 10
2.63293294
 20
-11.14128324
 30
0.0
 11
1.96754081
 21
-10.4758911
 31
0.0
  0
LINE
  5
7B9
330
7B4
100
AcDbEntity
  8
0
 62
     0
100
AcDbLine
 10
2.30243062
 20
-11.04651263
 30
0.0
 11
1.63703978
 21
-10.38112179
 31
0.0
  0
LINE
  5
7BA
330
7B4
100
AcDbEntity
  8
0
 62
     0
100
AcDbLine
 10
1.97192829
 20
-10.95174202
 30
0.0
 11
1.30653874
 21
-10.28635248
 31
0.0
  0
LINE
  5
7BB
330
7B4
100
AcDbEntity
  8
0
 62
     0
100
AcDbLine
 10
1.64142596
 20
-10.85697142
 30
0.0
 11
1.06681864
 21
-10.2823641
 31
0.0
  0
LINE
  5
7BC
330
7B4
100
AcDbEntity
  8
0
 62
     0
100
AcDbLine
 10
1.31092363
 20
-10.76220081
 30
0.0
 11
1.06681864
 21
-10.51809582
 31
0.0
  0
LINE
  5
7BD
330
7B4
100
AcDbEntity
  8
0
 62
     0
100
AcDbLine
 10
1.08874524
 20
-10.77575415
 30
0.0
 11
1.06681864
 21
-10.75382754
 31
0.0
  0
ENDBLK
  5
7BF
330
7B4
100
AcDbEntity
  8
0
100
AcDbBlockEnd
  0
BLOCK
  5
7D1
330
7C0
100
AcDbEntity
  8
0
100
AcDbBlockBegin
  2
*X4
 70
     1
 10
0.0
 20
0.0
 30
0.0
  3
*X4
  1

  0
LINE
  5
7C1
330
7C0
100
AcDbEntity
  8
0
 62
     0
100
AcDbLine
 10
2.86626776
 20
-9.25303254
 30
0.0
 11
2.66734118
 21
-9.05410596
 31
0.0
  0
LINE
  5
7C2
330
7C0
100
AcDbEntity
  8
0
 62
     0
100
AcDbLine
 10
2.97331102
 20
-9.59580752
 30
0.0
 11
2.33683922
 21
-8.95933573
 31
0.0
  0
LINE
  5
7C3
330
7C0
100
AcDbEntity
  8
0
 62
     0
100
AcDbLine
 10
2.6374685
 20
-9.49569673
 30
0.0
 11
2.00633727
 21
-8.8645655
 31
0.0
  0
LINE
  5
7C4
330
7C0
100
AcDbEntity
  8
0
 62
     0
100
AcDbLine
 10
2.9589498
 20
-9.81717803
 30
0.0
 11
2.70983318
 21
-9.56806141
 31
0.0
  0
LINE
  5
7C5
330
7C0
100
AcDbEntity
  8
0
 62
     0
100
AcDbLine
 10
2.29480762
 20
-9.38876757
 30
0.0
 11
1.89435694
 21
-8.98831689
 31
0.0
  0
LINE
  5
7C6
330
7C0
100
AcDbEntity
  8
0
 62
     0
100
AcDbLine
 10
2.89456564
 20
-9.9885256
 30
0.0
 11
2.70928497
 21
-9.80324492
 31
0.0
  0
LINE
  5
7C7
330
7C0
100
AcDbEntity
  8
0
 62
     0
100
AcDbLine
 10
2.10654871
 20
-9.43624039
 30
0.0
 11
1.89435694
 21
-9.22404861
 31
0.0
  0
LINE
  5
7C8
330
7C0
100
AcDbEntity
  8
0
 62
     0
100
AcDbLine
 10
2.79692411
 20
-10.12661579
 30
0.0
 11
2.57219723
 21
-9.90188891
 31
0.0
  0
LINE
  5
7C9
330
7C0
100
AcDbEntity
  8
0
 62
     0
100
AcDbLine
 10
1.34848665
 20
-8.91391005
 30
0.0
 11
1.32639418
 21
-8.89181758
 31
0.0
  0
LINE
  5
7CA
330
7C0
100
AcDbEntity
  8
0
 62
     0
100
AcDbLine
 10
2.67026268
 20
-10.23568608
 30
0.0
 11
2.28372683
 21
-9.84915023
 31
0.0
  0
LINE
  5
7CB
330
7C0
100
AcDbEntity
  8
0
 62
     0
100
AcDbLine
 10
1.40754788
 20
-9.208703
 30
0.0
 11
1.14717601
 21
-8.94833113
 31
0.0
  0
LINE
  5
7CC
330
7C0
100
AcDbEntity
  8
0
 62
     0
100
AcDbLine
 10
2.51283952
 20
-10.31399464
 30
0.0
 11
1.95322456
 21
-9.75437968
 31
0.0
  0
LINE
  5
7CD
330
7C0
100
AcDbEntity
  8
0
 62
     0
100
AcDbLine
 10
1.30717012
 20
-9.34405696
 30
0.0
 11
1.14828236
 21
-9.18516921
 31
0.0
  0
LINE
  5
7CE
330
7C0
100
AcDbEntity
  8
0
 62
     0
100
AcDbLine
 10
2.3146092
 20
-10.35149604
 30
0.0
 11
1.62272229
 21
-9.65960913
 31
0.0
  0
LINE
  5
7CF
330
7C0
100
AcDbEntity
  8
0
 62
     0
100
AcDbLine
 10
2.04547551
 20
-10.31809408
 30
0.0
 11
1.0841335
 21
-9.35675207
 31
0.0
  0
LINE
  5
7D0
330
7C0
100
AcDbEntity
  8
0
 62
     0
100
AcDbLine
 10
1.73148255
 20
-10.23983284
 30
0.0
 11
1.07020154
 21
-9.57855183
 31
0.0
  0
ENDBLK
  5
7D2
330
7C0
100
AcDbEntity
  8
0
100
AcDbBlockEnd
  0
BLOCK
  5
8A6
330
89C
100
AcDbEntity
  8
0
100
AcDbBlockBegin
  2
*D5
 70
     1
 10
0.0
 20
0.0
 30
0.0
  3
*D5
  1

  0
LINE
  5
B3D
330
89C
100
AcDbEntity
  8
250
  6
CONTINUOUS
100
AcDbLine
 10
1.80408001
 20
-25.0
 30
0.0
 11
75.0
 21
-25.0
 31
0.0
  0
LINE
  5
B3E
330
89C
100
AcDbEntity
  8
250
  6
CONTINUOUS
100
AcDbLine
 10
1.80407949
 20
25.0
 30
0.0
 11
75.0
 21
25.0
 31
0.0
  0
LINE
  5
B3F
330
89C
100
AcDbEntity
  8
250
  6
CONTINUOUS
100
AcDbLine
 10
74.0
 20
-22.77
 30
0.0
 11
74.0
 21
22.77
 31
0.0
  0
INSERT
  5
B40
330
89C
100
AcDbEntity
  8
250
  6
CONTINUOUS
100
AcDbBlockReference
  2
_OPEN
 10
74.0
 20
-25.0
 30
0.0
 41
2.23
 42
2.23
 43
2.23
 50
270.0
  0
INSERT
  5
B41
330
89C
100
AcDbEntity
  8
250
  6
CONTINUOUS
100
AcDbBlockReference
  2
_OPEN
 10
74.0
 20
25.0
 30
0.0
 41
2.23
 42
2.23
 43
2.23
 50
90.0
  0
MTEXT
  5
B42
330
89C
100
AcDbEntity
  8
250
  6
CONTINUOUS
 62
    40
100
AcDbMText
 10
71.5
 20
0.0
 30
0.0
 40
3.0
 41
0.0
 71
     5
 72
     1
  1
\A1;{\H3;\U+2205}50
 11
0.0
 21
1.0
 31
0.0
1001
ACAD
1000
MTEXTBEGIN
1070
    73
1070
     1
1070
    44
1040
1.0
1070
    74
1070
     0
1000
MTEXTEND
1000
MTEXTBEGIN
1070
    73
1070
     1
1070
    44
1040
1.0
1070
    74
1070
     0
1000
MTEXTEND
  0
POINT
  5
B43
330
89C
100
AcDbEntity
  8
DEFPOINTS
  6
CONTINUOUS
 62
     0
100
AcDbPoint
 10
1.30408001
 20
-25.0
 30
0.0
  0
POINT
  5
B44
330
89C
100
AcDbEntity
  8
DEFPOINTS
  6
CONTINUOUS
 62
     0
100
AcDbPoint
 10
1.30407949
 20
25.0
 30
0.0
  0
POINT
  5
B45
330
89C
100
AcDbEntity
  8
DEFPOINTS
  6
CONTINUOUS
 62
     0
100
AcDbPoint
 10
74.0
 20
25.0
 30
0.0
  0
ENDBLK
  5
8A7
330
89C
100
AcDbEntity
  8
0
100
AcDbBlockEnd
  0
BLOCK
  5
8B2
330
8A8
100
AcDbEntity
  8
0
100
AcDbBlockBegin
  2
*D6
 70
     1
 10
0.0
 20
0.0
 30
0.0
  3
*D6
  1

  0
LINE
  5
B34
330
8A8
100
AcDbEntity
  8
250
  6
CONTINUOUS
100
AcDbLine
 10
0.0
 20
25.5
 30
0.0
 11
0.0
 21
36.0
 31
0.0
  0
LINE
  5
B35
330
8A8
100
AcDbEntity
  8
250
  6
CONTINUOUS
100
AcDbLine
 10
50.0
 20
0.5
 30
0.0
 11
50.0
 21
36.0
 31
0.0
  0
LINE
  5
B36
330
8A8
100
AcDbEntity
  8
250
  6
CONTINUOUS
100
AcDbLine
 10
2.23
 20
35.0
 30
0.0
 11
47.77
 21
35.0
 31
0.0
  0
INSERT
  5
B37
330
8A8
100
AcDbEntity
  8
250
  6
CONTINUOUS
100
AcDbBlockReference
  2
_OPEN
 10
0.0
 20
35.0
 30
0.0
 41
2.23
 42
2.23
 43
2.23
 50
180.0
  0
INSERT
  5
B38
330
8A8
100
AcDbEntity
  8
250
  6
CONTINUOUS
100
AcDbBlockReference
  2
_OPEN
 10
50.0
 20
35.0
 30
0.0
 41
2.23
 42
2.23
 43
2.23
  0
MTEXT
  5
B39
330
8A8
100
AcDbEntity
  8
250
  6
CONTINUOUS
 62
    40
100
AcDbMText
 10
25.0
 20
37.5
 30
0.0
 40
3.0
 41
0.0
 71
     5
 72
     1
  1
\A1;50
1001
ACAD
1000
MTEXTBEGIN
1070
    73
1070
     1
1070
    44
1040
1.0
1070
    74
1070
     0
1000
MTEXTEND
1000
MTEXTBEGIN
1070
    73
1070
     1
1070
    44
1040
1.0
1070
    74
1070
     0
1000
MTEXTEND
  0
POINT
  5
B3A
330
8A8
100
AcDbEntity
  8
DEFPOINTS
  6
CONTINUOUS
 62
     0
100
AcDbPoint
 10
0.0
 20
25.0
 30
0.0
  0
POINT
  5
B3B
330
8A8
100
AcDbEntity
  8
DEFPOINTS
  6
CONTINUOUS
 62
     0
100
AcDbPoint
 10
50.0
 20
0.0
 30
0.0
  0
POINT
  5
B3C
330
8A8
100
AcDbEntity
  8
DEFPOINTS
  6
CONTINUOUS
 62
     0
100
AcDbPoint
 10
50.0
 20
35.0
 30
0.0
  0
ENDBLK
  5
8B3
330
8A8
100
AcDbEntity
  8
0
100
AcDbBlockEnd
  0
BLOCK
  5
9CA
330
98B
100
AcDbEntity
  8
0
100
AcDbBlockBegin
  2
_DOT
 70
     0
 10
0.0
 20
0.0
 30
0.0
  3
_DOT
  1

  0
LINE
  5
9CB
330
98B
100
AcDbEntity
  8
0
 62
     0
100
AcDbLine
 10
-1.0
 20
0.0
 30
0.0
 11
0.0
 21
0.0
 31
0.0
  0
LWPOLYLINE
  5
9CC
330
98B
100
AcDbEntity
  8
0
 62
     0
100
AcDbPolyline
 90
        3
 70
     0
 43
0.5
 10
0.125
 20
0.0
 42
1.0
 10
-0.125
 20
0.0
 42
1.0
 10
0.125
 20
0.0
 42
1.0
  0
ENDBLK
  5
9D1
330
98B
100
AcDbEntity
  8
0
100
AcDbBlockEnd
  0
BLOCK
  5
A22
330
A21
100
AcDbEntity
  8
0
100
AcDbBlockBegin
  2
1
 70
     0
 10
0.0
 20
0.0
 30
0.0
  3
1
  1

  0
LINE
  5
C0F
330
A21
100
AcDbEntity
  8
240
100
AcDbLine
 10
-31.0
 20
14.0
 30
0.0
 11
0.0
 21
14.0
 31
0.0
  0
LINE
  5
C10
330
A21
100
AcDbEntity
  8
240
100
AcDbLine
 10
-31.0
 20
-14.0
 30
0.0
 11
0.0
 21
-14.0
 31
0.0
  0
LINE
  5
C11
330
A21
100
AcDbEntity
  8
245
100
AcDbLine
 10
51.75553774
 20
0.0
 30
0.0
 11
-32.0
 21
0.0
 31
0.0
  0
CIRCLE
  5
C12
330
A21
100
AcDbEntity
  8
241
100
AcDbCircle
 10
-14.0
 20
0.0
 30
0.0
 40
4.0
  0
SPLINE
  5
C13
330
A21
100
AcDbEntity
  8
241
100
AcDbSpline
210
0.0
220
0.0
230
1.0
 70
    11
 71
     3
 72
    70
 73
    66
 74
     0
 42
0.0000000001
 43
0.0000000001
 40
0.0
 40
0.0
 40
0.0
 40
0.0
 40
0.9197496568304652
 40
0.9197496568304652
 40
1.839499313660929
 40
1.839499313660929
 40
2.759248970491396
 40
2.759248970491396
 40
3.678998627321861
 40
3.678998627321861
 40
4.631875395981221
 40
4.631875395981221
 40
5.584752164640581
 40
5.584752164640581
 40
6.537628933299941
 40
6.537628933299941
 40
7.490505701959301
 40
7.490505701959301
 40
8.443382470618661
 40
8.443382470618661
 40
9.39625923927802
 40
9.39625923927802
 40
10.34913600793736
 40
10.34913600793736
 40
11.30201277659673
 40
11.30201277659673
 40
12.2217624334272
 40
12.2217624334272
 40
13.14151209025766
 40
13.14151209025766
 40
14.06126174708813
 40
14.06126174708813
 40
14.9810114039186
 40
14.9810114039186
 40
15.91208227998778
 40
15.91208227998778
 40
16.84315315605702
 40
16.84315315605702
 40
17.77422403212622
 40
17.77422403212622
 40
18.70529490819543
 40
18.70529490819543
 40
19.64673146562238
 40
19.64673146562238
 40
20.58816802304932
 40
20.58816802304932
 40
21.52960458047627
 40
21.52960458047627
 40
22.4710411379032
 40
22.4710411379032
 40
23.41247769533016
 40
23.41247769533016
 40
24.3539142527571
 40
24.3539142527571
 40
25.29535081018405
 40
25.29535081018405
 40
26.23678736761099
 40
26.23678736761099
 40
27.1678582436802
 40
27.1678582436802
 40
28.09892911974939
 40
28.09892911974939
 40
29.0299999958186
 40
29.0299999958186
 40
29.9610708718878
 40
29.9610708718878
 40
29.9610708718878
 40
29.9610708718878
 10
-13.99999999999999
 20
4.813238667570459
 30
0.0
 10
-13.69341678105649
 20
4.813238667570459
 30
0.0
 10
-13.37626085482503
 20
4.78614062647361
 30
0.0
 10
-12.74440677204071
 20
4.671798730367187
 30
0.0
 10
-12.42970138435767
 20
4.584583114443403
 30
0.0
 10
-11.82426227349964
 20
4.353455323821463
 30
0.0
 10
-11.53306955977728
 20
4.209379306697826
 30
0.0
 10
-10.99166717234226
 20
3.875324214316918
 30
0.0
 10
-10.74146009689246
 20
3.685312193028293
 30
0.0
 10
-10.28684645229726
 20
3.271009973575018
 30
0.0
 10
-10.06785585213068
 20
3.030604788969923
 30
0.0
 10
-9.67913298603695
 20
2.502017360458324
 30
0.0
 10
-9.509375944373179
 20
2.213831988604025
 30
0.0
 10
-9.234915314548288
 20
1.607725564507973
 30
0.0
 10
-9.129968121090211
 20
1.28920427558657
 30
0.0
 10
-8.99153386157937
 20
0.6441601606739483
 30
0.0
 10
-8.9580898429781
 20
0.3176255895527333
 30
0.0
 10
-8.9580898429781
 20
-0.3176255895535007
 30
0.0
 10
-8.99153386157937
 20
-0.6441601606747156
 30
0.0
 10
-9.129968121090211
 20
-1.289204275587336
 30
0.0
 10
-9.234915314548267
 20
-1.60772556450874
 30
0.0
 10
-9.509375944373179
 20
-2.213831988604765
 30
0.0
 10
-9.67913298603695
 20
-2.50201736045909
 30
0.0
 10
-10.06785585213068
 20
-3.030604788970691
 30
0.0
 10
-10.28684645229726
 20
-3.271009973575786
 30
0.0
 10
-10.74146009689246
 20
-3.685312193029062
 30
0.0
 10
-10.99166717234226
 20
-3.875324214317684
 30
0.0
 10
-11.53306955977728
 20
-4.209379306698593
 30
0.0
 10
-11.82426227349962
 20
-4.353455323822259
 30
0.0
 10
-12.42970138435767
 20
-4.584583114444169
 30
0.0
 10
-12.74440677204069
 20
-4.671798730367953
 30
0.0
 10
-13.37626085482503
 20
-4.786140626474375
 30
0.0
 10
-13.69341678105648
 20
-4.813238667571224
 30
0.0
 10
-14.31035695868974
 20
-4.813238667571224
 30
0.0
 10
-14.63129234204445
 20
-4.785470431102452
 30
0.0
 10
-15.27026933877601
 20
-4.668421595239664
 30
0.0
 10
-15.58831874294352
 20
-4.579171023034971
 30
0.0
 10
-16.19963276822358
 20
-4.342762119793349
 30
0.0
 10
-16.49336985375021
 20
-4.195433199442561
 30
0.0
 10
-17.03879695522307
 20
-3.853899818125825
 30
0.0
 10
-17.29048375056198
 20
-3.659660585884608
 30
0.0
 10
-17.74130660191111
 20
-3.241308021639753
 30
0.0
 10
-17.95583231479624
 20
-3.001992855305131
 30
0.0
 10
-18.33652384033474
 20
-2.476737516738666
 30
0.0
 10
-18.50271248665894
 20
-2.190793541029933
 30
0.0
 10
-18.77130233774941
 20
-1.590081060247114
 30
0.0
 10
-18.87393747752192
 20
-1.274727792169271
 30
0.0
 10
-19.00926202767091
 20
-0.6365989058260482
 30
0.0
 10
-19.04191015702185
 20
-0.3138121858093541
 30
0.0
 10
-19.04191015702185
 20
0.3138121858086151
 30
0.0
 10
-19.00926202767091
 20
0.6365989058252808
 30
0.0
 10
-18.87393747752192
 20
1.274727792168532
 30
0.0
 10
-18.77130233774938
 20
1.590081060246346
 30
0.0
 10
-18.50271248665888
 20
2.190793541029194
 30
0.0
 10
-18.33652384033474
 20
2.476737516737896
 30
0.0
 10
-17.95583231479616
 20
3.001992855304365
 30
0.0
 10
-17.74130660191111
 20
3.241308021638957
 30
0.0
 10
-17.29048375056198
 20
3.659660585883841
 30
0.0
 10
-17.03879695522307
 20
3.853899818125028
 30
0.0
 10
-16.49336985375021
 20
4.195433199441794
 30
0.0
 10
-16.19963276822358
 20
4.342762119792581
 30
0.0
 10
-15.58831874294352
 20
4.579171023034206
 30
0.0
 10
-15.27026933877601
 20
4.668421595238868
 30
0.0
 10
-14.63129234204445
 20
4.785470431101686
 30
0.0
 10
-14.31035695868974
 20
4.813238667570459
 30
0.0
 10
-13.99999999999999
 20
4.813238667570459
 30
0.0
  0
LINE
  5
C14
330
A21
100
AcDbEntity
  8
240
100
AcDbLine
 10
-31.0
 20
14.0
 30
0.0
 11
-31.0
 21
0.0
 31
0.0
  0
LINE
  5
C15
330
A21
100
AcDbEntity
  8
240
100
AcDbLine
 10
-31.0
 20
-14.0
 30
0.0
 11
-31.0
 21
0.0
 31
0.0
  0
ELLIPSE
  5
C16
330
A21
100
AcDbEntity
  8
240
100
AcDbEllipse
 10
46.09549862
 20
-57.0
 30
0.0
 11
0.0000000000000722
 21
50.0
 31
0.0
210
0.0
220
0.0
230
1.0
 40
0.98480775
 41
0.2497642210444056
 42
0.6153295785129364
  0
LINE
  5
C17
330
A21
100
AcDbEntity
  8
241
100
AcDbLine
 10
17.6725838
 20
-16.17083753
 30
0.0
 11
17.6725838
 21
-12.83023044
 31
0.0
  0
INSERT
  5
C18
330
A21
100
AcDbEntity
  8
247
  6
CONTINUOUS
100
AcDbBlockReference
  2
*X4
 10
0.0
 20
0.95028051
 30
0.0
 41
1.7145
 42
1.7145
 43
1.7145
1001
ACAD
1000
HATCH
1002
{
1070
    19
1000
ANSI31
1040
0.0525
1040
1.57079633
1002
}
  0
LINE
  5
C19
330
A21
100
AcDbEntity
  8
247
100
AcDbLine
 10
3.24787497
 20
-15.25265966
 30
0.0
 11
3.24787497
 21
-14.19296453
 31
0.0
1001
ACAD
1000
ASC_BOUNDS
1002
{
1070
    19
1005
0
1002
}
  0
ARC
  5
C1A
330
A21
100
AcDbEntity
  8
247
100
AcDbCircle
 10
2.61123381
 20
-15.16471685
 30
0.0
 40
0.3819927511654794
100
AcDbArc
 50
91.71012138
 51
253.99839835
1001
ACAD
1000
ASC_BOUNDS
1002
{
1070
    19
1005
0
1002
}
  0
LINE
  5
C1B
330
A21
100
AcDbEntity
  8
247
100
AcDbLine
 10
4.88986376
 20
-14.93839767
 30
0.0
 11
5.10325866
 21
-14.72498903
 31
0.0
1001
ACAD
1000
ASC_BOUNDS
1002
{
1070
    19
1005
0
1002
}
  0
ARC
  5
C1C
330
A21
100
AcDbEntity
  8
247
100
AcDbCircle
 10
3.0114059
 20
-15.35516118
 30
0.0
 40
1.182347062325477
100
AcDbArc
 50
143.4440122
 51
254.00018439
1001
ACAD
1000
ASC_BOUNDS
1002
{
1070
    19
1005
0
1002
}
  0
ARC
  5
C1D
330
A21
100
AcDbEntity
  8
247
100
AcDbCircle
 10
3.73901149
 20
-13.73749684
 30
0.0
 40
1.546148139381408
100
AcDbArc
 50
0.0
 51
194.1274365
1001
ACAD
1000
ASC_BOUNDS
1002
{
1070
    19
1005
0
1002
}
  0
ARC
  5
C1E
330
A21
100
AcDbEntity
  8
247
100
AcDbCircle
 10
3.73901149
 20
-13.73749684
 30
0.0
 40
1.909950933265685
100
AcDbArc
 50
0.0
 51
194.77079397
1001
ACAD
1000
ASC_BOUNDS
1002
{
1070
    19
1005
0
1002
}
  0
INSERT
  5
C1F
330
A21
100
AcDbEntity
  8
247
  6
CONTINUOUS
100
AcDbBlockReference
  2
*X2
 10
0.0
 20
0.95028051
 30
0.0
 41
1.7145
 42
1.7145
 43
1.7145
1001
ACAD
1000
HATCH
1002
{
1070
    19
1000
ANSI31
1040
0.0525
1040
1.57079633
1002
}
  0
LINE
  5
C20
330
A21
100
AcDbEntity
  8
240
100
AcDbLine
 10
0.0
 20
-14.0
 30
0.0
 11
0.0
 21
-25.0
 31
0.0
  0
LINE
  5
C21
330
A21
100
AcDbEntity
  8
241
100
AcDbLine
 10
11.09221164
 20
5.70485249
 30
0.0
 11
11.09221164
 21
-21.16481136
 31
0.0
  0
LINE
  5
C22
330
A21
100
AcDbEntity
  8
247
100
AcDbLine
 10
5.64896284
 20
-21.12264686
 30
0.0
 11
5.64896284
 21
-13.73749684
 31
0.0
1001
ACAD
1000
ASC_BOUNDS
1002
{
1070
    19
1005
0
1002
}
  0
LINE
  5
C23
330
A21
100
AcDbEntity
  8
247
100
AcDbLine
 10
5.28516006
 20
-21.12264686
 30
0.0
 11
5.28516006
 21
-13.73749684
 31
0.0
1001
ACAD
1000
ASC_BOUNDS
1002
{
1070
    19
1005
0
1002
}
  0
ELLIPSE
  5
C24
330
A21
100
AcDbEntity
  8
241
100
AcDbEllipse
 10
12.2369568
 20
0.0
 30
0.0
 11
0.0000000000000486
 21
25.0
 31
0.0
210
0.0
220
0.0
230
1.0
 40
0.08748866
 41
0.5593910274682296
 42
2.582201642809056
  0
SPLINE
  5
C25
330
A21
100
AcDbEntity
  8
240
100
AcDbSpline
210
0.0
220
0.0
230
1.0
 70
     8
 71
     3
 72
    12
 73
     8
 74
     0
 42
0.0000000001
 43
0.0000000001
 40
36.5788714047951
 40
36.5788714047951
 40
36.5788714047951
 40
36.5788714047951
 40
37.21898491062386
 40
37.21898491062386
 40
39.21147768791556
 40
39.21147768791556
 40
41.20397046520724
 40
41.20397046520724
 40
41.20397046520724
 40
41.20397046520724
 10
14.15356627958809
 20
-19.08734522365971
 30
0.0
 10
14.29686859475202
 20
-18.94937989301993
 30
0.0
 10
14.44395367078507
 20
-18.81071641635438
 30
0.0
 10
15.06266314706471
 20
-18.23969494884417
 30
0.0
 10
15.56411204424772
 20
-17.80557165684379
 30
0.0
 10
16.60199092571781
 20
-16.96283357596015
 30
0.0
 10
17.13847783948109
 20
-16.55421152506121
 30
0.0
 10
17.67258380291477
 20
-16.17083752936616
 30
0.0
  0
ARC
  5
C26
330
A21
100
AcDbEntity
  8
247
100
AcDbCircle
 10
3.73901149
 20
-21.12264686
 30
0.0
 40
1.546148139381408
100
AcDbArc
 50
180.0
 51
0.0
1001
ACAD
1000
ASC_BOUNDS
1002
{
1070
    19
1005
0
1002
}
  0
ARC
  5
C27
330
A21
100
AcDbEntity
  8
247
100
AcDbCircle
 10
3.73901149
 20
-21.12264686
 30
0.0
 40
1.909950933265685
100
AcDbArc
 50
180.0
 51
0.0
1001
ACAD
1000
ASC_BOUNDS
1002
{
1070
    19
1005
0
1002
}
  0
LINE
  5
C28
330
A21
100
AcDbEntity
  8
240
100
AcDbLine
 10
1.30408001
 20
-25.0
 30
0.0
 11
0.0
 21
-25.0
 31
0.0
  0
LINE
  5
C29
330
A21
100
AcDbEntity
  8
247
100
AcDbLine
 10
4.21579532
 20
-16.0222108
 30
0.0
 11
2.50593043
 21
-15.53191209
 31
0.0
1001
ACAD
1000
ASC_BOUNDS
1002
{
1070
    19
1005
0
1002
}
  0
LINE
  5
C2A
330
A21
100
AcDbEntity
  8
247
100
AcDbLine
 10
5.10325866
 20
-18.32037096
 30
0.0
 11
2.22923264
 21
-17.49625215
 31
0.0
  0
LINE
  5
C2B
330
A21
100
AcDbEntity
  8
247
100
AcDbLine
 10
5.10325866
 20
-17.50667673
 30
0.0
 11
1.82906055
 21
-16.56781885
 31
0.0
  0
LWPOLYLINE
  5
C2C
330
A21
100
AcDbEntity
  8
247
100
AcDbPolyline
 90
        6
 70
     1
 43
0.0
 10
1.82906055
 20
-17.51396982
 10
2.22923264
 20
-17.62872262
 10
2.22923264
 20
-17.49625215
 10
5.10325866
 20
-18.32037096
 10
5.10325866
 20
-17.50667673
 10
1.82906055
 20
-16.56781885
1001
HATCH_DISTANCE
1040
1.0
1001
HATCH_DISPLAY
1070
     0
1001
HATCH_TYPE
1070
     7
  0
LWPOLYLINE
  5
C2D
330
A21
100
AcDbEntity
  8
247
100
AcDbPolyline
 90
        6
 70
     1
 43
0.0
 10
1.82906055
 20
-17.51396982
 10
2.22923264
 20
-17.62872262
 10
2.22923264
 20
-17.49625215
 10
5.10325866
 20
-18.32037096
 10
5.10325866
 20
-17.50667673
 10
1.82906055
 20
-16.56781885
  0
INSERT
  5
C2E
330
A21
100
AcDbEntity
  8
247
  6
CONTINUOUS
100
AcDbBlockReference
  2
*X3
 10
0.0
 20
0.95028051
 30
0.0
 41
1.7145
 42
1.7145
 43
1.7145
1001
ACAD
1000
HATCH
1002
{
1070
    19
1000
ANSI31
1040
0.0525
1040
1.57079633
1002
}
  0
ARC
  5
C2F
330
A21
100
AcDbEntity
  8
247
100
AcDbCircle
 10
3.92091288
 20
-15.61595427
 30
0.0
 40
1.182359080123901
100
AcDbArc
 50
253.9997507
 51
34.96387329
1001
ACAD
1000
ASC_BOUNDS
1002
{
1070
    19
1005
0
1002
}
  0
LINE
  5
C30
330
A21
100
AcDbEntity
  8
247
100
AcDbLine
 10
5.10325866
 20
-19.54886881
 30
0.0
 11
4.07475565
 21
-18.5203658
 31
0.0
  0
ARC
  5
C31
330
A21
100
AcDbEntity
  8
247
100
AcDbCircle
 10
4.15738195
 20
-19.82791106
 30
0.0
 40
0.5457045663826169
100
AcDbArc
 50
351.66285421
 51
156.33819216
  0
LINE
  5
C32
330
A21
100
AcDbEntity
  8
247
100
AcDbLine
 10
3.65755453
 20
-19.6088996
 30
0.0
 11
4.69731953
 21
-19.9070368
 31
0.0
  0
ARC
  5
C33
330
A21
100
AcDbEntity
  8
247
100
AcDbCircle
 10
4.19376498
 20
-19.4220391
 30
0.0
 40
0.9094932500839234
100
AcDbArc
 50
0.0
 51
130.32984065
  0
LINE
  5
C34
330
A21
100
AcDbEntity
  8
247
100
AcDbLine
 10
5.10325866
 20
-19.95303085
 30
0.0
 11
3.76838349
 21
-18.61815568
 31
0.0
  0
LINE
  5
C35
330
A21
100
AcDbEntity
  8
247
100
AcDbLine
 10
4.42637462
 20
-15.2878203
 30
0.0
 11
3.61167776
 21
-15.05420804
 31
0.0
1001
ACAD
1000
ASC_BOUNDS
1002
{
1070
    19
1005
0
1002
}
  0
LINE
  5
C36
330
A21
100
AcDbEntity
  8
247
100
AcDbLine
 10
5.10325866
 20
-20.93174928
 30
0.0
 11
2.19286335
 21
-20.09720589
 31
0.0
  0
LINE
  5
C37
330
A21
100
AcDbEntity
  8
247
100
AcDbLine
 10
4.77551063
 20
-20.83776894
 30
0.0
 11
3.23622288
 21
-19.29848118
 31
0.0
  0
LINE
  5
C38
330
A21
100
AcDbEntity
  8
247
100
AcDbLine
 10
4.20886554
 20
-20.67528588
 30
0.0
 11
2.93539933
 21
-19.40181967
 31
0.0
  0
LINE
  5
C39
330
A21
100
AcDbEntity
  8
247
100
AcDbLine
 10
5.10325866
 20
-20.76135492
 30
0.0
 11
4.06869047
 21
-19.72678673
 31
0.0
  0
LINE
  5
C3A
330
A21
100
AcDbEntity
  8
247
100
AcDbLine
 10
3.61167776
 20
-15.35697415
 30
0.0
 11
3.24787497
 21
-15.25265966
 31
0.0
1001
ACAD
1000
ASC_BOUNDS
1002
{
1070
    19
1005
0
1002
}
  0
ARC
  5
C3B
330
A21
100
AcDbEntity
  8
247
100
AcDbCircle
 10
3.98307581
 20
-13.68286049
 30
0.0
 40
3.094081780242917
100
AcDbArc
 50
245.20517737
 51
262.79482596
1001
ACAD
1000
ASC_BOUNDS
1002
{
1070
    19
1005
0
1002
}
  0
LINE
  5
C3C
330
A21
100
AcDbEntity
  8
247
100
AcDbLine
 10
3.77777705
 20
-19.43587332
 30
0.0
 11
2.47591649
 21
-18.13401276
 31
0.0
  0
LINE
  5
C3D
330
A21
100
AcDbEntity
  8
247
100
AcDbLine
 10
4.04085804
 20
-19.29479226
 30
0.0
 11
2.84793333
 21
-18.10186756
 31
0.0
  0
LINE
  5
C3E
330
A21
100
AcDbEntity
  8
247
100
AcDbLine
 10
2.81434269
 20
-18.876601
 30
0.0
 11
2.20555384
 21
-18.26781214
 31
0.0
  0
LINE
  5
C3F
330
A21
100
AcDbEntity
  8
247
100
AcDbLine
 10
2.45680984
 20
-18.92323019
 30
0.0
 11
2.00317465
 21
-18.46959499
 31
0.0
  0
LINE
  5
C40
330
A21
100
AcDbEntity
  8
247
100
AcDbLine
 10
2.22923264
 20
-17.62872262
 30
0.0
 11
2.22923264
 21
-17.49625215
 31
0.0
  0
LINE
  5
C41
330
A21
100
AcDbEntity
  8
247
100
AcDbLine
 10
2.24387165
 20
-19.11445403
 30
0.0
 11
1.86867178
 21
-18.73925416
 31
0.0
  0
LINE
  5
C42
330
A21
100
AcDbEntity
  8
247
100
AcDbLine
 10
2.22923264
 20
-17.62872262
 30
0.0
 11
1.82906055
 21
-17.51396982
 31
0.0
  0
LINE
  5
C43
330
A21
100
AcDbEntity
  8
247
100
AcDbLine
 10
2.20237223
 20
-19.19163224
 30
0.0
 11
3.2421064
 21
-19.48976454
 31
0.0
  0
ARC
  5
C44
330
A21
100
AcDbEntity
  8
247
100
AcDbCircle
 10
2.70218451
 20
-19.41063936
 30
0.0
 40
0.545688953974843
100
AcDbArc
 50
351.66260169
 51
156.3381551
  0
LINE
  5
C45
330
A21
100
AcDbEntity
  8
247
100
AcDbLine
 10
1.82906055
 20
-17.51396982
 30
0.0
 11
1.82906055
 21
-16.56781885
 31
0.0
  0
LINE
  5
C46
330
A21
100
AcDbEntity
  8
247
100
AcDbLine
 10
3.61167776
 20
-15.35697415
 30
0.0
 11
3.61167776
 21
-15.05420804
 31
0.0
1001
ACAD
1000
ASC_BOUNDS
1002
{
1070
    19
1005
0
1002
}
  0
ARC
  5
C47
330
A21
100
AcDbEntity
  8
247
100
AcDbCircle
 10
2.7385538
 20
-19.00476741
 30
0.0
 40
0.9095009758114816
100
AcDbArc
 50
17.66957755
 51
180.23615984
  0
LINE
  5
C48
330
A21
100
AcDbEntity
  8
247
100
AcDbLine
 10
2.19286335
 20
-21.12264686
 30
0.0
 11
2.19286335
 21
-20.47566353
 31
0.0
1001
ACAD
1000
ASC_BOUNDS
1002
{
1070
    19
1005
0
1002
}
  0
LINE
  5
C49
330
A21
100
AcDbEntity
  8
247
100
AcDbLine
 10
2.19286335
 20
-20.28644158
 30
0.0
 11
2.19286335
 21
-20.09720589
 31
0.0
  0
LINE
  5
C4A
330
A21
100
AcDbEntity
  8
247
100
AcDbLine
 10
1.82906055
 20
-21.12264686
 30
0.0
 11
1.82906055
 21
-20.37134904
 31
0.0
1001
ACAD
1000
ASC_BOUNDS
1002
{
1070
    19
1005
0
1002
}
  0
LINE
  5
C4B
330
A21
100
AcDbEntity
  8
247
100
AcDbLine
 10
1.82906055
 20
-20.18212709
 30
0.0
 11
2.19286335
 21
-20.28644158
 31
0.0
  0
LINE
  5
C4C
330
A21
100
AcDbEntity
  8
247
100
AcDbLine
 10
1.82906055
 20
-20.37134904
 30
0.0
 11
2.19286335
 21
-20.47566353
 31
0.0
1001
ACAD
1000
ASC_BOUNDS
1002
{
1070
    19
1005
0
1002
}
  0
LINE
  5
C4D
330
A21
100
AcDbEntity
  8
247
100
AcDbLine
 10
3.64222045
 20
-20.51280283
 30
0.0
 11
2.3687596
 21
-19.23934198
 31
0.0
  0
LINE
  5
C4E
330
A21
100
AcDbEntity
  8
247
100
AcDbLine
 10
2.19286335
 20
-20.27593185
 30
0.0
 11
1.82906055
 21
-19.91212906
 31
0.0
  0
LINE
  5
C4F
330
A21
100
AcDbEntity
  8
247
100
AcDbLine
 10
2.50893026
 20
-20.18783672
 30
0.0
 11
1.82906055
 21
-19.50796702
 31
0.0
  0
LINE
  5
C50
330
A21
100
AcDbEntity
  8
247
100
AcDbLine
 10
1.82906055
 20
-20.18212709
 30
0.0
 11
1.82906055
 21
-19.00851615
 31
0.0
  0
LINE
  5
C51
330
A21
100
AcDbEntity
  8
247
100
AcDbLine
 10
3.07557535
 20
-20.35031977
 30
0.0
 11
1.82906055
 21
-19.10380498
 31
0.0
  0
LINE
  5
C52
330
A21
100
AcDbEntity
  8
247
100
AcDbLine
 10
5.03506907
 20
-19.07651718
 30
0.0
 11
4.53928691
 21
-18.58073502
 31
0.0
  0
LINE
  5
C53
330
A21
100
AcDbEntity
  8
247
100
AcDbLine
 10
5.10325866
 20
-18.32037096
 30
0.0
 11
5.10325866
 21
-17.50667673
 31
0.0
  0
ARC
  5
C54
330
A21
100
AcDbEntity
  8
247
100
AcDbCircle
 10
4.32108497
 20
-15.65501555
 30
0.0
 40
0.3819924829110504
100
AcDbArc
 50
254.00027306
 51
74.00027306
1001
ACAD
1000
ASC_BOUNDS
1002
{
1070
    19
1005
0
1002
}
  0
LINE
  5
C55
330
A21
100
AcDbEntity
  8
247
100
AcDbLine
 10
5.10325866
 20
-20.35719288
 30
0.0
 11
4.63532719
 21
-19.88926141
 31
0.0
  0
LINE
  5
C56
330
A21
100
AcDbEntity
  8
247
100
AcDbLine
 10
5.10325866
 20
-20.93174928
 30
0.0
 11
5.10325866
 21
-19.4220391
 31
0.0
  0
ELLIPSE
  5
C57
330
A21
100
AcDbEntity
  8
240
100
AcDbEllipse
 10
19.06176922
 20
-17.14217809
 30
0.0
 11
-7.994563226508946
 21
-4.125137067155382
 31
-0.0000000000000001
210
0.0
220
0.0
230
0.9999999999999998
 40
0.07148558
 41
5.33603687024662
 42
6.15904951652492
  0
LINE
  5
C58
330
A21
100
AcDbEntity
  8
241
100
AcDbLine
 10
11.09221164
 20
-21.16481136
 30
0.0
 11
11.07626629
 21
-21.18946101
 31
0.0
  0
LINE
  5
C59
330
A21
100
AcDbEntity
  8
241
100
AcDbLine
 10
17.53421071
 20
0.70454785
 30
0.0
 11
13.42694079
 21
-0.53206917
 31
0.0
  0
SPLINE
  5
C5A
330
A21
100
AcDbEntity
  8
241
100
AcDbSpline
210
0.0
220
0.0
230
1.0
 70
     8
 71
     3
 72
    20
 73
    16
 74
     0
 42
0.0000000001
 43
0.0000000001
 40
1.57554490437581
 40
1.57554490437581
 40
1.57554490437581
 40
1.57554490437581
 40
2.035206491331873
 40
2.035206491331873
 40
3.052809736997811
 40
3.052809736997811
 40
4.070412982663746
 40
4.070412982663746
 40
6.105619473995622
 40
6.105619473995622
 40
8.140825965327501
 40
8.140825965327501
 40
9.331190143979586
 40
9.331190143979586
 40
9.514064881856267
 40
9.514064881856267
 40
9.514064881856267
 40
9.514064881856267
 10
17.67258380291477
 20
9.824050725531662
 30
0.0
 10
17.54907877487385
 20
9.763405542968255
 30
0.0
 10
17.42741250055575
 20
9.698217928791052
 30
0.0
 10
17.0395902753749
 20
9.477791886664306
 30
0.0
 10
16.77827212233114
 20
9.310287184739079
 30
0.0
 10
16.2605538401411
 20
8.960049662534855
 30
0.0
 10
16.00431350214759
 20
8.777091909957391
 30
0.0
 10
15.24105186622136
 20
8.218320942037619
 30
0.0
 10
14.74430832857731
 20
7.836673874932611
 30
0.0
 10
13.80522951025636
 20
7.119001501607897
 30
0.0
 10
13.3632325729984
 20
6.782428287498928
 30
0.0
 10
12.73342578129586
 20
6.323955005519052
 30
0.0
 10
12.50545039474996
 20
6.163006130517429
 30
0.0
 10
12.26322106639828
 20
6.002459938589709
 30
0.0
 10
12.23138095951617
 20
5.981588114397367
 30
0.0
 10
12.19999999999998
 20
5.961266986229817
 30
0.0
  0
SPLINE
  5
C5B
330
A21
100
AcDbEntity
  8
240
100
AcDbSpline
210
0.0
220
0.0
230
1.0
 70
     8
 71
     3
 72
    12
 73
     8
 74
     0
 42
0.0000000001
 43
0.0000000001
 40
13.06577955214666
 40
13.06577955214666
 40
13.06577955214666
 40
13.06577955214666
 40
15.05827232943835
 40
15.05827232943835
 40
17.05076510673005
 40
17.05076510673005
 40
17.69087755733739
 40
17.69087755733739
 40
17.69087755733739
 40
17.69087755733739
 10
17.6725838029148
 20
16.17083752936542
 30
0.0
 10
17.13847783948114
 20
16.55421152506048
 30
0.0
 10
16.60199092571792
 20
16.96283357595941
 30
0.0
 10
15.56411204424779
 20
17.80557165684305
 30
0.0
 10
15.06266314706481
 20
18.23969494884343
 30
0.0
 10
14.443953918781
 20
18.81071618747244
 30
0.0
 10
14.29686907967948
 20
18.94937943584247
 30
0.0
 10
14.15356698828924
 20
19.08734454135196
 30
0.0
  0
SPLINE
  5
C5C
330
A21
100
AcDbEntity
  8
241
100
AcDbSpline
210
0.0
220
0.0
230
1.0
 70
     8
 71
     3
 72
    12
 73
     8
 74
     0
 42
0.0000000001
 43
0.0000000001
 40
13.06577955214666
 40
13.06577955214666
 40
13.06577955214666
 40
13.06577955214666
 40
15.05827232943835
 40
15.05827232943835
 40
17.05076510673005
 40
17.05076510673005
 40
17.69087755733742
 40
17.69087755733742
 40
17.69087755733742
 40
17.69087755733742
 10
17.67258380291477
 20
16.17083752936577
 30
0.0
 10
17.13847783948114
 20
16.55421152506079
 30
0.0
 10
16.60199092571789
 20
16.96283357595973
 30
0.0
 10
15.56411204424779
 20
17.80557165684337
 30
0.0
 10
15.06266314706476
 20
18.23969494884375
 30
0.0
 10
14.443953918781
 20
18.81071618747278
 30
0.0
 10
14.29686907967948
 20
18.94937943584278
 30
0.0
 10
14.15356698828921
 20
19.0873445413523
 30
0.0
  0
SPLINE
  5
C5D
330
A21
100
AcDbEntity
  8
241
100
AcDbSpline
210
0.0
220
0.0
230
1.0
 70
     8
 71
     3
 72
    20
 73
    16
 74
     0
 42
0.0000000001
 43
0.0000000001
 40
35.47533454060634
 40
35.47533454060634
 40
35.47533454060634
 40
35.47533454060634
 40
35.65820927848307
 40
35.65820927848307
 40
36.84857345713513
 40
36.84857345713513
 40
38.88377994846702
 40
38.88377994846702
 40
40.91898643979888
 40
40.91898643979888
 40
41.93658968546482
 40
41.93658968546482
 40
42.95419293113076
 40
42.95419293113076
 40
43.41385451808682
 40
43.41385451808682
 40
43.41385451808682
 40
43.41385451808682
 10
12.19999999999998
 20
18.08036357411253
 30
0.0
 10
12.23138095951622
 20
18.06004244594493
 30
0.0
 10
12.26322106639832
 20
18.03917062175258
 30
0.0
 10
12.50545039474996
 20
17.87862442982492
 30
0.0
 10
12.73342578129586
 20
17.71767555482323
 30
0.0
 10
13.3632325729984
 20
17.25920227284342
 30
0.0
 10
13.80522951025636
 20
16.92262905873445
 30
0.0
 10
14.74430832857735
 20
16.20495668540974
 30
0.0
 10
15.24105186622136
 20
15.82330961830467
 30
0.0
 10
16.00431350214759
 20
15.2645386503849
 30
0.0
 10
16.2605538401411
 20
15.08158089780749
 30
0.0
 10
16.77827212233114
 20
14.73134337560321
 30
0.0
 10
17.0395902753749
 20
14.56383867367799
 30
0.0
 10
17.42741250055575
 20
14.34341263155124
 30
0.0
 10
17.54907877487385
 20
14.27822501737407
 30
0.0
 10
17.67258380291477
 20
14.21757983481067
 30
0.0
  0
LINE
  5
C5E
330
A21
100
AcDbEntity
  8
241
100
AcDbLine
 10
17.17479585
 20
-12.98010446
 30
0.0
 11
21.28206577
 21
-11.74348743
 31
0.0
  0
CIRCLE
  5
C5F
330
A21
100
AcDbEntity
  8
241
100
AcDbCircle
 10
21.04611538
 20
-5.02630755
 30
0.0
 40
4.25
  0
TEXT
  5
C60
330
A21
100
AcDbEntity
  8
247
100
AcDbText
 10
5.13026336
 20
-10.61863568
 30
0.0
 40
2.5
  1
S50-DDHNN-00050-15
 50
90.0
 41
0.7
  7
YOKO
 11
5.13026336
 21
-10.61863568
 31
0.0
100
AcDbText
 73
     1
  0
LINE
  5
C61
330
A21
100
AcDbEntity
  8
241
100
AcDbLine
 10
0.0
 20
14.0
 30
0.0
 11
0.0
 21
-14.0
 31
0.0
  0
LINE
  5
C62
330
A21
100
AcDbEntity
  8
241
100
AcDbLine
 10
12.2
 20
18.08036357
 30
0.0
 11
12.2
 21
5.96126699
 31
0.0
  0
ELLIPSE
  5
C63
330
A21
100
AcDbEntity
  8
241
100
AcDbEllipse
 10
11.19297974
 20
12.02081528
 30
0.0
 11
0.0000000000000132
 21
6.420914894708507
 31
0.0
210
0.0
220
0.0
230
1.0
 40
0.08715574
 41
0.1810528892219612
 42
2.960539764367852
  0
LINE
  5
C64
330
A21
100
AcDbEntity
  8
245
100
AcDbLine
 10
-14.0
 20
-6.58530098
 30
0.0
 11
-14.0
 21
6.5350646
 31
0.0
  0
ARC
  5
C65
330
A21
100
AcDbEntity
  8
241
100
AcDbCircle
 10
13.85938561
 20
-1.96838094
 30
0.0
 40
1.5
100
AcDbArc
 50
106.756
 51
196.756
  0
LINE
  5
C66
330
A21
100
AcDbEntity
  8
247
100
AcDbLine
 10
5.10325866
 20
-14.72498903
 30
0.0
 11
3.24787497
 21
-14.19296453
 31
0.0
1001
ACAD
1000
ASC_BOUNDS
1002
{
1070
    19
1005
0
1002
}
  0
ARC
  5
C67
330
A21
100
AcDbEntity
  8
247
100
AcDbCircle
 10
3.73901149
 20
-13.73749684
 30
0.0
 40
1.54615243145227
100
AcDbArc
 50
200.8721834
 51
222.54194894
1001
ACAD
1000
ASC_BOUNDS
1002
{
1070
    19
1005
0
1002
}
  0
ARC
  5
C68
330
A21
100
AcDbEntity
  8
247
100
AcDbCircle
 10
3.73901149
 20
-13.73749684
 30
0.0
 40
1.909951791679857
100
AcDbArc
 50
200.22964506
 51
208.57168892
1001
ACAD
1000
ASC_BOUNDS
1002
{
1070
    19
1005
0
1002
}
  0
LINE
  5
C69
330
A21
100
AcDbEntity
  8
247
100
AcDbLine
 10
2.29432104
 20
-14.28836525
 30
0.0
 11
1.94687618
 21
-14.39792637
 31
0.0
1001
ACAD
1000
ASC_BOUNDS
1002
{
1070
    19
1005
0
1002
}
  0
LWPOLYLINE
  5
C6A
330
A21
100
AcDbEntity
  8
247
100
AcDbPolyline
 90
        4
 70
     1
 43
0.0
 10
2.23961602
 20
-14.11488318
 10
1.89217116
 20
-14.2244443
 10
1.89217116
 20
-14.2244443
 10
2.23961602
 20
-14.11488318
1001
HATCH_DISTANCE
1040
1.0
1001
HATCH_DISPLAY
1070
     0
1001
HATCH_TYPE
1070
     7
  0
LWPOLYLINE
  5
C6B
330
A21
100
AcDbEntity
  8
247
100
AcDbPolyline
 90
        4
 70
     1
 43
0.0
 10
2.23961602
 20
-14.11488318
 10
1.89217116
 20
-14.2244443
 10
1.89217116
 20
-14.2244443
 10
2.23961602
 20
-14.11488318
  0
LWPOLYLINE
  5
C6C
330
A21
100
AcDbEntity
  8
247
100
AcDbPolyline
 90
        4
 70
     1
 43
0.0
 10
2.23961602
 20
-14.11488318
 10
1.89217116
 20
-14.2244443
 10
1.89217116
 20
-14.2244443
 10
2.23961602
 20
-14.11488318
1001
HATCH_DISTANCE
1040
1.0
1001
HATCH_DISPLAY
1070
     0
1001
HATCH_TYPE
1070
     7
  0
LWPOLYLINE
  5
C6D
330
A21
100
AcDbEntity
  8
247
100
AcDbPolyline
 90
        4
 70
     1
 43
0.0
 10
2.23961602
 20
-14.11488318
 10
1.89217116
 20
-14.2244443
 10
1.89217116
 20
-14.2244443
 10
2.23961602
 20
-14.11488318
  0
LINE
  5
C6E
330
A21
100
AcDbEntity
  8
247
100
AcDbLine
 10
2.23961602
 20
-14.11488318
 30
0.0
 11
1.89217116
 21
-14.2244443
 31
0.0
1001
ACAD
1000
ASC_BOUNDS
1002
{
1070
    19
1005
0
1002
}
  0
LINE
  5
C6F
330
A21
100
AcDbEntity
  8
241
100
AcDbLine
 10
12.42307384
 20
-2.40082575
 30
0.0
 11
15.30603927
 21
-11.97623751
 31
0.0
  0
ARC
  5
C70
330
A21
100
AcDbEntity
  8
241
100
AcDbCircle
 10
16.74235104
 20
-11.54379269
 30
0.0
 40
1.5
100
AcDbArc
 50
196.756
 51
286.756
  0
SPLINE
  5
C71
330
A21
100
AcDbEntity
  8
241
100
AcDbSpline
210
0.0
220
0.0
230
1.0
 70
     8
 71
     3
 72
    16
 73
    12
 74
     0
 42
0.0000000001
 43
0.0000000001
 40
8.376622956212079
 40
8.376622956212079
 40
8.376622956212079
 40
8.376622956212079
 40
8.868634151095982
 40
8.868634151095982
 40
9.737110601385175
 40
9.737110601385175
 40
10.60558705167435
 40
10.60558705167435
 40
11.47406350196356
 40
11.47406350196356
 40
11.87226115656206
 40
11.87226115656206
 40
11.87226115656206
 40
11.87226115656206
 10
12.19999999999998
 20
5.961266986229817
 30
0.0
 10
12.11443967552577
 20
5.905861340688544
 30
0.0
 10
12.03192959867446
 20
5.856138373833346
 30
0.0
 10
11.81543888927637
 20
5.735765888512047
 30
0.0
 10
11.69037781541282
 20
5.678275870670119
 30
0.0
 10
11.47506766396889
 20
5.603224353933113
 30
0.0
 10
11.38482615698249
 20
5.585664762782016
 30
0.0
 10
11.24090571872184
 20
5.585664762782016
 30
0.0
 10
11.18171523509902
 20
5.603224353933113
 30
0.0
 10
11.12018970594481
 20
5.657955724456543
 30
0.0
 10
11.10436942240686
 20
5.679316902869343
 30
0.0
 10
11.09221163951622
 20
5.704852491988447
 30
0.0
  0
LINE
  5
C72
330
A21
100
AcDbEntity
  8
240
100
AcDbLine
 10
0.0
 20
25.0
 30
0.0
 11
0.0
 21
14.0
 31
0.0
  0
ELLIPSE
  5
C73
330
A21
100
AcDbEntity
  8
240
100
AcDbEllipse
 10
19.06176922
 20
17.14217782
 30
0.0
 11
-7.994563226508925
 21
4.125137067155406
 31
-0.0000000000000001
210
0.0
220
0.0
230
0.9999999999999998
 40
0.07148558
 41
0.1241357906546556
 42
0.9471485491153483
  0
LINE
  5
C74
330
A21
100
AcDbEntity
  8
241
100
AcDbLine
 10
11.07626626
 20
21.18946079
 30
0.0
 11
11.09221164
 21
21.16481109
 31
0.0
  0
LINE
  5
C75
330
A21
100
AcDbEntity
  8
241
100
AcDbLine
 10
11.07626626
 20
21.18946079
 30
0.0
 11
11.09221164
 21
21.16481109
 31
0.0
  0
SPLINE
  5
C76
330
A21
100
AcDbEntity
  8
241
100
AcDbSpline
210
0.0
220
0.0
230
1.0
 70
     8
 71
     3
 72
    16
 73
    12
 74
     0
 42
0.0000000001
 43
0.0000000001
 40
9.338912946786424
 40
9.338912946786424
 40
9.338912946786424
 40
9.338912946786424
 40
9.73711060138492
 40
9.73711060138492
 40
10.60558705167411
 40
10.60558705167411
 40
11.4740635019633
 40
11.4740635019633
 40
12.3425399522525
 40
12.3425399522525
 40
12.83455114713635
 40
12.83455114713635
 40
12.83455114713635
 40
12.83455114713635
 10
11.09221163951627
 20
18.33677806835389
 30
0.0
 10
11.10436942240689
 20
18.36231365747295
 30
0.0
 10
11.12018970594485
 20
18.3836748358858
 30
0.0
 10
11.18171523509909
 20
18.43840620640922
 30
0.0
 10
11.24090571872189
 20
18.45596579756028
 30
0.0
 10
11.38482615698249
 20
18.45596579756028
 30
0.0
 10
11.47506766396892
 20
18.43840620640918
 30
0.0
 10
11.69037781541284
 20
18.36335468967222
 30
0.0
 10
11.81543888927637
 20
18.3058646718303
 30
0.0
 10
12.0319295986745
 20
18.185492186509
 30
0.0
 10
12.11443967552577
 20
18.13576921965373
 30
0.0
 10
12.19999999999998
 20
18.08036357411253
 30
0.0
  0
LINE
  5
C77
330
A21
100
AcDbEntity
  8
241
100
AcDbLine
 10
11.09221164
 20
21.16481109
 30
0.0
 11
11.09221164
 21
18.33677807
 31
0.0
  0
LINE
  5
C78
330
A21
100
AcDbEntity
  8
240
100
AcDbLine
 10
1.30407949
 20
25.0
 30
0.0
 11
0.0
 21
25.0
 31
0.0
  0
ELLIPSE
  5
C79
330
A21
100
AcDbEntity
  8
240
100
AcDbEllipse
 10
46.09549862
 20
57.0
 30
0.0
 11
0.0000000000000722
 21
50.0
 31
0.0
210
0.0
220
0.0
230
1.0
 40
0.98480775
 41
2.526263075076855
 42
2.891828411614448
  0
ELLIPSE
  5
C7A
330
A21
100
AcDbEntity
  8
241
100
AcDbEllipse
 10
-17.02167706
 20
12.02081528
 30
0.0
 11
-36.86333182751513
 21
-0.0000000000000041
 31
0.0
210
0.0
220
0.0
230
0.9999999999999998
 40
0.17632698
 41
2.796840124987264
 42
3.486345182192326
  0
LINE
  5
C7B
330
A21
100
AcDbEntity
  8
240
100
AcDbLine
 10
33.92448003
 20
8.55146389
 30
0.0
 11
37.00979277
 21
6.92057486
 31
0.0
  0
LINE
  5
C7C
330
A21
100
AcDbEntity
  8
241
100
AcDbLine
 10
33.62632866
 20
1.75118538
 30
0.0
 11
35.94137134
 21
1.51453339
 31
0.0
  0
LINE
  5
C7D
330
A21
100
AcDbEntity
  8
241
100
AcDbLine
 10
33.65674856
 20
-5.17798096
 30
0.0
 11
37.00703805
 21
-6.92203127
 31
0.0
  0
LINE
  5
C7E
330
A21
100
AcDbEntity
  8
240
100
AcDbLine
 10
33.92448103
 20
-8.55146363
 30
0.0
 11
37.00979306
 21
-6.92057498
 31
0.0
  0
LINE
  5
C7F
330
A21
100
AcDbEntity
  8
241
100
AcDbLine
 10
29.99612824
 20
-8.44589829
 30
0.0
 11
35.27705502
 21
-3.73149728
 31
0.0
  0
LINE
  5
C80
330
A21
100
AcDbEntity
  8
241
100
AcDbLine
 10
28.500559
 20
2.49383857
 30
0.0
 11
37.00703779
 21
6.92203114
 31
0.0
  0
LINE
  5
C81
330
A21
100
AcDbEntity
  8
241
100
AcDbLine
 10
21.28206577
 20
-11.74348743
 30
0.0
 11
27.16861913
 21
-9.97116366
 31
0.0
  0
LINE
  5
C82
330
A21
100
AcDbEntity
  8
241
100
AcDbLine
 10
23.2940939
 20
-5.55538778
 30
0.0
 11
21.71190772
 21
-7.23765418
 31
0.0
  0
LINE
  5
C83
330
A21
100
AcDbEntity
  8
241
100
AcDbLine
 10
20.38032303
 20
-2.81496093
 30
0.0
 11
22.62830155
 21
-3.34404116
 31
0.0
  0
LINE
  5
C84
330
A21
100
AcDbEntity
  8
241
100
AcDbLine
 10
18.79813685
 20
-4.49722733
 30
0.0
 11
20.38032303
 21
-2.81496093
 31
0.0
  0
LINE
  5
C85
330
A21
100
AcDbEntity
  8
241
100
AcDbLine
 10
21.71190772
 20
-7.23765418
 30
0.0
 11
19.4639292
 21
-6.70857395
 31
0.0
  0
LINE
  5
C86
330
A21
100
AcDbEntity
  8
241
100
AcDbLine
 10
19.4639292
 20
-6.70857395
 30
0.0
 11
18.79813685
 21
-4.49722733
 31
0.0
  0
LINE
  5
C87
330
A21
100
AcDbEntity
  8
241
100
AcDbLine
 10
22.62830155
 20
-3.34404116
 30
0.0
 11
23.2940939
 21
-5.55538778
 31
0.0
  0
ELLIPSE
  5
C88
330
A21
100
AcDbEntity
  8
241
100
AcDbEllipse
 10
26.3037295
 20
-7.09854014
 30
0.0
 11
4.86339770747903
 21
1.464272015448706
 31
0.0
210
0.0
220
0.0
230
1.0
 40
0.59066186
 41
4.712388980384688
 42
5.380673877756675
  0
ELLIPSE
  5
C89
330
A21
100
AcDbEntity
  8
241
100
AcDbEllipse
 10
24.2856537
 20
-0.39575191
 30
0.0
 11
4.8633977074793
 21
1.464272015448788
 31
0.0
210
0.0
220
0.0
230
1.0
 40
0.59066186
 41
0.9025114294229034
 42
1.570796326794896
  0
LINE
  5
C8A
330
A21
100
AcDbEntity
  8
241
100
AcDbLine
 10
17.6725838
 20
9.82405073
 30
0.0
 11
17.6725838
 21
0.74620923
 31
0.0
  0
LINE
  5
C8B
330
A21
100
AcDbEntity
  8
241
100
AcDbLine
 10
23.42076407
 20
2.47687162
 30
0.0
 11
17.53421071
 21
0.70454785
 31
0.0
  0
LINE
  5
C8C
330
A21
100
AcDbEntity
  8
241
100
AcDbLine
 10
26.62037366
 20
2.76625144
 30
0.0
 11
33.62632866
 21
1.75118538
 31
0.0
  0
LINE
  5
C8D
330
A21
100
AcDbEntity
  8
240
  6
CONTINUOUS
100
AcDbLine
 10
49.56939889
 20
-0.70960867
 30
0.0
 11
37.69064096
 21
-6.89329865
 31
0.0
  0
LINE
  5
C8E
330
A21
100
AcDbEntity
  8
241
100
AcDbLine
 10
37.07661031
 20
-2.25602193
 30
0.0
 11
35.27705502
 21
-3.73149728
 31
0.0
  0
ARC
  5
C8F
330
A21
100
AcDbEntity
  8
240
  6
CONTINUOUS
100
AcDbCircle
 10
37.32124207
 20
-6.18368998
 30
0.0
 40
0.8
100
AcDbArc
 50
247.08833092
 51
297.5
  0
LINE
  5
C90
330
A21
100
AcDbEntity
  8
240
  6
CONTINUOUS
100
AcDbLine
 10
37.69064096
 20
6.89329865
 30
0.0
 11
49.56939889
 21
0.70960867
 31
0.0
  0
SPLINE
  5
C91
330
A21
100
AcDbEntity
  8
241
100
AcDbSpline
210
0.0
220
0.0
230
1.0
 70
     8
 71
     3
 72
    19
 73
    15
 74
     0
 42
0.0000000001
 43
0.0000000001
 40
-0.0565864198345793
 40
-0.0565864198345793
 40
-0.0565864198345793
 40
-0.0565864198345793
 40
0.0
 40
0.0
 40
0.0
 40
0.4621772209985248
 40
0.4621772209985248
 40
0.9243544419970495
 40
0.9243544419970495
 40
1.386531662995573
 40
1.386531662995573
 40
1.848708883994099
 40
1.848708883994099
 40
2.075001284306946
 40
2.075001284306946
 40
2.075001284306946
 40
2.075001284306946
 10
38.63353001405076
 20
-1.165577960972823
 30
0.0
 10
38.62505565398665
 20
-1.182485626726929
 30
0.0
 10
38.61635145517263
 20
-1.199253008460487
 30
0.0
 10
38.60742537338996
 20
-1.21586942766882
 30
0.0
 10
38.53452039575063
 20
-1.351586274133409
 30
0.0
 10
38.44478854722393
 20
-1.480360368028073
 30
0.0
 10
38.23936950088207
 20
-1.712059018184703
 30
0.0
 10
38.12368961082815
 20
-1.814974562078985
 30
0.0
 10
37.87938021830942
 20
-1.988015645037675
 30
0.0
 10
37.75036459105604
 20
-2.05841921837981
 30
0.0
 10
37.49476417416073
 20
-2.166188324879698
 30
0.0
 10
37.36826923964505
 20
-2.203629470977174
 30
0.0
 10
37.19304922464478
 20
-2.239871265064464
 30
0.0
 10
37.13455809089438
 20
-2.249281929707704
 30
0.0
 10
37.07661031327582
 20
-2.256021930200061
 30
0.0
  0
SPLINE
  5
C92
330
A21
100
AcDbEntity
  8
241
100
AcDbSpline
210
0.0
220
0.0
230
1.0
 70
     8
 71
     3
 72
    18
 73
    14
 74
     0
 42
0.0000000001
 43
0.0000000001
 40
8.989072812039331
 40
8.989072812039331
 40
8.989072812039331
 40
8.989072812039331
 40
9.215365212352192
 40
9.215365212352192
 40
9.677542433350719
 40
9.677542433350719
 40
10.13971965434924
 40
10.13971965434924
 40
10.60189687534776
 40
10.60189687534776
 40
11.06407409634629
 40
11.06407409634629
 40
11.12066051618086
 40
11.12066051618086
 40
11.12066051618086
 40
11.12066051618086
 10
35.94137133693655
 20
1.514533387882067
 30
0.0
 10
35.99340770004323
 20
1.540907417763833
 30
0.0
 10
36.04737160201972
 20
1.565354720680543
 30
0.0
 10
36.21347434579817
 20
1.631878399206554
 30
0.0
 10
36.33961374534925
 20
1.670500410548696
 30
0.0
 10
36.61222633386577
 20
1.721765701098348
 30
0.0
 10
36.75866635108693
 20
1.73429632642987
 30
0.0
 10
37.05790223666258
 20
1.72490588191661
 30
0.0
 10
37.21117355031771
 20
1.7029661793579
 30
0.0
 10
37.51036934849486
 20
1.623196990835196
 30
0.0
 10
37.65628276419028
 20
1.565370984415011
 30
0.0
 10
37.8086160298632
 20
1.483539924993008
 30
0.0
 10
37.82513079782761
 20
1.474365470988856
 30
0.0
 10
37.84153138552814
 20
1.464947155702958
 30
0.0
  0
ARC
  5
C93
330
A21
100
AcDbEntity
  8
241
100
AcDbCircle
 10
36.84554477
 20
-0.26941459
 30
0.0
 40
1.999999999999999
100
AcDbArc
 50
333.37932672
 51
60.13267328
  0
ARC
  5
C94
330
A21
100
AcDbEntity
  8
240
  6
CONTINUOUS
100
AcDbCircle
 10
37.32124207
 20
6.18368998
 30
0.0
 40
0.8
100
AcDbArc
 50
62.5
 51
112.91167348
  0
ARC
  5
C95
330
A21
100
AcDbEntity
  8
240
  6
CONTINUOUS
100
AcDbCircle
 10
49.2
 20
0.0
 30
0.0
 40
0.8
100
AcDbArc
 50
297.5
 51
62.5
  0
LINE
  5
C96
330
A21
100
AcDbEntity
  8
241
100
AcDbLine
 10
17.6725838
 20
14.21757983
 30
0.0
 11
17.6725838
 21
16.17083753
 31
0.0
  0
ELLIPSE
  5
C97
330
A21
100
AcDbEntity
  8
240
100
AcDbEllipse
 10
50.06948933
 20
0.0
 30
0.0
 11
-48.9557789845038
 21
-24.9360240437225
 31
0.0000000000000001
210
0.0
220
0.0
230
0.9999999999999998
 40
0.03650996
 41
0.0715559982483066
 42
0.6309470090290425
  0
ELLIPSE
  5
C98
330
A21
100
AcDbEntity
  8
240
100
AcDbEllipse
 10
50.0694888
 20
0.0
 30
0.0
 11
48.9557789845033
 21
-24.93602404372246
 31
-0.0000000000000002
210
0.0
220
0.0
230
1.0
 40
0.03650996
 41
2.51064562787323
 42
3.070036655341461
  0
ENDBLK
  5
A23
330
A21
100
AcDbEntity
  8
0
100
AcDbBlockEnd
  0
ENDSEC
  0
SECTION
  2
ENTITIES
  0
INSERT
  5
6E6
330
1A
100
AcDbEntity
  8
245
100
AcDbBlockReference
  2
矢印なし
 10
175.62382697
 20
90.55123572
 30
0.0
  0
TEXT
  5
899
330
1A
100
AcDbEntity
  8
241
100
AcDbText
 10
-31.0
 20
49.0
 30
0.0
 40
5.0
  1
S50-DDHNN-00050-15
  7
YOKO
 11
-31.0
 21
49.0
 31
0.0
100
AcDbText
 73
     1
  0
DIMENSION
  5
89A
330
1A
100
AcDbEntity
  8
250
  6
CONTINUOUS
100
AcDbDimension
  2
*D5
 10
74.0
 20
25.0
 30
0.0
 11
74.0
 21
0.0
 31
0.0
 70
   160
  1
{\H3;\U+2205}<>
  3
BIGT
100
AcDbAlignedDimension
 13
1.30408001
 23
-25.0
 33
0.0
 14
1.30407949
 24
25.0
 34
0.0
 50
90.0
100
AcDbRotatedDimension
1001
ACAD
1000
DSTYLE
1002
{
1070
    78
1070
     8
1070
   140
1040
3.0
1002
}
  0
DIMENSION
  5
89B
330
1A
100
AcDbEntity
  8
250
  6
CONTINUOUS
100
AcDbDimension
  2
*D6
 10
50.0
 20
35.0
 30
0.0
 11
25.0
 21
37.5
 31
0.0
 70
    32
  3
BIGT
100
AcDbAlignedDimension
 13
0.0
 23
25.0
 33
0.0
 14
50.0
 24
0.0
 34
0.0
100
AcDbRotatedDimension
1001
ACAD
1000
DSTYLE
1002
{
1070
    78
1070
     8
1070
   140
1040
3.0
1002
}
  0
LEADER
  5
990
102
{ACAD_REACTORS
330
995
102
}
330
1A
100
AcDbEntity
  8
250
  6
CONTINUOUS
100
AcDbLeader
  3
BIGT
 76
     2
 10
41.26196453
 20
-2.3867132
 30
0.0
 10
44.92550693
 20
-14.08955938
 30
0.0
1001
ACAD
1000
DSTYLE
1002
{
1070
     6
1000
DOT
1070
    41
1040
2.0
1070
    42
1040
2.0
1070
    44
1040
2.0
1070
   140
1040
4.0
1070
   341
1005
98B
1070
   343
1005
98B
1002
}
  0
MTEXT
  5
991
102
{ACAD_REACTORS
330
995
102
}
330
1A
100
AcDbEntity
  8
251
  6
CONTINUOUS
100
AcDbMText
 10
47.72550693
 20
-13.08955938
 30
0.0
 40
2.8
 41
0.0
 71
     7
 72
     1
  1
（DN1504）
  7
YOKO
1001
ITEMNAME
1000
LNSP3
1001
ACAD
1000
MTEXTBEGIN
1070
    73
1070
     1
1070
    44
1040
1.0
1070
    74
1070
     0
1000
MTEXTEND
1000
MTEXTBEGIN
1070
    73
1070
     1
1070
    44
1040
1.0
1070
    74
1070
     0
1000
MTEXTEND
1000
MTEXTBEGIN
1070
    73
1070
     1
1070
    44
1040
1.0
1070
    74
1070
     0
1000
MTEXTEND
  0
LINE
  5
993
102
{ACAD_REACTORS
330
995
102
}
330
1A
100
AcDbEntity
  8
250
  6
CONTINUOUS
100
AcDbLine
 10
44.92550693
 20
-14.08955938
 30
0.0
 11
71.56550693
 21
-14.08955938
 31
0.0
1001
ITEMNAME
1000
LNSP2
  0
INSERT
  5
C99
330
1A
100
AcDbEntity
  8
245
100
AcDbBlockReference
  2
1
 10
0.0
 20
0.0
 30
0.0
  0
VIEWPORT
  5
22
330
17
100
AcDbEntity
 67
     1
  8
0
100
AcDbViewport
 10
261.51769912
 20
148.5
 30
0.0
 40
523.03539823
 41
297.0
 68
     1
 69
     1
1001
ACAD
1000
MVIEW
1002
{
1070
    16
1010
0.0
1020
0.0
1030
0.0
1010
0.0
1020
0.0
1030
1.0
1040
0.0
1040
297.0
1040
261.51769912
1040
148.5
1040
50.0
1040
0.0
1040
0.0
1070
     0
1070
   100
1070
     1
1070
     1
1070
     0
1070
     0
1070
     0
1070
     0
1040
0.0
1040
0.0
1040
0.0
1040
1.0
1040
1.0
1040
10.0
1040
10.0
1070
     0
1002
{
1002
}
1002
}
  0
ENDSEC
  0
SECTION
  2
OBJECTS
  0
DICTIONARY
  5
C
330
0
100
AcDbDictionary
  3
ACAD_GROUP
350
D
  3
ACAD_LAYOUT
350
565
  3
ACAD_MLINESTYLE
350
E
  3
ACAD_PLOTSETTINGS
350
566
  3
ACAD_PLOTSTYLENAME
350
563
  3
ACDBHEADERROUNDTRIPXREC
350
D1D
  3
GRADE_DWG
350
540
  0
DICTIONARY
  5
B25
330
1A
100
AcDbDictionary
280
     1
  3
ACAD_LAYOUTSELFREF
360
D3F
  0
DICTIONARY
  5
B23
330
17
100
AcDbDictionary
280
     1
  3
ACAD_LAYOUTSELFREF
360
D3E
  0
DICTIONARY
  5
D
102
{ACAD_REACTORS
330
C
102
}
330
C
100
AcDbDictionary
  3
*A1
350
6C7
  3
*A2
350
6C8
  3
*A3
350
6D4
  3
*A4
350
6D5
  3
DREC-1
350
5FC
  3
DREC-2
350
654
  3
DREC-3
350
673
  3
LNSP-1
350
995
  0
DICTIONARY
  5
565
102
{ACAD_REACTORS
330
C
102
}
330
C
100
AcDbDictionary
  0
DICTIONARY
  5
E
102
{ACAD_REACTORS
330
C
102
}
330
C
100
AcDbDictionary
  3
STANDARD
350
13
  0
DICTIONARY
  5
566
102
{ACAD_REACTORS
330
C
102
}
330
C
100
AcDbDictionary
  3
A3_0_5倍_
350
758
  3
A3_1倍_
350
757
  3
A3_1倍__2000_
350
707
  3
A3_2倍_
350
759
  3
A4_0_5倍_
350
755
  3
A4_1倍_
350
754
  3
A4_1倍__2000_
350
708
  3
A4_2倍_
350
756
  0
ACDBDICTIONARYWDFLT
  5
563
102
{ACAD_REACTORS
330
C
102
}
330
C
100
AcDbDictionary
281
     1
  3
Normal
350
564
100
AcDbDictionaryWithDefault
340
564
  0
DICTIONARY
  5
D1D
102
{ACAD_REACTORS
330
C
102
}
330
C
100
AcDbDictionary
  3
CEPSNTYPE
350
D27
  3
DIMSTYLEDATA
350
D2B
  3
FINGERPRINTGUID
350
D28
  3
HYPERLINKBASE
350
D20
  3
INSUNITS
350
D26
  3
LAYOUTDICT
350
D22
  3
LWETCUNION
350
D25
  3
PLOTSETDICT
350
D23
  3
PLOTSTYLNAMDICT
350
D24
  3
PSVPSCALE
350
D2A
  3
PUCSBASE
350
D2E
  3
PUCSORGBACK
350
D34
  3
PUCSORGBOTTOM
350
D30
  3
PUCSORGFRONT
350
D33
  3
PUCSORGLEFT
350
D31
  3
PUCSORGRIGHT
350
D32
  3
PUCSORGTOP
350
D2F
  3
PUCSORTHOREF
350
D2C
  3
PUCSORTHOVIEW
350
D2D
  3
STYLESHEET
350
D21
  3
TSTACKALIGN
350
D1E
  3
TSTACKSIZE
350
D1F
  3
UCSBASE
350
D37
  3
UCSORGBACK
350
D3D
  3
UCSORGBOTTOM
350
D39
  3
UCSORGFRONT
350
D3C
  3
UCSORGLEFT
350
D3A
  3
UCSORGRIGHT
350
D3B
  3
UCSORGTOP
350
D38
  3
UCSORTHOREF
350
D35
  3
UCSORTHOVIEW
350
D36
  3
VERSIONGUID
350
D29
  0
DICTIONARY
  5
540
102
{ACAD_REACTORS
330
C
102
}
330
C
100
AcDbDictionary
  3
VERSION
350
560
  0
XRECORD
  5
D3F
102
{ACAD_REACTORS
330
B25
102
}
330
B25
100
AcDbXrecord
340
1A
  0
XRECORD
  5
D3E
102
{ACAD_REACTORS
330
B23
102
}
330
B23
100
AcDbXrecord
340
17
  0
GROUP
  5
6C7
102
{ACAD_REACTORS
330
D
102
}
330
D
100
AcDbGroup
300

 70
     0
 71
     1
1001
GRPNAME
1000
DMA00
  0
GROUP
  5
6C8
102
{ACAD_REACTORS
330
D
102
}
330
D
100
AcDbGroup
300

 70
     0
 71
     1
1001
GRPNAME
1000
DMA00
  0
GROUP
  5
6D4
102
{ACAD_REACTORS
330
D
102
}
330
D
100
AcDbGroup
300

 70
     0
 71
     1
1001
GRPNAME
1000
DMA00
  0
GROUP
  5
6D5
102
{ACAD_REACTORS
330
D
102
}
330
D
100
AcDbGroup
300

 70
     0
 71
     1
1001
GRPNAME
1000
DMA00
  0
GROUP
  5
5FC
102
{ACAD_REACTORS
330
D
102
}
330
D
100
AcDbGroup
300

 70
     0
 71
     1
1001
GRPNAME
1000
DREC-
1001
GPARA
1000
xsiz
1000
44.182
1000
ysiz
1000
40.677
1000
angl
1000
0
1000
ctyp
1000
0
1000
csiz
1000
5
1000
lfnt
1000
cont
1000
hcnt
1000
hoff
1000
vcnt
1000
voff
1000
opnt
1000
4
1000
dxpt
1000
0
1000
dypt
1000
0
  0
GROUP
  5
654
102
{ACAD_REACTORS
330
D
102
}
330
D
100
AcDbGroup
300

 70
     0
 71
     1
1001
GRPNAME
1000
DREC-
1001
GPARA
1000
xsiz
1000
54.592
1000
ysiz
1000
53.036
1000
angl
1000
0
1000
ctyp
1000
0
1000
csiz
1000
5
1000
lfnt
1000
cont
1000
hcnt
1000
hoff
1000
vcnt
1000
voff
1000
opnt
1000
4
1000
dxpt
1000
0
1000
dypt
1000
0
  0
GROUP
  5
673
102
{ACAD_REACTORS
330
D
102
}
330
D
100
AcDbGroup
300

 70
     0
 71
     1
1001
GRPNAME
1000
DREC-
1001
GPARA
1000
xsiz
1000
30.363
1000
ysiz
1000
36.175
1000
angl
1000
0
1000
ctyp
1000
0
1000
csiz
1000
5
1000
lfnt
1000
cont
1000
hcnt
1000
hoff
1000
vcnt
1000
voff
1000
opnt
1000
4
1000
dxpt
1000
0
1000
dypt
1000
0
  0
GROUP
  5
995
102
{ACAD_REACTORS
330
D
102
}
330
D
100
AcDbGroup
300

 70
     0
 71
     1
340
990
340
991
340
993
1001
GRPNAME
1000
LNSP
  0
MLINESTYLE
  5
13
102
{ACAD_REACTORS
330
E
102
}
330
E
100
AcDbMlineStyle
  2
STANDARD
 70
     0
  3

 62
     0
 51
90.0
 52
90.0
 71
     2
 49
0.5
 62
   256
  6
BYLAYER
 49
-0.5
 62
   256
  6
BYLAYER
  0
PLOTSETTINGS
  5
758
102
{ACAD_REACTORS
330
566
102
}
330
566
100
AcDbPlotSettings
  1
A3(0.5倍)
  2
\\AWTECPC05\HP DeskJet 1120C
  4
A3
  6

 40
5.95841646
 41
13.49375153
 42
6.04309082
 43
3.67242432
 44
296.92599487
 45
419.94665527
 46
89.96
 47
127.14
 48
0.0
 49
0.0
140
0.0
141
0.0
142
1.0
143
2.0
 70
  1716
 72
     1
 73
     1
 74
     2
  7
big.ctb
 75
    17
147
0.5
148
0.0
149
0.0
  0
PLOTSETTINGS
  5
757
102
{ACAD_REACTORS
330
566
102
}
330
566
100
AcDbPlotSettings
  1
A3(1倍)
  2
\\AWTECPC05\HP DeskJet 1120C
  4
A3
  6

 40
5.95841646
 41
13.49375153
 42
6.04309082
 43
3.67242432
 44
296.92599487
 45
419.94665527
 46
37.46
 47
52.89
 48
0.0
 49
0.0
140
0.0
141
0.0
142
1.0
143
1.0
 70
  1716
 72
     1
 73
     1
 74
     2
  7
big.ctb
 75
    16
147
1.0
148
0.0
149
0.0
  0
PLOTSETTINGS
  5
707
102
{ACAD_REACTORS
330
566
102
}
330
566
100
AcDbPlotSettings
  1
A3(1倍)(2000)
  2
SII LS-1300 (D-SCAN)
  4
User258
  6

 40
3.17499995
 41
3.17499995
 42
3.17498779
 43
3.17498779
 44
419.98898315
 45
296.98950195
 46
58.32
 47
40.32
 48
0.0
 49
0.0
140
0.0
141
0.0
142
1.0
143
1.0
 70
  1716
 72
     1
 73
     0
 74
     2
  7
big.ctb
 75
    16
147
1.0
148
0.0
149
0.0
  0
PLOTSETTINGS
  5
759
102
{ACAD_REACTORS
330
566
102
}
330
566
100
AcDbPlotSettings
  1
A3(2倍)
  2
\\AWTECPC05\HP DeskJet 1120C
  4
A3
  6

 40
5.95841646
 41
13.49375153
 42
6.04309082
 43
3.67242432
 44
296.92599487
 45
419.94665527
 46
-67.54
 47
-95.61
 48
0.0
 49
0.0
140
0.0
141
0.0
142
1.0
143
0.5
 70
  1716
 72
     1
 73
     1
 74
     2
  7
big.ctb
 75
    27
147
2.0
148
0.0
149
0.0
  0
PLOTSETTINGS
  5
755
102
{ACAD_REACTORS
330
566
102
}
330
566
100
AcDbPlotSettings
  1
A4(0.5倍)
  2
\\AWTECPC05\HP DeskJet 1120C
  4
A4
  6

 40
4.18041658
 41
13.49374962
 42
4.18040466
 43
3.92642212
 44
209.97332764
 45
296.92599487
 46
48.31
 47
65.5
 48
0.0
 49
0.0
140
0.0
141
0.0
142
1.0
143
2.0
 70
  1716
 72
     1
 73
     1
 74
     2
  7
big.ctb
 75
    17
147
0.5
148
0.0
149
0.0
  0
PLOTSETTINGS
  5
754
102
{ACAD_REACTORS
330
566
102
}
330
566
100
AcDbPlotSettings
  1
A4(1倍)
  2
\\AWTECPC05\HP DeskJet 1120C
  4
A4
  6

 40
4.18041658
 41
13.49374962
 42
4.18040466
 43
3.92642212
 44
209.97332764
 45
296.92599487
 46
-4.19
 47
-8.75
 48
0.0
 49
0.0
140
0.0
141
0.0
142
1.0
143
1.0
 70
  1716
 72
     1
 73
     1
 74
     2
  7
big.ctb
 75
    16
147
1.0
148
0.0
149
0.0
  0
PLOTSETTINGS
  5
708
102
{ACAD_REACTORS
330
566
102
}
330
566
100
AcDbPlotSettings
  1
A4(1倍)(2000)
  2
SII LS-1300 (D-SCAN)
  4
User259
  6

 40
3.17499995
 41
3.17499995
 42
3.17498779
 43
3.17500305
 44
296.98950195
 45
209.99449158
 46
-3.18
 47
-3.18
 48
0.0
 49
0.0
140
0.0
141
0.0
142
1.0
143
1.0
 70
  1716
 72
     1
 73
     0
 74
     2
  7
big.ctb
 75
    16
147
1.0
148
0.0
149
0.0
  0
PLOTSETTINGS
  5
756
102
{ACAD_REACTORS
330
566
102
}
330
566
100
AcDbPlotSettings
  1
A4(2倍)
  2
\\AWTECPC05\HP DeskJet 1120C
  4
A4
  6

 40
4.18041658
 41
13.49374962
 42
4.18040466
 43
3.92642212
 44
209.97332764
 45
296.92599487
 46
-109.19
 47
-157.25
 48
0.0
 49
0.0
140
0.0
141
0.0
142
1.0
143
0.5
 70
  1716
 72
     1
 73
     1
 74
     2
  7
big.ctb
 75
    27
147
2.0
148
0.0
149
0.0
  0
ACDBPLACEHOLDER
  5
564
102
{ACAD_REACTORS
330
563
102
}
330
563
100
AcDbPlaceHolder
280
     0
  0
XRECORD
  5
D27
102
{ACAD_REACTORS
330
D1D
102
}
330
D1D
100
AcDbXrecord
 90
        0
  0
XRECORD
  5
D2B
102
{ACAD_REACTORS
330
D1D
102
}
330
D1D
100
AcDbXrecord
1000
DSTYLE
1002
{
1070
    79
 70
     2
1070
   179
 70
     3
1070
   341
340
594
1070
   343
340
594
1070
   344
340
594
1070
   371
 70
    -1
1070
   372
 70
    -1
1002
}
  0
XRECORD
  5
D28
102
{ACAD_REACTORS
330
D1D
102
}
330
D1D
100
AcDbXrecord
  1
{51294030-9CB4-11D3-8E18-00A0C925D94D}
  0
XRECORD
  5
D20
102
{ACAD_REACTORS
330
D1D
102
}
330
D1D
100
AcDbXrecord
  1

  0
XRECORD
  5
D26
102
{ACAD_REACTORS
330
D1D
102
}
330
D1D
100
AcDbXrecord
 90
        0
  0
XRECORD
  5
D22
102
{ACAD_REACTORS
330
D1D
102
}
330
D1D
100
AcDbXrecord
340
565
  0
XRECORD
  5
D25
102
{ACAD_REACTORS
330
D1D
102
}
330
D1D
100
AcDbXrecord
 90
    10781
  0
XRECORD
  5
D23
102
{ACAD_REACTORS
330
D1D
102
}
330
D1D
100
AcDbXrecord
340
566
  0
XRECORD
  5
D24
102
{ACAD_REACTORS
330
D1D
102
}
330
D1D
100
AcDbXrecord
340
563
  0
XRECORD
  5
D2A
102
{ACAD_REACTORS
330
D1D
102
}
330
D1D
100
AcDbXrecord
 40
0.0
  0
XRECORD
  5
D2E
102
{ACAD_REACTORS
330
D1D
102
}
330
D1D
100
AcDbXrecord
340
0
  0
XRECORD
  5
D34
102
{ACAD_REACTORS
330
D1D
102
}
330
D1D
100
AcDbXrecord
 10
0.0
 20
0.0
 30
0.0
  0
XRECORD
  5
D30
102
{ACAD_REACTORS
330
D1D
102
}
330
D1D
100
AcDbXrecord
 10
0.0
 20
0.0
 30
0.0
  0
XRECORD
  5
D33
102
{ACAD_REACTORS
330
D1D
102
}
330
D1D
100
AcDbXrecord
 10
0.0
 20
0.0
 30
0.0
  0
XRECORD
  5
D31
102
{ACAD_REACTORS
330
D1D
102
}
330
D1D
100
AcDbXrecord
 10
0.0
 20
0.0
 30
0.0
  0
XRECORD
  5
D32
102
{ACAD_REACTORS
330
D1D
102
}
330
D1D
100
AcDbXrecord
 10
0.0
 20
0.0
 30
0.0
  0
XRECORD
  5
D2F
102
{ACAD_REACTORS
330
D1D
102
}
330
D1D
100
AcDbXrecord
 10
0.0
 20
0.0
 30
0.0
  0
XRECORD
  5
D2C
102
{ACAD_REACTORS
330
D1D
102
}
330
D1D
100
AcDbXrecord
340
0
  0
XRECORD
  5
D2D
102
{ACAD_REACTORS
330
D1D
102
}
330
D1D
100
AcDbXrecord
 70
     0
  0
XRECORD
  5
D21
102
{ACAD_REACTORS
330
D1D
102
}
330
D1D
100
AcDbXrecord
  1
big.ctb
  0
XRECORD
  5
D1E
102
{ACAD_REACTORS
330
D1D
102
}
330
D1D
100
AcDbXrecord
 90
        1
  0
XRECORD
  5
D1F
102
{ACAD_REACTORS
330
D1D
102
}
330
D1D
100
AcDbXrecord
 90
       70
  0
XRECORD
  5
D37
102
{ACAD_REACTORS
330
D1D
102
}
330
D1D
100
AcDbXrecord
340
0
  0
XRECORD
  5
D3D
102
{ACAD_REACTORS
330
D1D
102
}
330
D1D
100
AcDbXrecord
 10
0.0
 20
0.0
 30
0.0
  0
XRECORD
  5
D39
102
{ACAD_REACTORS
330
D1D
102
}
330
D1D
100
AcDbXrecord
 10
0.0
 20
0.0
 30
0.0
  0
XRECORD
  5
D3C
102
{ACAD_REACTORS
330
D1D
102
}
330
D1D
100
AcDbXrecord
 10
0.0
 20
0.0
 30
0.0
  0
XRECORD
  5
D3A
102
{ACAD_REACTORS
330
D1D
102
}
330
D1D
100
AcDbXrecord
 10
0.0
 20
0.0
 30
0.0
  0
XRECORD
  5
D3B
102
{ACAD_REACTORS
330
D1D
102
}
330
D1D
100
AcDbXrecord
 10
0.0
 20
0.0
 30
0.0
  0
XRECORD
  5
D38
102
{ACAD_REACTORS
330
D1D
102
}
330
D1D
100
AcDbXrecord
 10
0.0
 20
0.0
 30
0.0
  0
XRECORD
  5
D35
102
{ACAD_REACTORS
330
D1D
102
}
330
D1D
100
AcDbXrecord
340
0
  0
XRECORD
  5
D36
102
{ACAD_REACTORS
330
D1D
102
}
330
D1D
100
AcDbXrecord
 70
     0
  0
XRECORD
  5
D29
102
{ACAD_REACTORS
330
D1D
102
}
330
D1D
100
AcDbXrecord
  1
{1E804F44-E8CF-44DA-88AC-C96773AC0033}
  0
XRECORD
  5
560
102
{ACAD_REACTORS
330
540
102
}
330
540
100
AcDbXrecord
  1
2.0.0
  0
ENDSEC
  0
EOF
