  0
SECTION
  2
HEADER
  9
$ACADVER
  1
AC1014
  9
$ACADMAINTVER
 70
     9
  9
$DWGCODEPAGE
  3
ANSI_932
  9
$INSBASE
 10
0.0
 20
0.0
 30
0.0
  9
$EXTMIN
 10
-32.01379289
 20
-25.00982592
 30
0.0
  9
$EXTMAX
 10
75.02722233
 20
54.02108811
 30
0.0
  9
$LIMMIN
 10
0.0
 20
0.0
  9
$LIMMAX
 10
420.0
 20
297.0
  9
$ORTHOMODE
 70
     1
  9
$REGENMODE
 70
     1
  9
$FILLMODE
 70
     1
  9
$QTEXTMODE
 70
     0
  9
$MIRRTEXT
 70
     1
  9
$DRAGMODE
 70
     2
  9
$LTSCALE
 40
10.0
  9
$OSMODE
 70
   549
  9
$ATTMODE
 70
     1
  9
$TEXTSIZE
 40
3.0
  9
$TRACEWID
 40
1.0
  9
$TEXTSTYLE
  7
YOKO
  9
$CLAYER
  8
245
  9
$CELTYPE
  6
CONTINUOUS
  9
$CECOLOR
 62
   256
  9
$CELTSCALE
 40
1.0
  9
$DELOBJ
 70
     1
  9
$DISPSILH
 70
     0
  9
$DIMSCALE
 40
1.0
  9
$DIMASZ
 40
2.0
  9
$DIMEXO
 40
2.0
  9
$DIMDLI
 40
2.5
  9
$DIMRND
 40
0.0
  9
$DIMDLE
 40
0.0
  9
$DIMEXE
 40
2.0
  9
$DIMTP
 40
0.0
  9
$DIMTM
 40
0.0
  9
$DIMTXT
 40
4.0
  9
$DIMCEN
 40
0.0
  9
$DIMTSZ
 40
0.0
  9
$DIMTOL
 70
     0
  9
$DIMLIM
 70
     0
  9
$DIMTIH
 70
     0
  9
$DIMTOH
 70
     0
  9
$DIMSE1
 70
     0
  9
$DIMSE2
 70
     0
  9
$DIMTAD
 70
     3
  9
$DIMZIN
 70
     8
  9
$DIMBLK
  1

  9
$DIMASO
 70
     1
  9
$DIMSHO
 70
     1
  9
$DIMPOST
  1

  9
$DIMAPOST
  1

  9
$DIMALT
 70
     0
  9
$DIMALTD
 70
     2
  9
$DIMALTF
 40
25.4
  9
$DIMLFAC
 40
1.0
  9
$DIMTOFL
 70
     1
  9
$DIMTVP
 40
0.0
  9
$DIMTIX
 70
     1
  9
$DIMSOXD
 70
     0
  9
$DIMSAH
 70
     1
  9
$DIMBLK1
  1
OPEN
  9
$DIMBLK2
  1
OPEN
  9
$DIMSTYLE
  2
BIGT
  9
$DIMCLRD
 70
   256
  9
$DIMCLRE
 70
   256
  9
$DIMCLRT
 70
    40
  9
$DIMTFAC
 40
1.0
  9
$DIMGAP
 40
1.0
  9
$DIMJUST
 70
     0
  9
$DIMSD1
 70
     0
  9
$DIMSD2
 70
     0
  9
$DIMTOLJ
 70
     1
  9
$DIMTZIN
 70
     8
  9
$DIMALTZ
 70
     0
  9
$DIMALTTZ
 70
     0
  9
$DIMFIT
 70
     3
  9
$DIMUPT
 70
     0
  9
$DIMUNIT
 70
     2
  9
$DIMDEC
 70
     3
  9
$DIMTDEC
 70
     3
  9
$DIMALTU
 70
     2
  9
$DIMALTTD
 70
     2
  9
$DIMTXSTY
  7
STANDARD
  9
$DIMAUNIT
 70
     0
  9
$LUNITS
 70
     2
  9
$LUPREC
 70
     3
  9
$SKETCHINC
 40
1.0
  9
$FILLETRAD
 40
0.0
  9
$AUNITS
 70
     0
  9
$AUPREC
 70
     3
  9
$MENU
  1
.
  9
$ELEVATION
 40
0.0
  9
$PELEVATION
 40
0.0
  9
$THICKNESS
 40
0.0
  9
$LIMCHECK
 70
     0
  9
$BLIPMODE
 70
     0
  9
$CHAMFERA
 40
10.0
  9
$CHAMFERB
 40
10.0
  9
$CHAMFERC
 40
0.0
  9
$CHAMFERD
 40
0.0
  9
$SKPOLY
 70
     0
  9
$TDCREATE
 40
2455099.577049514
  9
$TDUPDATE
 40
2455387.396250359
  9
$TDINDWG
 40
0.0140565278
  9
$TDUSRTIMER
 40
0.0140563426
  9
$USRTIMER
 70
     1
  9
$ANGBASE
 50
0.0
  9
$ANGDIR
 70
     0
  9
$PDMODE
 70
     1
  9
$PDSIZE
 40
-5.0
  9
$PLINEWID
 40
0.0
  9
$COORDS
 70
     1
  9
$SPLFRAME
 70
     0
  9
$SPLINETYPE
 70
     6
  9
$SPLINESEGS
 70
     8
  9
$ATTDIA
 70
     0
  9
$ATTREQ
 70
     1
  9
$HANDLING
 70
-16383
  9
$HANDSEED
  5
10A8
  9
$SURFTAB1
 70
     6
  9
$SURFTAB2
 70
     6
  9
$SURFTYPE
 70
     6
  9
$SURFU
 70
     6
  9
$SURFV
 70
     6
  9
$UCSNAME
  2

  9
$UCSORG
 10
0.0
 20
0.0
 30
0.0
  9
$UCSXDIR
 10
1.0
 20
0.0
 30
0.0
  9
$UCSYDIR
 10
0.0
 20
1.0
 30
0.0
  9
$PUCSNAME
  2

  9
$PUCSORG
 10
0.0
 20
0.0
 30
0.0
  9
$PUCSXDIR
 10
1.0
 20
0.0
 30
0.0
  9
$PUCSYDIR
 10
0.0
 20
1.0
 30
0.0
  9
$USERI1
 70
     1
  9
$USERI2
 70
     0
  9
$USERI3
 70
     0
  9
$USERI4
 70
     0
  9
$USERI5
 70
     0
  9
$USERR1
 40
0.0
  9
$USERR2
 40
0.0
  9
$USERR3
 40
0.0
  9
$USERR4
 40
0.0
  9
$USERR5
 40
0.0
  9
$WORLDVIEW
 70
     1
  9
$SHADEDGE
 70
     3
  9
$SHADEDIF
 70
    70
  9
$TILEMODE
 70
     1
  9
$MAXACTVP
 70
    16
  9
$PINSBASE
 10
0.0
 20
0.0
 30
0.0
  9
$PLIMCHECK
 70
     0
  9
$PEXTMIN
 10
1.00000000E+20
 20
1.00000000E+20
 30
1.00000000E+20
  9
$PEXTMAX
 10
-1.00000000E+20
 20
-1.00000000E+20
 30
-1.00000000E+20
  9
$PLIMMIN
 10
0.0
 20
0.0
  9
$PLIMMAX
 10
420.0
 20
297.0
  9
$UNITMODE
 70
     0
  9
$VISRETAIN
 70
     0
  9
$PLINEGEN
 70
     0
  9
$PSLTSCALE
 70
     1
  9
$TREEDEPTH
 70
  3020
  9
$PICKSTYLE
 70
     0
  9
$CMLSTYLE
  2
STANDARD
  9
$CMLJUST
 70
     0
  9
$CMLSCALE
 40
1.0
  9
$PROXYGRAPHICS
 70
     1
  9
$MEASUREMENT
 70
     1
  0
ENDSEC
  0
SECTION
  2
CLASSES
  0
CLASS
  1
XRECORD
  2
AcDbXrecord
  3
AutoCAD 2000
 90
        0
280
     0
281
     0
  0
CLASS
  1
ACDBDICTIONARYWDFLT
  2
AcDbDictionaryWithDefault
  3
AutoCAD 2000
 90
        0
280
     0
281
     0
  0
CLASS
  1
ACDBPLACEHOLDER
  2
AcDbPlaceHolder
  3
AutoCAD 2000
 90
        0
280
     0
281
     0
  0
CLASS
  1
LAYOUT
  2
AcDbLayout
  3
AutoCAD 2000
 90
        0
280
     0
281
     0
  0
CLASS
  1
PLOTSETTINGS
  2
AcDbPlotSettings
  3
AutoCAD 2000
 90
        0
280
     0
281
     0
  0
CLASS
  1
LONG_TRANSACTION
  2
AcDbLongTransaction
  3
AutoCAD 2000
 90
        0
280
     0
281
     0
  0
CLASS
  1
LWPOLYLINE
  2
AcDbPolyline
  3
AutoCAD 2000
 90
        0
280
     0
281
     1
  0
CLASS
  1
HATCH
  2
AcDbHatch
  3
AutoCAD 2000
 90
        0
280
     0
281
     1
  0
CLASS
  1
XRECORD
  2
AcDbXrecord
  3
AutoCAD 2000
 90
        0
280
     0
281
     0
  0
CLASS
  1
LONG_TRANSACTION
  2
AcDbLongTransaction
  3
AutoCAD 2000
 90
        0
280
     0
281
     0
  0
CLASS
  1
LWPOLYLINE
  2
AcDbPolyline
  3
AutoCAD 2000
 90
        0
280
     0
281
     1
  0
CLASS
  1
HATCH
  2
AcDbHatch
  3
AutoCAD 2000
 90
        0
280
     0
281
     1
  0
CLASS
  1
XRECORD
  2
AcDbXrecord
  3
AutoCAD 2000
 90
        0
280
     0
281
     0
  0
CLASS
  1
LONG_TRANSACTION
  2
AcDbLongTransaction
  3
AutoCAD 2000
 90
        0
280
     0
281
     0
  0
CLASS
  1
LWPOLYLINE
  2
AcDbPolyline
  3
AutoCAD 2000
 90
        0
280
     0
281
     1
  0
CLASS
  1
HATCH
  2
AcDbHatch
  3
AutoCAD 2000
 90
        0
280
     0
281
     1
  0
CLASS
  1
XRECORD
  2
AcDbXrecord
  3
AutoCAD 2000
 90
        0
280
     0
281
     0
  0
CLASS
  1
LONG_TRANSACTION
  2
AcDbLongTransaction
  3
AutoCAD 2000
 90
        0
280
     0
281
     0
  0
CLASS
  1
LWPOLYLINE
  2
AcDbPolyline
  3
AutoCAD 2000
 90
        0
280
     0
281
     1
  0
CLASS
  1
HATCH
  2
AcDbHatch
  3
AutoCAD 2000
 90
        0
280
     0
281
     1
  0
CLASS
  1
XRECORD
  2
AcDbXrecord
  3
AutoCAD 2000
 90
        0
280
     0
281
     0
  0
CLASS
  1
LONG_TRANSACTION
  2
AcDbLongTransaction
  3
AutoCAD 2000
 90
        0
280
     0
281
     0
  0
CLASS
  1
LWPOLYLINE
  2
AcDbPolyline
  3
AutoCAD 2000
 90
        0
280
     0
281
     1
  0
CLASS
  1
HATCH
  2
AcDbHatch
  3
AutoCAD 2000
 90
        0
280
     0
281
     1
  0
CLASS
  1
XRECORD
  2
AcDbXrecord
  3
AutoCAD 2000
 90
        0
280
     0
281
     0
  0
CLASS
  1
LONG_TRANSACTION
  2
AcDbLongTransaction
  3
AutoCAD 2000
 90
        0
280
     0
281
     0
  0
CLASS
  1
LWPOLYLINE
  2
AcDbPolyline
  3
AutoCAD 2000
 90
        0
280
     0
281
     1
  0
CLASS
  1
HATCH
  2
AcDbHatch
  3
AutoCAD 2000
 90
        0
280
     0
281
     1
  0
CLASS
  1
XRECORD
  2
AcDbXrecord
  3
AutoCAD 2000
 90
        0
280
     0
281
     0
  0
ENDSEC
  0
SECTION
  2
TABLES
  0
TABLE
  2
VPORT
  5
8
330
0
100
AcDbSymbolTable
 70
     4
  0
VPORT
  5
1083
330
8
100
AcDbSymbolTableRecord
100
AcDbViewportTableRecord
  2
*ACTIVE
 70
     0
 10
0.0
 20
0.0
 11
1.0
 21
1.0
 12
21.50671472
 22
14.50563109
 13
0.0
 23
0.0
 14
7.0
 24
7.0
 15
7.0
 25
7.0
 16
0.0
 26
0.0
 36
1.0
 17
0.0
 27
0.0
 37
0.0
 40
79.64434932
 41
1.45595855
 42
50.0
 43
0.0
 44
0.0
 50
0.0
 51
0.0
 71
     0
 72
  2000
 73
     1
 74
     0
 75
     0
 76
     0
 77
     0
 78
     0
  0
ENDTAB
  0
TABLE
  2
LTYPE
  5
5
330
0
100
AcDbSymbolTable
 70
     2
  0
LTYPE
  5
14
330
5
100
AcDbSymbolTableRecord
100
AcDbLinetypeTableRecord
  2
BYBLOCK
 70
     0
  3

 72
    65
 73
     0
 40
0.0
  0
LTYPE
  5
15
330
5
100
AcDbSymbolTableRecord
100
AcDbLinetypeTableRecord
  2
BYLAYER
 70
     0
  3

 72
    65
 73
     0
 40
0.0
  0
LTYPE
  5
16
330
5
100
AcDbSymbolTableRecord
100
AcDbLinetypeTableRecord
  2
CONTINUOUS
 70
     0
  3
Solid line
 72
    65
 73
     0
 40
0.0
  0
LTYPE
  5
258
330
5
100
AcDbSymbolTableRecord
100
AcDbLinetypeTableRecord
  2
CENTER2
 70
     0
  3
___ _ ___ _ ___ _ ___ _ ___ _ ___ _ ___ _ ___ _
 72
    65
 73
     4
 40
1.125
 49
0.75
 74
     0
 49
-0.125
 74
     0
 49
0.125
 74
     0
 49
-0.125
 74
     0
  0
ENDTAB
  0
TABLE
  2
LAYER
  5
2
330
0
100
AcDbSymbolTable
 70
    10
  0
LAYER
  5
F
330
2
100
AcDbSymbolTableRecord
100
AcDbLayerTableRecord
  2
0
 70
     0
 62
     7
  6
CONTINUOUS
  0
LAYER
  5
1AA
330
2
100
AcDbSymbolTableRecord
100
AcDbLayerTableRecord
  2
240
 70
     0
 62
     4
  6
CONTINUOUS
  0
LAYER
  5
1AB
330
2
100
AcDbSymbolTableRecord
100
AcDbLayerTableRecord
  2
241
 70
     0
 62
   211
  6
CONTINUOUS
  0
LAYER
  5
1AF
330
2
100
AcDbSymbolTableRecord
100
AcDbLayerTableRecord
  2
245
 70
     0
 62
     2
  6
CENTER2
  0
LAYER
  5
21B
330
2
100
AcDbSymbolTableRecord
100
AcDbLayerTableRecord
  2
247
 70
     0
 62
    60
  6
CONTINUOUS
  0
LAYER
  5
21E
330
2
100
AcDbSymbolTableRecord
100
AcDbLayerTableRecord
  2
250
 70
     0
 62
     3
  6
CONTINUOUS
  0
LAYER
  5
21F
330
2
100
AcDbSymbolTableRecord
100
AcDbLayerTableRecord
  2
251
 70
     0
 62
    40
  6
CONTINUOUS
  0
LAYER
  5
5C4
330
2
100
AcDbSymbolTableRecord
100
AcDbLayerTableRecord
  2
DEFPOINTS
 70
     0
 62
     7
  6
CONTINUOUS
  0
ENDTAB
  0
TABLE
  2
STYLE
  5
3
330
0
100
AcDbSymbolTable
 70
     2
  0
STYLE
  5
10
330
3
100
AcDbSymbolTableRecord
100
AcDbTextStyleTableRecord
  2
STANDARD
 70
     0
 40
0.0
 41
1.0
 50
0.0
 71
     0
 42
3.0
  3
romans.shx
  4
BIGFONT.SHX
  0
STYLE
  5
339
330
3
100
AcDbSymbolTableRecord
100
AcDbTextStyleTableRecord
  2
YOKO
 70
     0
 40
0.0
 41
1.0
 50
0.0
 71
     0
 42
3.0
  3
romans.shx
  4
extfont.shx
  0
ENDTAB
  0
TABLE
  2
VIEW
  5
6
330
0
100
AcDbSymbolTable
 70
     0
  0
ENDTAB
  0
TABLE
  2
UCS
  5
7
330
0
100
AcDbSymbolTable
 70
     0
  0
ENDTAB
  0
TABLE
  2
APPID
  5
9
330
0
100
AcDbSymbolTable
 70
    14
  0
APPID
  5
11
330
9
100
AcDbSymbolTableRecord
100
AcDbRegAppTableRecord
  2
ACAD
 70
     0
  0
APPID
  5
1B1
330
9
100
AcDbSymbolTableRecord
100
AcDbRegAppTableRecord
  2
GLOBAL
 70
     0
  0
APPID
  5
2A4
330
9
100
AcDbSymbolTableRecord
100
AcDbRegAppTableRecord
  2
DETAIL
 70
     0
  0
APPID
  5
5FD
330
9
100
AcDbSymbolTableRecord
100
AcDbRegAppTableRecord
  2
GRPNAME
 70
     0
  0
APPID
  5
5FE
330
9
100
AcDbSymbolTableRecord
100
AcDbRegAppTableRecord
  2
GPARA
 70
     0
  0
APPID
  5
6C4
330
9
100
AcDbSymbolTableRecord
100
AcDbRegAppTableRecord
  2
DCO15
 70
     0
  0
APPID
  5
6C5
330
9
100
AcDbSymbolTableRecord
100
AcDbRegAppTableRecord
  2
ITEMNAME
 70
     0
  0
APPID
  5
6C6
330
9
100
AcDbSymbolTableRecord
100
AcDbRegAppTableRecord
  2
GRADE_0
 70
     0
  0
APPID
  5
88E
330
9
100
AcDbSymbolTableRecord
100
AcDbRegAppTableRecord
  2
HATCH_TYPE
 70
     0
  0
APPID
  5
88F
330
9
100
AcDbSymbolTableRecord
100
AcDbRegAppTableRecord
  2
HATCH_DISPLAY
 70
     0
  0
APPID
  5
890
330
9
100
AcDbSymbolTableRecord
100
AcDbRegAppTableRecord
  2
HATCH_DISTANCE
 70
     0
  0
APPID
  5
8C7
330
9
100
AcDbSymbolTableRecord
100
AcDbRegAppTableRecord
  2
LAYER_SCALE
 70
     0
  0
APPID
  5
8C8
330
9
100
AcDbSymbolTableRecord
100
AcDbRegAppTableRecord
  2
ACAD_PSEXT
 70
     0
  0
APPID
  5
CA0
330
9
100
AcDbSymbolTableRecord
100
AcDbRegAppTableRecord
  2
CONTENTBLOCKICON
 70
     0
  0
ENDTAB
  0
TABLE
  2
DIMSTYLE
  5
A
330
0
100
AcDbSymbolTable
 70
     4
  0
DIMSTYLE
105
725
102
{ACAD_REACTORS
330
89A
330
89C
102
}
330
A
100
AcDbSymbolTableRecord
100
AcDbDimStyleTableRecord
  2
BIGT
 70
     0
  3

  4

  5

  6
OPEN
  7
OPEN
 40
1.0
 41
2.23
 42
0.5
 43
2.5
 44
1.0
 45
0.0
 46
0.0
 47
0.0
 48
0.0
140
2.8
141
0.0
142
0.0
143
25.4
144
1.0
145
0.0
146
1.0
147
1.0
 71
     0
 72
     0
 73
     0
 74
     0
 75
     0
 76
     0
 77
     3
 78
     8
170
     0
171
     2
172
     1
173
     1
174
     1
175
     0
176
   256
177
   256
178
    40
270
     2
271
     3
272
     3
273
     2
274
     2
340
10
275
     0
280
     0
281
     0
282
     0
283
     1
284
     8
285
     0
286
     0
287
     3
288
     0
  0
ENDTAB
  0
TABLE
  2
BLOCK_RECORD
  5
1
330
0
100
AcDbSymbolTable
 70
    11
  0
BLOCK_RECORD
  5
1A
102
{ACAD_XDICTIONARY
360
C9E
102
}
330
1
100
AcDbSymbolTableRecord
100
AcDbBlockTableRecord
  2
*MODEL_SPACE
  0
BLOCK_RECORD
  5
17
102
{ACAD_XDICTIONARY
360
C9C
102
}
330
1
100
AcDbSymbolTableRecord
100
AcDbBlockTableRecord
  2
*PAPER_SPACE
  0
BLOCK_RECORD
  5
594
330
1
100
AcDbSymbolTableRecord
100
AcDbBlockTableRecord
  2
_OPEN
  0
BLOCK_RECORD
  5
6E3
330
1
100
AcDbSymbolTableRecord
100
AcDbBlockTableRecord
  2
矢印なし
  0
BLOCK_RECORD
  5
784
330
1
100
AcDbSymbolTableRecord
100
AcDbBlockTableRecord
  2
*X2
  0
BLOCK_RECORD
  5
7B4
330
1
100
AcDbSymbolTableRecord
100
AcDbBlockTableRecord
  2
*X3
  0
BLOCK_RECORD
  5
7C0
330
1
100
AcDbSymbolTableRecord
100
AcDbBlockTableRecord
  2
*X4
  0
BLOCK_RECORD
  5
7D3
330
1
100
AcDbSymbolTableRecord
100
AcDbBlockTableRecord
  2
1
1001
CONTENTBLOCKICON
1071
        0
1004
2800000020000000200000000100080000000000000400000000000000000000000000000000000000000000000080000080000000808000800000008000800080800000C0C0C000C0DCC000F0CAA6000020400000206000002080000020A0000020C0000020E00000400000004020000040400000406000004080000040A0
1004
000040C0000040E00000600000006020000060400000606000006080000060A0000060C0000060E00000800000008020000080400000806000008080000080A0000080C0000080E00000A0000000A0200000A0400000A0600000A0800000A0A00000A0C00000A0E00000C0000000C0200000C0400000C0600000C0800000C0
1004
A00000C0C00000C0E00000E0000000E0200000E0400000E0600000E0800000E0A00000E0C00000E0E00040000000400020004000400040006000400080004000A0004000C0004000E00040200000402020004020400040206000402080004020A0004020C0004020E000404000004040200040404000404060004040800040
1004
40A0004040C0004040E00040600000406020004060400040606000406080004060A0004060C0004060E00040800000408020004080400040806000408080004080A0004080C0004080E00040A0000040A0200040A0400040A0600040A0800040A0A00040A0C00040A0E00040C0000040C0200040C0400040C0600040C08000
1004
40C0A00040C0C00040C0E00040E0000040E0200040E0400040E0600040E0800040E0A00040E0C00040E0E00080000000800020008000400080006000800080008000A0008000C0008000E00080200000802020008020400080206000802080008020A0008020C0008020E00080400000804020008040400080406000804080
1004
008040A0008040C0008040E00080600000806020008060400080606000806080008060A0008060C0008060E00080800000808020008080400080806000808080008080A0008080C0008080E00080A0000080A0200080A0400080A0600080A0800080A0A00080A0C00080A0E00080C0000080C0200080C0400080C0600080C0
1004
800080C0A00080C0C00080C0E00080E0000080E0200080E0400080E0600080E0800080E0A00080E0C00080E0E000C0000000C0002000C0004000C0006000C0008000C000A000C000C000C000E000C0200000C0202000C0204000C0206000C0208000C020A000C020C000C020E000C0400000C0402000C0404000C0406000C0
1004
408000C040A000C040C000C040E000C0600000C0602000C0604000C0606000C0608000C060A000C060C000C060E000C0800000C0802000C0804000C0806000C0808000C080A000C080C000C080E000C0A00000C0A02000C0A04000C0A06000C0A08000C0A0A000C0A0C000C0A0E000C0C00000C0C02000C0C04000C0C06000
1004
C0C08000C0C0A000F0FBFF00A4A0A000808080000000FF0000FF000000FFFF00FF000000FF00FF00FFFF0000FFFFFF0000000000000000000000000000000000000000000000000000000000000000000000000000000000000000000000000000000000000000000000000000000000000000000000000000000000000000
1004
00000000000000000000000000000000000000000000000000000000000000000000000000000000000000000000000000000000000000000000000000000000000000000000000000000000000000000000000000000000000000000000000000000000000000000000000000000000000000000000000000000000000000
1004
000000000000000000000000000000000000000000000000000000000000FEFEFEFEFE000000000000000000000000000000000000000000000000000000FE3E3E00FEFE0000000000000000000000000000000000000000000000000000FE3E3E00E7FEFE00000000000000000000000000000000000000000000000000FE
1004
3E3E00E70000FEFE00000000000000000000000000FEFEFEFEFEFEFEFEFEFEE73E3E00E70000E7FEFEFEFEFE000000000000000000FE000000000000000000E73E3E00E70000E70000000000FE0000000000000000FE0000000000FB000000E73E3E00E700E7E7E7E7E7E70000FE00000000000000FE000000E7E7FBE70000
1004
E73E3E00E700E7E7E7E7E700E7E700FEFE0000000000FE000000E700FBE70000E73E3E00E700E7E7E7E7E7000000E70000FE000000FBFEFBFBFBE7FBFBE7FBFBE73E3EFBE7FBE7E7E7E7E7FBFBE7E7FBFBFEFB000000FE000000E7E7FBE70000E73E3E00E700E7E7E7E7E7E7E70000FEFE0000000000FE0000000000FB0000
1004
00E73E3E00E7E700E70000000000E7FE00000000000000FE000000000000000000E73E3E00E7E700E70000000000FE0000000000000000FEFEFEFEFEFEFEFEFEFEFE3E3E00E7E700E7FEFEFEFEFE00000000000000000000000000000000000000FE3E3E00E70000FEFE000000000000000000000000000000000000000000
1004
0000FE3E3E00E7FEFE00000000000000000000000000000000000000000000000000FE3E3E00FEFE0000000000000000000000000000000000000000000000000000FEFEFEFEFE0000000000000000000000000000000000000000000000000000000000000000000000000000000000000000000000000000000000000000
1004
00000000000000000000000000000000000000000000000000000000000000000000000000000000000000000000000000000000000000000000000000000000000000000000000000000000000000000000000000000000000000000000000000000000000000000000000000000000000000000000000000000000000000
1004
0000000000000000000000000000000000000000000000000000000000000000000000000000000000000000000000000000000000000000
  0
BLOCK_RECORD
  5
89D
330
1
100
AcDbSymbolTableRecord
100
AcDbBlockTableRecord
  2
*D6
  0
BLOCK_RECORD
  5
8A9
330
1
100
AcDbSymbolTableRecord
100
AcDbBlockTableRecord
  2
*D7
  0
BLOCK_RECORD
  5
8F0
330
1
100
AcDbSymbolTableRecord
100
AcDbBlockTableRecord
  2
_DOT
  0
ENDTAB
  0
ENDSEC
  0
SECTION
  2
BLOCKS
  0
BLOCK
  5
1B
330
1A
100
AcDbEntity
  8
0
100
AcDbBlockBegin
  2
*MODEL_SPACE
 70
     0
 10
0.0
 20
0.0
 30
0.0
  3
*MODEL_SPACE
  1

  0
ENDBLK
  5
1C
330
1A
100
AcDbEntity
  8
0
100
AcDbBlockEnd
  0
BLOCK
  5
18
330
17
100
AcDbEntity
 67
     1
  8
0
100
AcDbBlockBegin
  2
*PAPER_SPACE
 70
     0
 10
0.0
 20
0.0
 30
0.0
  3
*PAPER_SPACE
  1

  0
ENDBLK
  5
19
330
17
100
AcDbEntity
 67
     1
  8
0
100
AcDbBlockEnd
  0
BLOCK
  5
598
330
594
100
AcDbEntity
  8
0
100
AcDbBlockBegin
  2
_OPEN
 70
     0
 10
0.0
 20
0.0
 30
0.0
  3
_OPEN
  1

  0
LINE
  5
595
330
594
100
AcDbEntity
  8
0
  6
BYBLOCK
 62
     0
100
AcDbLine
 10
-1.0
 20
0.16666667
 30
0.0
 11
0.0
 21
0.0
 31
0.0
  0
LINE
  5
596
330
594
100
AcDbEntity
  8
0
  6
BYBLOCK
 62
     0
100
AcDbLine
 10
-1.0
 20
-0.16666667
 30
0.0
 11
0.0
 21
0.0
 31
0.0
  0
LINE
  5
597
330
594
100
AcDbEntity
  8
0
  6
BYBLOCK
 62
     0
100
AcDbLine
 10
0.0
 20
0.0
 30
0.0
 11
-1.0
 21
0.0
 31
0.0
  0
ENDBLK
  5
599
330
594
100
AcDbEntity
  8
0
100
AcDbBlockEnd
  0
BLOCK
  5
6E4
330
6E3
100
AcDbEntity
  8
0
100
AcDbBlockBegin
  2
矢印なし
 70
     0
 10
0.0
 20
0.0
 30
0.0
  3
矢印なし
  1

  0
ENDBLK
  5
6E5
330
6E3
100
AcDbEntity
  8
0
100
AcDbBlockEnd
  0
BLOCK
  5
7B2
330
784
100
AcDbEntity
  8
0
100
AcDbBlockBegin
  2
*X2
 70
     1
 10
0.0
 20
0.0
 30
0.0
  3
*X2
  1

  0
LINE
  5
785
330
784
100
AcDbEntity
  8
0
 62
     0
100
AcDbLine
 10
3.23536413
 20
-8.20773857
 30
0.0
 11
2.53987813
 21
-7.51225257
 31
0.0
  0
LINE
  5
786
330
784
100
AcDbEntity
  8
0
 62
     0
100
AcDbLine
 10
2.52525541
 20
-7.73336158
 30
0.0
 11
2.24664067
 21
-7.45474683
 31
0.0
  0
LINE
  5
787
330
784
100
AcDbEntity
  8
0
 62
     0
100
AcDbLine
 10
3.29286987
 20
-8.50097603
 30
0.0
 11
3.01425512
 21
-8.22236129
 31
0.0
  0
LINE
  5
788
330
784
100
AcDbEntity
  8
0
 62
     0
100
AcDbLine
 10
2.22209975
 20
-7.66593764
 30
0.0
 11
2.02055126
 21
-7.46438915
 31
0.0
  0
LINE
  5
789
330
784
100
AcDbEntity
  8
0
 62
     0
100
AcDbLine
 10
3.29481647
 20
-8.73865436
 30
0.0
 11
3.08167906
 21
-8.52551695
 31
0.0
  0
LINE
  5
78A
330
784
100
AcDbEntity
  8
0
 62
     0
100
AcDbLine
 10
2.00310604
 20
-7.68267565
 30
0.0
 11
1.82993399
 21
-7.5095036
 31
0.0
  0
LINE
  5
78B
330
784
100
AcDbEntity
  8
0
 62
     0
100
AcDbLine
 10
3.29481647
 20
-8.97438608
 30
0.0
 11
3.0826247
 21
-8.76219432
 31
0.0
  0
LINE
  5
78C
330
784
100
AcDbEntity
  8
0
 62
     0
100
AcDbLine
 10
1.82350018
 20
-7.73880151
 30
0.0
 11
1.66441862
 21
-7.57971995
 31
0.0
  0
LINE
  5
78D
330
784
100
AcDbEntity
  8
0
 62
     0
100
AcDbLine
 10
3.29481647
 20
-9.21011781
 30
0.0
 11
3.0826247
 21
-8.99792604
 31
0.0
  0
LINE
  5
78E
330
784
100
AcDbEntity
  8
0
 62
     0
100
AcDbLine
 10
1.67153212
 20
-7.82256518
 30
0.0
 11
1.51938462
 21
-7.67041768
 31
0.0
  0
LINE
  5
78F
330
784
100
AcDbEntity
  8
0
 62
     0
100
AcDbLine
 10
3.29481647
 20
-9.44584953
 30
0.0
 11
3.0826247
 21
-9.23365776
 31
0.0
  0
LINE
  5
790
330
784
100
AcDbEntity
  8
0
 62
     0
100
AcDbLine
 10
1.54275222
 20
-7.929517
 30
0.0
 11
1.39270995
 21
-7.77947474
 31
0.0
  0
LINE
  5
791
330
784
100
AcDbEntity
  8
0
 62
     0
100
AcDbLine
 10
3.29481647
 20
-9.68158125
 30
0.0
 11
3.0826247
 21
-9.46938949
 31
0.0
  0
LINE
  5
792
330
784
100
AcDbEntity
  8
0
 62
     0
100
AcDbLine
 10
1.43594765
 20
-8.05844416
 30
0.0
 11
1.28377138
 21
-7.90626789
 31
0.0
  0
LINE
  5
793
330
784
100
AcDbEntity
  8
0
 62
     0
100
AcDbLine
 10
3.29481647
 20
-9.91731298
 30
0.0
 11
3.0826247
 21
-9.70512121
 31
0.0
  0
LINE
  5
794
330
784
100
AcDbEntity
  8
0
 62
     0
100
AcDbLine
 10
1.35234823
 20
-8.21057646
 30
0.0
 11
1.19320073
 21
-8.05142896
 31
0.0
  0
LINE
  5
795
330
784
100
AcDbEntity
  8
0
 62
     0
100
AcDbLine
 10
3.29481647
 20
-10.1530447
 30
0.0
 11
3.0826247
 21
-9.94085293
 31
0.0
  0
LINE
  5
796
330
784
100
AcDbEntity
  8
0
 62
     0
100
AcDbLine
 10
1.29643258
 20
-8.39039253
 30
0.0
 11
1.12313213
 21
-8.21709208
 31
0.0
  0
LINE
  5
797
330
784
100
AcDbEntity
  8
0
 62
     0
100
AcDbLine
 10
3.29481647
 20
-10.38877642
 30
0.0
 11
3.0826247
 21
-10.17658466
 31
0.0
  0
LINE
  5
798
330
784
100
AcDbEntity
  8
0
 62
     0
100
AcDbLine
 10
1.28003258
 20
-8.60972426
 30
0.0
 11
1.07820932
 21
-8.40790099
 31
0.0
  0
LINE
  5
799
330
784
100
AcDbEntity
  8
0
 62
     0
100
AcDbLine
 10
3.29481647
 20
-10.62450815
 30
0.0
 11
3.0826247
 21
-10.41231638
 31
0.0
  0
LINE
  5
79A
330
784
100
AcDbEntity
  8
0
 62
     0
100
AcDbLine
 10
1.24181743
 20
-8.80724082
 30
0.0
 11
1.06886485
 21
-8.63428825
 31
0.0
  0
LINE
  5
79B
330
784
100
AcDbEntity
  8
0
 62
     0
100
AcDbLine
 10
3.29481647
 20
-10.86023987
 30
0.0
 11
3.0826247
 21
-10.6480481
 31
0.0
  0
LINE
  5
79C
330
784
100
AcDbEntity
  8
0
 62
     0
100
AcDbLine
 10
3.29481647
 20
-11.09597159
 30
0.0
 11
3.0826247
 21
-10.88377983
 31
0.0
  0
LINE
  5
79D
330
784
100
AcDbEntity
  8
0
 62
     0
100
AcDbLine
 10
3.29481647
 20
-11.33170332
 30
0.0
 11
3.0826247
 21
-11.11951155
 31
0.0
  0
LINE
  5
79E
330
784
100
AcDbEntity
  8
0
 62
     0
100
AcDbLine
 10
3.29481647
 20
-11.56743504
 30
0.0
 11
3.0826247
 21
-11.35524327
 31
0.0
  0
LINE
  5
79F
330
784
100
AcDbEntity
  8
0
 62
     0
100
AcDbLine
 10
3.29481647
 20
-11.80316676
 30
0.0
 11
3.0826247
 21
-11.590975
 31
0.0
  0
LINE
  5
7A0
330
784
100
AcDbEntity
  8
0
 62
     0
100
AcDbLine
 10
3.29481647
 20
-12.03889849
 30
0.0
 11
3.0826247
 21
-11.82670672
 31
0.0
  0
LINE
  5
7A1
330
784
100
AcDbEntity
  8
0
 62
     0
100
AcDbLine
 10
3.29481647
 20
-12.27463021
 30
0.0
 11
3.0826247
 21
-12.06243844
 31
0.0
  0
LINE
  5
7A2
330
784
100
AcDbEntity
  8
0
 62
     0
100
AcDbLine
 10
3.29481647
 20
-12.51036193
 30
0.0
 11
3.0826247
 21
-12.29817017
 31
0.0
  0
LINE
  5
7A3
330
784
100
AcDbEntity
  8
0
 62
     0
100
AcDbLine
 10
3.29481647
 20
-12.74609366
 30
0.0
 11
3.0826247
 21
-12.53390189
 31
0.0
  0
LINE
  5
7A4
330
784
100
AcDbEntity
  8
0
 62
     0
100
AcDbLine
 10
3.29006231
 20
-12.97707122
 30
0.0
 11
3.0826247
 21
-12.76963361
 31
0.0
  0
LINE
  5
7A5
330
784
100
AcDbEntity
  8
0
 62
     0
100
AcDbLine
 10
3.253193
 20
-13.17593363
 30
0.0
 11
3.07423651
 21
-12.99697714
 31
0.0
  0
LINE
  5
7A6
330
784
100
AcDbEntity
  8
0
 62
     0
100
AcDbLine
 10
3.18921464
 20
-13.347687
 30
0.0
 11
3.02716455
 21
-13.18563691
 31
0.0
  0
LINE
  5
7A7
330
784
100
AcDbEntity
  8
0
 62
     0
100
AcDbLine
 10
3.10381489
 20
-13.49801897
 30
0.0
 11
2.95031117
 21
-13.34451525
 31
0.0
  0
LINE
  5
7A8
330
784
100
AcDbEntity
  8
0
 62
     0
100
AcDbLine
 10
2.99964906
 20
-13.62958486
 30
0.0
 11
2.84945598
 21
-13.47939178
 31
0.0
  0
LINE
  5
7A9
330
784
100
AcDbEntity
  8
0
 62
     0
100
AcDbLine
 10
2.87770282
 20
-13.74337034
 30
0.0
 11
2.72654053
 21
-13.59220805
 31
0.0
  0
LINE
  5
7AA
330
784
100
AcDbEntity
  8
0
 62
     0
100
AcDbLine
 10
2.73769015
 20
-13.8390894
 30
0.0
 11
2.58101195
 21
-13.6824112
 31
0.0
  0
LINE
  5
7AB
330
784
100
AcDbEntity
  8
0
 62
     0
100
AcDbLine
 10
1.27901041
 20
-12.61614138
 30
0.0
 11
1.11184125
 21
-12.44897222
 31
0.0
  0
LINE
  5
7AC
330
784
100
AcDbEntity
  8
0
 62
     0
100
AcDbLine
 10
2.57794346
 20
-13.91507443
 30
0.0
 11
2.40947176
 21
-13.74660273
 31
0.0
  0
LINE
  5
7AD
330
784
100
AcDbEntity
  8
0
 62
     0
100
AcDbLine
 10
1.27901041
 20
-12.8518731
 30
0.0
 11
1.06681864
 21
-12.63968133
 31
0.0
  0
LINE
  5
7AE
330
784
100
AcDbEntity
  8
0
 62
     0
100
AcDbLine
 10
2.39468001
 20
-13.9675427
 30
0.0
 11
2.202938
 21
-13.77580069
 31
0.0
  0
LINE
  5
7AF
330
784
100
AcDbEntity
  8
0
 62
     0
100
AcDbLine
 10
1.31382547
 20
-13.12241988
 30
0.0
 11
1.06681923
 21
-12.87541365
 31
0.0
  0
LINE
  5
7B0
330
784
100
AcDbEntity
  8
0
 62
     0
100
AcDbLine
 10
2.1796688
 20
-13.98826321
 30
0.0
 11
1.93266256
 21
-13.74125698
 31
0.0
  0
LINE
  5
7B1
330
784
100
AcDbEntity
  8
0
 62
     0
100
AcDbLine
 10
1.91069092
 20
-13.95501706
 30
0.0
 11
1.10006539
 21
-13.14439153
 31
0.0
  0
ENDBLK
  5
7B3
330
784
100
AcDbEntity
  8
0
100
AcDbBlockEnd
  0
BLOCK
  5
7BE
330
7B4
100
AcDbEntity
  8
0
100
AcDbBlockBegin
  2
*X3
 70
     1
 10
0.0
 20
0.0
 30
0.0
  3
*X3
  1

  0
LINE
  5
7B5
330
7B4
100
AcDbEntity
  8
0
 62
     0
100
AcDbLine
 10
2.97652882
 20
-10.77768394
 30
0.0
 11
2.95904392
 21
-10.76019904
 31
0.0
  0
LINE
  5
7B6
330
7B4
100
AcDbEntity
  8
0
 62
     0
100
AcDbLine
 10
2.97652882
 20
-11.01341566
 30
0.0
 11
2.62854288
 21
-10.66542973
 31
0.0
  0
LINE
  5
7B7
330
7B4
100
AcDbEntity
  8
0
 62
     0
100
AcDbLine
 10
2.96343527
 20
-11.23605384
 30
0.0
 11
2.29804185
 21
-10.57066041
 31
0.0
  0
LINE
  5
7B8
330
7B4
100
AcDbEntity
  8
0
 62
     0
100
AcDbLine
 10
2.63293294
 20
-11.14128324
 30
0.0
 11
1.96754081
 21
-10.4758911
 31
0.0
  0
LINE
  5
7B9
330
7B4
100
AcDbEntity
  8
0
 62
     0
100
AcDbLine
 10
2.30243062
 20
-11.04651263
 30
0.0
 11
1.63703978
 21
-10.38112179
 31
0.0
  0
LINE
  5
7BA
330
7B4
100
AcDbEntity
  8
0
 62
     0
100
AcDbLine
 10
1.97192829
 20
-10.95174202
 30
0.0
 11
1.30653874
 21
-10.28635248
 31
0.0
  0
LINE
  5
7BB
330
7B4
100
AcDbEntity
  8
0
 62
     0
100
AcDbLine
 10
1.64142596
 20
-10.85697142
 30
0.0
 11
1.06681864
 21
-10.2823641
 31
0.0
  0
LINE
  5
7BC
330
7B4
100
AcDbEntity
  8
0
 62
     0
100
AcDbLine
 10
1.31092363
 20
-10.76220081
 30
0.0
 11
1.06681864
 21
-10.51809582
 31
0.0
  0
LINE
  5
7BD
330
7B4
100
AcDbEntity
  8
0
 62
     0
100
AcDbLine
 10
1.08874524
 20
-10.77575415
 30
0.0
 11
1.06681864
 21
-10.75382754
 31
0.0
  0
ENDBLK
  5
7BF
330
7B4
100
AcDbEntity
  8
0
100
AcDbBlockEnd
  0
BLOCK
  5
7D1
330
7C0
100
AcDbEntity
  8
0
100
AcDbBlockBegin
  2
*X4
 70
     1
 10
0.0
 20
0.0
 30
0.0
  3
*X4
  1

  0
LINE
  5
7C1
330
7C0
100
AcDbEntity
  8
0
 62
     0
100
AcDbLine
 10
2.86626776
 20
-9.25303254
 30
0.0
 11
2.66734118
 21
-9.05410596
 31
0.0
  0
LINE
  5
7C2
330
7C0
100
AcDbEntity
  8
0
 62
     0
100
AcDbLine
 10
2.97331102
 20
-9.59580752
 30
0.0
 11
2.33683922
 21
-8.95933573
 31
0.0
  0
LINE
  5
7C3
330
7C0
100
AcDbEntity
  8
0
 62
     0
100
AcDbLine
 10
2.6374685
 20
-9.49569673
 30
0.0
 11
2.00633727
 21
-8.8645655
 31
0.0
  0
LINE
  5
7C4
330
7C0
100
AcDbEntity
  8
0
 62
     0
100
AcDbLine
 10
2.9589498
 20
-9.81717803
 30
0.0
 11
2.70983318
 21
-9.56806141
 31
0.0
  0
LINE
  5
7C5
330
7C0
100
AcDbEntity
  8
0
 62
     0
100
AcDbLine
 10
2.29480762
 20
-9.38876757
 30
0.0
 11
1.89435694
 21
-8.98831689
 31
0.0
  0
LINE
  5
7C6
330
7C0
100
AcDbEntity
  8
0
 62
     0
100
AcDbLine
 10
2.89456564
 20
-9.9885256
 30
0.0
 11
2.70928497
 21
-9.80324492
 31
0.0
  0
LINE
  5
7C7
330
7C0
100
AcDbEntity
  8
0
 62
     0
100
AcDbLine
 10
2.10654871
 20
-9.43624039
 30
0.0
 11
1.89435694
 21
-9.22404861
 31
0.0
  0
LINE
  5
7C8
330
7C0
100
AcDbEntity
  8
0
 62
     0
100
AcDbLine
 10
2.79692411
 20
-10.12661579
 30
0.0
 11
2.57219723
 21
-9.90188891
 31
0.0
  0
LINE
  5
7C9
330
7C0
100
AcDbEntity
  8
0
 62
     0
100
AcDbLine
 10
1.34848665
 20
-8.91391005
 30
0.0
 11
1.32639418
 21
-8.89181758
 31
0.0
  0
LINE
  5
7CA
330
7C0
100
AcDbEntity
  8
0
 62
     0
100
AcDbLine
 10
2.67026268
 20
-10.23568608
 30
0.0
 11
2.28372683
 21
-9.84915023
 31
0.0
  0
LINE
  5
7CB
330
7C0
100
AcDbEntity
  8
0
 62
     0
100
AcDbLine
 10
1.40754788
 20
-9.208703
 30
0.0
 11
1.14717601
 21
-8.94833113
 31
0.0
  0
LINE
  5
7CC
330
7C0
100
AcDbEntity
  8
0
 62
     0
100
AcDbLine
 10
2.51283952
 20
-10.31399464
 30
0.0
 11
1.95322456
 21
-9.75437968
 31
0.0
  0
LINE
  5
7CD
330
7C0
100
AcDbEntity
  8
0
 62
     0
100
AcDbLine
 10
1.30717012
 20
-9.34405696
 30
0.0
 11
1.14828236
 21
-9.18516921
 31
0.0
  0
LINE
  5
7CE
330
7C0
100
AcDbEntity
  8
0
 62
     0
100
AcDbLine
 10
2.3146092
 20
-10.35149604
 30
0.0
 11
1.62272229
 21
-9.65960913
 31
0.0
  0
LINE
  5
7CF
330
7C0
100
AcDbEntity
  8
0
 62
     0
100
AcDbLine
 10
2.04547551
 20
-10.31809408
 30
0.0
 11
1.0841335
 21
-9.35675207
 31
0.0
  0
LINE
  5
7D0
330
7C0
100
AcDbEntity
  8
0
 62
     0
100
AcDbLine
 10
1.73148255
 20
-10.23983284
 30
0.0
 11
1.07020154
 21
-9.57855183
 31
0.0
  0
ENDBLK
  5
7D2
330
7C0
100
AcDbEntity
  8
0
100
AcDbBlockEnd
  0
BLOCK
  5
88C
330
7D3
100
AcDbEntity
  8
0
100
AcDbBlockBegin
  2
1
 70
     0
 10
0.0
 20
0.0
 30
0.0
  3
1
  1

  0
ELLIPSE
  5
FB3
330
7D3
100
AcDbEntity
  8
241
100
AcDbEllipse
 10
11.74620753
 20
10.79635993
 30
0.0
 11
0.0260219265087757
 21
-2.569942283531755
 31
0.0000000000000001
210
0.0
220
0.0
230
1.0
 40
0.12570537
 41
3.362408018657268
 42
5.90161822346321
  0
LINE
  5
FB4
330
7D3
100
AcDbEntity
  8
245
100
AcDbLine
 10
-32.0
 20
0.0
 30
0.0
 11
51.0
 21
0.0
 31
0.0
  0
CIRCLE
  5
FB5
330
7D3
100
AcDbEntity
  8
241
100
AcDbCircle
 10
-14.0
 20
0.0
 30
0.0
 40
4.0
  0
SPLINE
  5
FB6
330
7D3
100
AcDbEntity
  8
241
100
AcDbSpline
210
0.0
220
0.0
230
1.0
 70
    11
 71
     3
 72
    70
 73
    66
 74
     0
 42
0.0000000001
 43
0.0000000001
 40
0.0
 40
0.0
 40
0.0
 40
0.0
 40
0.9197496568304652
 40
0.9197496568304652
 40
1.839499313660929
 40
1.839499313660929
 40
2.759248970491396
 40
2.759248970491396
 40
3.678998627321861
 40
3.678998627321861
 40
4.631875395981221
 40
4.631875395981221
 40
5.584752164640581
 40
5.584752164640581
 40
6.537628933299941
 40
6.537628933299941
 40
7.490505701959301
 40
7.490505701959301
 40
8.443382470618661
 40
8.443382470618661
 40
9.39625923927802
 40
9.39625923927802
 40
10.34913600793736
 40
10.34913600793736
 40
11.30201277659673
 40
11.30201277659673
 40
12.2217624334272
 40
12.2217624334272
 40
13.14151209025766
 40
13.14151209025766
 40
14.06126174708813
 40
14.06126174708813
 40
14.9810114039186
 40
14.9810114039186
 40
15.91208227998778
 40
15.91208227998778
 40
16.84315315605702
 40
16.84315315605702
 40
17.77422403212622
 40
17.77422403212622
 40
18.70529490819543
 40
18.70529490819543
 40
19.64673146562238
 40
19.64673146562238
 40
20.58816802304932
 40
20.58816802304932
 40
21.52960458047627
 40
21.52960458047627
 40
22.4710411379032
 40
22.4710411379032
 40
23.41247769533016
 40
23.41247769533016
 40
24.3539142527571
 40
24.3539142527571
 40
25.29535081018405
 40
25.29535081018405
 40
26.23678736761099
 40
26.23678736761099
 40
27.1678582436802
 40
27.1678582436802
 40
28.09892911974939
 40
28.09892911974939
 40
29.0299999958186
 40
29.0299999958186
 40
29.9610708718878
 40
29.9610708718878
 40
29.9610708718878
 40
29.9610708718878
 10
-14.00000000000003
 20
4.813238667570582
 30
0.0
 10
-13.69341678105651
 20
4.813238667570582
 30
0.0
 10
-13.37626085482508
 20
4.786140626473669
 30
0.0
 10
-12.74440677204075
 20
4.671798730367278
 30
0.0
 10
-12.4297013843577
 20
4.584583114443526
 30
0.0
 10
-11.82426227349969
 20
4.353455323821584
 30
0.0
 10
-11.53306955977734
 20
4.209379306697917
 30
0.0
 10
-10.99166717234227
 20
3.875324214317036
 30
0.0
 10
-10.74146009689252
 20
3.685312193028416
 30
0.0
 10
-10.28684645229729
 20
3.271009973575111
 30
0.0
 10
-10.06785585213072
 20
3.030604788970016
 30
0.0
 10
-9.679132986036986
 20
2.502017360458443
 30
0.0
 10
-9.509375944373216
 20
2.213831988604149
 30
0.0
 10
-9.23491531454832
 20
1.607725564508065
 30
0.0
 10
-9.129968121090259
 20
1.289204275586689
 30
0.0
 10
-8.991533861579425
 20
0.6441601606740415
 30
0.0
 10
-8.958089842978182
 20
0.3176255895528264
 30
0.0
 10
-8.958089842978182
 20
-0.3176255895533793
 30
0.0
 10
-8.991533861579425
 20
-0.644160160674594
 30
0.0
 10
-9.129968121090259
 20
-1.289204275587243
 30
0.0
 10
-9.234915314548279
 20
-1.607725564508618
 30
0.0
 10
-9.509375944373216
 20
-2.213831988604701
 30
0.0
 10
-9.679132986036986
 20
-2.502017360458998
 30
0.0
 10
-10.06785585213068
 20
-3.03060478897057
 30
0.0
 10
-10.28684645229729
 20
-3.271009973575663
 30
0.0
 10
-10.74146009689252
 20
-3.685312193028968
 30
0.0
 10
-10.99166717234227
 20
-3.875324214317591
 30
0.0
 10
-11.5330695597773
 20
-4.209379306698472
 30
0.0
 10
-11.82426227349964
 20
-4.353455323822136
 30
0.0
 10
-12.4297013843577
 20
-4.584583114444078
 30
0.0
 10
-12.74440677204075
 20
-4.67179873036783
 30
0.0
 10
-13.37626085482507
 20
-4.786140626474283
 30
0.0
 10
-13.69341678105651
 20
-4.81323866757113
 30
0.0
 10
-14.31035695868977
 20
-4.81323866757113
 30
0.0
 10
-14.63129234204449
 20
-4.78547043110236
 30
0.0
 10
-15.27026933877604
 20
-4.668421595239542
 30
0.0
 10
-15.58831874294359
 20
-4.57917102303488
 30
0.0
 10
-16.19963276822364
 20
-4.342762119793253
 30
0.0
 10
-16.49336985375025
 20
-4.195433199442468
 30
0.0
 10
-17.03879695522312
 20
-3.853899818125701
 30
0.0
 10
-17.29048375056204
 20
-3.659660585884486
 30
0.0
 10
-17.74130660191114
 20
-3.241308021639631
 30
0.0
 10
-17.95583231479626
 20
-3.001992855305009
 30
0.0
 10
-18.33652384033477
 20
-2.476737516738543
 30
0.0
 10
-18.50271248665895
 20
-2.19079354102981
 30
0.0
 10
-18.77130233774948
 20
-1.590081060246991
 30
0.0
 10
-18.87393747752194
 20
-1.274727792169149
 30
0.0
 10
-19.00926202767093
 20
-0.6365989058259266
 30
0.0
 10
-19.04191015702193
 20
-0.3138121858092611
 30
0.0
 10
-19.04191015702193
 20
0.3138121858087082
 30
0.0
 10
-19.00926202767093
 20
0.6365989058254309
 30
0.0
 10
-18.87393747752194
 20
1.274727792168655
 30
0.0
 10
-18.77130233774942
 20
1.590081060246494
 30
0.0
 10
-18.50271248665894
 20
2.190793541029314
 30
0.0
 10
-18.33652384033477
 20
2.476737516738042
 30
0.0
 10
-17.95583231479623
 20
3.001992855304457
 30
0.0
 10
-17.74130660191114
 20
3.241308021639079
 30
0.0
 10
-17.29048375056204
 20
3.659660585883933
 30
0.0
 10
-17.03879695522309
 20
3.853899818125149
 30
0.0
 10
-16.49336985375025
 20
4.195433199441858
 30
0.0
 10
-16.19963276822364
 20
4.342762119792703
 30
0.0
 10
-15.58831874294359
 20
4.579171023034326
 30
0.0
 10
-15.27026933877604
 20
4.668421595238988
 30
0.0
 10
-14.63129234204449
 20
4.785470431101806
 30
0.0
 10
-14.31035695868977
 20
4.813238667570582
 30
0.0
 10
-14.00000000000003
 20
4.813238667570582
 30
0.0
  0
LINE
  5
FB7
330
7D3
100
AcDbEntity
  8
240
100
AcDbLine
 10
-31.0
 20
-14.00000001
 30
0.0
 11
0.0
 21
-13.99999992
 31
0.0
  0
LINE
  5
FB8
330
7D3
100
AcDbEntity
  8
240
100
AcDbLine
 10
-31.0
 20
14.0
 30
0.0
 11
0.0
 21
14.0
 31
0.0
  0
LINE
  5
FB9
330
7D3
100
AcDbEntity
  8
240
100
AcDbLine
 10
-31.0
 20
14.0
 30
0.0
 11
-31.0
 21
0.0
 31
0.0
  0
LINE
  5
FBA
330
7D3
100
AcDbEntity
  8
240
100
AcDbLine
 10
-31.0
 20
-14.00000001
 30
0.0
 11
-31.0
 21
0.0
 31
0.0
  0
ELLIPSE
  5
FBB
330
7D3
100
AcDbEntity
  8
240
100
AcDbEllipse
 10
34.0925854
 20
-37.0
 30
0.0
 11
-0.0000000000000236
 21
-25.0
 31
0.0
210
0.0
220
0.0
230
1.0
 40
0.99026807
 41
3.082792617926438
 42
3.824125077484896
  0
LINE
  5
FBC
330
7D3
100
AcDbEntity
  8
241
100
AcDbLine
 10
18.47704452
 20
-17.60055358
 30
0.0
 11
18.47704452
 21
-8.45701149
 31
0.0
  0
ELLIPSE
  5
FBD
330
7D3
100
AcDbEntity
  8
241
100
AcDbEllipse
 10
13.07183384
 20
0.0
 30
0.0
 11
0.0
 21
25.0
 31
0.0
210
0.0
220
0.0
230
1.0
 40
0.12278456
 41
0.4815762326793654
 42
2.66001642091043
  0
LINE
  5
FBE
330
7D3
100
AcDbEntity
  8
241
100
AcDbLine
 10
11.65006012
 20
8.41002408
 30
0.0
 11
11.65006012
 21
-22.15664874
 31
0.0
  0
LINE
  5
FBF
330
7D3
100
AcDbEntity
  8
247
100
AcDbLine
 10
5.28516006
 20
-19.37906346
 30
0.0
 11
5.28516006
 21
-11.99391344
 31
0.0
1001
ACAD
1000
ASC_BOUNDS
1002
{
1070
    19
1005
0
1002
}
  0
LINE
  5
FC0
330
7D3
100
AcDbEntity
  8
247
100
AcDbLine
 10
5.64896284
 20
-19.37906346
 30
0.0
 11
5.64896284
 21
-11.99391344
 31
0.0
1001
ACAD
1000
ASC_BOUNDS
1002
{
1070
    19
1005
0
1002
}
  0
INSERT
  5
FC1
330
7D3
100
AcDbEntity
  8
247
  6
CONTINUOUS
100
AcDbBlockReference
  2
*X2
 10
0.0
 20
2.6938639
 30
0.0
 41
1.7145
 42
1.7145
 43
1.7145
1001
ACAD
1000
HATCH
1002
{
1070
    19
1000
ANSI31
1040
0.0525
1040
1.57079633
1002
}
  0
ARC
  5
FC2
330
7D3
100
AcDbEntity
  8
247
100
AcDbCircle
 10
3.92091288
 20
-13.87237088
 30
0.0
 40
1.182359080123901
100
AcDbArc
 50
253.9997507
 51
34.96387329
1001
ACAD
1000
ASC_BOUNDS
1002
{
1070
    19
1005
0
1002
}
  0
INSERT
  5
FC3
330
7D3
100
AcDbEntity
  8
247
  6
CONTINUOUS
100
AcDbBlockReference
  2
*X4
 10
0.0
 20
2.6938639
 30
0.0
 41
1.7145
 42
1.7145
 43
1.7145
1001
ACAD
1000
HATCH
1002
{
1070
    19
1000
ANSI31
1040
0.0525
1040
1.57079633
1002
}
  0
LWPOLYLINE
  5
FC4
330
7D3
100
AcDbEntity
  8
247
100
AcDbPolyline
 90
        6
 70
     1
 43
0.0
 10
1.82906055
 20
-15.77038642
 10
2.22923264
 20
-15.88513922
 10
2.22923264
 20
-15.75266875
 10
5.10325866
 20
-16.57678756
 10
5.10325866
 20
-15.76309333
 10
1.82906055
 20
-14.82423545
1001
HATCH_DISTANCE
1040
1.0
1001
HATCH_DISPLAY
1070
     0
1001
HATCH_TYPE
1070
     7
  0
LINE
  5
FC5
330
7D3
100
AcDbEntity
  8
247
100
AcDbLine
 10
5.10325866
 20
-15.76309333
 30
0.0
 11
1.82906055
 21
-14.82423545
 31
0.0
  0
INSERT
  5
FC6
330
7D3
100
AcDbEntity
  8
247
  6
CONTINUOUS
100
AcDbBlockReference
  2
*X3
 10
0.0
 20
2.6938639
 30
0.0
 41
1.7145
 42
1.7145
 43
1.7145
1001
ACAD
1000
HATCH
1002
{
1070
    19
1000
ANSI31
1040
0.0525
1040
1.57079633
1002
}
  0
LWPOLYLINE
  5
FC7
330
7D3
100
AcDbEntity
  8
247
100
AcDbPolyline
 90
        6
 70
     1
 43
0.0
 10
1.82906055
 20
-15.77038642
 10
2.22923264
 20
-15.88513922
 10
2.22923264
 20
-15.75266875
 10
5.10325866
 20
-16.57678756
 10
5.10325866
 20
-15.76309333
 10
1.82906055
 20
-14.82423545
  0
ARC
  5
FC8
330
7D3
100
AcDbEntity
  8
247
100
AcDbCircle
 10
3.98307581
 20
-11.9392771
 30
0.0
 40
3.094081780242917
100
AcDbArc
 50
245.20517737
 51
262.79482596
1001
ACAD
1000
ASC_BOUNDS
1002
{
1070
    19
1005
0
1002
}
  0
LINE
  5
FC9
330
7D3
100
AcDbEntity
  8
247
100
AcDbLine
 10
1.82906055
 20
-15.77038642
 30
0.0
 11
1.82906055
 21
-14.82423545
 31
0.0
  0
LINE
  5
FCA
330
7D3
100
AcDbEntity
  8
240
100
AcDbLine
 10
0.0
 20
-13.99999992
 30
0.0
 11
0.0
 21
-25.0
 31
0.0
  0
LINE
  5
FCB
330
7D3
100
AcDbEntity
  8
240
100
AcDbLine
 10
8.91626935
 20
-25.0
 30
0.0
 11
0.0
 21
-25.0
 31
0.0
  0
ARC
  5
FCC
330
7D3
100
AcDbEntity
  8
247
100
AcDbCircle
 10
3.73901149
 20
-19.37906346
 30
0.0
 40
1.909950933265685
100
AcDbArc
 50
180.0
 51
0.0
1001
ACAD
1000
ASC_BOUNDS
1002
{
1070
    19
1005
0
1002
}
  0
LINE
  5
FCD
330
7D3
100
AcDbEntity
  8
247
100
AcDbLine
 10
3.65755453
 20
-17.8653162
 30
0.0
 11
4.69731953
 21
-18.1634534
 31
0.0
  0
LINE
  5
FCE
330
7D3
100
AcDbEntity
  8
247
100
AcDbLine
 10
4.20886554
 20
-18.93170248
 30
0.0
 11
2.93539933
 21
-17.65823628
 31
0.0
  0
LINE
  5
FCF
330
7D3
100
AcDbEntity
  8
247
100
AcDbLine
 10
5.10325866
 20
-19.01777153
 30
0.0
 11
4.06869047
 21
-17.98320333
 31
0.0
  0
LINE
  5
FD0
330
7D3
100
AcDbEntity
  8
247
100
AcDbLine
 10
5.10325866
 20
-18.20944745
 30
0.0
 11
3.76838349
 21
-16.87457228
 31
0.0
  0
ARC
  5
FD1
330
7D3
100
AcDbEntity
  8
247
100
AcDbCircle
 10
4.15738195
 20
-18.08432766
 30
0.0
 40
0.5457045663826169
100
AcDbArc
 50
351.66285421
 51
156.33819216
  0
LINE
  5
FD2
330
7D3
100
AcDbEntity
  8
247
100
AcDbLine
 10
4.77551063
 20
-19.09418554
 30
0.0
 11
3.23622288
 21
-17.55489779
 31
0.0
  0
LINE
  5
FD3
330
7D3
100
AcDbEntity
  8
247
100
AcDbLine
 10
5.10325866
 20
-19.18816588
 30
0.0
 11
2.19286335
 21
-18.35362249
 31
0.0
  0
ARC
  5
FD4
330
7D3
100
AcDbEntity
  8
247
100
AcDbCircle
 10
3.73901149
 20
-19.37906346
 30
0.0
 40
1.546148139381408
100
AcDbArc
 50
180.0
 51
0.0
1001
ACAD
1000
ASC_BOUNDS
1002
{
1070
    19
1005
0
1002
}
  0
LINE
  5
FD5
330
7D3
100
AcDbEntity
  8
247
100
AcDbLine
 10
5.10325866
 20
-16.57678756
 30
0.0
 11
2.22923264
 21
-15.75266875
 31
0.0
  0
ARC
  5
FD6
330
7D3
100
AcDbEntity
  8
247
100
AcDbCircle
 10
4.19376498
 20
-17.67845571
 30
0.0
 40
0.9094932500839234
100
AcDbArc
 50
0.0
 51
130.32984065
  0
LINE
  5
FD7
330
7D3
100
AcDbEntity
  8
247
100
AcDbLine
 10
5.10325866
 20
-17.80528541
 30
0.0
 11
4.07475565
 21
-16.7767824
 31
0.0
  0
LINE
  5
FD8
330
7D3
100
AcDbEntity
  8
247
100
AcDbLine
 10
2.50893026
 20
-18.44425332
 30
0.0
 11
1.82906055
 21
-17.76438362
 31
0.0
  0
LINE
  5
FD9
330
7D3
100
AcDbEntity
  8
247
100
AcDbLine
 10
3.07557535
 20
-18.60673638
 30
0.0
 11
1.82906055
 21
-17.36022158
 31
0.0
  0
LINE
  5
FDA
330
7D3
100
AcDbEntity
  8
247
100
AcDbLine
 10
1.82906055
 20
-18.43854369
 30
0.0
 11
1.82906055
 21
-17.26493275
 31
0.0
  0
LINE
  5
FDB
330
7D3
100
AcDbEntity
  8
247
100
AcDbLine
 10
3.64222045
 20
-18.76921943
 30
0.0
 11
2.3687596
 21
-17.49575859
 31
0.0
  0
LINE
  5
FDC
330
7D3
100
AcDbEntity
  8
247
100
AcDbLine
 10
2.19286335
 20
-18.54285818
 30
0.0
 11
2.19286335
 21
-18.35362249
 31
0.0
  0
LINE
  5
FDD
330
7D3
100
AcDbEntity
  8
247
100
AcDbLine
 10
2.19286335
 20
-19.37906346
 30
0.0
 11
2.19286335
 21
-18.73208013
 31
0.0
1001
ACAD
1000
ASC_BOUNDS
1002
{
1070
    19
1005
0
1002
}
  0
LINE
  5
FDE
330
7D3
100
AcDbEntity
  8
247
100
AcDbLine
 10
1.82906055
 20
-19.37906346
 30
0.0
 11
1.82906055
 21
-18.62776564
 31
0.0
1001
ACAD
1000
ASC_BOUNDS
1002
{
1070
    19
1005
0
1002
}
  0
LINE
  5
FDF
330
7D3
100
AcDbEntity
  8
247
100
AcDbLine
 10
2.19286335
 20
-18.53234845
 30
0.0
 11
1.82906055
 21
-18.16854566
 31
0.0
  0
LINE
  5
FE0
330
7D3
100
AcDbEntity
  8
247
100
AcDbLine
 10
1.82906055
 20
-18.62776564
 30
0.0
 11
2.19286335
 21
-18.73208013
 31
0.0
1001
ACAD
1000
ASC_BOUNDS
1002
{
1070
    19
1005
0
1002
}
  0
LINE
  5
FE1
330
7D3
100
AcDbEntity
  8
247
100
AcDbLine
 10
1.82906055
 20
-18.43854369
 30
0.0
 11
2.19286335
 21
-18.54285818
 31
0.0
  0
LINE
  5
FE2
330
7D3
100
AcDbEntity
  8
247
100
AcDbLine
 10
2.22923264
 20
-15.88513922
 30
0.0
 11
2.22923264
 21
-15.75266875
 31
0.0
  0
LINE
  5
FE3
330
7D3
100
AcDbEntity
  8
247
100
AcDbLine
 10
2.45680984
 20
-17.17964679
 30
0.0
 11
2.00317465
 21
-16.72601159
 31
0.0
  0
LINE
  5
FE4
330
7D3
100
AcDbEntity
  8
247
100
AcDbLine
 10
2.81434269
 20
-17.1330176
 30
0.0
 11
2.20555384
 21
-16.52422875
 31
0.0
  0
LINE
  5
FE5
330
7D3
100
AcDbEntity
  8
247
100
AcDbLine
 10
4.04085804
 20
-17.55120887
 30
0.0
 11
2.84793333
 21
-16.35828416
 31
0.0
  0
ARC
  5
FE6
330
7D3
100
AcDbEntity
  8
247
100
AcDbCircle
 10
2.7385538
 20
-17.26118401
 30
0.0
 40
0.9095009758114816
100
AcDbArc
 50
17.66957755
 51
180.23615984
  0
LINE
  5
FE7
330
7D3
100
AcDbEntity
  8
247
100
AcDbLine
 10
2.22923264
 20
-15.88513922
 30
0.0
 11
1.82906055
 21
-15.77038642
 31
0.0
  0
LINE
  5
FE8
330
7D3
100
AcDbEntity
  8
247
100
AcDbLine
 10
2.24387165
 20
-17.37087063
 30
0.0
 11
1.86867178
 21
-16.99567076
 31
0.0
  0
LINE
  5
FE9
330
7D3
100
AcDbEntity
  8
247
100
AcDbLine
 10
3.77777705
 20
-17.69228992
 30
0.0
 11
2.47591649
 21
-16.39042936
 31
0.0
  0
ARC
  5
FEA
330
7D3
100
AcDbEntity
  8
247
100
AcDbCircle
 10
2.70218451
 20
-17.66705597
 30
0.0
 40
0.545688953974843
100
AcDbArc
 50
351.66260169
 51
156.3381551
  0
LINE
  5
FEB
330
7D3
100
AcDbEntity
  8
247
100
AcDbLine
 10
2.20237223
 20
-17.44804884
 30
0.0
 11
3.2421064
 21
-17.74618114
 31
0.0
  0
LINE
  5
FEC
330
7D3
100
AcDbEntity
  8
247
100
AcDbLine
 10
5.10325866
 20
-19.18816588
 30
0.0
 11
5.10325866
 21
-17.67845571
 31
0.0
  0
LINE
  5
FED
330
7D3
100
AcDbEntity
  8
247
100
AcDbLine
 10
5.10325866
 20
-18.61360949
 30
0.0
 11
4.63532719
 21
-18.14567802
 31
0.0
  0
LINE
  5
FEE
330
7D3
100
AcDbEntity
  8
247
100
AcDbLine
 10
5.10325866
 20
-16.57678756
 30
0.0
 11
5.10325866
 21
-15.76309333
 31
0.0
  0
LINE
  5
FEF
330
7D3
100
AcDbEntity
  8
247
100
AcDbLine
 10
5.03506907
 20
-17.33293378
 30
0.0
 11
4.53928691
 21
-16.83715162
 31
0.0
  0
SPLINE
  5
FF0
330
7D3
100
AcDbEntity
  8
241
100
AcDbSpline
210
0.0
220
0.0
230
1.0
 70
     8
 71
     3
 72
    12
 73
     8
 74
     0
 42
0.0000000001
 43
0.0000000001
 40
35.7008661941038
 40
35.7008661941038
 40
35.7008661941038
 40
35.7008661941038
 40
36.07408133714314
 40
36.07408133714314
 40
37.71654967693812
 40
37.71654967693812
 40
38.26669406446616
 40
38.26669406446616
 40
38.26669406446616
 40
38.26669406446616
 10
12.32460450440581
 20
-23.24304391033692
 30
0.0
 10
12.27277706228548
 20
-23.19848962157018
 30
0.0
 10
12.22370611866833
 20
-23.15263503714985
 30
0.0
 10
11.97381599543987
 20
-22.89818432669832
 30
0.0
 10
11.8247881341029
 20
-22.66553774142758
 30
0.0
 10
11.69687209189197
 20
-22.33044178681294
 30
0.0
 10
11.67066425841585
 20
-22.24434750160807
 30
0.0
 10
11.65006011572575
 20
-22.15664874450376
 30
0.0
  0
ARC
  5
FF1
330
7D3
100
AcDbEntity
  8
241
100
AcDbCircle
 10
17.97877328
 20
-6.99456405
 30
0.0
 40
1.5
100
AcDbArc
 50
184.952
 51
274.952
  0
LINE
  5
FF2
330
7D3
100
AcDbEntity
  8
241
100
AcDbLine
 10
21.25946188
 20
4.8327759
 30
0.0
 11
16.98608015
 21
4.46251064
 31
0.0
  0
SPLINE
  5
FF3
330
7D3
100
AcDbEntity
  8
241
100
AcDbSpline
210
0.0
220
0.0
230
1.0
 70
     8
 71
     3
 72
    42
 73
    38
 74
     0
 42
0.0000000001
 43
0.0000000001
 40
3.089674849554149
 40
3.089674849554149
 40
3.089674849554149
 40
3.089674849554149
 40
3.381054198910394
 40
3.381054198910394
 40
3.871976905006989
 40
3.871976905006989
 40
4.442650386161883
 40
4.442650386161883
 40
5.013323867316778
 40
5.013323867316778
 40
6.154670829626565
 40
6.154670829626565
 40
7.259934710802532
 40
7.259934710802532
 40
7.812566651390516
 40
7.812566651390516
 40
8.365198591978499
 40
8.365198591978499
 40
8.828576706445954
 40
8.828576706445954
 40
9.29195482091341
 40
9.29195482091341
 40
9.755332935380867
 40
9.755332935380867
 40
10.21871104984832
 40
10.21871104984832
 40
10.77919169733991
 40
10.77919169733991
 40
11.3396723448315
 40
11.3396723448315
 40
11.90015299232308
 40
11.90015299232308
 40
12.46063363981467
 40
12.46063363981467
 40
12.97261717076875
 40
12.97261717076875
 40
13.25714406538254
 40
13.25714406538254
 40
13.25714406538254
 40
13.25714406538254
 10
11.65006011572575
 20
13.30318547350677
 30
0.0
 10
11.66221589171178
 20
13.32541746350742
 30
0.0
 10
11.67640587092182
 20
13.34110931436029
 30
0.0
 10
11.71959097834621
 20
13.36645311421355
 30
0.0
 10
11.75217167708194
 20
13.36444782484343
 30
0.0
 10
11.82999433940267
 20
13.33024120129178
 30
0.0
 10
11.87931648942327
 20
13.29203291749391
 30
0.0
 10
11.99029398998408
 20
13.17900246430369
 30
0.0
 10
12.05193677226984
 20
13.10422749393197
 30
0.0
 10
12.2476025315332
 20
12.83557557373123
 30
0.0
 10
12.3928933404052
 20
12.59600844250863
 30
0.0
 10
12.65111232997929
 20
12.08862127652705
 30
0.0
 10
12.78644800036295
 20
11.7812956642351
 30
0.0
 10
12.94181107787352
 20
11.27323679922707
 30
0.0
 10
12.98549600787714
 20
11.09607480991812
 30
0.0
 10
13.04634044679684
 20
10.73413145449129
 30
0.0
 10
13.06339220807447
 20
10.54932844932036
 30
0.0
 10
13.06339220807447
 20
10.21065843096855
 30
0.0
 10
13.0511763671364
 20
10.0538847110935
 30
0.0
 10
13.00141029911932
 20
9.749978951482347
 30
0.0
 10
12.96392857348061
 20
9.60283164427372
 30
0.0
 10
12.87102400332966
 20
9.329075321109513
 30
0.0
 10
12.81558547269335
 20
9.201907574851617
 30
0.0
 10
12.69731589394243
 20
8.973102176551066
 30
0.0
 10
12.63456804586641
 20
8.87141597955437
 30
0.0
 10
12.49964121269076
 20
8.677632032472985
 30
0.0
 10
12.42231401428495
 20
8.583467460922889
 30
0.0
 10
12.27029821271318
 20
8.42478229576821
 30
0.0
 10
12.19564416083099
 20
8.360248539415721
 30
0.0
 10
12.05666388659395
 20
8.264312581272491
 30
0.0
 10
11.99228446917951
 20
8.232896169755036
 30
0.0
 10
11.878577045815
 20
8.204089533302436
 30
0.0
 10
11.82924713113101
 20
8.206753405591285
 30
0.0
 10
11.75062776661886
 20
8.241310216236712
 30
0.0
 10
11.7173853750898
 20
8.271819015828697
 30
0.0
 10
11.67492855609433
 20
8.343941851083428
 30
0.0
 10
11.66156628306336
 20
8.374560915733042
 30
0.0
 10
11.65006011572577
 20
8.410024081491229
 30
0.0
  0
TEXT
  5
FF4
330
7D3
100
AcDbEntity
  8
247
100
AcDbText
 10
5.13026336
 20
-8.87505228
 30
0.0
 40
2.5
  1
S50-DCLNN-00050-12
 50
90.0
 41
0.7
  7
YOKO
 11
5.13026336
 21
-8.87505228
 31
0.0
100
AcDbText
 73
     1
  0
LINE
  5
FF5
330
7D3
100
AcDbEntity
  8
241
100
AcDbLine
 10
0.0
 20
13.99999992
 30
0.0
 11
0.0
 21
0.0
 31
0.0
  0
LINE
  5
FF6
330
7D3
100
AcDbEntity
  8
245
100
AcDbLine
 10
-14.0
 20
-6.58530098
 30
0.0
 11
-14.0
 21
6.5350646
 31
0.0
  0
LINE
  5
FF7
330
7D3
100
AcDbEntity
  8
241
100
AcDbLine
 10
15.62116081
 20
2.83862788
 30
0.0
 11
16.48437223
 21
-7.12404576
 31
0.0
  0
LINE
  5
FF8
330
7D3
100
AcDbEntity
  8
241
100
AcDbLine
 10
0.0
 20
-13.99999992
 30
0.0
 11
0.0
 21
0.0
 31
0.0
  0
LINE
  5
FF9
330
7D3
100
AcDbEntity
  8
247
100
AcDbLine
 10
4.42637462
 20
-13.54423691
 30
0.0
 11
3.61167776
 21
-13.31062464
 31
0.0
1001
ACAD
1000
ASC_BOUNDS
1002
{
1070
    19
1005
0
1002
}
  0
ARC
  5
FFA
330
7D3
100
AcDbEntity
  8
247
100
AcDbCircle
 10
3.73901149
 20
-11.99391344
 30
0.0
 40
1.546148139381408
100
AcDbArc
 50
0.0
 51
194.1274365
1001
ACAD
1000
ASC_BOUNDS
1002
{
1070
    19
1005
0
1002
}
  0
ARC
  5
FFB
330
7D3
100
AcDbEntity
  8
247
100
AcDbCircle
 10
3.73901149
 20
-11.99391344
 30
0.0
 40
1.909950933265685
100
AcDbArc
 50
0.0
 51
194.77079397
1001
ACAD
1000
ASC_BOUNDS
1002
{
1070
    19
1005
0
1002
}
  0
LINE
  5
FFC
330
7D3
100
AcDbEntity
  8
247
100
AcDbLine
 10
4.21579532
 20
-14.2786274
 30
0.0
 11
2.50593043
 21
-13.78832869
 31
0.0
1001
ACAD
1000
ASC_BOUNDS
1002
{
1070
    19
1005
0
1002
}
  0
LINE
  5
FFD
330
7D3
100
AcDbEntity
  8
247
100
AcDbLine
 10
5.10325866
 20
-12.98140564
 30
0.0
 11
3.24787497
 21
-12.44938113
 31
0.0
1001
ACAD
1000
ASC_BOUNDS
1002
{
1070
    19
1005
0
1002
}
  0
LINE
  5
FFE
330
7D3
100
AcDbEntity
  8
247
100
AcDbLine
 10
3.61167776
 20
-13.61339075
 30
0.0
 11
3.24787497
 21
-13.50907626
 31
0.0
1001
ACAD
1000
ASC_BOUNDS
1002
{
1070
    19
1005
0
1002
}
  0
LINE
  5
FFF
330
7D3
100
AcDbEntity
  8
247
100
AcDbLine
 10
3.24787497
 20
-13.50907626
 30
0.0
 11
3.24787497
 21
-12.44938113
 31
0.0
1001
ACAD
1000
ASC_BOUNDS
1002
{
1070
    19
1005
0
1002
}
  0
ARC
  5
1000
330
7D3
100
AcDbEntity
  8
247
100
AcDbCircle
 10
2.61123381
 20
-13.42113345
 30
0.0
 40
0.3819927511654794
100
AcDbArc
 50
91.71012138
 51
253.99839835
1001
ACAD
1000
ASC_BOUNDS
1002
{
1070
    19
1005
0
1002
}
  0
LINE
  5
1001
330
7D3
100
AcDbEntity
  8
247
100
AcDbLine
 10
2.23961602
 20
-12.37129978
 30
0.0
 11
1.89217116
 21
-12.4808609
 31
0.0
1001
ACAD
1000
ASC_BOUNDS
1002
{
1070
    19
1005
0
1002
}
  0
LWPOLYLINE
  5
1002
330
7D3
100
AcDbEntity
  8
247
100
AcDbPolyline
 90
        4
 70
     1
 43
0.0
 10
2.23961602
 20
-12.37129978
 10
1.89217116
 20
-12.4808609
 10
1.89217116
 20
-12.4808609
 10
2.23961602
 20
-12.37129978
  0
LWPOLYLINE
  5
1003
330
7D3
100
AcDbEntity
  8
247
100
AcDbPolyline
 90
        4
 70
     1
 43
0.0
 10
2.23961602
 20
-12.37129978
 10
1.89217116
 20
-12.4808609
 10
1.89217116
 20
-12.4808609
 10
2.23961602
 20
-12.37129978
1001
HATCH_DISTANCE
1040
1.0
1001
HATCH_DISPLAY
1070
     0
1001
HATCH_TYPE
1070
     7
  0
LWPOLYLINE
  5
1004
330
7D3
100
AcDbEntity
  8
247
100
AcDbPolyline
 90
        4
 70
     1
 43
0.0
 10
2.23961602
 20
-12.37129978
 10
1.89217116
 20
-12.4808609
 10
1.89217116
 20
-12.4808609
 10
2.23961602
 20
-12.37129978
  0
LWPOLYLINE
  5
1005
330
7D3
100
AcDbEntity
  8
247
100
AcDbPolyline
 90
        4
 70
     1
 43
0.0
 10
2.23961602
 20
-12.37129978
 10
1.89217116
 20
-12.4808609
 10
1.89217116
 20
-12.4808609
 10
2.23961602
 20
-12.37129978
1001
HATCH_DISTANCE
1040
1.0
1001
HATCH_DISPLAY
1070
     0
1001
HATCH_TYPE
1070
     7
  0
ARC
  5
1006
330
7D3
100
AcDbEntity
  8
247
100
AcDbCircle
 10
3.0114059
 20
-13.61157778
 30
0.0
 40
1.182347062325477
100
AcDbArc
 50
143.4440122
 51
254.00018439
1001
ACAD
1000
ASC_BOUNDS
1002
{
1070
    19
1005
0
1002
}
  0
ARC
  5
1007
330
7D3
100
AcDbEntity
  8
247
100
AcDbCircle
 10
3.73901149
 20
-11.99391344
 30
0.0
 40
1.909951791679857
100
AcDbArc
 50
200.22964506
 51
208.57168892
1001
ACAD
1000
ASC_BOUNDS
1002
{
1070
    19
1005
0
1002
}
  0
ARC
  5
1008
330
7D3
100
AcDbEntity
  8
247
100
AcDbCircle
 10
3.73901149
 20
-11.99391344
 30
0.0
 40
1.54615243145227
100
AcDbArc
 50
200.8721834
 51
222.54194894
1001
ACAD
1000
ASC_BOUNDS
1002
{
1070
    19
1005
0
1002
}
  0
LINE
  5
1009
330
7D3
100
AcDbEntity
  8
247
100
AcDbLine
 10
2.29432104
 20
-12.54478185
 30
0.0
 11
1.94687618
 21
-12.65434297
 31
0.0
1001
ACAD
1000
ASC_BOUNDS
1002
{
1070
    19
1005
0
1002
}
  0
LINE
  5
100A
330
7D3
100
AcDbEntity
  8
247
100
AcDbLine
 10
3.61167776
 20
-13.61339075
 30
0.0
 11
3.61167776
 21
-13.31062464
 31
0.0
1001
ACAD
1000
ASC_BOUNDS
1002
{
1070
    19
1005
0
1002
}
  0
LINE
  5
100B
330
7D3
100
AcDbEntity
  8
247
100
AcDbLine
 10
4.88986376
 20
-13.19481427
 30
0.0
 11
5.10325866
 21
-12.98140564
 31
0.0
1001
ACAD
1000
ASC_BOUNDS
1002
{
1070
    19
1005
0
1002
}
  0
ARC
  5
100C
330
7D3
100
AcDbEntity
  8
247
100
AcDbCircle
 10
4.32108497
 20
-13.91143215
 30
0.0
 40
0.3819924829110504
100
AcDbArc
 50
254.00027306
 51
74.00027306
1001
ACAD
1000
ASC_BOUNDS
1002
{
1070
    19
1005
0
1002
}
  0
ARC
  5
100D
330
7D3
100
AcDbEntity
  8
241
100
AcDbCircle
 10
17.11556186
 20
2.96810959
 30
0.0
 40
1.5
100
AcDbArc
 50
94.952
 51
184.952
  0
LINE
  5
100E
330
7D3
100
AcDbEntity
  8
240
100
AcDbLine
 10
0.0
 20
25.0
 30
0.0
 11
0.0
 21
14.0
 31
0.0
  0
SPLINE
  5
100F
330
7D3
100
AcDbEntity
  8
241
100
AcDbSpline
210
0.0
220
0.0
230
1.0
 70
     8
 71
     3
 72
    12
 73
     8
 74
     0
 42
0.0000000001
 43
0.0000000001
 40
15.3333521394797
 40
15.3333521394797
 40
15.3333521394797
 40
15.3333521394797
 40
15.88349652700773
 40
15.88349652700773
 40
17.52596486680273
 40
17.52596486680273
 40
17.89918000984211
 40
17.89918000984211
 40
17.89918000984211
 40
17.89918000984211
 10
11.65006011572577
 20
22.15664874450308
 30
0.0
 10
11.67066425841585
 20
22.24434750160733
 30
0.0
 10
11.696872091892
 20
22.3304417868122
 30
0.0
 10
11.8247881341029
 20
22.66553774142684
 30
0.0
 10
11.97381599543987
 20
22.89818432669759
 30
0.0
 10
12.22370611866836
 20
23.1526350371491
 30
0.0
 10
12.27277706228548
 20
23.19848962156945
 30
0.0
 10
12.32460450440581
 20
23.24304391033618
 30
0.0
  0
LINE
  5
1010
330
7D3
100
AcDbEntity
  8
241
100
AcDbLine
 10
11.65006012
 20
22.15664874
 30
0.0
 11
11.65006012
 21
13.30318547
 31
0.0
  0
LINE
  5
1011
330
7D3
100
AcDbEntity
  8
240
100
AcDbLine
 10
8.91626935
 20
25.0
 30
0.0
 11
0.0
 21
25.0
 31
0.0
  0
ELLIPSE
  5
1012
330
7D3
100
AcDbEntity
  8
240
100
AcDbEllipse
 10
39.00291029
 20
0.0
 30
0.0
 11
30.25757264685207
 21
-24.94016785739312
 31
0.0000000000000001
210
0.0
220
0.0
230
1.0
 40
0.05712921
 41
2.695254034330696
 42
3.072393795939097
  0
LINE
  5
1013
330
7D3
100
AcDbEntity
  8
240
100
AcDbLine
 10
35.54744197
 20
12.04320562
 30
0.0
 11
40.41433835
 21
7.91926071
 31
0.0
  0
LINE
  5
1014
330
7D3
100
AcDbEntity
  8
241
100
AcDbLine
 10
18.47704452
 20
4.72215034
 30
0.0
 11
18.47704452
 21
17.60055358
 31
0.0
  0
LINE
  5
1015
330
7D3
100
AcDbEntity
  8
241
100
AcDbLine
 10
40.15262472
 20
7.77299454
 30
0.0
 11
34.94025287
 21
3.39929524
 31
0.0
  0
LINE
  5
1016
330
7D3
100
AcDbEntity
  8
241
100
AcDbLine
 10
30.57523188
 20
4.99217548
 30
0.0
 11
37.22538635
 21
2.56540602
 31
0.0
  0
LINE
  5
1017
330
7D3
100
AcDbEntity
  8
241
100
AcDbLine
 10
31.58599319
 20
-6.67343131
 30
0.0
 11
37.71964335
 21
-3.13901479
 31
0.0
  0
LINE
  5
1018
330
7D3
100
AcDbEntity
  8
241
100
AcDbLine
 10
21.63191209
 20
-2.81833312
 30
0.0
 11
21.43256196
 21
-0.5175522
 31
0.0
  0
LINE
  5
1019
330
7D3
100
AcDbEntity
  8
241
100
AcDbLine
 10
25.41763141
 20
-0.17226763
 30
0.0
 11
25.61698155
 21
-2.47304855
 31
0.0
  0
CIRCLE
  5
101A
330
7D3
100
AcDbEntity
  8
241
100
AcDbCircle
 10
23.52477175
 20
-1.49530037
 30
0.0
 40
4.25
  0
LINE
  5
101B
330
7D3
100
AcDbEntity
  8
241
100
AcDbLine
 10
22.38163673
 20
-8.11869984
 30
0.0
 11
28.50626212
 21
-7.5880344
 31
0.0
  0
LINE
  5
101C
330
7D3
100
AcDbEntity
  8
241
100
AcDbLine
 10
18.10825499
 20
-8.48896509
 30
0.0
 11
22.38163673
 21
-8.11869984
 31
0.0
  0
LINE
  5
101D
330
7D3
100
AcDbEntity
  8
241
100
AcDbLine
 10
23.72412189
 20
-3.7960813
 30
0.0
 11
21.63191209
 21
-2.81833312
 31
0.0
  0
LINE
  5
101E
330
7D3
100
AcDbEntity
  8
241
100
AcDbLine
 10
25.61698155
 20
-2.47304855
 30
0.0
 11
23.72412189
 21
-3.7960813
 31
0.0
  0
ELLIPSE
  5
101F
330
7D3
100
AcDbEntity
  8
241
100
AcDbEllipse
 10
28.2472987
 20
-4.5992323
 30
0.0
 11
5.060089880877079
 21
0.4384292346364517
 31
0.0
210
0.0
220
0.0
230
1.0
 40
0.59066186
 41
4.712388980384688
 42
5.380673877756674
  0
LINE
  5
1020
330
7D3
100
AcDbEntity
  8
241
100
AcDbLine
 10
27.38408728
 20
5.36344134
 30
0.0
 11
21.25946188
 21
4.8327759
 31
0.0
  0
LINE
  5
1021
330
7D3
100
AcDbEntity
  8
241
100
AcDbLine
 10
21.43256196
 20
-0.5175522
 30
0.0
 11
23.32542161
 21
0.80548055
 31
0.0
  0
LINE
  5
1022
330
7D3
100
AcDbEntity
  8
241
100
AcDbLine
 10
23.32542161
 20
0.80548055
 30
0.0
 11
25.41763141
 21
-0.17226763
 31
0.0
  0
ELLIPSE
  5
1023
330
7D3
100
AcDbEntity
  8
241
100
AcDbEllipse
 10
16.54007301
 20
4.42013326
 30
0.0
 11
0.0000000000000019
 21
1.979186357528831
 31
0.0
210
0.0
220
0.0
230
1.0
 40
0.99026807
 41
4.799655442984402
 42
4.865584076649136
  0
ELLIPSE
  5
1024
330
7D3
100
AcDbEntity
  8
241
100
AcDbEllipse
 10
27.6430507
 20
2.37463924
 30
0.0
 11
5.060089880877358
 21
0.4384292346364762
 31
0.0
210
0.0
220
0.0
230
1.0
 40
0.59066186
 41
0.9025114294229034
 42
1.570796326794896
  0
LINE
  5
1025
330
7D3
100
AcDbEntity
  8
240
100
AcDbLine
 10
49.71423009
 20
-0.61283555
 30
0.0
 11
41.43819994
 21
-7.5572494
 31
0.0
  0
LINE
  5
1026
330
7D3
100
AcDbEntity
  8
241
100
AcDbLine
 10
39.78297336
 20
-2.06286608
 30
0.0
 11
37.71964335
 21
-3.13901479
 31
0.0
  0
LINE
  5
1027
330
7D3
100
AcDbEntity
  8
240
100
AcDbLine
 10
35.54744166
 20
-12.0432056
 30
0.0
 11
40.52077528
 21
-7.82907153
 31
0.0
  0
LINE
  5
1028
330
7D3
100
AcDbEntity
  8
241
100
AcDbLine
 10
39.89550968
 20
-7.5572494
 30
0.0
 11
35.88794354
 21
-4.19450213
 31
0.0
  0
ARC
  5
1029
330
7D3
100
AcDbEntity
  8
241
100
AcDbCircle
 10
40.66685481
 20
-6.63799607
 30
0.0
 40
1.199999999999999
100
AcDbArc
 50
230.0
 51
263.00787384
  0
ARC
  5
102A
330
7D3
100
AcDbEntity
  8
240
100
AcDbCircle
 10
40.66685481
 20
-6.63799607
 30
0.0
 40
1.199999999999999
100
AcDbArc
 50
263.00787384
 51
310.0
  0
LINE
  5
102B
330
7D3
100
AcDbEntity
  8
240
100
AcDbLine
 10
41.1810849
 20
7.77299454
 30
0.0
 11
49.71423009
 21
0.61283555
 31
0.0
  0
SPLINE
  5
102C
330
7D3
100
AcDbEntity
  8
241
100
AcDbSpline
210
0.0
220
0.0
230
1.0
 70
     8
 71
     3
 72
    18
 73
    14
 74
     0
 42
0.0000000001
 43
0.0000000001
 40
8.989072812039331
 40
8.989072812039331
 40
8.989072812039331
 40
8.989072812039331
 40
9.215365212352192
 40
9.215365212352192
 40
9.677542433350719
 40
9.677542433350719
 40
10.13971965434924
 40
10.13971965434924
 40
10.60189687534776
 40
10.60189687534776
 40
11.06407409634629
 40
11.06407409634629
 40
11.12066051618086
 40
11.12066051618086
 40
11.12066051618086
 40
11.12066051618086
 10
39.44306250460023
 20
1.860183185350269
 30
0.0
 10
39.49939364776589
 20
1.875354699685544
 30
0.0
 10
39.55721742862392
 20
1.888245925527709
 30
0.0
 10
39.73341599159113
 20
1.919384128810139
 30
0.0
 10
39.86478862327647
 20
1.931385775500831
 30
0.0
 10
40.14212335617985
 20
1.925800136930793
 30
0.0
 10
40.28802994216145
 20
1.908109365830853
 30
0.0
 10
40.57901696879251
 20
1.837704493862887
 30
0.0
 10
40.72455898896328
 20
1.784874895127418
 30
0.0
 10
41.00110979114014
 20
1.64558777117208
 30
0.0
 10
41.1321084501817
 20
1.559135916202234
 30
0.0
 10
41.26448062033404
 20
1.447873367759971
 30
0.0
 10
41.2787693857352
 20
1.435514591505683
 30
0.0
 10
41.29289650009584
 20
1.422940468093304
 30
0.0
  0
LINE
  5
102D
330
7D3
100
AcDbEntity
  8
241
100
AcDbLine
 10
39.4430625
 20
1.86018319
 30
0.0
 11
37.50856311
 21
2.46206936
 31
0.0
  0
LINE
  5
102E
330
7D3
100
AcDbEntity
  8
241
100
AcDbLine
 10
37.22538635
 20
2.56540602
 30
0.0
 11
37.50856311
 21
2.46206936
 31
0.0
  0
SPLINE
  5
102F
330
7D3
100
AcDbEntity
  8
241
100
AcDbSpline
210
0.0
220
0.0
230
1.0
 70
     8
 71
     3
 72
    19
 73
    15
 74
     0
 42
0.0000000001
 43
0.0000000001
 40
-0.0565864198345793
 40
-0.0565864198345793
 40
-0.0565864198345793
 40
-0.0565864198345793
 40
0.0
 40
0.0
 40
0.0
 40
0.4621772209985248
 40
0.4621772209985248
 40
0.9243544419970495
 40
0.9243544419970495
 40
1.386531662995573
 40
1.386531662995573
 40
1.848708883994099
 40
1.848708883994099
 40
2.075001284306946
 40
2.075001284306946
 40
2.075001284306946
 40
2.075001284306946
 10
41.53003505691642
 20
-1.313971938600188
 30
0.0
 10
41.5182811968962
 20
-1.328788507513843
 30
0.0
 10
41.5063310556158
 20
-1.343420742154235
 30
0.0
 10
41.49419460505828
 20
-1.357859817303409
 30
0.0
 10
41.39506850717355
 20
-1.47579291230657
 30
0.0
 10
41.2808916143302
 20
-1.583487893800854
 30
0.0
 10
41.03241924915141
 20
-1.76826541631606
 30
0.0
 10
40.89813277365026
 20
-1.845340630460617
 30
0.0
 10
40.62359172157731
 20
-1.964745430996783
 30
0.0
 10
40.48290230964325
 20
-2.007268184724273
 30
0.0
 10
40.21066132524065
 20
-2.060471566612295
 30
0.0
 10
40.07918224002702
 20
-2.071244589893058
 30
0.0
 10
39.9002538029643
 20
-2.070876207401813
 30
0.0
 10
39.84107448792909
 20
-2.068122662705675
 30
0.0
 10
39.78297336151397
 20
-2.062866081415231
 30
0.0
  0
ARC
  5
1030
330
7D3
100
AcDbEntity
  8
241
100
AcDbCircle
 10
39.96318326
 20
-0.07100153
 30
0.0
 40
1.999999999999999
100
AcDbArc
 50
321.57532672
 51
48.32867328
  0
ARC
  5
1031
330
7D3
100
AcDbEntity
  8
241
100
AcDbCircle
 10
40.66685481
 20
7.16015898
 30
0.0
 40
0.8
100
AcDbArc
 50
108.39979111
 51
130.0
  0
ARC
  5
1032
330
7D3
100
AcDbEntity
  8
240
100
AcDbCircle
 10
40.66685481
 20
7.16015898
 30
0.0
 40
0.8
100
AcDbArc
 50
50.0
 51
108.39979111
  0
ARC
  5
1033
330
7D3
100
AcDbEntity
  8
240
100
AcDbCircle
 10
49.2
 20
0.0
 30
0.0
 40
0.8
100
AcDbArc
 50
310.0
 51
50.0
  0
ELLIPSE
  5
1034
330
7D3
100
AcDbEntity
  8
240
100
AcDbEllipse
 10
34.0925854
 20
37.0
 30
0.0
 11
-0.0000000000000264
 21
-25.0
 31
0.0
210
0.0
220
0.0
230
1.0
 40
0.99026807
 41
5.600652883284483
 42
6.341985355320646
  0
ELLIPSE
  5
1035
330
7D3
100
AcDbEntity
  8
240
100
AcDbEllipse
 10
19.59042933
 20
-17.59658298
 30
0.0
 11
-7.986726520403025
 21
-6.690234077270876
 31
0.0000000000000001
210
0.0
220
0.0
230
0.9999999999999998
 40
0.06885427
 41
4.794402055515644
 42
5.793805959950232
  0
ELLIPSE
  5
1036
330
7D3
100
AcDbEntity
  8
240
100
AcDbEllipse
 10
39.00291029
 20
0.0
 30
0.0
 11
-30.25757264685208
 21
-24.9401678573931
 31
0.0000000000000001
210
0.0
220
0.0
230
1.0
 40
0.05712921
 41
0.0691988576507097
 42
0.4463386192591111
  0
ELLIPSE
  5
1037
330
7D3
100
AcDbEntity
  8
240
100
AcDbEllipse
 10
19.59042933
 20
17.59658298
 30
0.0
 11
-7.986726520403026
 21
6.690234077270887
 31
0.0000000000000001
210
0.0
220
0.0
230
1.0
 40
0.06885427
 41
0.4893793472293331
 42
1.488783251663935
  0
ENDBLK
  5
88D
330
7D3
100
AcDbEntity
  8
0
100
AcDbBlockEnd
  0
BLOCK
  5
8A7
330
89D
100
AcDbEntity
  8
0
100
AcDbBlockBegin
  2
*D6
 70
     1
 10
0.0
 20
0.0
 30
0.0
  3
*D6
  1

  0
LINE
  5
D37
330
89D
100
AcDbEntity
  8
250
  6
CONTINUOUS
100
AcDbLine
 10
9.41626935
 20
-25.0
 30
0.0
 11
75.0
 21
-25.0
 31
0.0
  0
LINE
  5
D38
330
89D
100
AcDbEntity
  8
250
  6
CONTINUOUS
100
AcDbLine
 10
9.41626935
 20
25.0
 30
0.0
 11
75.0
 21
25.0
 31
0.0
  0
LINE
  5
D39
330
89D
100
AcDbEntity
  8
250
  6
CONTINUOUS
100
AcDbLine
 10
74.0
 20
-22.77
 30
0.0
 11
74.0
 21
22.77
 31
0.0
  0
INSERT
  5
D3A
330
89D
100
AcDbEntity
  8
250
  6
CONTINUOUS
100
AcDbBlockReference
  2
_OPEN
 10
74.0
 20
-25.0
 30
0.0
 41
2.23
 42
2.23
 43
2.23
 50
270.0
  0
INSERT
  5
D3B
330
89D
100
AcDbEntity
  8
250
  6
CONTINUOUS
100
AcDbBlockReference
  2
_OPEN
 10
74.0
 20
25.0
 30
0.0
 41
2.23
 42
2.23
 43
2.23
 50
90.0
  0
MTEXT
  5
D3C
330
89D
100
AcDbEntity
  8
250
  6
CONTINUOUS
 62
    40
100
AcDbMText
 10
71.5
 20
0.0
 30
0.0
 40
3.0
 41
0.0
 71
     5
 72
     1
  1
\A1;{\H3;\U+2205}50
 11
0.0
 21
1.0
 31
0.0
1001
ACAD
1000
MTEXTBEGIN
1070
    73
1070
     1
1070
    44
1040
1.0
1070
    74
1070
     0
1000
MTEXTEND
1000
MTEXTBEGIN
1070
    73
1070
     1
1070
    44
1040
1.0
1070
    74
1070
     0
1000
MTEXTEND
1000
MTEXTBEGIN
1070
    73
1070
     1
1070
    44
1040
1.0
1070
    74
1070
     0
1000
MTEXTEND
  0
POINT
  5
D3D
330
89D
100
AcDbEntity
  8
DEFPOINTS
  6
CONTINUOUS
 62
     0
100
AcDbPoint
 10
8.91626935
 20
-25.0
 30
0.0
  0
POINT
  5
D3E
330
89D
100
AcDbEntity
  8
DEFPOINTS
  6
CONTINUOUS
 62
     0
100
AcDbPoint
 10
8.91626935
 20
25.0
 30
0.0
  0
POINT
  5
D3F
330
89D
100
AcDbEntity
  8
DEFPOINTS
  6
CONTINUOUS
 62
     0
100
AcDbPoint
 10
74.0
 20
25.0
 30
0.0
  0
ENDBLK
  5
8A8
330
89D
100
AcDbEntity
  8
0
100
AcDbBlockEnd
  0
BLOCK
  5
8B3
330
8A9
100
AcDbEntity
  8
0
100
AcDbBlockBegin
  2
*D7
 70
     1
 10
0.0
 20
0.0
 30
0.0
  3
*D7
  1

  0
LINE
  5
E0F
330
8A9
100
AcDbEntity
  8
250
  6
CONTINUOUS
100
AcDbLine
 10
0.0
 20
25.5
 30
0.0
 11
0.0
 21
36.0
 31
0.0
  0
LINE
  5
E10
330
8A9
100
AcDbEntity
  8
250
  6
CONTINUOUS
100
AcDbLine
 10
50.0
 20
0.5
 30
0.0
 11
50.0
 21
36.0
 31
0.0
  0
LINE
  5
E11
330
8A9
100
AcDbEntity
  8
250
  6
CONTINUOUS
100
AcDbLine
 10
2.23
 20
35.0
 30
0.0
 11
47.77
 21
35.0
 31
0.0
  0
INSERT
  5
E12
330
8A9
100
AcDbEntity
  8
250
  6
CONTINUOUS
100
AcDbBlockReference
  2
_OPEN
 10
0.0
 20
35.0
 30
0.0
 41
2.23
 42
2.23
 43
2.23
 50
180.0
  0
INSERT
  5
E13
330
8A9
100
AcDbEntity
  8
250
  6
CONTINUOUS
100
AcDbBlockReference
  2
_OPEN
 10
50.0
 20
35.0
 30
0.0
 41
2.23
 42
2.23
 43
2.23
  0
MTEXT
  5
E14
330
8A9
100
AcDbEntity
  8
250
  6
CONTINUOUS
 62
    40
100
AcDbMText
 10
25.0
 20
37.5
 30
0.0
 40
3.0
 41
0.0
 71
     5
 72
     1
  1
\A1;50
1001
ACAD
1000
MTEXTBEGIN
1070
    73
1070
     1
1070
    44
1040
1.0
1070
    74
1070
     0
1000
MTEXTEND
1000
MTEXTBEGIN
1070
    73
1070
     1
1070
    44
1040
1.0
1070
    74
1070
     0
1000
MTEXTEND
  0
POINT
  5
E15
330
8A9
100
AcDbEntity
  8
DEFPOINTS
  6
CONTINUOUS
 62
     0
100
AcDbPoint
 10
0.0
 20
25.0
 30
0.0
  0
POINT
  5
E16
330
8A9
100
AcDbEntity
  8
DEFPOINTS
  6
CONTINUOUS
 62
     0
100
AcDbPoint
 10
50.0
 20
0.0
 30
0.0
  0
POINT
  5
E17
330
8A9
100
AcDbEntity
  8
DEFPOINTS
  6
CONTINUOUS
 62
     0
100
AcDbPoint
 10
50.0
 20
35.0
 30
0.0
  0
ENDBLK
  5
8B4
330
8A9
100
AcDbEntity
  8
0
100
AcDbBlockEnd
  0
BLOCK
  5
CE1
330
8F0
100
AcDbEntity
  8
0
100
AcDbBlockBegin
  2
_DOT
 70
     0
 10
0.0
 20
0.0
 30
0.0
  3
_DOT
  1

  0
LINE
  5
CE2
330
8F0
100
AcDbEntity
  8
0
  6
CONTINUOUS
 62
     0
100
AcDbLine
 10
-1.0
 20
0.0
 30
0.0
 11
0.0
 21
0.0
 31
0.0
  0
LWPOLYLINE
  5
CE3
330
8F0
100
AcDbEntity
  8
0
  6
CONTINUOUS
 62
     0
100
AcDbPolyline
 90
        3
 70
     0
 43
0.5
 10
0.125
 20
0.0
 42
1.0
 10
-0.125
 20
0.0
 42
1.0
 10
0.125
 20
0.0
 42
1.0
  0
ENDBLK
  5
CE8
330
8F0
100
AcDbEntity
  8
0
100
AcDbBlockEnd
  0
ENDSEC
  0
SECTION
  2
ENTITIES
  0
INSERT
  5
6E6
330
1A
100
AcDbEntity
  8
245
100
AcDbBlockReference
  2
矢印なし
 10
175.62382697
 20
90.55123572
 30
0.0
  0
DIMENSION
  5
89A
330
1A
100
AcDbEntity
  8
250
  6
CONTINUOUS
100
AcDbDimension
  2
*D6
 10
74.0
 20
25.0
 30
0.0
 11
74.0
 21
0.0
 31
0.0
 70
   160
  1
{\H3;\U+2205}<>
  3
BIGT
100
AcDbAlignedDimension
 13
8.91626935
 23
-25.0
 33
0.0
 14
8.91626935
 24
25.0
 34
0.0
 50
90.0
100
AcDbRotatedDimension
1001
ACAD
1000
DSTYLE
1002
{
1070
    78
1070
     8
1070
   140
1040
3.0
1002
}
  0
TEXT
  5
89B
330
1A
100
AcDbEntity
  8
241
100
AcDbText
 10
-31.0
 20
49.0
 30
0.0
 40
5.0
  1
S50-DCLNN-00050-12
  7
YOKO
 11
-31.0
 21
49.0
 31
0.0
100
AcDbText
 73
     1
  0
DIMENSION
  5
89C
330
1A
100
AcDbEntity
  8
250
  6
CONTINUOUS
100
AcDbDimension
  2
*D7
 10
50.0
 20
35.0
 30
0.0
 11
25.0
 21
37.5
 31
0.0
 70
    32
  3
BIGT
100
AcDbAlignedDimension
 13
0.0
 23
25.0
 33
0.0
 14
50.0
 24
0.0
 34
0.0
100
AcDbRotatedDimension
1001
ACAD
1000
DSTYLE
1002
{
1070
    78
1070
     8
1070
   140
1040
3.0
1002
}
  0
LEADER
  5
949
102
{ACAD_REACTORS
330
94E
102
}
330
1A
100
AcDbEntity
  8
250
  6
CONTINUOUS
100
AcDbLeader
  3
BIGT
 76
     2
 10
44.6508423
 20
-2.29556726
 30
0.0
 10
47.45939486
 20
-17.5522929
 30
0.0
1001
ACAD
1000
DSTYLE
1002
{
1070
     6
1000
DOT
1070
   341
1005
8F0
1070
   343
1005
8F0
1002
}
  0
MTEXT
  5
94A
102
{ACAD_REACTORS
330
94E
102
}
330
1A
100
AcDbEntity
  8
251
  6
CONTINUOUS
100
AcDbMText
 10
49.04673261
 20
-16.5522929
 30
0.0
 40
2.8
 41
0.0
 71
     7
 72
     1
  1
（CN1204）
  7
YOKO
1001
ITEMNAME
1000
LNSP3
1001
ACAD
1000
MTEXTBEGIN
1070
    73
1070
     1
1070
    44
1040
1.0
1070
    74
1070
     0
1000
MTEXTEND
1000
MTEXTBEGIN
1070
    73
1070
     1
1070
    44
1040
1.0
1070
    74
1070
     0
1000
MTEXTEND
1000
MTEXTBEGIN
1070
    73
1070
     1
1070
    44
1040
1.0
1070
    74
1070
     0
1000
MTEXTEND
1000
MTEXTBEGIN
1070
    73
1070
     1
1070
    44
1040
1.0
1070
    74
1070
     0
1000
MTEXTEND
1000
MTEXTBEGIN
1070
    73
1070
     1
1070
    44
1040
1.0
1070
    74
1070
     0
1000
MTEXTEND
1000
MTEXTBEGIN
1070
    73
1070
     1
1070
    44
1040
1.0
1070
    74
1070
     0
1000
MTEXTEND
  0
LINE
  5
94C
102
{ACAD_REACTORS
330
94E
102
}
330
1A
100
AcDbEntity
  8
250
  6
CONTINUOUS
100
AcDbLine
 10
47.45939486
 20
-17.5522929
 30
0.0
 11
73.04570152
 21
-17.5522929
 31
0.0
1001
ITEMNAME
1000
LNSP2
  0
INSERT
  5
1038
330
1A
100
AcDbEntity
  8
245
  6
CONTINUOUS
100
AcDbBlockReference
  2
1
 10
0.0
 20
0.0
 30
0.0
  0
VIEWPORT
  5
22
330
17
100
AcDbEntity
 67
     1
  8
0
100
AcDbViewport
 10
261.51769912
 20
148.5
 30
0.0
 40
523.03539823
 41
297.0
 68
     1
 69
     1
1001
ACAD
1000
MVIEW
1002
{
1070
    16
1010
0.0
1020
0.0
1030
0.0
1010
0.0
1020
0.0
1030
1.0
1040
0.0
1040
297.0
1040
261.51769912
1040
148.5
1040
50.0
1040
0.0
1040
0.0
1070
     0
1070
   100
1070
     1
1070
     1
1070
     0
1070
     0
1070
     0
1070
     0
1040
0.0
1040
0.0
1040
0.0
1040
1.0
1040
1.0
1040
10.0
1040
10.0
1070
     0
1002
{
1002
}
1002
}
  0
ENDSEC
  0
SECTION
  2
OBJECTS
  0
DICTIONARY
  5
C
330
0
100
AcDbDictionary
  3
ACAD_GROUP
350
D
  3
ACAD_LAYOUT
350
565
  3
ACAD_MLINESTYLE
350
E
  3
ACAD_PLOTSETTINGS
350
566
  3
ACAD_PLOTSTYLENAME
350
563
  3
ACDBHEADERROUNDTRIPXREC
350
1084
  3
GRADE_DWG
350
540
  0
DICTIONARY
  5
C9E
330
1A
100
AcDbDictionary
280
     1
  3
ACAD_LAYOUTSELFREF
360
10A6
  0
DICTIONARY
  5
C9C
330
17
100
AcDbDictionary
280
     1
  3
ACAD_LAYOUTSELFREF
360
10A5
  0
DICTIONARY
  5
D
102
{ACAD_REACTORS
330
C
102
}
330
C
100
AcDbDictionary
  3
*A1
350
6C7
  3
*A2
350
6C8
  3
*A3
350
6D4
  3
*A4
350
6D5
  3
DREC-1
350
5FC
  3
DREC-2
350
654
  3
DREC-3
350
673
  3
LNSP-1
350
8FA
  3
LNSP-2
350
914
  3
LNSP-3
350
924
  3
LNSP-4
350
935
  3
LNSP-5
350
93D
  3
LNSP-6
350
94E
  0
DICTIONARY
  5
565
102
{ACAD_REACTORS
330
C
102
}
330
C
100
AcDbDictionary
  0
DICTIONARY
  5
E
102
{ACAD_REACTORS
330
C
102
}
330
C
100
AcDbDictionary
  3
STANDARD
350
13
  0
DICTIONARY
  5
566
102
{ACAD_REACTORS
330
C
102
}
330
C
100
AcDbDictionary
  3
A3_0_5倍_
350
758
  3
A3_1倍_
350
757
  3
A3_1倍__2000_
350
707
  3
A3_2倍_
350
759
  3
A4_0_5倍_
350
755
  3
A4_1倍_
350
754
  3
A4_1倍__2000_
350
708
  3
A4_2倍_
350
756
  0
ACDBDICTIONARYWDFLT
  5
563
102
{ACAD_REACTORS
330
C
102
}
330
C
100
AcDbDictionary
281
     1
  3
Normal
350
564
100
AcDbDictionaryWithDefault
340
564
  0
DICTIONARY
  5
1084
102
{ACAD_REACTORS
330
C
102
}
330
C
100
AcDbDictionary
  3
CEPSNTYPE
350
108E
  3
DIMSTYLEDATA
350
1092
  3
FINGERPRINTGUID
350
108F
  3
HYPERLINKBASE
350
1087
  3
INSUNITS
350
108D
  3
LAYOUTDICT
350
1089
  3
LWETCUNION
350
108C
  3
PLOTSETDICT
350
108A
  3
PLOTSTYLNAMDICT
350
108B
  3
PSVPSCALE
350
1091
  3
PUCSBASE
350
1095
  3
PUCSORGBACK
350
109B
  3
PUCSORGBOTTOM
350
1097
  3
PUCSORGFRONT
350
109A
  3
PUCSORGLEFT
350
1098
  3
PUCSORGRIGHT
350
1099
  3
PUCSORGTOP
350
1096
  3
PUCSORTHOREF
350
1093
  3
PUCSORTHOVIEW
350
1094
  3
STYLESHEET
350
1088
  3
TSTACKALIGN
350
1085
  3
TSTACKSIZE
350
1086
  3
UCSBASE
350
109E
  3
UCSORGBACK
350
10A4
  3
UCSORGBOTTOM
350
10A0
  3
UCSORGFRONT
350
10A3
  3
UCSORGLEFT
350
10A1
  3
UCSORGRIGHT
350
10A2
  3
UCSORGTOP
350
109F
  3
UCSORTHOREF
350
109C
  3
UCSORTHOVIEW
350
109D
  3
VERSIONGUID
350
1090
  0
DICTIONARY
  5
540
102
{ACAD_REACTORS
330
C
102
}
330
C
100
AcDbDictionary
  3
VERSION
350
560
  0
XRECORD
  5
10A6
102
{ACAD_REACTORS
330
C9E
102
}
330
C9E
100
AcDbXrecord
340
1A
  0
XRECORD
  5
10A5
102
{ACAD_REACTORS
330
C9C
102
}
330
C9C
100
AcDbXrecord
340
17
  0
GROUP
  5
6C7
102
{ACAD_REACTORS
330
D
102
}
330
D
100
AcDbGroup
300

 70
     0
 71
     1
1001
GRPNAME
1000
DMA00
  0
GROUP
  5
6C8
102
{ACAD_REACTORS
330
D
102
}
330
D
100
AcDbGroup
300

 70
     0
 71
     1
1001
GRPNAME
1000
DMA00
  0
GROUP
  5
6D4
102
{ACAD_REACTORS
330
D
102
}
330
D
100
AcDbGroup
300

 70
     0
 71
     1
1001
GRPNAME
1000
DMA00
  0
GROUP
  5
6D5
102
{ACAD_REACTORS
330
D
102
}
330
D
100
AcDbGroup
300

 70
     0
 71
     1
1001
GRPNAME
1000
DMA00
  0
GROUP
  5
5FC
102
{ACAD_REACTORS
330
D
102
}
330
D
100
AcDbGroup
300

 70
     0
 71
     1
1001
GRPNAME
1000
DREC-
1001
GPARA
1000
xsiz
1000
44.182
1000
ysiz
1000
40.677
1000
angl
1000
0
1000
ctyp
1000
0
1000
csiz
1000
5
1000
lfnt
1000
cont
1000
hcnt
1000
hoff
1000
vcnt
1000
voff
1000
opnt
1000
4
1000
dxpt
1000
0
1000
dypt
1000
0
  0
GROUP
  5
654
102
{ACAD_REACTORS
330
D
102
}
330
D
100
AcDbGroup
300

 70
     0
 71
     1
1001
GRPNAME
1000
DREC-
1001
GPARA
1000
xsiz
1000
54.592
1000
ysiz
1000
53.036
1000
angl
1000
0
1000
ctyp
1000
0
1000
csiz
1000
5
1000
lfnt
1000
cont
1000
hcnt
1000
hoff
1000
vcnt
1000
voff
1000
opnt
1000
4
1000
dxpt
1000
0
1000
dypt
1000
0
  0
GROUP
  5
673
102
{ACAD_REACTORS
330
D
102
}
330
D
100
AcDbGroup
300

 70
     0
 71
     1
1001
GRPNAME
1000
DREC-
1001
GPARA
1000
xsiz
1000
30.363
1000
ysiz
1000
36.175
1000
angl
1000
0
1000
ctyp
1000
0
1000
csiz
1000
5
1000
lfnt
1000
cont
1000
hcnt
1000
hoff
1000
vcnt
1000
voff
1000
opnt
1000
4
1000
dxpt
1000
0
1000
dypt
1000
0
  0
GROUP
  5
8FA
102
{ACAD_REACTORS
330
D
102
}
330
D
100
AcDbGroup
300

 70
     0
 71
     1
1001
GRPNAME
1000
LNSP
  0
GROUP
  5
914
102
{ACAD_REACTORS
330
D
102
}
330
D
100
AcDbGroup
300

 70
     0
 71
     1
1001
GRPNAME
1000
LNSP
  0
GROUP
  5
924
102
{ACAD_REACTORS
330
D
102
}
330
D
100
AcDbGroup
300

 70
     0
 71
     1
1001
GRPNAME
1000
LNSP
  0
GROUP
  5
935
102
{ACAD_REACTORS
330
D
102
}
330
D
100
AcDbGroup
300

 70
     0
 71
     1
1001
GRPNAME
1000
LNSP
  0
GROUP
  5
93D
102
{ACAD_REACTORS
330
D
102
}
330
D
100
AcDbGroup
300

 70
     0
 71
     1
1001
GRPNAME
1000
LNSP
  0
GROUP
  5
94E
102
{ACAD_REACTORS
330
D
102
}
330
D
100
AcDbGroup
300

 70
     0
 71
     1
340
949
340
94A
340
94C
1001
GRPNAME
1000
LNSP
  0
MLINESTYLE
  5
13
102
{ACAD_REACTORS
330
E
102
}
330
E
100
AcDbMlineStyle
  2
STANDARD
 70
     0
  3

 62
     0
 51
90.0
 52
90.0
 71
     2
 49
0.5
 62
   256
  6
BYLAYER
 49
-0.5
 62
   256
  6
BYLAYER
  0
PLOTSETTINGS
  5
758
102
{ACAD_REACTORS
330
566
102
}
330
566
100
AcDbPlotSettings
  1
A3(0.5倍)
  2
\\AWTECPC05\HP DeskJet 1120C
  4
A3
  6

 40
5.95841646
 41
13.49375153
 42
6.04309082
 43
3.67242432
 44
296.92599487
 45
419.94665527
 46
89.96
 47
127.14
 48
0.0
 49
0.0
140
0.0
141
0.0
142
1.0
143
2.0
 70
  1716
 72
     1
 73
     1
 74
     2
  7
big.ctb
 75
    17
147
0.5
148
0.0
149
0.0
  0
PLOTSETTINGS
  5
757
102
{ACAD_REACTORS
330
566
102
}
330
566
100
AcDbPlotSettings
  1
A3(1倍)
  2
\\AWTECPC05\HP DeskJet 1120C
  4
A3
  6

 40
5.95841646
 41
13.49375153
 42
6.04309082
 43
3.67242432
 44
296.92599487
 45
419.94665527
 46
37.46
 47
52.89
 48
0.0
 49
0.0
140
0.0
141
0.0
142
1.0
143
1.0
 70
  1716
 72
     1
 73
     1
 74
     2
  7
big.ctb
 75
    16
147
1.0
148
0.0
149
0.0
  0
PLOTSETTINGS
  5
707
102
{ACAD_REACTORS
330
566
102
}
330
566
100
AcDbPlotSettings
  1
A3(1倍)(2000)
  2
SII LS-1300 (D-SCAN)
  4
User258
  6

 40
3.17499995
 41
3.17499995
 42
3.17498779
 43
3.17498779
 44
419.98898315
 45
296.98950195
 46
58.32
 47
40.32
 48
0.0
 49
0.0
140
0.0
141
0.0
142
1.0
143
1.0
 70
  1716
 72
     1
 73
     0
 74
     2
  7
big.ctb
 75
    16
147
1.0
148
0.0
149
0.0
  0
PLOTSETTINGS
  5
759
102
{ACAD_REACTORS
330
566
102
}
330
566
100
AcDbPlotSettings
  1
A3(2倍)
  2
\\AWTECPC05\HP DeskJet 1120C
  4
A3
  6

 40
5.95841646
 41
13.49375153
 42
6.04309082
 43
3.67242432
 44
296.92599487
 45
419.94665527
 46
-67.54
 47
-95.61
 48
0.0
 49
0.0
140
0.0
141
0.0
142
1.0
143
0.5
 70
  1716
 72
     1
 73
     1
 74
     2
  7
big.ctb
 75
    27
147
2.0
148
0.0
149
0.0
  0
PLOTSETTINGS
  5
755
102
{ACAD_REACTORS
330
566
102
}
330
566
100
AcDbPlotSettings
  1
A4(0.5倍)
  2
\\AWTECPC05\HP DeskJet 1120C
  4
A4
  6

 40
4.18041658
 41
13.49374962
 42
4.18040466
 43
3.92642212
 44
209.97332764
 45
296.92599487
 46
48.31
 47
65.5
 48
0.0
 49
0.0
140
0.0
141
0.0
142
1.0
143
2.0
 70
  1716
 72
     1
 73
     1
 74
     2
  7
big.ctb
 75
    17
147
0.5
148
0.0
149
0.0
  0
PLOTSETTINGS
  5
754
102
{ACAD_REACTORS
330
566
102
}
330
566
100
AcDbPlotSettings
  1
A4(1倍)
  2
\\AWTECPC05\HP DeskJet 1120C
  4
A4
  6

 40
4.18041658
 41
13.49374962
 42
4.18040466
 43
3.92642212
 44
209.97332764
 45
296.92599487
 46
-4.19
 47
-8.75
 48
0.0
 49
0.0
140
0.0
141
0.0
142
1.0
143
1.0
 70
  1716
 72
     1
 73
     1
 74
     2
  7
big.ctb
 75
    16
147
1.0
148
0.0
149
0.0
  0
PLOTSETTINGS
  5
708
102
{ACAD_REACTORS
330
566
102
}
330
566
100
AcDbPlotSettings
  1
A4(1倍)(2000)
  2
SII LS-1300 (D-SCAN)
  4
User259
  6

 40
3.17499995
 41
3.17499995
 42
3.17498779
 43
3.17500305
 44
296.98950195
 45
209.99449158
 46
-3.18
 47
-3.18
 48
0.0
 49
0.0
140
0.0
141
0.0
142
1.0
143
1.0
 70
  1716
 72
     1
 73
     0
 74
     2
  7
big.ctb
 75
    16
147
1.0
148
0.0
149
0.0
  0
PLOTSETTINGS
  5
756
102
{ACAD_REACTORS
330
566
102
}
330
566
100
AcDbPlotSettings
  1
A4(2倍)
  2
\\AWTECPC05\HP DeskJet 1120C
  4
A4
  6

 40
4.18041658
 41
13.49374962
 42
4.18040466
 43
3.92642212
 44
209.97332764
 45
296.92599487
 46
-109.19
 47
-157.25
 48
0.0
 49
0.0
140
0.0
141
0.0
142
1.0
143
0.5
 70
  1716
 72
     1
 73
     1
 74
     2
  7
big.ctb
 75
    27
147
2.0
148
0.0
149
0.0
  0
ACDBPLACEHOLDER
  5
564
102
{ACAD_REACTORS
330
563
102
}
330
563
100
AcDbPlaceHolder
280
     0
  0
XRECORD
  5
108E
102
{ACAD_REACTORS
330
1084
102
}
330
1084
100
AcDbXrecord
 90
        0
  0
XRECORD
  5
1092
102
{ACAD_REACTORS
330
1084
102
}
330
1084
100
AcDbXrecord
1000
DSTYLE
1002
{
1070
    79
 70
     2
1070
   179
 70
     3
1070
   341
340
594
1070
   343
340
594
1070
   344
340
594
1070
   371
 70
    -1
1070
   372
 70
    -1
1002
}
  0
XRECORD
  5
108F
102
{ACAD_REACTORS
330
1084
102
}
330
1084
100
AcDbXrecord
  1
{51294030-9CB4-11D3-8E18-00A0C925D94D}
  0
XRECORD
  5
1087
102
{ACAD_REACTORS
330
1084
102
}
330
1084
100
AcDbXrecord
  1

  0
XRECORD
  5
108D
102
{ACAD_REACTORS
330
1084
102
}
330
1084
100
AcDbXrecord
 90
        0
  0
XRECORD
  5
1089
102
{ACAD_REACTORS
330
1084
102
}
330
1084
100
AcDbXrecord
340
565
  0
XRECORD
  5
108C
102
{ACAD_REACTORS
330
1084
102
}
330
1084
100
AcDbXrecord
 90
    10783
  0
XRECORD
  5
108A
102
{ACAD_REACTORS
330
1084
102
}
330
1084
100
AcDbXrecord
340
566
  0
XRECORD
  5
108B
102
{ACAD_REACTORS
330
1084
102
}
330
1084
100
AcDbXrecord
340
563
  0
XRECORD
  5
1091
102
{ACAD_REACTORS
330
1084
102
}
330
1084
100
AcDbXrecord
 40
0.0
  0
XRECORD
  5
1095
102
{ACAD_REACTORS
330
1084
102
}
330
1084
100
AcDbXrecord
340
0
  0
XRECORD
  5
109B
102
{ACAD_REACTORS
330
1084
102
}
330
1084
100
AcDbXrecord
 10
0.0
 20
0.0
 30
0.0
  0
XRECORD
  5
1097
102
{ACAD_REACTORS
330
1084
102
}
330
1084
100
AcDbXrecord
 10
0.0
 20
0.0
 30
0.0
  0
XRECORD
  5
109A
102
{ACAD_REACTORS
330
1084
102
}
330
1084
100
AcDbXrecord
 10
0.0
 20
0.0
 30
0.0
  0
XRECORD
  5
1098
102
{ACAD_REACTORS
330
1084
102
}
330
1084
100
AcDbXrecord
 10
0.0
 20
0.0
 30
0.0
  0
XRECORD
  5
1099
102
{ACAD_REACTORS
330
1084
102
}
330
1084
100
AcDbXrecord
 10
0.0
 20
0.0
 30
0.0
  0
XRECORD
  5
1096
102
{ACAD_REACTORS
330
1084
102
}
330
1084
100
AcDbXrecord
 10
0.0
 20
0.0
 30
0.0
  0
XRECORD
  5
1093
102
{ACAD_REACTORS
330
1084
102
}
330
1084
100
AcDbXrecord
340
0
  0
XRECORD
  5
1094
102
{ACAD_REACTORS
330
1084
102
}
330
1084
100
AcDbXrecord
 70
     0
  0
XRECORD
  5
1088
102
{ACAD_REACTORS
330
1084
102
}
330
1084
100
AcDbXrecord
  1
big.ctb
  0
XRECORD
  5
1085
102
{ACAD_REACTORS
330
1084
102
}
330
1084
100
AcDbXrecord
 90
        1
  0
XRECORD
  5
1086
102
{ACAD_REACTORS
330
1084
102
}
330
1084
100
AcDbXrecord
 90
       70
  0
XRECORD
  5
109E
102
{ACAD_REACTORS
330
1084
102
}
330
1084
100
AcDbXrecord
340
0
  0
XRECORD
  5
10A4
102
{ACAD_REACTORS
330
1084
102
}
330
1084
100
AcDbXrecord
 10
0.0
 20
0.0
 30
0.0
  0
XRECORD
  5
10A0
102
{ACAD_REACTORS
330
1084
102
}
330
1084
100
AcDbXrecord
 10
0.0
 20
0.0
 30
0.0
  0
XRECORD
  5
10A3
102
{ACAD_REACTORS
330
1084
102
}
330
1084
100
AcDbXrecord
 10
0.0
 20
0.0
 30
0.0
  0
XRECORD
  5
10A1
102
{ACAD_REACTORS
330
1084
102
}
330
1084
100
AcDbXrecord
 10
0.0
 20
0.0
 30
0.0
  0
XRECORD
  5
10A2
102
{ACAD_REACTORS
330
1084
102
}
330
1084
100
AcDbXrecord
 10
0.0
 20
0.0
 30
0.0
  0
XRECORD
  5
109F
102
{ACAD_REACTORS
330
1084
102
}
330
1084
100
AcDbXrecord
 10
0.0
 20
0.0
 30
0.0
  0
XRECORD
  5
109C
102
{ACAD_REACTORS
330
1084
102
}
330
1084
100
AcDbXrecord
340
0
  0
XRECORD
  5
109D
102
{ACAD_REACTORS
330
1084
102
}
330
1084
100
AcDbXrecord
 70
     0
  0
XRECORD
  5
1090
102
{ACAD_REACTORS
330
1084
102
}
330
1084
100
AcDbXrecord
  1
{D347D6FF-C42A-487D-AB13-08944E9A6878}
  0
XRECORD
  5
560
102
{ACAD_REACTORS
330
540
102
}
330
540
100
AcDbXrecord
  1
2.0.0
  0
ENDSEC
  0
EOF
