  0
SECTION
  2
HEADER
  9
$ACADVER
  1
AC1009
  9
$DWGCODEPAGE
  3
ansi_932
  9
$INSBASE
 10
0.0
 20
0.0
 30
0.0
  9
$EXTMIN
 10
-49.41432385828136
 20
-23.1754553608348
 30
-0.0015258207003583
  9
$EXTMAX
 10
122.0195289442543
 20
61.02339062146746
 30
0.0000000349246037
  9
$LIMMIN
 10
0.0
 20
0.0
  9
$LIMMAX
 10
420.0
 20
297.0
  9
$ORTHOMODE
 70
     0
  9
$REGENMODE
 70
     1
  9
$FILLMODE
 70
     1
  9
$QTEXTMODE
 70
     0
  9
$MIRRTEXT
 70
     1
  9
$DRAGMODE
 70
     2
  9
$LTSCALE
 40
10.0
  9
$OSMODE
 70
   511
  9
$ATTMODE
 70
     1
  9
$TEXTSIZE
 40
3.0
  9
$TRACEWID
 40
1.0
  9
$TEXTSTYLE
  7
YOKO
  9
$CLAYER
  8
242
  9
$CELTYPE
  6
BYLAYER
  9
$CECOLOR
 62
   256
  9
$DIMSCALE
 40
1.0
  9
$DIMASZ
 40
2.229999999999999
  9
$DIMEXO
 40
0.5
  9
$DIMDLI
 40
2.5
  9
$DIMRND
 40
0.0
  9
$DIMDLE
 40
0.0
  9
$DIMEXE
 40
1.0
  9
$DIMTP
 40
0.0
  9
$DIMTM
 40
0.0
  9
$DIMTXT
 40
2.799999999999999
  9
$DIMCEN
 40
0.0
  9
$DIMTSZ
 40
0.0
  9
$DIMTOL
 70
     0
  9
$DIMLIM
 70
     0
  9
$DIMTIH
 70
     0
  9
$DIMTOH
 70
     0
  9
$DIMSE1
 70
     0
  9
$DIMSE2
 70
     0
  9
$DIMTAD
 70
     3
  9
$DIMZIN
 70
     8
  9
$DIMBLK
  1

  9
$DIMASO
 70
     1
  9
$DIMSHO
 70
     1
  9
$DIMPOST
  1

  9
$DIMAPOST
  1

  9
$DIMALT
 70
     0
  9
$DIMALTD
 70
     2
  9
$DIMALTF
 40
25.4
  9
$DIMLFAC
 40
1.0
  9
$DIMTOFL
 70
     1
  9
$DIMTVP
 40
0.0
  9
$DIMTIX
 70
     1
  9
$DIMSOXD
 70
     0
  9
$DIMSAH
 70
     1
  9
$DIMBLK1
  1
OPEN
  9
$DIMBLK2
  1
OPEN
  9
$DIMSTYLE
  2
BIGT
  9
$DIMCLRD
 70
   256
  9
$DIMCLRE
 70
   256
  9
$DIMCLRT
 70
    40
  9
$DIMTFAC
 40
1.0
  9
$DIMGAP
 40
1.0
  9
$LUNITS
 70
     2
  9
$LUPREC
 70
     3
  9
$SKETCHINC
 40
1.0
  9
$FILLETRAD
 40
1.0
  9
$AUNITS
 70
     0
  9
$AUPREC
 70
     3
  9
$MENU
  1
.
  9
$ELEVATION
 40
0.0
  9
$PELEVATION
 40
0.0
  9
$THICKNESS
 40
0.0
  9
$LIMCHECK
 70
     0
  9
$CHAMFERA
 40
10.0
  9
$CHAMFERB
 40
10.0
  9
$SKPOLY
 70
     0
  9
$TDCREATE
 40
2455112.480401447
  9
$TDUPDATE
 40
2455211.688979491
  9
$TDINDWG
 40
0.0647321528
  9
$TDUSRTIMER
 40
2455750.648652998
  9
$USRTIMER
 70
     1
  9
$ANGBASE
 50
0.0
  9
$ANGDIR
 70
     0
  9
$PDMODE
 70
     1
  9
$PDSIZE
 40
-5.0
  9
$PLINEWID
 40
0.0
  9
$COORDS
 70
     1
  9
$SPLFRAME
 70
     0
  9
$SPLINETYPE
 70
     6
  9
$SPLINESEGS
 70
     8
  9
$ATTDIA
 70
     0
  9
$ATTREQ
 70
     1
  9
$HANDLING
 70
     1
  9
$HANDSEED
  5
1630
  9
$SURFTAB1
 70
     6
  9
$SURFTAB2
 70
     6
  9
$SURFTYPE
 70
     6
  9
$SURFU
 70
     6
  9
$SURFV
 70
     6
  9
$UCSNAME
  2

  9
$UCSORG
 10
0.0
 20
0.0
 30
0.0
  9
$UCSXDIR
 10
1.0
 20
0.0
 30
0.0
  9
$UCSYDIR
 10
0.0
 20
1.0
 30
0.0
  9
$PUCSNAME
  2

  9
$PUCSORG
 10
0.0
 20
0.0
 30
0.0
  9
$PUCSXDIR
 10
1.0
 20
0.0
 30
0.0
  9
$PUCSYDIR
 10
0.0
 20
1.0
 30
0.0
  9
$USERI1
 70
     1
  9
$USERI2
 70
     0
  9
$USERI3
 70
     0
  9
$USERI4
 70
     0
  9
$USERI5
 70
     0
  9
$USERR1
 40
0.0
  9
$USERR2
 40
0.0
  9
$USERR3
 40
0.0
  9
$USERR4
 40
0.0
  9
$USERR5
 40
0.0
  9
$WORLDVIEW
 70
     1
  9
$SHADEDGE
 70
     3
  9
$SHADEDIF
 70
    70
  9
$TILEMODE
 70
     1
  9
$MAXACTVP
 70
    16
  9
$PLIMCHECK
 70
     0
  9
$PEXTMIN
 10
1.000000000000000E+20
 20
1.000000000000000E+20
 30
1.000000000000000E+20
  9
$PEXTMAX
 10
-1.000000000000000E+20
 20
-1.000000000000000E+20
 30
-1.000000000000000E+20
  9
$PLIMMIN
 10
0.0
 20
0.0
  9
$PLIMMAX
 10
420.0
 20
297.0
  9
$UNITMODE
 70
     0
  9
$VISRETAIN
 70
     0
  9
$PLINEGEN
 70
     0
  9
$PSLTSCALE
 70
     1
  0
ENDSEC
  0
SECTION
  2
TABLES
  0
TABLE
  2
VPORT
 70
     1
  0
VPORT
  2
*ACTIVE
 70
     0
 10
0.0
 20
0.0
 11
1.0
 21
1.0
 12
114.4753889026398
 22
12.09252761019098
 13
0.0
 23
0.0
 14
7.0
 24
7.0
 15
7.0
 25
7.0
 16
0.0
 26
0.0
 36
1.0
 17
0.0
 27
0.0
 37
0.0
 40
135.258948268169
 41
1.5
 42
50.0
 43
0.0
 44
0.0
 50
0.0
 51
0.0
 71
    16
 72
  2000
 73
     1
 74
     0
 75
     0
 76
     0
 77
     0
 78
     0
  0
ENDTAB
  0
TABLE
  2
LTYPE
 70
     3
  0
LTYPE
  2
CONTINUOUS
 70
     0
  3
Solid line
 72
    65
 73
     0
 40
0.0
  0
LTYPE
  2
CENTER2
 70
     0
  3
___ _ ___ _ ___ _ ___ _ ___ _ ___ _ ___ _ ___ _
 72
    65
 73
     4
 40
1.125
 49
0.75
 49
-0.125
 49
0.125
 49
-0.125
  0
ENDTAB
  0
TABLE
  2
LAYER
 70
    10
  0
LAYER
  2
0
 70
     0
 62
     7
  6
CONTINUOUS
  0
LAYER
  2
240
 70
     0
 62
     4
  6
CONTINUOUS
  0
LAYER
  2
241
 70
     0
 62
   211
  6
CONTINUOUS
  0
LAYER
  2
245
 70
     0
 62
     2
  6
CENTER2
  0
LAYER
  2
250
 70
     4
 62
     3
  6
CONTINUOUS
  0
LAYER
  2
DEFPOINTS
 70
     0
 62
     7
  6
CONTINUOUS
  0
LAYER
  2
242
 70
     0
 62
     3
  6
CONTINUOUS
  0
ENDTAB
  0
TABLE
  2
STYLE
 70
     2
  0
STYLE
  2
STANDARD
 70
     0
 40
0.0
 41
1.0
 50
0.0
 71
     0
 42
3.0
  3
romans.shx
  4
BIGFONT.SHX
  0
STYLE
  2
YOKO
 70
     0
 40
0.0
 41
1.0
 50
0.0
 71
     0
 42
3.0
  3
romans.shx
  4
extfont.shx
  0
ENDTAB
  0
TABLE
  2
VIEW
 70
     0
  0
ENDTAB
  0
TABLE
  2
UCS
 70
     0
  0
ENDTAB
  0
TABLE
  2
APPID
 70
     9
  0
APPID
  2
ACAD
 70
     0
  0
APPID
  2
GLOBAL
 70
     0
  0
APPID
  2
DETAIL
 70
     0
  0
APPID
  2
GRPNAME
 70
     0
  0
APPID
  2
GPARA
 70
     0
  0
APPID
  2
DCO15
 70
     0
  0
APPID
  2
ITEMNAME
 70
     0
  0
APPID
  2
GRADE_0
 70
     0
  0
APPID
  2
CONTENTBLOCKICON
 70
     0
  0
ENDTAB
  0
TABLE
  2
DIMSTYLE
 70
     2
  0
DIMSTYLE
  2
BIGT
 70
     0
  3

  4

  5

  6
OPEN
  7
OPEN
 40
1.0
 41
2.229999999999999
 42
0.5
 43
2.5
 44
1.0
 45
0.0
 46
0.0
 47
0.0
 48
0.0
140
2.799999999999999
141
0.0
142
0.0
143
25.4
144
1.0
145
0.0
146
1.0
147
1.0
 71
     0
 72
     0
 73
     0
 74
     0
 75
     0
 76
     0
 77
     3
 78
     8
170
     0
171
     2
172
     1
173
     1
174
     1
175
     0
176
   256
177
   256
178
    40
  0
DIMSTYLE
  2
BIGT$0
 70
     0
  3

  4
"
  5
OPEN
  6

  7

 40
1.0
 41
2.229999999999999
 42
0.5
 43
7.0
 44
1.0
 45
0.0
 46
0.0
 47
0.1
 48
0.1
140
3.0
141
0.0
142
0.0
143
0.0393701
144
1.0
145
0.0
146
0.71
147
1.0
 71
     0
 72
     0
 73
     0
 74
     0
 75
     0
 76
     0
 77
     3
 78
     8
170
     0
171
     2
172
     1
173
     0
174
     0
175
     0
176
     3
177
     3
178
    40
  0
ENDTAB
  0
ENDSEC
  0
SECTION
  2
BLOCKS
  0
BLOCK
  8
0
  2
$MODEL_SPACE
 70
     0
 10
0.0
 20
0.0
 30
0.0
  3
$MODEL_SPACE
  1

  0
ENDBLK
  5
1C
  8
0
  0
BLOCK
 67
     1
  8
0
  2
$PAPER_SPACE
 70
     0
 10
0.0
 20
0.0
 30
0.0
  3
$PAPER_SPACE
  1

  0
ENDBLK
  5
19
 67
     1
  8
0
  0
BLOCK
  8
0
  2
_OPEN
 70
     0
 10
0.0
 20
0.0
 30
0.0
  3
_OPEN
  1

  0
LINE
  5
595
  8
0
  6
BYBLOCK
 62
     0
 10
-1.0
 20
0.16666667
 30
0.0
 11
0.0
 21
0.0
 31
0.0
  0
LINE
  5
596
  8
0
  6
BYBLOCK
 62
     0
 10
-1.0
 20
-0.16666667
 30
0.0
 11
0.0
 21
0.0
 31
0.0
  0
LINE
  5
597
  8
0
  6
BYBLOCK
 62
     0
 10
0.0
 20
0.0
 30
0.0
 11
-1.0
 21
0.0
 31
0.0
  0
ENDBLK
  5
599
  8
0
  0
BLOCK
  8
0
  2
矢印なし
 70
     0
 10
0.0
 20
0.0
 30
0.0
  3
矢印なし
  1

  0
ENDBLK
  5
6E5
  8
0
  0
BLOCK
  8
0
  2
*D9
 70
     1
 10
0.0
 20
0.0
 30
0.0
  3
*D9
  1

  0
LINE
  5
141C
  8
250
 62
     3
 10
77.90000128000003
 20
21.35200055991274
 30
0.0
 11
77.90000128000003
 21
31.25416507130118
 31
0.0
  0
LINE
  5
141D
  8
250
 62
     3
 10
105.0
 20
20.50000325157079
 30
0.0
 11
105.0
 21
31.25416507130118
 31
0.0
  0
LINE
  5
141E
  8
250
 62
     3
 10
80.13000128000003
 20
30.25416507130118
 30
0.0
 11
102.77
 21
30.25416507130118
 31
0.0
  0
INSERT
  5
141F
  8
250
 62
     3
  2
_OPEN
 10
77.90000128000003
 20
30.25416507130118
 30
0.0
 41
2.229999999999999
 42
2.229999999999999
 43
2.229999999999999
 50
180.0
  0
INSERT
  5
1420
  8
250
 62
     3
  2
_OPEN
 10
105.0
 20
30.25416507130118
 30
0.0
 41
2.229999999999999
 42
2.229999999999999
 43
2.229999999999999
  0
TEXT
  5
1421
  8
250
  6
CONTINUOUS
 62
    40
 10
86.87857206857144
 20
31.25416507130118
 30
0.0
 40
3.0
  1
27.1
  7
YOKO
  0
POINT
  5
1422
  8
DEFPOINTS
 62
     0
 10
77.90000128000003
 20
20.85200055991274
 30
0.0
  0
POINT
  5
1423
  8
DEFPOINTS
 62
     0
 10
105.0
 20
20.00000325157079
 30
0.0
  0
POINT
  5
1424
  8
DEFPOINTS
 62
     0
 10
105.0
 20
30.25416507130118
 30
0.0
  0
ENDBLK
  5
1426
  8
0
  0
BLOCK
  8
0
  2
*D10
 70
     1
 10
0.0
 20
0.0
 30
0.0
  3
*D10
  1

  0
LINE
  5
142B
  8
250
 62
     3
 10
105.0
 20
20.50200056
 30
0.0
 11
105.0
 21
33.33220497683155
 31
0.0
  0
LINE
  5
142C
  8
250
 62
     3
 10
109.0
 20
20.50200056
 30
0.0
 11
109.0
 21
33.33220497683155
 31
0.0
  0
LINE
  5
142D
  8
250
 62
     3
 10
105.0
 20
32.33220497683155
 30
0.0
 11
109.0
 21
32.33220497683155
 31
0.0
  0
LINE
  5
142E
  8
250
 62
     3
 10
102.77
 20
32.33220497683155
 30
0.0
 11
100.54
 21
32.33220497683155
 31
0.0
  0
LINE
  5
142F
  8
250
 62
     3
 10
111.23
 20
32.33220497683155
 30
0.0
 11
113.46
 21
32.33220497683155
 31
0.0
  0
INSERT
  5
1430
  8
250
 62
     3
  2
_OPEN
 10
105.0
 20
32.33220497683155
 30
0.0
 41
2.229999999999999
 42
2.229999999999999
 43
2.229999999999999
  0
INSERT
  5
1431
  8
250
 62
     3
  2
_OPEN
 10
109.0
 20
32.33220497683155
 30
0.0
 41
2.229999999999999
 42
2.229999999999999
 43
2.229999999999999
 50
180.0
  0
TEXT
  5
1432
  8
250
  6
CONTINUOUS
 62
    40
 10
105.5
 20
34.83220497683155
 30
0.0
 40
3.0
  1
4
  7
YOKO
  0
POINT
  5
1433
  8
DEFPOINTS
 62
     0
 10
105.0
 20
20.00200056
 30
0.0
  0
POINT
  5
1434
  8
DEFPOINTS
 62
     0
 10
109.0
 20
20.00200056
 30
0.0
  0
POINT
  5
1435
  8
DEFPOINTS
 62
     0
 10
109.0
 20
32.33220497683155
 30
0.0
  0
ENDBLK
  5
1437
  8
0
  0
BLOCK
  8
0
  2
*D12
 70
     1
 10
0.0
 20
0.0
 30
0.0
  3
*D12
  1

  0
LINE
  5
1476
  8
250
 62
     3
 10
109.5
 20
6.100000000000001
 30
0.0
 11
114.2367035043676
 21
6.100000000000001
 31
0.0
  0
LINE
  5
1477
  8
250
 62
     3
 10
109.5
 20
-6.1
 30
0.0
 11
114.2367035043676
 21
-6.1
 31
0.0
  0
LINE
  5
1478
  8
250
 62
     3
 10
113.2367035043676
 20
3.870000000000002
 30
0.0
 11
113.2367035043676
 21
-3.870000000000001
 31
0.0
  0
INSERT
  5
1479
  8
250
 62
     3
  2
_OPEN
 10
113.2367035043676
 20
6.100000000000001
 30
0.0
 41
2.229999999999999
 42
2.229999999999999
 43
2.229999999999999
 50
90.0
  0
INSERT
  5
147A
  8
250
 62
     3
  2
_OPEN
 10
113.2367035043676
 20
-6.1
 30
0.0
 41
2.229999999999999
 42
2.229999999999999
 43
2.229999999999999
 50
270.0
  0
TEXT
  5
147B
  8
250
  6
CONTINUOUS
 62
    40
 10
118.7367035043676
 20
-6.366071428571431
 30
0.0
 40
3.0
  1
\U+220512.2
 50
90.0
  7
YOKO
  0
POINT
  5
147C
  8
DEFPOINTS
 62
     0
 10
109.0
 20
6.100000000000001
 30
0.0
  0
POINT
  5
147D
  8
DEFPOINTS
 62
     0
 10
109.0
 20
-6.1
 30
0.0
  0
POINT
  5
147E
  8
DEFPOINTS
 62
     0
 10
113.2367035043676
 20
-6.1
 30
0.0
  0
ENDBLK
  5
1480
  8
0
  0
BLOCK
  8
0
  2
*X13
 70
     1
 10
0.0
 20
0.0
 30
0.0
  3
*X13
  1

  0
TEXT
  5
1494
  8
242
  6
CONTINUOUS
 62
    40
 10
120.0
 20
-4.223214285714292
 30
0.0
 40
3.0
  1
\U+2205
 50
90.0
  0
TEXT
  5
1495
  8
242
  6
CONTINUOUS
 62
    40
 10
120.0
 20
-1.508928571428584
 30
0.0
 40
3.0
  1
42
 50
90.0
  0
ENDBLK
  5
149E
  8
0
  0
ENDSEC
  0
SECTION
  2
ENTITIES
  0
INSERT
  5
6E6
  8
245
  2
矢印なし
 10
175.62382697
 20
90.55123572
 30
0.0
  0
LINE
  5
139C
  8
250
  6
CONTINUOUS
 10
104.4999999999999
 20
-21.00021012
 30
0.0
 11
122.0
 21
-21.00021012
 31
0.0
  0
LINE
  5
139D
  8
250
  6
CONTINUOUS
 10
104.4999999999999
 20
21.00000324999999
 30
0.0
 11
122.0
 21
21.00000324999999
 31
0.0
  0
LINE
  5
139E
  8
250
  6
CONTINUOUS
 10
121.0
 20
-18.77021012
 30
0.0
 11
121.0
 21
18.77000325
 31
0.0
  0
INSERT
  5
139F
  8
250
  6
CONTINUOUS
  2
_OPEN
 10
121.0
 20
-21.00021012
 30
0.0
 41
2.229999999999999
 42
2.229999999999999
 43
2.229999999999999
 50
270.0
  0
INSERT
  5
13A0
  8
250
  6
CONTINUOUS
  2
_OPEN
 10
121.0
 20
21.00000324999999
 30
0.0
 41
2.229999999999999
 42
2.229999999999999
 43
2.229999999999999
 50
90.0
  0
INSERT
  5
13A1
  8
250
  6
CONTINUOUS
  2
*X13
 10
7.018842720942843
 20
0.0
 30
0.0
  0
LINE
  5
13E1
  8
240
 10
77.90000127999998
 20
-17.50000247
 30
0.0
 11
77.90000127999998
 21
0.0
 31
0.0
  0
LINE
  5
13E2
  8
241
  6
CONTINUOUS
 10
81.55089381999998
 20
-21.00021012
 30
0.0
 11
81.55089381999998
 21
0.0
 31
0.0
1001
GRPNAME
1000
PASTMD09
  0
LINE
  5
13E3
  8
241
  6
CONTINUOUS
 10
79.77053742
 20
-21.35021012
 30
0.0
 11
79.77053742
 21
0.0
 31
0.0
1001
GRPNAME
1000
PASTMD09
  0
LINE
  5
13E4
  8
240
  6
CONTINUOUS
 10
105.0
 20
-20.00200056
 30
0.0
 11
105.0
 21
0.0
 31
0.0
1001
GRPNAME
1000
PASTMD0O
  0
LINE
  5
13E8
  8
240
  6
CONTINUOUS
 10
103.94018619
 20
-21.00021012
 30
0.0
 11
80.12253742
 21
-21.00021012
 31
0.0
1001
GRPNAME
1000
PASTMD0E
  0
LINE
  5
13E9
  8
240
  6
CONTINUOUS
 10
77.90000127999998
 20
-17.50000247
 30
0.0
 11
77.90000127999998
 21
-20.85200056
 31
0.0
1001
GRPNAME
1000
PASTMD0O
  0
LINE
  5
13EA
  8
240
  6
CONTINUOUS
 10
79.77253742
 20
-21.35021012
 30
0.0
 11
80.12253742
 21
-21.00021012
 31
0.0
1001
GRPNAME
1000
PASTMD09
  0
ARC
  5
13EB
  8
240
  6
CONTINUOUS
 10
78.40000127999998
 20
-20.85200056
 30
0.0
 40
0.5
 50
180.00000008
 51
265.1497595599999
1001
GRPNAME
1000
PASTMD0D
  0
LINE
  5
13EC
  8
240
  6
CONTINUOUS
 10
79.77253742
 20
-21.35021012
 30
0.0
 11
78.35772548
 21
-21.35021012
 31
0.0
1001
GRPNAME
1000
PASTMD09
  0
ARC
  5
13ED
  8
240
  6
CONTINUOUS
 10
104.0
 20
-20.00200056
 30
0.0
 40
0.9999999999999882
 50
273.6878873999999
 51
0.00000002
1001
GRPNAME
1000
PASTMD0D
  0
LINE
  5
13F8
  8
240
 10
77.90000127999998
 20
17.50000247
 30
0.0
 11
77.90000127999998
 21
0.0
 31
0.0
  0
LINE
  5
13F9
  8
241
  6
CONTINUOUS
 10
79.77053742
 20
21.35021012
 30
0.0
 11
79.77053742
 21
0.0
 31
0.0
1001
GRPNAME
1000
PASTMD09
  0
LINE
  5
13FA
  8
241
  6
CONTINUOUS
 10
81.55089381999998
 20
21.00021012
 30
0.0
 11
81.55089381999998
 21
0.0
 31
0.0
1001
GRPNAME
1000
PASTMD09
  0
LINE
  5
13FC
  8
240
  6
CONTINUOUS
 10
105.0
 20
20.00200056
 30
0.0
 11
105.0
 21
0.0
 31
0.0
1001
GRPNAME
1000
PASTMD0O
  0
LINE
  5
1404
  8
240
  6
CONTINUOUS
 10
80.12274428
 20
21.00000324999999
 30
0.0
 11
104.0
 21
21.00000324999999
 31
0.0
1001
GRPNAME
1000
PASTMD0O
  0
LINE
  5
1407
  8
240
  6
CONTINUOUS
 10
77.90000127999998
 20
17.50000325
 30
0.0
 11
77.90000127999998
 21
20.85200056
 31
0.0
1001
GRPNAME
1000
PASTMD0O
  0
LINE
  5
140F
  8
240
  6
CONTINUOUS
 10
79.77253742
 20
21.35021012
 30
0.0
 11
80.12274428
 21
21.00000324999999
 31
0.0
1001
GRPNAME
1000
PASTMD09
  0
ARC
  5
1410
  8
240
  6
CONTINUOUS
 10
78.40000127999998
 20
20.85200056
 30
0.0
 40
0.4999999999999618
 50
94.85024053
 51
180.00000001
1001
GRPNAME
1000
PASTMD09
  0
LINE
  5
1411
  8
240
  6
CONTINUOUS
 10
79.77053742
 20
21.35021012
 30
0.0
 11
78.35772548
 21
21.35021012
 31
0.0
1001
GRPNAME
1000
PASTMD09
  0
ARC
  5
1414
  8
240
  6
CONTINUOUS
 10
104.0
 20
20.00000324999999
 30
0.0
 40
1.0
 50
0.00000009
 51
90.00000008999999
1001
GRPNAME
1000
PASTMD0D
  0
DIMENSION
  5
1418
  8
250
  2
*D9
 10
105.0
 20
30.25416507130118
 30
0.0
 11
91.45000064000001
 21
32.75416507130118
 31
0.0
 70
    32
  3
BIGT$0
 13
77.90000128000003
 23
20.85200055991274
 33
0.0
 14
105.0
 24
20.00000325157079
 34
0.0
1001
ACAD
1000
DSTYLE
1002
{
1070
   287
1070
     5
1070
   279
1070
     2
1002
}
  0
DIMENSION
  5
1427
  8
250
  2
*D10
 10
109.0
 20
32.33220497683155
 30
0.0
 11
107.0
 21
36.33220497683155
 31
0.0
 70
    32
  3
BIGT$0
 13
105.0
 23
20.00200056
 33
0.0
 14
109.0
 24
20.00200056
 34
0.0
1001
ACAD
1000
DSTYLE
1002
{
1070
   287
1070
     5
1070
   279
1070
     2
1002
}
  0
LINE
  5
1438
  8
240
 10
109.0
 20
6.100000000000001
 30
0.0
 11
109.0
 21
-6.1
 31
0.0
  0
LINE
  5
143B
  8
240
 10
105.0
 20
17.2
 30
0.0
 11
109.0
 21
6.100000000000001
 31
0.0
  0
LINE
  5
143C
  8
240
 10
105.0
 20
-17.2
 30
0.0
 11
109.0
 21
-6.1
 31
0.0
  0
LINE
  5
1471
  8
240
 10
109.0
 20
6.100000000000001
 30
0.0
 11
109.0
 21
-6.1
 31
0.0
  0
DIMENSION
  5
1472
  8
250
  2
*D12
 10
113.2367035043676
 20
-6.1
 30
0.0
 11
117.2367035043676
 21
0.0000000000000009
 31
0.0
 70
    32
  1
\U+220512.2
  3
BIGT$0
 13
109.0
 23
6.100000000000001
 33
0.0
 14
109.0
 24
-6.1
 34
0.0
 50
90.0
1001
ACAD
1000
DSTYLE
1002
{
1070
   287
1070
     5
1070
   279
1070
     2
1002
}
  0
VIEWPORT
  5
22
 67
     1
  8
0
 10
261.5176991199999
 20
148.5
 30
0.0
 40
523.03539823
 41
297.0
 68
     1
 69
    -1
1001
ACAD
1000
MVIEW
1002
{
1070
    16
1010
0.0
1020
0.0
1030
0.0
1020
0.0
1030
0.0
1010
0.0
1020
0.0
1030
1.0
1020
0.0
1030
1.0
1040
0.0
1040
297.0
1040
261.5176991199999
1040
148.5
1040
50.0
1040
0.0
1040
0.0
1070
     0
1070
   100
1070
     1
1070
     1
1070
     0
1070
     0
1070
     0
1070
     0
1040
0.0
1040
0.0
1040
0.0
1040
1.0
1040
1.0
1040
10.0
1040
10.0
1070
     0
1002
{
1002
}
1002
}
  0
ENDSEC
  0
EOF
