  0
SECTION
  2
HEADER
  9
$ACADVER
  1
AC1009
  9
$DWGCODEPAGE
  3
ansi_932
  9
$INSBASE
 10
0.0
 20
0.0
 30
0.0
  9
$EXTMIN
 10
-49.41432385828136
 20
-23.1754553608348
 30
-0.0015258207003583
  9
$EXTMAX
 10
122.0195289442543
 20
61.02339062146746
 30
0.0000000349246037
  9
$LIMMIN
 10
0.0
 20
0.0
  9
$LIMMAX
 10
420.0
 20
297.0
  9
$ORTHOMODE
 70
     1
  9
$REGENMODE
 70
     1
  9
$FILLMODE
 70
     1
  9
$QTEXTMODE
 70
     0
  9
$MIRRTEXT
 70
     1
  9
$DRAGMODE
 70
     2
  9
$LTSCALE
 40
10.0
  9
$OSMODE
 70
   511
  9
$ATTMODE
 70
     1
  9
$TEXTSIZE
 40
3.0
  9
$TRACEWID
 40
1.0
  9
$TEXTSTYLE
  7
YOKO
  9
$CLAYER
  8
240
  9
$CELTYPE
  6
BYLAYER
  9
$CECOLOR
 62
   256
  9
$DIMSCALE
 40
1.0
  9
$DIMASZ
 40
2.229999999999999
  9
$DIMEXO
 40
0.5
  9
$DIMDLI
 40
2.5
  9
$DIMRND
 40
0.0
  9
$DIMDLE
 40
0.0
  9
$DIMEXE
 40
1.0
  9
$DIMTP
 40
0.0
  9
$DIMTM
 40
0.0
  9
$DIMTXT
 40
2.799999999999999
  9
$DIMCEN
 40
0.0
  9
$DIMTSZ
 40
0.0
  9
$DIMTOL
 70
     0
  9
$DIMLIM
 70
     0
  9
$DIMTIH
 70
     0
  9
$DIMTOH
 70
     0
  9
$DIMSE1
 70
     0
  9
$DIMSE2
 70
     0
  9
$DIMTAD
 70
     3
  9
$DIMZIN
 70
     8
  9
$DIMBLK
  1

  9
$DIMASO
 70
     1
  9
$DIMSHO
 70
     1
  9
$DIMPOST
  1

  9
$DIMAPOST
  1

  9
$DIMALT
 70
     0
  9
$DIMALTD
 70
     2
  9
$DIMALTF
 40
25.4
  9
$DIMLFAC
 40
1.0
  9
$DIMTOFL
 70
     1
  9
$DIMTVP
 40
0.0
  9
$DIMTIX
 70
     1
  9
$DIMSOXD
 70
     0
  9
$DIMSAH
 70
     1
  9
$DIMBLK1
  1
OPEN
  9
$DIMBLK2
  1
OPEN
  9
$DIMSTYLE
  2
BIGT
  9
$DIMCLRD
 70
   256
  9
$DIMCLRE
 70
   256
  9
$DIMCLRT
 70
    40
  9
$DIMTFAC
 40
1.0
  9
$DIMGAP
 40
1.0
  9
$LUNITS
 70
     2
  9
$LUPREC
 70
     3
  9
$SKETCHINC
 40
1.0
  9
$FILLETRAD
 40
4.0
  9
$AUNITS
 70
     0
  9
$AUPREC
 70
     3
  9
$MENU
  1
.
  9
$ELEVATION
 40
0.0
  9
$PELEVATION
 40
0.0
  9
$THICKNESS
 40
0.0
  9
$LIMCHECK
 70
     0
  9
$CHAMFERA
 40
10.0
  9
$CHAMFERB
 40
10.0
  9
$SKPOLY
 70
     0
  9
$TDCREATE
 40
2455112.477150394
  9
$TDUPDATE
 40
2455211.68979853
  9
$TDINDWG
 40
0.0574332755
  9
$TDUSRTIMER
 40
2455750.64548779
  9
$USRTIMER
 70
     1
  9
$ANGBASE
 50
0.0
  9
$ANGDIR
 70
     0
  9
$PDMODE
 70
     1
  9
$PDSIZE
 40
-5.0
  9
$PLINEWID
 40
0.0
  9
$COORDS
 70
     1
  9
$SPLFRAME
 70
     0
  9
$SPLINETYPE
 70
     6
  9
$SPLINESEGS
 70
     8
  9
$ATTDIA
 70
     0
  9
$ATTREQ
 70
     1
  9
$HANDLING
 70
     1
  9
$HANDSEED
  5
1718
  9
$SURFTAB1
 70
     6
  9
$SURFTAB2
 70
     6
  9
$SURFTYPE
 70
     6
  9
$SURFU
 70
     6
  9
$SURFV
 70
     6
  9
$UCSNAME
  2

  9
$UCSORG
 10
0.0
 20
0.0
 30
0.0
  9
$UCSXDIR
 10
1.0
 20
0.0
 30
0.0
  9
$UCSYDIR
 10
0.0
 20
1.0
 30
0.0
  9
$PUCSNAME
  2

  9
$PUCSORG
 10
0.0
 20
0.0
 30
0.0
  9
$PUCSXDIR
 10
1.0
 20
0.0
 30
0.0
  9
$PUCSYDIR
 10
0.0
 20
1.0
 30
0.0
  9
$USERI1
 70
     1
  9
$USERI2
 70
     0
  9
$USERI3
 70
     0
  9
$USERI4
 70
     0
  9
$USERI5
 70
     0
  9
$USERR1
 40
0.0
  9
$USERR2
 40
0.0
  9
$USERR3
 40
0.0
  9
$USERR4
 40
0.0
  9
$USERR5
 40
0.0
  9
$WORLDVIEW
 70
     1
  9
$SHADEDGE
 70
     3
  9
$SHADEDIF
 70
    70
  9
$TILEMODE
 70
     1
  9
$MAXACTVP
 70
    16
  9
$PLIMCHECK
 70
     0
  9
$PEXTMIN
 10
1.000000000000000E+20
 20
1.000000000000000E+20
 30
1.000000000000000E+20
  9
$PEXTMAX
 10
-1.000000000000000E+20
 20
-1.000000000000000E+20
 30
-1.000000000000000E+20
  9
$PLIMMIN
 10
0.0
 20
0.0
  9
$PLIMMAX
 10
420.0
 20
297.0
  9
$UNITMODE
 70
     0
  9
$VISRETAIN
 70
     0
  9
$PLINEGEN
 70
     0
  9
$PSLTSCALE
 70
     1
  0
ENDSEC
  0
SECTION
  2
TABLES
  0
TABLE
  2
VPORT
 70
     1
  0
VPORT
  2
*ACTIVE
 70
     0
 10
0.0
 20
0.0
 11
1.0
 21
1.0
 12
110.6728008498197
 22
2.385647323255313
 13
0.0
 23
0.0
 14
7.0
 24
7.0
 15
7.0
 25
7.0
 16
0.0
 26
0.0
 36
1.0
 17
0.0
 27
0.0
 37
0.0
 40
102.0769193790964
 41
1.5
 42
50.0
 43
0.0
 44
0.0
 50
0.0
 51
0.0
 71
    16
 72
  2000
 73
     1
 74
     0
 75
     0
 76
     0
 77
     0
 78
     0
  0
ENDTAB
  0
TABLE
  2
LTYPE
 70
     3
  0
LTYPE
  2
CONTINUOUS
 70
     0
  3
Solid line
 72
    65
 73
     0
 40
0.0
  0
LTYPE
  2
CENTER2
 70
     0
  3
___ _ ___ _ ___ _ ___ _ ___ _ ___ _ ___ _ ___ _
 72
    65
 73
     4
 40
1.125
 49
0.75
 49
-0.125
 49
0.125
 49
-0.125
  0
ENDTAB
  0
TABLE
  2
LAYER
 70
    10
  0
LAYER
  2
0
 70
     0
 62
     7
  6
CONTINUOUS
  0
LAYER
  2
240
 70
     0
 62
     4
  6
CONTINUOUS
  0
LAYER
  2
241
 70
     0
 62
   211
  6
CONTINUOUS
  0
LAYER
  2
245
 70
     0
 62
     2
  6
CENTER2
  0
LAYER
  2
250
 70
     0
 62
     3
  6
CONTINUOUS
  0
LAYER
  2
DEFPOINTS
 70
     0
 62
     7
  6
CONTINUOUS
  0
LAYER
  2
242
 70
     0
 62
     3
  6
CONTINUOUS
  0
ENDTAB
  0
TABLE
  2
STYLE
 70
     2
  0
STYLE
  2
STANDARD
 70
     0
 40
0.0
 41
1.0
 50
0.0
 71
     0
 42
3.0
  3
romans.shx
  4
BIGFONT.SHX
  0
STYLE
  2
YOKO
 70
     0
 40
0.0
 41
1.0
 50
0.0
 71
     0
 42
3.0
  3
romans.shx
  4
extfont.shx
  0
ENDTAB
  0
TABLE
  2
VIEW
 70
     0
  0
ENDTAB
  0
TABLE
  2
UCS
 70
     0
  0
ENDTAB
  0
TABLE
  2
APPID
 70
     9
  0
APPID
  2
ACAD
 70
     0
  0
APPID
  2
GLOBAL
 70
     0
  0
APPID
  2
DETAIL
 70
     0
  0
APPID
  2
GRPNAME
 70
     0
  0
APPID
  2
GPARA
 70
     0
  0
APPID
  2
DCO15
 70
     0
  0
APPID
  2
ITEMNAME
 70
     0
  0
APPID
  2
GRADE_0
 70
     0
  0
APPID
  2
CONTENTBLOCKICON
 70
     0
  0
ENDTAB
  0
TABLE
  2
DIMSTYLE
 70
     2
  0
DIMSTYLE
  2
BIGT
 70
     0
  3

  4

  5

  6
OPEN
  7
OPEN
 40
1.0
 41
2.229999999999999
 42
0.5
 43
2.5
 44
1.0
 45
0.0
 46
0.0
 47
0.0
 48
0.0
140
2.799999999999999
141
0.0
142
0.0
143
25.4
144
1.0
145
0.0
146
1.0
147
1.0
 71
     0
 72
     0
 73
     0
 74
     0
 75
     0
 76
     0
 77
     3
 78
     8
170
     0
171
     2
172
     1
173
     1
174
     1
175
     0
176
   256
177
   256
178
    40
  0
DIMSTYLE
  2
BIGT$0
 70
     0
  3

  4
"
  5
OPEN
  6

  7

 40
1.0
 41
2.229999999999999
 42
0.5
 43
7.0
 44
1.0
 45
0.0
 46
0.0
 47
0.1
 48
0.1
140
3.0
141
0.0
142
0.0
143
0.0393701
144
1.0
145
0.0
146
0.71
147
1.0
 71
     0
 72
     0
 73
     0
 74
     0
 75
     0
 76
     0
 77
     3
 78
     8
170
     0
171
     2
172
     1
173
     0
174
     0
175
     0
176
     3
177
     3
178
    40
  0
ENDTAB
  0
ENDSEC
  0
SECTION
  2
BLOCKS
  0
BLOCK
  8
0
  2
$MODEL_SPACE
 70
     0
 10
0.0
 20
0.0
 30
0.0
  3
$MODEL_SPACE
  1

  0
ENDBLK
  5
1C
  8
0
  0
BLOCK
 67
     1
  8
0
  2
$PAPER_SPACE
 70
     0
 10
0.0
 20
0.0
 30
0.0
  3
$PAPER_SPACE
  1

  0
ENDBLK
  5
19
 67
     1
  8
0
  0
BLOCK
  8
0
  2
_OPEN
 70
     0
 10
0.0
 20
0.0
 30
0.0
  3
_OPEN
  1

  0
LINE
  5
595
  8
0
  6
BYBLOCK
 62
     0
 10
-1.0
 20
0.16666667
 30
0.0
 11
0.0
 21
0.0
 31
0.0
  0
LINE
  5
596
  8
0
  6
BYBLOCK
 62
     0
 10
-1.0
 20
-0.16666667
 30
0.0
 11
0.0
 21
0.0
 31
0.0
  0
LINE
  5
597
  8
0
  6
BYBLOCK
 62
     0
 10
0.0
 20
0.0
 30
0.0
 11
-1.0
 21
0.0
 31
0.0
  0
ENDBLK
  5
599
  8
0
  0
BLOCK
  8
0
  2
矢印なし
 70
     0
 10
0.0
 20
0.0
 30
0.0
  3
矢印なし
  1

  0
ENDBLK
  5
6E5
  8
0
  0
BLOCK
  8
0
  2
*D9
 70
     1
 10
0.0
 20
0.0
 30
0.0
  3
*D9
  1

  0
LINE
  5
13A0
  8
250
 62
     3
 10
78.30001863
 20
17.64999598008727
 30
0.0
 11
78.30001863
 21
28.90655742357712
 31
0.0
  0
LINE
  5
13A1
  8
250
 62
     3
 10
105.0
 20
17.30000361
 30
0.0
 11
105.0
 21
28.90655742357712
 31
0.0
  0
LINE
  5
13A2
  8
250
 62
     3
 10
80.53001863
 20
27.90655742357712
 30
0.0
 11
102.77
 21
27.90655742357712
 31
0.0
  0
INSERT
  5
13A3
  8
250
 62
     3
  2
_OPEN
 10
78.30001863
 20
27.90655742357712
 30
0.0
 41
2.229999999999999
 42
2.229999999999999
 43
2.229999999999999
 50
180.0
  0
INSERT
  5
13A4
  8
250
 62
     3
  2
_OPEN
 10
105.0
 20
27.90655742357712
 30
0.0
 41
2.229999999999999
 42
2.229999999999999
 43
2.229999999999999
  0
TEXT
  5
13A5
  8
250
  6
CONTINUOUS
 62
    40
 10
86.64108074357144
 20
28.90655742357712
 30
0.0
 40
3.0
  1
26.7
  7
YOKO
  0
POINT
  5
13A6
  8
DEFPOINTS
 62
     0
 10
78.30001863
 20
17.14999598008727
 30
0.0
  0
POINT
  5
13A7
  8
DEFPOINTS
 62
     0
 10
105.0
 20
16.80000361
 30
0.0
  0
POINT
  5
13A8
  8
DEFPOINTS
 62
     0
 10
105.0
 20
27.90655742357712
 30
0.0
  0
ENDBLK
  5
13AA
  8
0
  0
BLOCK
  8
0
  2
*D20
 70
     1
 10
0.0
 20
0.0
 30
0.0
  3
*D20
  1

  0
LINE
  5
154D
  8
250
 62
     3
 10
104.9999999999999
 20
17.30000020014771
 30
0.0
 11
104.9999999999999
 21
33.41973776408486
 31
0.0
  0
LINE
  5
154E
  8
250
 62
     3
 10
109.1999999999999
 20
17.30000020014771
 30
0.0
 11
109.1999999999999
 21
33.41973776408486
 31
0.0
  0
LINE
  5
154F
  8
250
 62
     3
 10
104.9999999999999
 20
32.41973776408486
 30
0.0
 11
109.1999999999999
 21
32.41973776408486
 31
0.0
  0
LINE
  5
1550
  8
250
 62
     3
 10
102.7699999999999
 20
32.41973776408486
 30
0.0
 11
100.5399999999999
 21
32.41973776408486
 31
0.0
  0
LINE
  5
1551
  8
250
 62
     3
 10
111.4299999999999
 20
32.41973776408486
 30
0.0
 11
113.6599999999999
 21
32.41973776408486
 31
0.0
  0
INSERT
  5
1552
  8
250
 62
     3
  2
_OPEN
 10
104.9999999999999
 20
32.41973776408486
 30
0.0
 41
2.229999999999999
 42
2.229999999999999
 43
2.229999999999999
  0
INSERT
  5
1553
  8
250
 62
     3
  2
_OPEN
 10
109.1999999999999
 20
32.41973776408486
 30
0.0
 41
2.229999999999999
 42
2.229999999999999
 43
2.229999999999999
 50
180.0
  0
TEXT
  5
1554
  8
250
  6
CONTINUOUS
 62
    40
 10
103.5196428571428
 20
34.91973776408486
 30
0.0
 40
3.0
  1
4.2
  7
YOKO
  0
POINT
  5
1555
  8
DEFPOINTS
 62
     0
 10
104.9999999999999
 20
16.80000020014771
 30
0.0
  0
POINT
  5
1556
  8
DEFPOINTS
 62
     0
 10
109.1999999999999
 20
16.80000020014771
 30
0.0
  0
POINT
  5
1557
  8
DEFPOINTS
 62
     0
 10
109.1999999999999
 20
32.41973776408486
 30
0.0
  0
ENDBLK
  5
1559
  8
0
  0
BLOCK
  8
0
  2
*D23
 70
     1
 10
0.0
 20
0.0
 30
0.0
  3
*D23
  1

  0
LINE
  5
15CB
  8
250
 62
     3
 10
109.6999999999999
 20
11.13871941791312
 30
0.0
 11
115.3103286284018
 21
11.13871941791312
 31
0.0
  0
LINE
  5
15CC
  8
250
 62
     3
 10
109.6999999999999
 20
-11.06128058208688
 30
0.0
 11
115.3103286284018
 21
-11.06128058208688
 31
0.0
  0
LINE
  5
15CD
  8
250
 62
     3
 10
114.3103286284018
 20
8.90871941791312
 30
0.0
 11
114.3103286284018
 21
-8.831280582086881
 31
0.0
  0
INSERT
  5
15CE
  8
250
 62
     3
  2
_OPEN
 10
114.3103286284018
 20
11.13871941791312
 30
0.0
 41
2.229999999999999
 42
2.229999999999999
 43
2.229999999999999
 50
90.0
  0
INSERT
  5
15CF
  8
250
 62
     3
  2
_OPEN
 10
114.3103286284018
 20
-11.06128058208688
 30
0.0
 41
2.229999999999999
 42
2.229999999999999
 43
2.229999999999999
 50
270.0
  0
TEXT
  5
15D0
  8
250
  6
CONTINUOUS
 62
    40
 10
113.3103286284018
 20
-6.327352010658316
 30
0.0
 40
3.0
  1
\U+220522.2
 50
90.0
  7
YOKO
  0
POINT
  5
15D1
  8
DEFPOINTS
 62
     0
 10
109.1999999999999
 20
11.13871941791312
 30
0.0
  0
POINT
  5
15D2
  8
DEFPOINTS
 62
     0
 10
109.1999999999999
 20
-11.06128058208688
 30
0.0
  0
POINT
  5
15D3
  8
DEFPOINTS
 62
     0
 10
114.3103286284018
 20
-11.06128058208688
 30
0.0
  0
ENDBLK
  5
15D5
  8
0
  0
BLOCK
  8
0
  2
*X24
 70
     1
 10
0.0
 20
0.0
 30
0.0
  3
*X24
  1

  0
TEXT
  5
15D7
  8
242
  6
CONTINUOUS
 62
    40
 10
120.0
 20
-4.223214285714292
 30
0.0
 40
3.0
  1
\U+2205
 50
90.0
  0
TEXT
  5
15D8
  8
242
  6
CONTINUOUS
 62
    40
 10
120.0
 20
-1.508928571428584
 30
0.0
 40
3.0
  1
35
 50
90.0
  0
ENDBLK
  5
15E1
  8
0
  0
ENDSEC
  0
SECTION
  2
ENTITIES
  0
INSERT
  5
6E6
  8
245
  2
矢印なし
 10
175.62382697
 20
90.55123572
 30
0.0
  0
LINE
  5
131D
  8
250
  6
CONTINUOUS
 10
104.8
 20
-17.50000361
 30
0.0
 11
122.0
 21
-17.50000361
 31
0.0
  0
LINE
  5
131E
  8
250
  6
CONTINUOUS
 10
104.8
 20
17.50000019999999
 30
0.0
 11
122.0
 21
17.50000019999999
 31
0.0
  0
LINE
  5
131F
  8
250
  6
CONTINUOUS
 10
121.0
 20
-15.27000360999999
 30
0.0
 11
121.0
 21
15.2700002
 31
0.0
  0
INSERT
  5
1320
  8
250
  6
CONTINUOUS
  2
_OPEN
 10
121.0
 20
-17.50000361
 30
0.0
 41
2.229999999999999
 42
2.229999999999999
 43
2.229999999999999
 50
270.0
  0
INSERT
  5
1321
  8
250
  6
CONTINUOUS
  2
_OPEN
 10
121.0
 20
17.50000019999999
 30
0.0
 41
2.229999999999999
 42
2.229999999999999
 43
2.229999999999999
 50
90.0
  0
INSERT
  5
1322
  8
250
  6
CONTINUOUS
  2
*X24
 10
0.0
 20
0.0
 30
0.0
  0
LINE
  5
1365
  8
240
 10
78.30001863
 20
-14.50001506
 30
0.0
 11
78.30001863
 21
0.0
 31
0.0
  0
LINE
  5
1366
  8
241
  6
CONTINUOUS
 10
81.65995284
 20
-17.50000361
 30
0.0
 11
81.65995284
 21
0.0
 31
0.0
1001
GRPNAME
1000
PASTMD0F
  0
LINE
  5
1367
  8
241
  6
CONTINUOUS
 10
80.30001863
 20
-17.65000361
 30
0.0
 11
80.30001863
 21
0.0
 31
0.0
1001
GRPNAME
1000
PASTMD0F
  0
LINE
  5
1368
  8
240
  6
CONTINUOUS
 10
105.0
 20
-16.80000361
 30
0.0
 11
105.0
 21
0.0
 31
0.0
1001
GRPNAME
1000
PASTMD0N
  0
LINE
  5
136C
  8
240
  6
CONTINUOUS
 10
80.45001863000002
 20
-17.50000361
 30
0.0
 11
104.2999999999999
 21
-17.50000361
 31
0.0
1001
GRPNAME
1000
PASTMD0N
  0
LINE
  5
136D
  8
240
  6
CONTINUOUS
 10
78.80001863
 20
-17.65000361
 30
0.0
 11
80.30001863
 21
-17.65000361
 31
0.0
1001
GRPNAME
1000
PASTMD0F
  0
ARC
  5
136E
  8
240
  6
CONTINUOUS
 10
78.80001863
 20
-17.15000360999999
 30
0.0
 40
0.5
 50
180.00000008
 51
270.00000008
1001
GRPNAME
1000
PASTMD0C
  0
LINE
  5
136F
  8
240
  6
CONTINUOUS
 10
78.30001863
 20
-14.50001506
 30
0.0
 11
78.30001863
 21
-17.15000360999999
 31
0.0
1001
GRPNAME
1000
PASTMD0N
  0
LINE
  5
1370
  8
240
 10
80.45001863000002
 20
-17.50000361
 30
0.0
 11
80.30001863
 21
-17.65000361
 31
0.0
  0
ARC
  5
1371
  8
240
  6
CONTINUOUS
 10
104.2999999999999
 20
-16.80000361
 30
0.0
 40
0.6999999999999889
 50
269.99999997
 51
359.99999997
1001
GRPNAME
1000
PASTMD0C
  0
LINE
  5
137C
  8
240
 10
78.30001863
 20
14.50001506
 30
0.0
 11
78.30001863
 21
0.0
 31
0.0
  0
LINE
  5
137D
  8
241
  6
CONTINUOUS
 10
81.65995284
 20
17.50000361
 30
0.0
 11
81.65995284
 21
0.0
 31
0.0
1001
GRPNAME
1000
PASTMD0F
  0
LINE
  5
137E
  8
241
  6
CONTINUOUS
 10
80.30001863
 20
17.65000361
 30
0.0
 11
80.30001863
 21
0.0
 31
0.0
1001
GRPNAME
1000
PASTMD0F
  0
LINE
  5
137F
  8
240
  6
CONTINUOUS
 10
105.0
 20
16.80000361
 30
0.0
 11
105.0
 21
0.0
 31
0.0
1001
GRPNAME
1000
PASTMD0N
  0
LINE
  5
1389
  8
240
  6
CONTINUOUS
 10
80.45002204
 20
17.50000019999999
 30
0.0
 11
104.2999999999999
 21
17.50000019999999
 31
0.0
1001
GRPNAME
1000
PASTMD0N
  0
LINE
  5
138E
  8
240
  6
CONTINUOUS
 10
78.80001863
 20
17.64999598
 30
0.0
 11
80.30001863
 21
17.64999598
 31
0.0
1001
GRPNAME
1000
PASTMD0F
  0
LINE
  5
138F
  8
240
  6
CONTINUOUS
 10
78.30001863
 20
14.50000783
 30
0.0
 11
78.30001863
 21
17.15000360999999
 31
0.0
1001
GRPNAME
1000
PASTMD0N
  0
ARC
  5
1392
  8
240
  6
CONTINUOUS
 10
78.80001863
 20
17.14999598
 30
0.0
 40
0.5
 50
89.99999999
 51
179.9999999899999
1001
GRPNAME
1000
PASTMD0C
  0
LINE
  5
1397
  8
240
 10
80.45002204
 20
17.50000019999999
 30
0.0
 11
80.30001863
 21
17.65000361
 31
0.0
  0
ARC
  5
1398
  8
240
  6
CONTINUOUS
 10
104.2999999999999
 20
16.8000002
 30
0.0
 40
0.6999999999999889
 50
0.00000009
 51
90.00000008999999
1001
GRPNAME
1000
PASTMD0C
  0
DIMENSION
  5
139C
  8
250
  2
*D9
 10
105.0
 20
27.90655742357712
 30
0.0
 11
91.650009315
 21
30.40655742357712
 31
0.0
 70
    32
  3
BIGT$0
 13
78.30001863
 23
17.14999598008727
 33
0.0
 14
105.0
 24
16.80000361
 34
0.0
1001
ACAD
1000
DSTYLE
1002
{
1070
   287
1070
     5
1070
   279
1070
     2
1002
}
  0
LINE
  5
13C1
  8
240
 10
105.0
 20
14.35
 30
0.0
 11
109.1999999999999
 21
11.13871941791312
 31
0.0
  0
LINE
  5
13C2
  8
240
 10
105.0
 20
-14.35
 30
0.0
 11
109.1999999999999
 21
-11.06128058208688
 31
0.0
  0
DIMENSION
  5
1549
  8
250
  2
*D20
 10
109.1999999999999
 20
32.41973776408486
 30
0.0
 11
107.0999999999999
 21
36.41973776408486
 31
0.0
 70
    32
  3
BIGT$0
 13
104.9999999999999
 23
16.80000020014771
 33
0.0
 14
109.1999999999999
 24
16.80000020014771
 34
0.0
1001
ACAD
1000
DSTYLE
1002
{
1070
   287
1070
     5
1070
   279
1070
     2
1002
}
  0
LINE
  5
155A
  8
240
 10
109.1999999999999
 20
10.14740739477944
 30
0.0
 11
109.1999999999999
 21
-10.0699685589532
 31
0.0
  0
LINE
  5
1593
  8
240
 10
109.1997964679779
 20
-10.56128058013286
 30
0.0
 11
109.2002035320219
 21
10.63871941595909
 31
0.0
  0
LINE
  5
15C6
  8
240
 10
109.1999999999999
 20
11.13871941791312
 30
0.0
 11
109.1999999999999
 21
-11.06128058208688
 31
0.0
  0
DIMENSION
  5
15C7
  8
250
  2
*D23
 10
114.3103286284018
 20
-11.06128058208688
 30
0.0
 11
111.8103286284018
 21
0.0387194179131196
 31
0.0
 70
    32
  1
\U+220522.2
  3
BIGT$0
 13
109.1999999999999
 23
11.13871941791312
 33
0.0
 14
109.1999999999999
 24
-11.06128058208688
 34
0.0
 50
90.0
1001
ACAD
1000
DSTYLE
1002
{
1070
   287
1070
     5
1070
   279
1070
     2
1002
}
  0
VIEWPORT
  5
22
 67
     1
  8
0
 10
261.5176991199999
 20
148.5
 30
0.0
 40
523.03539823
 41
297.0
 68
     1
 69
    -1
1001
ACAD
1000
MVIEW
1002
{
1070
    16
1010
0.0
1020
0.0
1030
0.0
1020
0.0
1030
0.0
1010
0.0
1020
0.0
1030
1.0
1020
0.0
1030
1.0
1040
0.0
1040
297.0
1040
261.5176991199999
1040
148.5
1040
50.0
1040
0.0
1040
0.0
1070
     0
1070
   100
1070
     1
1070
     1
1070
     0
1070
     0
1070
     0
1070
     0
1040
0.0
1040
0.0
1040
0.0
1040
1.0
1040
1.0
1040
10.0
1040
10.0
1070
     0
1002
{
1002
}
1002
}
  0
ENDSEC
  0
EOF
