  0
SECTION
  2
HEADER
  9
$ACADVER
  1
AC1009
  9
$DWGCODEPAGE
  3
ansi_932
  9
$INSBASE
 10
0.0
 20
0.0
 30
0.0
  9
$EXTMIN
 10
-49.43127826
 20
-23.17944759
 30
-0.00152582
  9
$EXTMAX
 10
122.02610249
 20
61.02092494
 30
0.00000003
  9
$LIMMIN
 10
0.0
 20
0.0
  9
$LIMMAX
 10
420.0
 20
297.0
  9
$ORTHOMODE
 70
     0
  9
$REGENMODE
 70
     1
  9
$FILLMODE
 70
     1
  9
$QTEXTMODE
 70
     0
  9
$MIRRTEXT
 70
     1
  9
$DRAGMODE
 70
     2
  9
$LTSCALE
 40
10.0
  9
$OSMODE
 70
   511
  9
$ATTMODE
 70
     1
  9
$TEXTSIZE
 40
3.0
  9
$TRACEWID
 40
1.0
  9
$TEXTSTYLE
  7
YOKO
  9
$CLAYER
  8
245
  9
$CELTYPE
  6
BYLAYER
  9
$CECOLOR
 62
   256
  9
$DIMSCALE
 40
1.0
  9
$DIMASZ
 40
2.23
  9
$DIMEXO
 40
0.5
  9
$DIMDLI
 40
2.5
  9
$DIMRND
 40
0.0
  9
$DIMDLE
 40
0.0
  9
$DIMEXE
 40
1.0
  9
$DIMTP
 40
0.0
  9
$DIMTM
 40
0.0
  9
$DIMTXT
 40
2.8
  9
$DIMCEN
 40
0.0
  9
$DIMTSZ
 40
0.0
  9
$DIMTOL
 70
     0
  9
$DIMLIM
 70
     0
  9
$DIMTIH
 70
     0
  9
$DIMTOH
 70
     0
  9
$DIMSE1
 70
     0
  9
$DIMSE2
 70
     0
  9
$DIMTAD
 70
     3
  9
$DIMZIN
 70
     8
  9
$DIMBLK
  1

  9
$DIMASO
 70
     1
  9
$DIMSHO
 70
     1
  9
$DIMPOST
  1

  9
$DIMAPOST
  1

  9
$DIMALT
 70
     0
  9
$DIMALTD
 70
     2
  9
$DIMALTF
 40
25.4
  9
$DIMLFAC
 40
1.0
  9
$DIMTOFL
 70
     1
  9
$DIMTVP
 40
0.0
  9
$DIMTIX
 70
     1
  9
$DIMSOXD
 70
     0
  9
$DIMSAH
 70
     1
  9
$DIMBLK1
  1
OPEN
  9
$DIMBLK2
  1
OPEN
  9
$DIMSTYLE
  2
BIGT
  9
$DIMCLRD
 70
   256
  9
$DIMCLRE
 70
   256
  9
$DIMCLRT
 70
    40
  9
$DIMTFAC
 40
1.0
  9
$DIMGAP
 40
1.0
  9
$LUNITS
 70
     2
  9
$LUPREC
 70
     3
  9
$SKETCHINC
 40
1.0
  9
$FILLETRAD
 40
0.0
  9
$AUNITS
 70
     0
  9
$AUPREC
 70
     3
  9
$MENU
  1
.
  9
$ELEVATION
 40
0.0
  9
$PELEVATION
 40
0.0
  9
$THICKNESS
 40
0.0
  9
$LIMCHECK
 70
     0
  9
$CHAMFERA
 40
10.0
  9
$CHAMFERB
 40
10.0
  9
$SKPOLY
 70
     0
  9
$TDCREATE
 40
2455112.471275845
  9
$TDUPDATE
 40
2455211.379490151
  9
$TDINDWG
 40
0.0484953704
  9
$TDUSRTIMER
 40
2455750.638611007
  9
$USRTIMER
 70
     1
  9
$ANGBASE
 50
0.0
  9
$ANGDIR
 70
     0
  9
$PDMODE
 70
    35
  9
$PDSIZE
 40
-5.0
  9
$PLINEWID
 40
0.0
  9
$COORDS
 70
     1
  9
$SPLFRAME
 70
     0
  9
$SPLINETYPE
 70
     6
  9
$SPLINESEGS
 70
     8
  9
$ATTDIA
 70
     0
  9
$ATTREQ
 70
     1
  9
$HANDLING
 70
     1
  9
$HANDSEED
  5
141D
  9
$SURFTAB1
 70
     6
  9
$SURFTAB2
 70
     6
  9
$SURFTYPE
 70
     6
  9
$SURFU
 70
     6
  9
$SURFV
 70
     6
  9
$UCSNAME
  2

  9
$UCSORG
 10
0.0
 20
0.0
 30
0.0
  9
$UCSXDIR
 10
1.0
 20
0.0
 30
0.0
  9
$UCSYDIR
 10
0.0
 20
1.0
 30
0.0
  9
$PUCSNAME
  2

  9
$PUCSORG
 10
0.0
 20
0.0
 30
0.0
  9
$PUCSXDIR
 10
1.0
 20
0.0
 30
0.0
  9
$PUCSYDIR
 10
0.0
 20
1.0
 30
0.0
  9
$USERI1
 70
     1
  9
$USERI2
 70
     0
  9
$USERI3
 70
     0
  9
$USERI4
 70
     0
  9
$USERI5
 70
     0
  9
$USERR1
 40
0.0
  9
$USERR2
 40
0.0
  9
$USERR3
 40
0.0
  9
$USERR4
 40
0.0
  9
$USERR5
 40
0.0
  9
$WORLDVIEW
 70
     1
  9
$SHADEDGE
 70
     3
  9
$SHADEDIF
 70
    70
  9
$TILEMODE
 70
     1
  9
$MAXACTVP
 70
    16
  9
$PLIMCHECK
 70
     0
  9
$PEXTMIN
 10
1.000000000000000E+20
 20
1.000000000000000E+20
 30
1.000000000000000E+20
  9
$PEXTMAX
 10
-1.000000000000000E+20
 20
-1.000000000000000E+20
 30
-1.000000000000000E+20
  9
$PLIMMIN
 10
0.0
 20
0.0
  9
$PLIMMAX
 10
420.0
 20
297.0
  9
$UNITMODE
 70
     0
  9
$VISRETAIN
 70
     0
  9
$PLINEGEN
 70
     0
  9
$PSLTSCALE
 70
     1
  0
ENDSEC
  0
SECTION
  2
TABLES
  0
TABLE
  2
VPORT
 70
     1
  0
VPORT
  2
*ACTIVE
 70
     0
 10
0.0
 20
0.0
 11
1.0
 21
1.0
 12
107.1737447241829
 22
13.34797562102587
 13
0.0
 23
0.0
 14
7.0
 24
7.0
 15
7.0
 25
7.0
 16
0.0
 26
0.0
 36
1.0
 17
0.0
 27
0.0
 37
0.0
 40
87.06962019082907
 41
1.5
 42
50.0
 43
0.0
 44
0.0
 50
0.0
 51
0.0
 71
    16
 72
  2000
 73
     1
 74
     0
 75
     0
 76
     0
 77
     0
 78
     0
  0
ENDTAB
  0
TABLE
  2
LTYPE
 70
     3
  0
LTYPE
  2
CONTINUOUS
 70
     0
  3
Solid line
 72
    65
 73
     0
 40
0.0
  0
LTYPE
  2
CENTER2
 70
     0
  3
___ _ ___ _ ___ _ ___ _ ___ _ ___ _ ___ _ ___ _
 72
    65
 73
     4
 40
1.125
 49
0.75
 49
-0.125
 49
0.125
 49
-0.125
  0
ENDTAB
  0
TABLE
  2
LAYER
 70
     9
  0
LAYER
  2
0
 70
     0
 62
     7
  6
CONTINUOUS
  0
LAYER
  2
240
 70
     0
 62
     4
  6
CONTINUOUS
  0
LAYER
  2
241
 70
     0
 62
   211
  6
CONTINUOUS
  0
LAYER
  2
245
 70
     0
 62
     2
  6
CENTER2
  0
LAYER
  2
250
 70
     0
 62
     3
  6
CONTINUOUS
  0
LAYER
  2
DEFPOINTS
 70
     0
 62
     7
  6
CONTINUOUS
  0
ENDTAB
  0
TABLE
  2
STYLE
 70
     2
  0
STYLE
  2
STANDARD
 70
     0
 40
0.0
 41
1.0
 50
0.0
 71
     0
 42
3.0
  3
romans.shx
  4
BIGFONT.SHX
  0
STYLE
  2
YOKO
 70
     0
 40
0.0
 41
1.0
 50
0.0
 71
     0
 42
3.0
  3
romans.shx
  4
extfont.shx
  0
ENDTAB
  0
TABLE
  2
VIEW
 70
     0
  0
ENDTAB
  0
TABLE
  2
UCS
 70
     0
  0
ENDTAB
  0
TABLE
  2
APPID
 70
     9
  0
APPID
  2
ACAD
 70
     0
  0
APPID
  2
GLOBAL
 70
     0
  0
APPID
  2
DETAIL
 70
     0
  0
APPID
  2
GRPNAME
 70
     0
  0
APPID
  2
GPARA
 70
     0
  0
APPID
  2
DCO15
 70
     0
  0
APPID
  2
ITEMNAME
 70
     0
  0
APPID
  2
GRADE_0
 70
     0
  0
APPID
  2
CONTENTBLOCKICON
 70
     0
  0
ENDTAB
  0
TABLE
  2
DIMSTYLE
 70
     2
  0
DIMSTYLE
  2
BIGT
 70
     0
  3

  4

  5

  6
OPEN
  7
OPEN
 40
1.0
 41
2.23
 42
0.5
 43
2.5
 44
1.0
 45
0.0
 46
0.0
 47
0.0
 48
0.0
140
2.8
141
0.0
142
0.0
143
25.4
144
1.0
145
0.0
146
1.0
147
1.0
 71
     0
 72
     0
 73
     0
 74
     0
 75
     0
 76
     0
 77
     3
 78
     8
170
     0
171
     2
172
     1
173
     1
174
     1
175
     0
176
   256
177
   256
178
    40
  0
DIMSTYLE
  2
BIGT$0
 70
     0
  3

  4
"
  5
OPEN
  6

  7

 40
1.0
 41
2.23
 42
0.5
 43
7.0
 44
1.0
 45
0.0
 46
0.0
 47
0.1
 48
0.1
140
3.0
141
0.0
142
0.0
143
0.0393701
144
1.0
145
0.0
146
0.71
147
1.0
 71
     0
 72
     0
 73
     0
 74
     0
 75
     0
 76
     0
 77
     3
 78
     8
170
     0
171
     2
172
     1
173
     0
174
     0
175
     0
176
     3
177
     3
178
    40
  0
ENDTAB
  0
ENDSEC
  0
SECTION
  2
BLOCKS
  0
BLOCK
  8
0
  2
$MODEL_SPACE
 70
     0
 10
0.0
 20
0.0
 30
0.0
  3
$MODEL_SPACE
  1

  0
ENDBLK
  5
1C
  8
0
  0
BLOCK
 67
     1
  8
0
  2
$PAPER_SPACE
 70
     0
 10
0.0
 20
0.0
 30
0.0
  3
$PAPER_SPACE
  1

  0
ENDBLK
  5
19
 67
     1
  8
0
  0
BLOCK
  8
0
  2
_OPEN
 70
     0
 10
0.0
 20
0.0
 30
0.0
  3
_OPEN
  1

  0
LINE
  5
595
  8
0
  6
BYBLOCK
 62
     0
 10
-1.0
 20
0.16666667
 30
0.0
 11
0.0
 21
0.0
 31
0.0
  0
LINE
  5
596
  8
0
  6
BYBLOCK
 62
     0
 10
-1.0
 20
-0.16666667
 30
0.0
 11
0.0
 21
0.0
 31
0.0
  0
LINE
  5
597
  8
0
  6
BYBLOCK
 62
     0
 10
0.0
 20
0.0
 30
0.0
 11
-1.0
 21
0.0
 31
0.0
  0
ENDBLK
  5
599
  8
0
  0
BLOCK
  8
0
  2
矢印なし
 70
     0
 10
0.0
 20
0.0
 30
0.0
  3
矢印なし
  1

  0
ENDBLK
  5
6E5
  8
0
  0
BLOCK
  8
0
  2
*D9
 70
     1
 10
0.0
 20
0.0
 30
0.0
  3
*D9
  1

  0
LINE
  5
11B0
  8
250
 62
     3
 10
81.20000544
 20
15.15000747
 30
0.0
 11
81.20000544
 21
27.40683680712011
 31
0.0
  0
LINE
  5
11B1
  8
250
 62
     3
 10
105.0
 20
12.99999253
 30
0.0
 11
105.0
 21
27.40683680712011
 31
0.0
  0
LINE
  5
11B2
  8
250
 62
     3
 10
83.43000544
 20
26.40683680712011
 30
0.0
 11
102.77
 21
26.40683680712011
 31
0.0
  0
INSERT
  5
11B3
  8
250
 62
     3
  2
_OPEN
 10
81.20000544
 20
26.40683680712011
 30
0.0
 41
2.23
 42
2.23
 43
2.23
 50
180.0
  0
INSERT
  5
11B4
  8
250
 62
     3
  2
_OPEN
 10
105.0
 20
26.40683680712011
 30
0.0
 41
2.23
 42
2.23
 43
2.23
  0
TEXT
  5
11B5
  8
250
  6
CONTINUOUS
 62
    40
 10
88.09107414857142
 20
27.40683680712011
 30
0.0
 40
3.0
  1
23.8
  7
YOKO
  0
POINT
  5
11B6
  8
DEFPOINTS
 62
     0
 10
81.20000544
 20
14.65000747
 30
0.0
  0
POINT
  5
11B7
  8
DEFPOINTS
 62
     0
 10
105.0
 20
12.49999253
 30
0.0
  0
POINT
  5
11B8
  8
DEFPOINTS
 62
     0
 10
105.0
 20
26.40683680712011
 30
0.0
  0
ENDBLK
  5
11BA
  8
0
  0
BLOCK
  8
0
  2
*D10
 70
     1
 10
0.0
 20
0.0
 30
0.0
  3
*D10
  1

  0
LINE
  5
11C0
  8
250
 62
     3
 10
105.0
 20
15.29497490760812
 30
0.0
 11
105.0
 21
23.88183443137325
 31
0.0
  0
LINE
  5
11C1
  8
250
 62
     3
 10
108.9
 20
13.49999253
 30
0.0
 11
108.9
 21
23.88183443137325
 31
0.0
  0
LINE
  5
11C2
  8
250
 62
     3
 10
105.0
 20
22.88183443137325
 30
0.0
 11
108.9
 21
22.88183443137325
 31
0.0
  0
LINE
  5
11C3
  8
250
 62
     3
 10
102.77
 20
22.88183443137325
 30
0.0
 11
100.54
 21
22.88183443137325
 31
0.0
  0
LINE
  5
11C4
  8
250
 62
     3
 10
111.13
 20
22.88183443137325
 30
0.0
 11
113.36
 21
22.88183443137325
 31
0.0
  0
INSERT
  5
11C5
  8
250
 62
     3
  2
_OPEN
 10
105.0
 20
22.88183443137325
 30
0.0
 41
2.23
 42
2.23
 43
2.23
  0
INSERT
  5
11C6
  8
250
 62
     3
  2
_OPEN
 10
108.9
 20
22.88183443137325
 30
0.0
 41
2.23
 42
2.23
 43
2.23
 50
180.0
  0
TEXT
  5
11C7
  8
250
  6
CONTINUOUS
 62
    40
 10
103.4477678571429
 20
25.38183443137325
 30
0.0
 40
3.0
  1
3.9
  7
YOKO
  0
POINT
  5
11C8
  8
DEFPOINTS
 62
     0
 10
105.0
 20
14.79497490760812
 30
0.0
  0
POINT
  5
11C9
  8
DEFPOINTS
 62
     0
 10
108.9
 20
12.99999253
 30
0.0
  0
POINT
  5
11CA
  8
DEFPOINTS
 62
     0
 10
108.9
 20
22.88183443137325
 30
0.0
  0
ENDBLK
  5
11CC
  8
0
  0
BLOCK
  8
0
  2
*X12
 70
     1
 10
0.0
 20
0.0
 30
0.0
  3
*X12
  1

  0
TEXT
  5
11F4
  8
250
  6
CONTINUOUS
 62
    40
 10
120.0
 20
-4.223214285714292
 30
0.0
 40
3.0
  1
\U+2205
 50
90.0
  0
TEXT
  5
11F5
  8
250
  6
CONTINUOUS
 62
    40
 10
120.0
 20
-1.508928571428584
 30
0.0
 40
3.0
  1
30
 50
90.0
  0
ENDBLK
  5
11FE
  8
0
  0
BLOCK
  8
0
  2
*D15
 70
     1
 10
0.0
 20
0.0
 30
0.0
  3
*D15
  1

  0
LINE
  5
1309
  8
245
 62
     3
 10
109.4
 20
6.6
 30
0.0
 11
115.1424438407616
 21
6.6
 31
0.0
  0
LINE
  5
130A
  8
245
 62
     3
 10
109.4
 20
-6.6
 30
0.0
 11
115.1424438407616
 21
-6.6
 31
0.0
  0
LINE
  5
130B
  8
245
 62
     3
 10
114.1424438407616
 20
4.369999999999999
 30
0.0
 11
114.1424438407616
 21
-4.369999999999999
 31
0.0
  0
INSERT
  5
130C
  8
245
 62
     3
  2
_OPEN
 10
114.1424438407616
 20
6.6
 30
0.0
 41
2.23
 42
2.23
 43
2.23
 50
90.0
  0
INSERT
  5
130D
  8
245
 62
     3
  2
_OPEN
 10
114.1424438407616
 20
-6.6
 30
0.0
 41
2.23
 42
2.23
 43
2.23
 50
270.0
  0
TEXT
  5
130E
  8
245
  6
CONTINUOUS
 62
    40
 10
119.6424438407616
 20
-6.366071428571431
 30
0.0
 40
3.0
  1
\U+220513.2
 50
90.0
  0
POINT
  5
130F
  8
DEFPOINTS
 62
     0
 10
108.9
 20
6.6
 30
0.0
  0
POINT
  5
1310
  8
DEFPOINTS
 62
     0
 10
108.9
 20
-6.6
 30
0.0
  0
POINT
  5
1311
  8
DEFPOINTS
 62
     0
 10
114.1424438407616
 20
-6.6
 30
0.0
  0
ENDBLK
  5
1313
  8
0
  0
ENDSEC
  0
SECTION
  2
ENTITIES
  0
INSERT
  5
6E6
  8
245
  2
矢印なし
 10
175.62382697
 20
90.55123572
 30
0.0
  0
LINE
  5
1135
  8
250
  6
CONTINUOUS
 62
     3
 10
104.8
 20
-15.00000365
 30
0.0
 11
122.0
 21
-15.00000365
 31
0.0
  0
LINE
  5
1136
  8
250
  6
CONTINUOUS
 62
     3
 10
104.8
 20
14.99999635
 30
0.0
 11
122.0
 21
14.99999635
 31
0.0
  0
LINE
  5
1137
  8
250
  6
CONTINUOUS
 62
     3
 10
121.0
 20
-12.77000365
 30
0.0
 11
121.0
 21
12.76999635
 31
0.0
  0
INSERT
  5
1138
  8
250
  6
CONTINUOUS
 62
     3
  2
_OPEN
 10
121.0
 20
-15.00000365
 30
0.0
 41
2.23
 42
2.23
 43
2.23
 50
270.0
  0
INSERT
  5
1139
  8
250
  6
CONTINUOUS
 62
     3
  2
_OPEN
 10
121.0
 20
14.99999635
 30
0.0
 41
2.23
 42
2.23
 43
2.23
 50
90.0
  0
INSERT
  5
113A
  8
250
  6
CONTINUOUS
 62
    40
  2
*X12
 10
5.231667008965374
 20
-0.0355895714895604
 30
0.0
  0
LINE
  5
1175
  8
240
 10
81.20000544
 20
-12.49999221
 30
0.0
 11
81.20000544
 21
0.0
 31
0.0
  0
LINE
  5
1177
  8
240
  6
CONTINUOUS
 10
105.0
 20
-14.29999984
 30
0.0
 11
105.0
 21
0.0
 31
0.0
1001
GRPNAME
1000
PASTMD0K
  0
LINE
  5
1178
  8
241
  6
CONTINUOUS
 10
83.20000544
 20
-15.14999984
 30
0.0
 11
83.20000544
 21
0.0
 31
0.0
1001
GRPNAME
1000
PASTMD0P
  0
LINE
  5
1179
  8
241
  6
CONTINUOUS
 10
84.55993964
 20
-14.99999984
 30
0.0
 11
84.55993964
 21
0.0
 31
0.0
1001
GRPNAME
1000
PASTMD0P
  0
LINE
  5
117A
  8
240
  6
CONTINUOUS
 10
83.35000544
 20
-14.99999984
 30
0.0
 11
104.3
 21
-14.99999984
 31
0.0
1001
GRPNAME
1000
PASTMD0K
  0
LINE
  5
117F
  8
240
  6
CONTINUOUS
 10
81.70000544
 20
-15.14999984
 30
0.0
 11
83.20000544
 21
-15.14999984
 31
0.0
1001
GRPNAME
1000
PASTMD0P
  0
ARC
  5
1180
  8
240
  6
CONTINUOUS
 10
81.70000544
 20
-14.64999984
 30
0.0
 40
0.5
 50
180.00000008
 51
270.00000008
1001
GRPNAME
1000
PASTMD0L
  0
LINE
  5
1181
  8
240
 10
83.35000544
 20
-14.99999984
 30
0.0
 11
83.20000544
 21
-15.14999984
 31
0.0
  0
LINE
  5
1182
  8
240
  6
CONTINUOUS
 10
81.20000544
 20
-14.65000747
 30
0.0
 11
81.20000544
 21
-12.49999253
 31
0.0
1001
GRPNAME
1000
PASTMD0K
  0
ARC
  5
1183
  8
240
  6
CONTINUOUS
 10
104.3
 20
-14.29999984
 30
0.0
 40
0.6999999999999887
 50
269.99999997
 51
359.99999997
1001
GRPNAME
1000
PASTMD0L
  0
LINE
  5
1184
  8
240
  6
CONTINUOUS
 10
83.35000511
 20
15.00000016
 30
0.0
 11
104.3
 21
15.00000016
 31
0.0
1001
GRPNAME
1000
PASTMD0K
  0
LINE
  5
1191
  8
241
  6
CONTINUOUS
 10
84.55993964
 20
14.99999984
 30
0.0
 11
84.55993964
 21
0.0
 31
0.0
1001
GRPNAME
1000
PASTMD0P
  0
LINE
  5
1192
  8
241
  6
CONTINUOUS
 10
83.20000544
 20
15.14999984
 30
0.0
 11
83.20000544
 21
0.0
 31
0.0
1001
GRPNAME
1000
PASTMD0P
  0
LINE
  5
1193
  8
240
 10
81.20000544
 20
12.49999221
 30
0.0
 11
81.20000544
 21
0.0
 31
0.0
  0
LINE
  5
1196
  8
240
  6
CONTINUOUS
 10
81.20000544
 20
14.65000747
 30
0.0
 11
81.20000544
 21
12.49999253
 31
0.0
1001
GRPNAME
1000
PASTMD0K
  0
LINE
  5
119E
  8
240
  6
CONTINUOUS
 10
81.70000544
 20
15.15000747
 30
0.0
 11
83.20000544
 21
15.15000747
 31
0.0
1001
GRPNAME
1000
PASTMD0P
  0
ARC
  5
119F
  8
240
  6
CONTINUOUS
 10
81.70000544
 20
14.65000747
 30
0.0
 40
0.5
 50
89.99999999
 51
179.99999999
1001
GRPNAME
1000
PASTMD0L
  0
LINE
  5
11A0
  8
240
 10
83.35000511
 20
15.00000016
 30
0.0
 11
83.20000544
 21
15.14999984
 31
0.0
  0
LINE
  5
11A5
  8
240
  6
CONTINUOUS
 10
105.0
 20
14.29999984
 30
0.0
 11
105.0
 21
0.0
 31
0.0
1001
GRPNAME
1000
PASTMD0K
  0
ARC
  5
11AB
  8
240
  6
CONTINUOUS
 10
104.3
 20
14.30000016
 30
0.0
 40
0.7000000000000455
 50
0.00000009
 51
90.00000008999999
1001
GRPNAME
1000
PASTMD0L
  0
DIMENSION
  5
11AC
  8
250
  2
*D9
 10
105.0
 20
26.40683680712011
 30
0.0
 11
93.10000271999999
 21
28.90683680712011
 31
0.0
 70
    32
  3
BIGT$0
 13
81.20000544
 23
14.65000747
 33
0.0
 14
105.0
 24
12.49999253
 34
0.0
1001
ACAD
1000
DSTYLE
1002
{
1070
   287
1070
     5
1070
   279
1070
     2
1002
}
  0
DIMENSION
  5
11BC
  8
250
  2
*D10
 10
108.9
 20
22.88183443137325
 30
0.0
 11
106.95
 21
26.88183443137325
 31
0.0
 70
    32
  3
BIGT$0
 13
105.0
 23
14.79497490760812
 33
0.0
 14
108.9
 24
12.99999253
 34
0.0
1001
ACAD
1000
DSTYLE
1002
{
1070
   287
1070
     5
1070
   279
1070
     2
1002
}
  0
LINE
  5
11CE
  8
240
 10
108.9
 20
6.1
 30
0.0
 11
108.9
 21
-6.1
 31
0.0
  0
LINE
  5
11D0
  8
240
 10
105.0
 20
11.95
 30
0.0
 11
108.9
 21
6.6
 31
0.0
  0
LINE
  5
11D1
  8
240
 10
108.9
 20
-6.6
 30
0.0
 11
105.0
 21
-11.95
 31
0.0
  0
DIMENSION
  5
1305
  8
245
  2
*D15
 10
114.1424438407616
 20
-6.6
 30
0.0
 11
118.1424438407616
 21
0.0
 31
0.0
 70
    32
  1
\U+220513.2
  3
BIGT$0
 13
108.9
 23
6.6
 33
0.0
 14
108.9
 24
-6.6
 34
0.0
 50
90.0
1001
ACAD
1000
DSTYLE
1002
{
1070
   287
1070
     5
1070
   271
1070
     3
1070
   341
1005
0
1070
   272
1070
     3
1070
   279
1070
     2
1070
   340
1005
1293
1002
}
  0
LINE
  5
1316
  8
240
 10
108.9
 20
6.6
 30
0.0
 11
108.9
 21
-6.6
 31
0.0
  0
VIEWPORT
  5
22
 67
     1
  8
0
 10
261.51769912
 20
148.5
 30
0.0
 40
523.03539823
 41
297.0
 68
     1
 69
    -1
1001
ACAD
1000
MVIEW
1002
{
1070
    16
1010
0.0
1020
0.0
1030
0.0
1020
0.0
1030
0.0
1010
0.0
1020
0.0
1030
1.0
1020
0.0
1030
1.0
1040
0.0
1040
297.0
1040
261.51769912
1040
148.5
1040
50.0
1040
0.0
1040
0.0
1070
     0
1070
   100
1070
     1
1070
     1
1070
     0
1070
     0
1070
     0
1070
     0
1040
0.0
1040
0.0
1040
0.0
1040
1.0
1040
1.0
1040
10.0
1040
10.0
1070
     0
1002
{
1002
}
1002
}
  0
ENDSEC
  0
EOF
