  0
SECTION
  2
HEADER
  9
$ACADVER
  1
AC1009
  9
$DWGCODEPAGE
  3
ansi_932
  9
$INSBASE
 10
0.0
 20
0.0
 30
0.0
  9
$EXTMIN
 10
-76.39858687325318
 20
-43.0
 30
0.0
  9
$EXTMAX
 10
141.0
 20
68.0
 30
0.0
  9
$LIMMIN
 10
0.0
 20
0.0
  9
$LIMMAX
 10
297.0
 20
210.0
  9
$ORTHOMODE
 70
     0
  9
$REGENMODE
 70
     1
  9
$FILLMODE
 70
     1
  9
$QTEXTMODE
 70
     0
  9
$MIRRTEXT
 70
     1
  9
$DRAGMODE
 70
     2
  9
$LTSCALE
 40
0.5
  9
$OSMODE
 70
   511
  9
$ATTMODE
 70
     1
  9
$TEXTSIZE
 40
3.0
  9
$TRACEWID
 40
1.0
  9
$TEXTSTYLE
  7
YOKO
  9
$CLAYER
  8
250
  9
$CELTYPE
  6
BYLAYER
  9
$CECOLOR
 62
   256
  9
$DIMSCALE
 40
1.0
  9
$DIMASZ
 40
0.2
  9
$DIMEXO
 40
0.5
  9
$DIMDLI
 40
2.5
  9
$DIMRND
 40
0.0
  9
$DIMDLE
 40
0.0
  9
$DIMEXE
 40
0.1
  9
$DIMTP
 40
0.0
  9
$DIMTM
 40
0.0
  9
$DIMTXT
 40
0.2
  9
$DIMCEN
 40
0.0
  9
$DIMTSZ
 40
0.0
  9
$DIMTOL
 70
     0
  9
$DIMLIM
 70
     0
  9
$DIMTIH
 70
     0
  9
$DIMTOH
 70
     0
  9
$DIMSE1
 70
     0
  9
$DIMSE2
 70
     0
  9
$DIMTAD
 70
     3
  9
$DIMZIN
 70
     8
  9
$DIMBLK
  1
OPEN
  9
$DIMASO
 70
     1
  9
$DIMSHO
 70
     1
  9
$DIMPOST
  1

  9
$DIMAPOST
  1

  9
$DIMALT
 70
     0
  9
$DIMALTD
 70
     2
  9
$DIMALTF
 40
25.4
  9
$DIMLFAC
 40
1.0
  9
$DIMTOFL
 70
     1
  9
$DIMTVP
 40
0.0
  9
$DIMTIX
 70
     0
  9
$DIMSOXD
 70
     0
  9
$DIMSAH
 70
     0
  9
$DIMBLK1
  1

  9
$DIMBLK2
  1

  9
$DIMSTYLE
  2
BIGT
  9
$DIMCLRD
 70
   256
  9
$DIMCLRE
 70
   256
  9
$DIMCLRT
 70
    40
  9
$DIMTFAC
 40
1.0
  9
$DIMGAP
 40
0.1
  9
$LUNITS
 70
     2
  9
$LUPREC
 70
     3
  9
$SKETCHINC
 40
1.0
  9
$FILLETRAD
 40
0.0
  9
$AUNITS
 70
     0
  9
$AUPREC
 70
     3
  9
$MENU
  1
.
  9
$ELEVATION
 40
0.0
  9
$PELEVATION
 40
0.0
  9
$THICKNESS
 40
0.0
  9
$LIMCHECK
 70
     0
  9
$CHAMFERA
 40
10.0
  9
$CHAMFERB
 40
10.0
  9
$SKPOLY
 70
     0
  9
$TDCREATE
 40
2452173.379612963
  9
$TDUPDATE
 40
2452370.265225683
  9
$TDINDWG
 40
0.0360924769
  9
$TDUSRTIMER
 40
2455758.609110729
  9
$USRTIMER
 70
     1
  9
$ANGBASE
 50
0.0
  9
$ANGDIR
 70
     0
  9
$PDMODE
 70
    35
  9
$PDSIZE
 40
-5.0
  9
$PLINEWID
 40
0.0
  9
$COORDS
 70
     1
  9
$SPLFRAME
 70
     0
  9
$SPLINETYPE
 70
     6
  9
$SPLINESEGS
 70
     8
  9
$ATTDIA
 70
     0
  9
$ATTREQ
 70
     1
  9
$HANDLING
 70
     1
  9
$HANDSEED
  5
11AB
  9
$SURFTAB1
 70
     6
  9
$SURFTAB2
 70
     6
  9
$SURFTYPE
 70
     6
  9
$SURFU
 70
     6
  9
$SURFV
 70
     6
  9
$UCSNAME
  2

  9
$UCSORG
 10
0.0
 20
0.0
 30
0.0
  9
$UCSXDIR
 10
1.0
 20
0.0
 30
0.0
  9
$UCSYDIR
 10
0.0
 20
1.0
 30
0.0
  9
$PUCSNAME
  2

  9
$PUCSORG
 10
0.0
 20
0.0
 30
0.0
  9
$PUCSXDIR
 10
1.0
 20
0.0
 30
0.0
  9
$PUCSYDIR
 10
0.0
 20
1.0
 30
0.0
  9
$USERI1
 70
     1
  9
$USERI2
 70
     0
  9
$USERI3
 70
     0
  9
$USERI4
 70
     0
  9
$USERI5
 70
     0
  9
$USERR1
 40
0.0
  9
$USERR2
 40
0.0
  9
$USERR3
 40
0.0
  9
$USERR4
 40
0.0
  9
$USERR5
 40
0.0
  9
$WORLDVIEW
 70
     1
  9
$SHADEDGE
 70
     3
  9
$SHADEDIF
 70
    70
  9
$TILEMODE
 70
     1
  9
$MAXACTVP
 70
    16
  9
$PLIMCHECK
 70
     0
  9
$PEXTMIN
 10
1.000000000000000E+20
 20
1.000000000000000E+20
 30
1.000000000000000E+20
  9
$PEXTMAX
 10
-1.000000000000000E+20
 20
-1.000000000000000E+20
 30
-1.000000000000000E+20
  9
$PLIMMIN
 10
0.0
 20
0.0
  9
$PLIMMAX
 10
420.0
 20
297.0
  9
$UNITMODE
 70
     0
  9
$VISRETAIN
 70
     0
  9
$PLINEGEN
 70
     0
  9
$PSLTSCALE
 70
     1
  0
ENDSEC
  0
SECTION
  2
TABLES
  0
TABLE
  2
VPORT
 70
     1
  0
VPORT
  2
*ACTIVE
 70
     0
 10
0.0
 20
0.0
 11
1.0
 21
1.0
 12
110.5391468611146
 22
18.08468347146857
 13
0.0
 23
0.0
 14
7.0
 24
7.0
 15
7.0
 25
7.0
 16
0.0
 26
0.0
 36
1.0
 17
0.0
 27
0.0
 37
0.0
 40
5.323054093520175
 41
1.987603305785124
 42
50.0
 43
0.0
 44
0.0
 50
0.0
 51
0.0
 71
    16
 72
  2000
 73
     1
 74
     0
 75
     0
 76
     0
 77
     0
 78
     0
  0
ENDTAB
  0
TABLE
  2
LTYPE
 70
     3
  0
LTYPE
  2
CONTINUOUS
 70
     0
  3
Solid line
 72
    65
 73
     0
 40
0.0
  0
LTYPE
  2
HIDDEN
 70
     0
  3
 Hidden _ _ _ _ _ _ _ _ _ _ _ _ _ _ _ _ _ _ _ _
 72
    65
 73
     2
 40
0.375
 49
0.25
 49
-0.125
  0
ENDTAB
  0
TABLE
  2
LAYER
 70
     6
  0
LAYER
  2
0
 70
     0
 62
     7
  6
CONTINUOUS
  0
LAYER
  2
240
 70
     0
 62
     4
  6
CONTINUOUS
  0
LAYER
  2
241
 70
     0
 62
   211
  6
HIDDEN
  0
LAYER
  2
250
 70
     0
 62
     3
  6
CONTINUOUS
  0
LAYER
  2
DEFPOINTS
 70
     0
 62
     7
  6
CONTINUOUS
  0
ENDTAB
  0
TABLE
  2
STYLE
 70
     2
  0
STYLE
  2
STANDARD
 70
     0
 40
0.0
 41
1.0
 50
0.0
 71
     0
 42
3.0
  3
romans.shx
  4
BIGFONT.SHX
  0
STYLE
  2
YOKO
 70
     0
 40
0.0
 41
1.0
 50
0.0
 71
     0
 42
3.0
  3
romans.shx
  4
extfont.shx
  0
ENDTAB
  0
TABLE
  2
VIEW
 70
     0
  0
ENDTAB
  0
TABLE
  2
UCS
 70
     0
  0
ENDTAB
  0
TABLE
  2
APPID
 70
     9
  0
APPID
  2
ACAD
 70
     0
  0
APPID
  2
GLOBAL
 70
     0
  0
APPID
  2
DETAIL
 70
     0
  0
APPID
  2
GRPNAME
 70
     0
  0
APPID
  2
GPARA
 70
     0
  0
APPID
  2
ITEMNAME
 70
     0
  0
APPID
  2
HATCH_TYPE
 70
     0
  0
APPID
  2
HATCH_DISPLAY
 70
     0
  0
APPID
  2
HATCH_DISTANCE
 70
     0
  0
ENDTAB
  0
TABLE
  2
DIMSTYLE
 70
     1
  0
DIMSTYLE
  2
BIGT
 70
     0
  3

  4

  5
OPEN
  6

  7

 40
1.0
 41
2.229999999999999
 42
0.5
 43
2.5
 44
1.0
 45
0.0
 46
0.0
 47
0.0
 48
0.0
140
3.5
141
0.0
142
0.0
143
25.4
144
1.0
145
0.0
146
1.0
147
1.0
 71
     0
 72
     0
 73
     0
 74
     0
 75
     0
 76
     0
 77
     3
 78
     9
170
     0
171
     2
172
     1
173
     0
174
     0
175
     0
176
   256
177
   256
178
    40
  0
ENDTAB
  0
ENDSEC
  0
SECTION
  2
BLOCKS
  0
BLOCK
  8
0
  2
$MODEL_SPACE
 70
     0
 10
0.0
 20
0.0
 30
0.0
  3
$MODEL_SPACE
  1

  0
ENDBLK
  5
1C
  8
0
  0
BLOCK
 67
     1
  8
0
  2
$PAPER_SPACE
 70
     0
 10
0.0
 20
0.0
 30
0.0
  3
$PAPER_SPACE
  1

  0
ENDBLK
  5
19
 67
     1
  8
0
  0
BLOCK
  8
0
  2
_OPEN
 70
     0
 10
0.0
 20
0.0
 30
0.0
  3
_OPEN
  1

  0
LINE
  5
595
  8
0
  6
BYBLOCK
 62
     0
 10
-1.0
 20
0.1666666666666666
 30
0.0
 11
0.0
 21
0.0
 31
0.0
  0
LINE
  5
596
  8
0
  6
BYBLOCK
 62
     0
 10
-1.0
 20
-0.1666666666666666
 30
0.0
 11
0.0
 21
0.0
 31
0.0
  0
LINE
  5
597
  8
0
  6
BYBLOCK
 62
     0
 10
0.0
 20
0.0
 30
0.0
 11
-1.0
 21
0.0
 31
0.0
  0
ENDBLK
  5
599
  8
0
  0
BLOCK
  8
0
  2
*D24
 70
     1
 10
0.0
 20
0.0
 30
0.0
  3
*D24
  1

  0
LINE
  5
1169
  8
250
 10
109.2533175150891
 20
19.34257722708335
 30
0.0
 11
109.2533175150891
 21
19.8146844933054
 31
0.0
  0
LINE
  5
116A
  8
250
 10
110.2373175150891
 20
19.3176287502582
 30
0.0
 11
110.2373175150891
 21
19.8146844933054
 31
0.0
  0
LINE
  5
116B
  8
250
 10
109.4533175150891
 20
19.71468449330539
 30
0.0
 11
110.0373175150891
 21
19.71468449330539
 31
0.0
  0
INSERT
  5
116C
  8
250
  2
_OPEN
 10
109.2533175150891
 20
19.71468449330539
 30
0.0
 41
0.2
 42
0.2
 43
0.2
 50
180.0
  0
INSERT
  5
116D
  8
250
  2
_OPEN
 10
110.2373175150891
 20
19.71468449330539
 30
0.0
 41
0.2
 42
0.2
 43
0.2
  0
TEXT
  5
116E
  8
250
  6
CONTINUOUS
 62
    40
 10
109.3119841817558
 20
19.86467179762515
 30
0.0
 40
0.2
  1
0.984
  0
POINT
  5
116F
  8
DEFPOINTS
 62
     0
 10
109.2533175150891
 20
18.84257722708335
 30
0.0
  0
POINT
  5
1170
  8
DEFPOINTS
 62
     0
 10
110.2373175150891
 20
18.8176287502582
 30
0.0
  0
POINT
  5
1171
  8
DEFPOINTS
 62
     0
 10
110.2373175150891
 20
19.71468449330539
 30
0.0
  0
ENDBLK
  5
1173
  8
0
  0
BLOCK
  8
0
  2
*D25
 70
     1
 10
0.0
 20
0.0
 30
0.0
  3
*D25
  1

  0
LINE
  5
117B
  8
250
 10
110.237317515089
 20
19.31762875025819
 30
0.0
 11
110.237317515089
 21
19.81462408732275
 31
0.0
  0
LINE
  5
117C
  8
250
 10
110.4893175150891
 20
18.98654726065758
 30
0.0
 11
110.4893175150891
 21
19.81462408732275
 31
0.0
  0
LINE
  5
117D
  8
250
 10
110.237317515089
 20
19.71462408732275
 30
0.0
 11
110.4893175150891
 21
19.71462408732275
 31
0.0
  0
LINE
  5
117E
  8
250
 10
110.037317515089
 20
19.71462408732275
 30
0.0
 11
109.837317515089
 21
19.71462408732275
 31
0.0
  0
LINE
  5
117F
  8
250
 10
110.6893175150891
 20
19.71462408732275
 30
0.0
 11
110.8893175150891
 21
19.71462408732275
 31
0.0
  0
INSERT
  5
1180
  8
250
  2
_OPEN
 10
110.237317515089
 20
19.71462408732275
 30
0.0
 41
0.2
 42
0.2
 43
0.2
  0
INSERT
  5
1181
  8
250
  2
_OPEN
 10
110.4893175150891
 20
19.71462408732275
 30
0.0
 41
0.2
 42
0.2
 43
0.2
 50
180.0
  0
TEXT
  5
1182
  8
250
  6
CONTINUOUS
 62
    40
 10
110.3341508484224
 20
19.86462408732275
 30
0.0
 40
0.2
  1
0.252
  0
POINT
  5
1183
  8
DEFPOINTS
 62
     0
 10
110.237317515089
 20
18.81762875025819
 30
0.0
  0
POINT
  5
1184
  8
DEFPOINTS
 62
     0
 10
110.4893175150891
 20
18.48654726065758
 30
0.0
  0
POINT
  5
1185
  8
DEFPOINTS
 62
     0
 10
110.4893175150891
 20
19.71462408732275
 30
0.0
  0
ENDBLK
  5
1187
  8
0
  0
BLOCK
  8
0
  2
*D26
 70
     1
 10
0.0
 20
0.0
 30
0.0
  3
*D26
  1

  0
LINE
  5
118C
  8
250
 10
110.9893175150891
 20
18.48654726065758
 30
0.0
 11
111.2204894841592
 21
18.48654726065758
 31
0.0
  0
LINE
  5
118D
  8
250
 10
110.9893175150891
 20
18.01454726065758
 30
0.0
 11
111.2204894841592
 21
18.01454726065758
 31
0.0
  0
LINE
  5
118E
  8
250
 10
111.1204894841592
 20
18.48654726065758
 30
0.0
 11
111.1204894841592
 21
18.01454726065758
 31
0.0
  0
LINE
  5
118F
  8
250
 10
111.1204894841592
 20
18.68654726065758
 30
0.0
 11
111.1204894841592
 21
18.88654726065758
 31
0.0
  0
LINE
  5
1190
  8
250
 10
111.1204894841592
 20
17.81454726065758
 30
0.0
 11
111.1204894841592
 21
17.61454726065758
 31
0.0
  0
INSERT
  5
1191
  8
250
  2
_OPEN
 10
111.1204894841592
 20
18.48654726065758
 30
0.0
 41
0.2
 42
0.2
 43
0.2
 50
270.0
  0
INSERT
  5
1192
  8
250
  2
_OPEN
 10
111.1204894841592
 20
18.01454726065758
 30
0.0
 41
0.2
 42
0.2
 43
0.2
 50
90.0
  0
TEXT
  5
1193
  8
250
  6
CONTINUOUS
 62
    40
 10
111.5704894841592
 20
17.82614249875282
 30
0.0
 40
0.2
  1
\U+2205.472
 50
90.0
  0
POINT
  5
1194
  8
DEFPOINTS
 62
     0
 10
110.4893175150891
 20
18.48654726065758
 30
0.0
  0
POINT
  5
1195
  8
DEFPOINTS
 62
     0
 10
110.4893175150891
 20
18.01454726065758
 30
0.0
  0
POINT
  5
1196
  8
DEFPOINTS
 62
     0
 10
111.1204894841592
 20
18.01454726065758
 30
0.0
  0
ENDBLK
  5
1198
  8
0
  0
BLOCK
  8
0
  2
*D27
 70
     1
 10
0.0
 20
0.0
 30
0.0
  3
*D27
  1

  0
LINE
  5
119D
  8
250
 10
110.7373175150891
 20
18.69154726065758
 30
0.0
 11
111.9863053987046
 21
18.69154726065758
 31
0.0
  0
LINE
  5
119E
  8
250
 10
110.7373175150891
 20
17.80954726065758
 30
0.0
 11
111.9863053987046
 21
17.80954726065758
 31
0.0
  0
LINE
  5
119F
  8
250
 10
111.8863053987046
 20
18.49154726065758
 30
0.0
 11
111.8863053987046
 21
18.00954726065758
 31
0.0
  0
INSERT
  5
11A0
  8
250
  2
_OPEN
 10
111.8863053987046
 20
18.69154726065758
 30
0.0
 41
0.2
 42
0.2
 43
0.2
 50
90.0
  0
INSERT
  5
11A1
  8
250
  2
_OPEN
 10
111.8863053987046
 20
17.80954726065758
 30
0.0
 41
0.2
 42
0.2
 43
0.2
 50
270.0
  0
TEXT
  5
11A2
  8
250
  6
CONTINUOUS
 62
    40
 10
112.3363053987046
 20
17.82614249875282
 30
0.0
 40
0.2
  1
\U+2205.882
 50
90.0
  0
POINT
  5
11A3
  8
DEFPOINTS
 62
     0
 10
110.2373175150891
 20
18.69154726065758
 30
0.0
  0
POINT
  5
11A4
  8
DEFPOINTS
 62
     0
 10
110.2373175150891
 20
17.80954726065758
 30
0.0
  0
POINT
  5
11A5
  8
DEFPOINTS
 62
     0
 10
111.8863053987046
 20
17.80954726065758
 30
0.0
  0
ENDBLK
  5
11A7
  8
0
  0
ENDSEC
  0
SECTION
  2
ENTITIES
  0
LINE
  5
FEC
  8
240
 10
110.2373175150891
 20
18.8176287502582
 30
0.0
 11
110.2373175150891
 21
17.68346577105695
 31
0.0
  0
LINE
  5
FED
  8
240
 10
110.2136460517381
 20
18.84257722708335
 30
0.0
 11
109.2533175150891
 21
18.84257722708335
 31
0.0
  0
LINE
  5
FEE
  8
240
 10
110.2143012262534
 20
17.66157722708335
 30
0.0
 11
109.3908306362775
 21
17.66157722708335
 31
0.0
  0
LINE
  5
FEF
  8
240
 10
109.2533175150891
 20
18.84257722708335
 30
0.0
 11
109.2533175150891
 21
17.66157722708335
 31
0.0
  0
LINE
  5
1011
  8
241
  6
HIDDEN
 10
109.2937403413819
 20
17.66661374565385
 30
0.0
 11
109.2937403413819
 21
18.83754070851285
 31
0.0
  0
LINE
  5
1012
  8
241
  6
HIDDEN
 10
109.3166382077618
 20
17.66661374565385
 30
0.0
 11
109.3166382077618
 21
18.83754070851285
 31
0.0
  0
LINE
  5
1013
  8
241
  6
HIDDEN
 10
109.3598842829361
 20
17.66661374565385
 30
0.0
 11
109.3598842829361
 21
18.83754070851285
 31
0.0
  0
LINE
  5
1014
  8
241
  6
HIDDEN
 10
109.3852553137051
 20
18.83754070851284
 30
0.0
 11
109.3852553137051
 21
17.66661374565385
 31
0.0
  0
LINE
  5
1016
  8
240
 10
109.2937403413819
 20
17.66661374565385
 30
0.0
 11
109.3166382077618
 21
17.66661374565385
 31
0.0
  0
LINE
  5
1017
  8
240
 10
109.3598842829361
 20
17.66661374565385
 30
0.0
 11
109.3852553137051
 21
17.66661374565385
 31
0.0
  0
LINE
  5
1019
  8
240
  6
HIDDEN
 10
109.2937403413819
 20
17.66661374565385
 30
0.0
 11
109.287981035472
 21
17.66157722708335
 31
0.0
  0
LINE
  5
101A
  8
240
  6
HIDDEN
 10
109.3598842829361
 20
17.66661374565385
 30
0.0
 11
109.3543089603637
 21
17.66157722708335
 31
0.0
  0
LINE
  5
101D
  8
240
  6
HIDDEN
 10
109.3166382077618
 20
17.66661374565385
 30
0.0
 11
109.3223975136717
 21
17.66157722708335
 31
0.0
  0
LINE
  5
101E
  8
240
  6
HIDDEN
 10
109.3852553137051
 20
17.66661374565385
 30
0.0
 11
109.3908306362775
 21
17.66157722708335
 31
0.0
  0
LINE
  5
101F
  8
240
 10
109.287981035472
 20
17.66157722708335
 30
0.0
 11
109.2533175150891
 21
17.66157722708335
 31
0.0
  0
LINE
  5
1020
  8
240
 10
109.3543089603637
 20
17.66157722708335
 30
0.0
 11
109.3223975136717
 21
17.66157722708335
 31
0.0
  0
LINE
  5
1022
  8
240
 10
109.3598842829361
 20
18.83754070851285
 30
0.0
 11
109.3852553137051
 21
18.83754070851285
 31
0.0
  0
LINE
  5
1023
  8
240
  6
HIDDEN
 10
109.3852553137051
 20
18.83754070851285
 30
0.0
 11
109.3908306362775
 21
18.84257722708335
 31
0.0
  0
LINE
  5
1024
  8
240
  6
HIDDEN
 10
109.3598842829361
 20
18.83754070851285
 30
0.0
 11
109.3543089603637
 21
18.84257722708335
 31
0.0
  0
LINE
  5
1025
  8
240
 10
109.2937403413819
 20
18.83754070851285
 30
0.0
 11
109.3166382077618
 21
18.83754070851285
 31
0.0
  0
LINE
  5
1026
  8
240
  6
HIDDEN
 10
109.3166382077618
 20
18.83754070851285
 30
0.0
 11
109.3223975136717
 21
18.84257722708335
 31
0.0
  0
LINE
  5
1027
  8
240
  6
HIDDEN
 10
109.2937403413819
 20
18.83754070851285
 30
0.0
 11
109.287981035472
 21
18.84257722708335
 31
0.0
  0
ARC
  5
1028
  8
240
 10
110.2123376938812
 20
17.68668726562245
 30
0.0
 40
0.0251866928121025
 50
265.5287345941694
 51
352.6514745117376
  0
ARC
  5
1029
  8
240
 10
110.2115361325636
 20
18.81687116031853
 30
0.0
 40
0.0257925110727825
 50
1.68316105065836
 51
85.30775814854657
  0
LINE
  5
114E
  8
240
 10
110.4893175150891
 20
18.01454726065758
 30
0.0
 11
110.4893175150891
 21
18.48654726065758
 31
0.0
  0
LINE
  5
1152
  8
240
 10
110.2373175150891
 20
18.69154726065758
 30
0.0
 11
110.4893175150891
 21
18.48654726065758
 31
0.0
  0
LINE
  5
1153
  8
240
 10
110.2373175150891
 20
17.80954726065758
 30
0.0
 11
110.4893175150891
 21
18.01454726065758
 31
0.0
  0
DIMENSION
  5
1165
  8
250
  2
*D24
 10
110.2373175150891
 20
19.71468449330539
 30
0.0
 11
109.7453175150891
 21
19.96467179762515
 31
0.0
 70
   160
  3
BIGT
 13
109.2533175150891
 23
18.84257722708335
 33
0.0
 14
110.2373175150891
 24
18.8176287502582
 34
0.0
1001
ACAD
1000
DSTYLE
1002
{
1070
   287
1070
     5
1070
    41
1040
0.2
1070
   271
1070
     3
1070
    44
1040
0.1
1070
   147
1040
0.1
1070
   341
1005
0
1070
   272
1070
     3
1070
   279
1070
     2
1070
   340
1005
10C4
1070
   140
1040
0.2
1070
    78
1070
     8
1002
}
  0
DIMENSION
  5
1177
  8
250
  2
*D25
 10
110.4893175150891
 20
19.71462408732275
 30
0.0
 11
110.7633175150891
 21
19.96462408732275
 31
0.0
 70
   160
  3
BIGT
 13
110.237317515089
 23
18.81762875025819
 33
0.0
 14
110.4893175150891
 24
18.48654726065758
 34
0.0
1001
ACAD
1000
DSTYLE
1002
{
1070
   287
1070
     5
1070
    41
1040
0.2
1070
   271
1070
     3
1070
    44
1040
0.1
1070
   147
1040
0.1
1070
   341
1005
0
1070
   272
1070
     3
1070
   279
1070
     2
1070
   340
1005
10C4
1070
   140
1040
0.2
1070
    78
1070
     8
1002
}
  0
DIMENSION
  5
1188
  8
250
  2
*D26
 10
111.1204894841592
 20
18.01454726065758
 30
0.0
 11
111.4704894841592
 21
18.25054726065758
 31
0.0
 70
    32
  1
\U+2205.472
  3
BIGT
 13
110.4893175150891
 23
18.48654726065758
 33
0.0
 14
110.4893175150891
 24
18.01454726065758
 34
0.0
 50
90.0
1001
ACAD
1000
DSTYLE
1002
{
1070
   287
1070
     5
1070
    41
1040
0.2
1070
   271
1070
     3
1070
    44
1040
0.1
1070
   147
1040
0.1
1070
   341
1005
0
1070
   272
1070
     3
1070
   279
1070
     2
1070
   340
1005
10C4
1070
   140
1040
0.2
1070
    78
1070
     8
1002
}
  0
DIMENSION
  5
1199
  8
250
  2
*D27
 10
111.8863053987046
 20
17.80954726065758
 30
0.0
 11
112.2363053987046
 21
18.25054726065758
 31
0.0
 70
    32
  1
\U+2205.882
  3
BIGT
 13
110.2373175150891
 23
18.69154726065758
 33
0.0
 14
110.2373175150891
 24
17.80954726065758
 34
0.0
 50
90.0
1001
ACAD
1000
DSTYLE
1002
{
1070
   287
1070
     5
1070
    41
1040
0.2
1070
   271
1070
     3
1070
    44
1040
0.1
1070
   147
1040
0.1
1070
   341
1005
0
1070
   272
1070
     3
1070
   279
1070
     2
1070
   340
1005
10C4
1070
   140
1040
0.2
1070
    78
1070
     8
1002
}
  0
VIEWPORT
  5
22
 67
     1
  8
0
 10
261.5176991150442
 20
148.5
 30
0.0
 40
523.0353982300885
 41
297.0
 68
     1
 69
    -1
1001
ACAD
1000
MVIEW
1002
{
1070
    16
1010
0.0
1020
0.0
1030
0.0
1020
0.0
1030
0.0
1010
0.0
1020
0.0
1030
1.0
1020
0.0
1030
1.0
1040
0.0
1040
297.0
1040
261.5176991150442
1040
148.5
1040
50.0
1040
0.0
1040
0.0
1070
     0
1070
   100
1070
     1
1070
     1
1070
     0
1070
     0
1070
     0
1070
     0
1040
0.0
1040
0.0
1040
0.0
1040
1.0
1040
1.0
1040
10.0
1040
10.0
1070
     0
1002
{
1002
}
1002
}
  0
ENDSEC
  0
EOF
