  0
SECTION
  2
HEADER
  9
$ACADVER
  1
AC1014
  9
$ACADMAINTVER
 70
     9
  9
$DWGCODEPAGE
  3
ANSI_932
  9
$INSBASE
 10
0.0
 20
0.0
 30
0.0
  9
$EXTMIN
 10
-42.72051933
 20
-34.95597664
 30
-0.00152582
  9
$EXTMAX
 10
99.0122927
 20
61.00554692
 30
0.00000003
  9
$LIMMIN
 10
0.0
 20
0.0
  9
$LIMMAX
 10
420.0
 20
297.0
  9
$ORTHOMODE
 70
     1
  9
$REGENMODE
 70
     1
  9
$FILLMODE
 70
     1
  9
$QTEXTMODE
 70
     0
  9
$MIRRTEXT
 70
     1
  9
$DRAGMODE
 70
     2
  9
$LTSCALE
 40
10.0
  9
$OSMODE
 70
   549
  9
$ATTMODE
 70
     1
  9
$TEXTSIZE
 40
3.0
  9
$TRACEWID
 40
1.0
  9
$TEXTSTYLE
  7
YOKO
  9
$CLAYER
  8
245
  9
$CELTYPE
  6
BYLAYER
  9
$CECOLOR
 62
   256
  9
$CELTSCALE
 40
1.0
  9
$DELOBJ
 70
     1
  9
$DISPSILH
 70
     0
  9
$DIMSCALE
 40
1.0
  9
$DIMASZ
 40
2.23
  9
$DIMEXO
 40
0.5
  9
$DIMDLI
 40
2.5
  9
$DIMRND
 40
0.0
  9
$DIMDLE
 40
0.0
  9
$DIMEXE
 40
1.0
  9
$DIMTP
 40
0.0
  9
$DIMTM
 40
0.0
  9
$DIMTXT
 40
2.8
  9
$DIMCEN
 40
0.0
  9
$DIMTSZ
 40
0.0
  9
$DIMTOL
 70
     0
  9
$DIMLIM
 70
     0
  9
$DIMTIH
 70
     0
  9
$DIMTOH
 70
     0
  9
$DIMSE1
 70
     0
  9
$DIMSE2
 70
     0
  9
$DIMTAD
 70
     3
  9
$DIMZIN
 70
     8
  9
$DIMBLK
  1

  9
$DIMASO
 70
     1
  9
$DIMSHO
 70
     1
  9
$DIMPOST
  1

  9
$DIMAPOST
  1

  9
$DIMALT
 70
     0
  9
$DIMALTD
 70
     2
  9
$DIMALTF
 40
25.4
  9
$DIMLFAC
 40
1.0
  9
$DIMTOFL
 70
     1
  9
$DIMTVP
 40
0.0
  9
$DIMTIX
 70
     1
  9
$DIMSOXD
 70
     0
  9
$DIMSAH
 70
     1
  9
$DIMBLK1
  1
OPEN
  9
$DIMBLK2
  1
OPEN
  9
$DIMSTYLE
  2
BIGT
  9
$DIMCLRD
 70
   256
  9
$DIMCLRE
 70
   256
  9
$DIMCLRT
 70
    40
  9
$DIMTFAC
 40
1.0
  9
$DIMGAP
 40
1.0
  9
$DIMJUST
 70
     0
  9
$DIMSD1
 70
     0
  9
$DIMSD2
 70
     0
  9
$DIMTOLJ
 70
     1
  9
$DIMTZIN
 70
     8
  9
$DIMALTZ
 70
     0
  9
$DIMALTTZ
 70
     0
  9
$DIMFIT
 70
     3
  9
$DIMUPT
 70
     0
  9
$DIMUNIT
 70
     2
  9
$DIMDEC
 70
     3
  9
$DIMTDEC
 70
     3
  9
$DIMALTU
 70
     2
  9
$DIMALTTD
 70
     2
  9
$DIMTXSTY
  7
STANDARD
  9
$DIMAUNIT
 70
     0
  9
$LUNITS
 70
     2
  9
$LUPREC
 70
     3
  9
$SKETCHINC
 40
1.0
  9
$FILLETRAD
 40
10.0
  9
$AUNITS
 70
     0
  9
$AUPREC
 70
     3
  9
$MENU
  1
.
  9
$ELEVATION
 40
0.0
  9
$PELEVATION
 40
0.0
  9
$THICKNESS
 40
0.0
  9
$LIMCHECK
 70
     0
  9
$BLIPMODE
 70
     0
  9
$CHAMFERA
 40
10.0
  9
$CHAMFERB
 40
10.0
  9
$CHAMFERC
 40
0.0
  9
$CHAMFERD
 40
0.0
  9
$SKPOLY
 70
     0
  9
$TDCREATE
 40
2455142.441773356
  9
$TDUPDATE
 40
2455383.597107199
  9
$TDINDWG
 40
0.0050101389
  9
$TDUSRTIMER
 40
0.0050101389
  9
$USRTIMER
 70
     1
  9
$ANGBASE
 50
0.0
  9
$ANGDIR
 70
     0
  9
$PDMODE
 70
     1
  9
$PDSIZE
 40
-5.0
  9
$PLINEWID
 40
0.0
  9
$COORDS
 70
     1
  9
$SPLFRAME
 70
     0
  9
$SPLINETYPE
 70
     6
  9
$SPLINESEGS
 70
     8
  9
$ATTDIA
 70
     0
  9
$ATTREQ
 70
     1
  9
$HANDLING
 70
-16383
  9
$HANDSEED
  5
135B
  9
$SURFTAB1
 70
     6
  9
$SURFTAB2
 70
     6
  9
$SURFTYPE
 70
     6
  9
$SURFU
 70
     6
  9
$SURFV
 70
     6
  9
$UCSNAME
  2

  9
$UCSORG
 10
0.0
 20
0.0
 30
0.0
  9
$UCSXDIR
 10
1.0
 20
0.0
 30
0.0
  9
$UCSYDIR
 10
0.0
 20
1.0
 30
0.0
  9
$PUCSNAME
  2

  9
$PUCSORG
 10
0.0
 20
0.0
 30
0.0
  9
$PUCSXDIR
 10
1.0
 20
0.0
 30
0.0
  9
$PUCSYDIR
 10
0.0
 20
1.0
 30
0.0
  9
$USERI1
 70
     1
  9
$USERI2
 70
     0
  9
$USERI3
 70
     0
  9
$USERI4
 70
     0
  9
$USERI5
 70
     0
  9
$USERR1
 40
0.0
  9
$USERR2
 40
0.0
  9
$USERR3
 40
0.0
  9
$USERR4
 40
0.0
  9
$USERR5
 40
0.0
  9
$WORLDVIEW
 70
     1
  9
$SHADEDGE
 70
     3
  9
$SHADEDIF
 70
    70
  9
$TILEMODE
 70
     1
  9
$MAXACTVP
 70
    16
  9
$PINSBASE
 10
0.0
 20
0.0
 30
0.0
  9
$PLIMCHECK
 70
     0
  9
$PEXTMIN
 10
1.00000000E+20
 20
1.00000000E+20
 30
1.00000000E+20
  9
$PEXTMAX
 10
-1.00000000E+20
 20
-1.00000000E+20
 30
-1.00000000E+20
  9
$PLIMMIN
 10
0.0
 20
0.0
  9
$PLIMMAX
 10
420.0
 20
297.0
  9
$UNITMODE
 70
     0
  9
$VISRETAIN
 70
     0
  9
$PLINEGEN
 70
     0
  9
$PSLTSCALE
 70
     1
  9
$TREEDEPTH
 70
  3020
  9
$PICKSTYLE
 70
     0
  9
$CMLSTYLE
  2
STANDARD
  9
$CMLJUST
 70
     0
  9
$CMLSCALE
 40
1.0
  9
$PROXYGRAPHICS
 70
     1
  9
$MEASUREMENT
 70
     1
  0
ENDSEC
  0
SECTION
  2
CLASSES
  0
CLASS
  1
XRECORD
  2
AcDbXrecord
  3
AutoCAD 2000
 90
        0
280
     0
281
     0
  0
CLASS
  1
ACDBDICTIONARYWDFLT
  2
AcDbDictionaryWithDefault
  3
AutoCAD 2000
 90
        0
280
     0
281
     0
  0
CLASS
  1
ACDBPLACEHOLDER
  2
AcDbPlaceHolder
  3
AutoCAD 2000
 90
        0
280
     0
281
     0
  0
CLASS
  1
LAYOUT
  2
AcDbLayout
  3
AutoCAD 2000
 90
        0
280
     0
281
     0
  0
CLASS
  1
PLOTSETTINGS
  2
AcDbPlotSettings
  3
AutoCAD 2000
 90
        0
280
     0
281
     0
  0
CLASS
  1
LONG_TRANSACTION
  2
AcDbLongTransaction
  3
AutoCAD 2000
 90
        0
280
     0
281
     0
  0
CLASS
  1
LWPOLYLINE
  2
AcDbPolyline
  3
AutoCAD 2000
 90
        0
280
     0
281
     1
  0
CLASS
  1
HATCH
  2
AcDbHatch
  3
AutoCAD 2000
 90
        0
280
     0
281
     1
  0
CLASS
  1
XRECORD
  2
AcDbXrecord
  3
AutoCAD 2000
 90
        0
280
     0
281
     0
  0
CLASS
  1
LONG_TRANSACTION
  2
AcDbLongTransaction
  3
AutoCAD 2000
 90
        0
280
     0
281
     0
  0
CLASS
  1
LWPOLYLINE
  2
AcDbPolyline
  3
AutoCAD 2000
 90
        0
280
     0
281
     1
  0
CLASS
  1
HATCH
  2
AcDbHatch
  3
AutoCAD 2000
 90
        0
280
     0
281
     1
  0
CLASS
  1
XRECORD
  2
AcDbXrecord
  3
AutoCAD 2000
 90
        0
280
     0
281
     0
  0
ENDSEC
  0
SECTION
  2
TABLES
  0
TABLE
  2
VPORT
  5
8
330
0
100
AcDbSymbolTable
 70
     2
  0
VPORT
  5
1336
330
8
100
AcDbSymbolTableRecord
100
AcDbViewportTableRecord
  2
*ACTIVE
 70
     0
 10
0.0
 20
0.0
 11
1.0
 21
1.0
 12
28.14588668
 22
13.02478514
 13
0.0
 23
0.0
 14
7.0
 24
7.0
 15
7.0
 25
7.0
 16
0.0
 26
0.0
 36
1.0
 17
0.0
 27
0.0
 37
0.0
 40
97.86570792
 41
1.45595855
 42
50.0
 43
0.0
 44
0.0
 50
0.0
 51
0.0
 71
     0
 72
  2000
 73
     1
 74
     0
 75
     0
 76
     0
 77
     0
 78
     0
  0
ENDTAB
  0
TABLE
  2
LTYPE
  5
5
330
0
100
AcDbSymbolTable
 70
     4
  0
LTYPE
  5
14
330
5
100
AcDbSymbolTableRecord
100
AcDbLinetypeTableRecord
  2
BYBLOCK
 70
     0
  3

 72
    65
 73
     0
 40
0.0
  0
LTYPE
  5
15
330
5
100
AcDbSymbolTableRecord
100
AcDbLinetypeTableRecord
  2
BYLAYER
 70
     0
  3

 72
    65
 73
     0
 40
0.0
  0
LTYPE
  5
16
330
5
100
AcDbSymbolTableRecord
100
AcDbLinetypeTableRecord
  2
CONTINUOUS
 70
     0
  3
Solid line
 72
    65
 73
     0
 40
0.0
  0
LTYPE
  5
258
330
5
100
AcDbSymbolTableRecord
100
AcDbLinetypeTableRecord
  2
CENTER2
 70
     0
  3
___ _ ___ _ ___ _ ___ _ ___ _ ___ _ ___ _ ___ _
 72
    65
 73
     4
 40
1.125
 49
0.75
 74
     0
 49
-0.125
 74
     0
 49
0.125
 74
     0
 49
-0.125
 74
     0
  0
LTYPE
  5
25C
330
5
100
AcDbSymbolTableRecord
100
AcDbLinetypeTableRecord
  2
HIDDEN2
 70
     0
  3
_ _ _ _ _ _ _ _ _ _ _ _ _ _ _ _ _ _ _ _ _ _ _ _
 72
    65
 73
     2
 40
0.1875
 49
0.125
 74
     0
 49
-0.0625
 74
     0
  0
LTYPE
  5
25D
330
5
100
AcDbSymbolTableRecord
100
AcDbLinetypeTableRecord
  2
PHANTOM2
 70
     0
  3
___ _ _ ___ _ _ ___ _ _ ___ _ _ ___ _ _ ___ _ _
 72
    65
 73
     6
 40
1.25
 49
0.625
 74
     0
 49
-0.125
 74
     0
 49
0.125
 74
     0
 49
-0.125
 74
     0
 49
0.125
 74
     0
 49
-0.125
 74
     0
  0
ENDTAB
  0
TABLE
  2
LAYER
  5
2
330
0
100
AcDbSymbolTable
 70
    12
  0
LAYER
  5
F
330
2
100
AcDbSymbolTableRecord
100
AcDbLayerTableRecord
  2
0
 70
     0
 62
     7
  6
CONTINUOUS
  0
LAYER
  5
1AA
330
2
100
AcDbSymbolTableRecord
100
AcDbLayerTableRecord
  2
240
 70
     0
 62
     4
  6
CONTINUOUS
  0
LAYER
  5
1AB
330
2
100
AcDbSymbolTableRecord
100
AcDbLayerTableRecord
  2
241
 70
     0
 62
   211
  6
CONTINUOUS
  0
LAYER
  5
1AC
330
2
100
AcDbSymbolTableRecord
100
AcDbLayerTableRecord
  2
242
 70
     0
 62
     3
  6
CONTINUOUS
  0
LAYER
  5
1AF
330
2
100
AcDbSymbolTableRecord
100
AcDbLayerTableRecord
  2
245
 70
     0
 62
     2
  6
CENTER2
  0
LAYER
  5
21A
330
2
100
AcDbSymbolTableRecord
100
AcDbLayerTableRecord
  2
246
 70
     0
 62
     3
  6
PHANTOM2
  0
LAYER
  5
21E
330
2
100
AcDbSymbolTableRecord
100
AcDbLayerTableRecord
  2
250
 70
     0
 62
     3
  6
CONTINUOUS
  0
LAYER
  5
21F
330
2
100
AcDbSymbolTableRecord
100
AcDbLayerTableRecord
  2
251
 70
     0
 62
    40
  6
CONTINUOUS
  0
LAYER
  5
5C4
330
2
100
AcDbSymbolTableRecord
100
AcDbLayerTableRecord
  2
DEFPOINTS
 70
     0
 62
     7
  6
CONTINUOUS
  0
ENDTAB
  0
TABLE
  2
STYLE
  5
3
330
0
100
AcDbSymbolTable
 70
     2
  0
STYLE
  5
10
330
3
100
AcDbSymbolTableRecord
100
AcDbTextStyleTableRecord
  2
STANDARD
 70
     0
 40
0.0
 41
1.0
 50
0.0
 71
     0
 42
3.0
  3
romans.shx
  4
BIGFONT.SHX
  0
STYLE
  5
339
330
3
100
AcDbSymbolTableRecord
100
AcDbTextStyleTableRecord
  2
YOKO
 70
     0
 40
0.0
 41
1.0
 50
0.0
 71
     0
 42
3.0
  3
romans.shx
  4
extfont.shx
  0
ENDTAB
  0
TABLE
  2
VIEW
  5
6
330
0
100
AcDbSymbolTable
 70
     0
  0
ENDTAB
  0
TABLE
  2
UCS
  5
7
330
0
100
AcDbSymbolTable
 70
     0
  0
ENDTAB
  0
TABLE
  2
APPID
  5
9
330
0
100
AcDbSymbolTable
 70
    12
  0
APPID
  5
11
330
9
100
AcDbSymbolTableRecord
100
AcDbRegAppTableRecord
  2
ACAD
 70
     0
  0
APPID
  5
1B1
330
9
100
AcDbSymbolTableRecord
100
AcDbRegAppTableRecord
  2
GLOBAL
 70
     0
  0
APPID
  5
2A4
330
9
100
AcDbSymbolTableRecord
100
AcDbRegAppTableRecord
  2
DETAIL
 70
     0
  0
APPID
  5
5FD
330
9
100
AcDbSymbolTableRecord
100
AcDbRegAppTableRecord
  2
GRPNAME
 70
     0
  0
APPID
  5
5FE
330
9
100
AcDbSymbolTableRecord
100
AcDbRegAppTableRecord
  2
GPARA
 70
     0
  0
APPID
  5
6C4
330
9
100
AcDbSymbolTableRecord
100
AcDbRegAppTableRecord
  2
DCO15
 70
     0
  0
APPID
  5
6C5
330
9
100
AcDbSymbolTableRecord
100
AcDbRegAppTableRecord
  2
ITEMNAME
 70
     0
  0
APPID
  5
6C6
330
9
100
AcDbSymbolTableRecord
100
AcDbRegAppTableRecord
  2
GRADE_0
 70
     0
  0
APPID
  5
A09
330
9
100
AcDbSymbolTableRecord
100
AcDbRegAppTableRecord
  2
HATCH_TYPE
 70
     0
  0
APPID
  5
A0A
330
9
100
AcDbSymbolTableRecord
100
AcDbRegAppTableRecord
  2
HATCH_DISPLAY
 70
     0
  0
APPID
  5
A0B
330
9
100
AcDbSymbolTableRecord
100
AcDbRegAppTableRecord
  2
HATCH_DISTANCE
 70
     0
  0
APPID
  5
F1B
330
9
100
AcDbSymbolTableRecord
100
AcDbRegAppTableRecord
  2
CONTENTBLOCKICON
 70
     0
  0
ENDTAB
  0
TABLE
  2
DIMSTYLE
  5
A
330
0
100
AcDbSymbolTable
 70
     4
  0
DIMSTYLE
105
725
102
{ACAD_REACTORS
330
CC5
330
CD4
330
CE3
330
CF2
102
}
330
A
100
AcDbSymbolTableRecord
100
AcDbDimStyleTableRecord
  2
BIGT
 70
     0
  3

  4

  5

  6
OPEN
  7
OPEN
 40
1.0
 41
2.23
 42
0.5
 43
2.5
 44
1.0
 45
0.0
 46
0.0
 47
0.0
 48
0.0
140
2.8
141
0.0
142
0.0
143
25.4
144
1.0
145
0.0
146
1.0
147
1.0
 71
     0
 72
     0
 73
     0
 74
     0
 75
     0
 76
     0
 77
     3
 78
     8
170
     0
171
     2
172
     1
173
     1
174
     1
175
     0
176
   256
177
   256
178
    40
270
     2
271
     3
272
     3
273
     2
274
     2
340
10
275
     0
280
     0
281
     0
282
     0
283
     1
284
     8
285
     0
286
     0
287
     3
288
     0
  0
ENDTAB
  0
TABLE
  2
BLOCK_RECORD
  5
1
330
0
100
AcDbSymbolTable
 70
     9
  0
BLOCK_RECORD
  5
1A
102
{ACAD_XDICTIONARY
360
F19
102
}
330
1
100
AcDbSymbolTableRecord
100
AcDbBlockTableRecord
  2
*MODEL_SPACE
  0
BLOCK_RECORD
  5
17
102
{ACAD_XDICTIONARY
360
F17
102
}
330
1
100
AcDbSymbolTableRecord
100
AcDbBlockTableRecord
  2
*PAPER_SPACE
  0
BLOCK_RECORD
  5
594
330
1
100
AcDbSymbolTableRecord
100
AcDbBlockTableRecord
  2
_OPEN
  0
BLOCK_RECORD
  5
6E3
330
1
100
AcDbSymbolTableRecord
100
AcDbBlockTableRecord
  2
矢印なし
  0
BLOCK_RECORD
  5
CC6
330
1
100
AcDbSymbolTableRecord
100
AcDbBlockTableRecord
  2
*D2
  0
BLOCK_RECORD
  5
CD5
330
1
100
AcDbSymbolTableRecord
100
AcDbBlockTableRecord
  2
*D3
  0
BLOCK_RECORD
  5
CE4
330
1
100
AcDbSymbolTableRecord
100
AcDbBlockTableRecord
  2
*D4
  0
BLOCK_RECORD
  5
CF3
330
1
100
AcDbSymbolTableRecord
100
AcDbBlockTableRecord
  2
*D5
  0
BLOCK_RECORD
  5
D3F
330
1
100
AcDbSymbolTableRecord
100
AcDbBlockTableRecord
  2
1
1001
CONTENTBLOCKICON
1071
        0
1004
2800000020000000200000000100080000000000000400000000000000000000000000000000000000000000000080000080000000808000800000008000800080800000C0C0C000C0DCC000F0CAA6000020400000206000002080000020A0000020C0000020E00000400000004020000040400000406000004080000040A0
1004
000040C0000040E00000600000006020000060400000606000006080000060A0000060C0000060E00000800000008020000080400000806000008080000080A0000080C0000080E00000A0000000A0200000A0400000A0600000A0800000A0A00000A0C00000A0E00000C0000000C0200000C0400000C0600000C0800000C0
1004
A00000C0C00000C0E00000E0000000E0200000E0400000E0600000E0800000E0A00000E0C00000E0E00040000000400020004000400040006000400080004000A0004000C0004000E00040200000402020004020400040206000402080004020A0004020C0004020E000404000004040200040404000404060004040800040
1004
40A0004040C0004040E00040600000406020004060400040606000406080004060A0004060C0004060E00040800000408020004080400040806000408080004080A0004080C0004080E00040A0000040A0200040A0400040A0600040A0800040A0A00040A0C00040A0E00040C0000040C0200040C0400040C0600040C08000
1004
40C0A00040C0C00040C0E00040E0000040E0200040E0400040E0600040E0800040E0A00040E0C00040E0E00080000000800020008000400080006000800080008000A0008000C0008000E00080200000802020008020400080206000802080008020A0008020C0008020E00080400000804020008040400080406000804080
1004
008040A0008040C0008040E00080600000806020008060400080606000806080008060A0008060C0008060E00080800000808020008080400080806000808080008080A0008080C0008080E00080A0000080A0200080A0400080A0600080A0800080A0A00080A0C00080A0E00080C0000080C0200080C0400080C0600080C0
1004
800080C0A00080C0C00080C0E00080E0000080E0200080E0400080E0600080E0800080E0A00080E0C00080E0E000C0000000C0002000C0004000C0006000C0008000C000A000C000C000C000E000C0200000C0202000C0204000C0206000C0208000C020A000C020C000C020E000C0400000C0402000C0404000C0406000C0
1004
408000C040A000C040C000C040E000C0600000C0602000C0604000C0606000C0608000C060A000C060C000C060E000C0800000C0802000C0804000C0806000C0808000C080A000C080C000C080E000C0A00000C0A02000C0A04000C0A06000C0A08000C0A0A000C0A0C000C0A0E000C0C00000C0C02000C0C04000C0C06000
1004
C0C08000C0C0A000F0FBFF00A4A0A000808080000000FF0000FF000000FFFF00FF000000FF00FF00FFFF0000FFFFFF0000000000000000000000000000000000000000000000000000000000000000000000000000000000000000000000000000000000000000000000000000000000000000000000000000000000000000
1004
00000000000000000000000000000000000000000000000000000000000000000000000000000000000000000000000000000000000000000000000000000000000000000000000000000000000000000000000000000000000000000000000000000000000000000000000000000000000000000000000000000000000000
1004
0000000000000000000000000000000000000000000000000000000000000000000000000000000000000000000000000000000000000000000000FEFEFEFEFEFEFE00000000000000000000000000000000000000000000000000FE000000FEFEFEE7FE000000000000000000000000000000FEFEFEFEFEFEFEFEFEE7E7E7
1004
E7E7E700FE000000000000000000000000000000FE00000000000000E70000E7E7E7E7FAFE000000000000000000000000000000FE00000000000000E7000000E7E7E7FAE7FE0000000000000000000000000000FE00000000000000E7000000E7E7FA00E7E7E700000000000000000000000000FEE7FEE70000FB00E700E7
1004
E7E7E7E7E7E7E7E7FEFEFEFEFEE7FEFEFAFE0000000000FEE700E7FBE7E700E700FB00E700E7E7E70000000000E700E700FE000000FBFBFEE7FBE7FBE7E7E7E7FBFBFBE7FBE7E7E7FBFBFBFBFBE7E7E7E7FEFB0000FEFEE7E70000FB00E700E7E7E7E7E700E7E7E7FEFEFEFEFEFEFEFEE7FA000000FE00000000000000E700
1004
0000E7E7E700E7E7E700000000000000000000000000FE00000000000000E7000000E7E7E700E7FE0000000000000000000000000000FE00000000000000E7000000E7E7E700FE000000000000000000000000000000FEFEFEFEFEFEFEFEFE000000E7E7E700FE0000000000000000000000000000000000000000000000FE
1004
000000FEFEFEFEFE0000000000000000000000000000000000000000000000FEFEFEFEFEFEFE0000000000000000000000000000000000000000000000000000000000000000000000000000000000000000000000000000000000000000000000000000000000000000000000000000000000000000000000000000000000
1004
00000000000000000000000000000000000000000000000000000000000000000000000000000000000000000000000000000000000000000000000000000000000000000000000000000000000000000000000000000000000000000000000000000000000000000000000000000000000000000000000000000000000000
1004
0000000000000000000000000000000000000000000000000000000000000000000000000000000000000000000000000000000000000000
  0
ENDTAB
  0
ENDSEC
  0
SECTION
  2
BLOCKS
  0
BLOCK
  5
1B
330
1A
100
AcDbEntity
  8
0
100
AcDbBlockBegin
  2
*MODEL_SPACE
 70
     0
 10
0.0
 20
0.0
 30
0.0
  3
*MODEL_SPACE
  1

  0
ENDBLK
  5
1C
330
1A
100
AcDbEntity
  8
0
100
AcDbBlockEnd
  0
BLOCK
  5
18
330
17
100
AcDbEntity
 67
     1
  8
0
100
AcDbBlockBegin
  2
*PAPER_SPACE
 70
     0
 10
0.0
 20
0.0
 30
0.0
  3
*PAPER_SPACE
  1

  0
ENDBLK
  5
19
330
17
100
AcDbEntity
 67
     1
  8
0
100
AcDbBlockEnd
  0
BLOCK
  5
598
330
594
100
AcDbEntity
  8
0
100
AcDbBlockBegin
  2
_OPEN
 70
     0
 10
0.0
 20
0.0
 30
0.0
  3
_OPEN
  1

  0
LINE
  5
595
330
594
100
AcDbEntity
  8
0
  6
BYBLOCK
 62
     0
100
AcDbLine
 10
-1.0
 20
0.16666667
 30
0.0
 11
0.0
 21
0.0
 31
0.0
  0
LINE
  5
596
330
594
100
AcDbEntity
  8
0
  6
BYBLOCK
 62
     0
100
AcDbLine
 10
-1.0
 20
-0.16666667
 30
0.0
 11
0.0
 21
0.0
 31
0.0
  0
LINE
  5
597
330
594
100
AcDbEntity
  8
0
  6
BYBLOCK
 62
     0
100
AcDbLine
 10
0.0
 20
0.0
 30
0.0
 11
-1.0
 21
0.0
 31
0.0
  0
ENDBLK
  5
599
330
594
100
AcDbEntity
  8
0
100
AcDbBlockEnd
  0
BLOCK
  5
6E4
330
6E3
100
AcDbEntity
  8
0
100
AcDbBlockBegin
  2
矢印なし
 70
     0
 10
0.0
 20
0.0
 30
0.0
  3
矢印なし
  1

  0
ENDBLK
  5
6E5
330
6E3
100
AcDbEntity
  8
0
100
AcDbBlockEnd
  0
BLOCK
  5
CD0
330
CC6
100
AcDbEntity
  8
0
100
AcDbBlockBegin
  2
*D2
 70
     1
 10
0.0
 20
0.0
 30
0.0
  3
*D2
  1

  0
LINE
  5
D36
330
CC6
100
AcDbEntity
  8
250
  6
CONTINUOUS
100
AcDbLine
 10
85.5
 20
-8.0
 30
0.0
 11
99.0
 21
-8.0
 31
0.0
  0
LINE
  5
D37
330
CC6
100
AcDbEntity
  8
250
  6
CONTINUOUS
100
AcDbLine
 10
85.5
 20
8.0
 30
0.0
 11
99.0
 21
8.0
 31
0.0
  0
LINE
  5
D38
330
CC6
100
AcDbEntity
  8
250
  6
CONTINUOUS
100
AcDbLine
 10
98.0
 20
-5.77
 30
0.0
 11
98.0
 21
5.77
 31
0.0
  0
INSERT
  5
D39
330
CC6
100
AcDbEntity
  8
250
  6
CONTINUOUS
100
AcDbBlockReference
  2
_OPEN
 10
98.0
 20
-8.0
 30
0.0
 41
2.23
 42
2.23
 43
2.23
 50
270.0
  0
INSERT
  5
D3A
330
CC6
100
AcDbEntity
  8
250
  6
CONTINUOUS
100
AcDbBlockReference
  2
_OPEN
 10
98.0
 20
8.0
 30
0.0
 41
2.23
 42
2.23
 43
2.23
 50
90.0
  0
MTEXT
  5
D3B
330
CC6
100
AcDbEntity
  8
250
  6
CONTINUOUS
 62
    40
100
AcDbMText
 10
95.6
 20
0.0
 30
0.0
 40
2.8
 41
0.0
 71
     5
 72
     1
  1
\A1;{\H2.8;\U+2205}16
 11
0.0
 21
1.0
 31
0.0
1001
ACAD
1000
MTEXTBEGIN
1070
    73
1070
     1
1070
    44
1040
1.0
1070
    74
1070
     0
1000
MTEXTEND
1000
MTEXTBEGIN
1070
    73
1070
     1
1070
    44
1040
1.0
1070
    74
1070
     0
1000
MTEXTEND
  0
POINT
  5
D3C
330
CC6
100
AcDbEntity
  8
DEFPOINTS
  6
CONTINUOUS
 62
     0
100
AcDbPoint
 10
85.0
 20
-8.0
 30
0.0
  0
POINT
  5
D3D
330
CC6
100
AcDbEntity
  8
DEFPOINTS
  6
CONTINUOUS
 62
     0
100
AcDbPoint
 10
85.0
 20
8.0
 30
0.0
  0
POINT
  5
D3E
330
CC6
100
AcDbEntity
  8
DEFPOINTS
  6
CONTINUOUS
 62
     0
100
AcDbPoint
 10
98.0
 20
8.0
 30
0.0
  0
ENDBLK
  5
CD1
330
CC6
100
AcDbEntity
  8
0
100
AcDbBlockEnd
  0
BLOCK
  5
CDF
330
CD5
100
AcDbEntity
  8
0
100
AcDbBlockBegin
  2
*D3
 70
     1
 10
0.0
 20
0.0
 30
0.0
  3
*D3
  1

  0
LINE
  5
D2D
330
CD5
100
AcDbEntity
  8
250
  6
CONTINUOUS
100
AcDbLine
 10
77.0
 20
8.5
 30
0.0
 11
77.0
 21
29.0
 31
0.0
  0
LINE
  5
D2E
330
CD5
100
AcDbEntity
  8
250
  6
CONTINUOUS
100
AcDbLine
 10
85.0
 20
8.5
 30
0.0
 11
85.0
 21
29.0
 31
0.0
  0
LINE
  5
D2F
330
CD5
100
AcDbEntity
  8
250
  6
CONTINUOUS
100
AcDbLine
 10
79.23
 20
28.0
 30
0.0
 11
82.77
 21
28.0
 31
0.0
  0
INSERT
  5
D30
330
CD5
100
AcDbEntity
  8
250
  6
CONTINUOUS
100
AcDbBlockReference
  2
_OPEN
 10
77.0
 20
28.0
 30
0.0
 41
2.23
 42
2.23
 43
2.23
 50
180.0
  0
INSERT
  5
D31
330
CD5
100
AcDbEntity
  8
250
  6
CONTINUOUS
100
AcDbBlockReference
  2
_OPEN
 10
85.0
 20
28.0
 30
0.0
 41
2.23
 42
2.23
 43
2.23
  0
MTEXT
  5
D32
330
CD5
100
AcDbEntity
  8
250
  6
CONTINUOUS
 62
    40
100
AcDbMText
 10
81.0
 20
30.4
 30
0.0
 40
2.8
 41
0.0
 71
     5
 72
     1
  1
\A1;8
1001
ACAD
1000
MTEXTBEGIN
1070
    73
1070
     1
1070
    44
1040
1.0
1070
    74
1070
     0
1000
MTEXTEND
1000
MTEXTBEGIN
1070
    73
1070
     1
1070
    44
1040
1.0
1070
    74
1070
     0
1000
MTEXTEND
  0
POINT
  5
D33
330
CD5
100
AcDbEntity
  8
DEFPOINTS
  6
CONTINUOUS
 62
     0
100
AcDbPoint
 10
77.0
 20
8.0
 30
0.0
  0
POINT
  5
D34
330
CD5
100
AcDbEntity
  8
DEFPOINTS
  6
CONTINUOUS
 62
     0
100
AcDbPoint
 10
85.0
 20
8.0
 30
0.0
  0
POINT
  5
D35
330
CD5
100
AcDbEntity
  8
DEFPOINTS
  6
CONTINUOUS
 62
     0
100
AcDbPoint
 10
85.0
 20
28.0
 30
0.0
  0
ENDBLK
  5
CE0
330
CD5
100
AcDbEntity
  8
0
100
AcDbBlockEnd
  0
BLOCK
  5
CEE
330
CE4
100
AcDbEntity
  8
0
100
AcDbBlockBegin
  2
*D4
 70
     1
 10
0.0
 20
0.0
 30
0.0
  3
*D4
  1

  0
LINE
  5
D1B
330
CE4
100
AcDbEntity
  8
250
  6
CONTINUOUS
100
AcDbLine
 10
45.0
 20
7.96294179
 30
0.0
 11
45.0
 21
36.0
 31
0.0
  0
LINE
  5
D1C
330
CE4
100
AcDbEntity
  8
250
  6
CONTINUOUS
100
AcDbLine
 10
85.0
 20
8.5
 30
0.0
 11
85.0
 21
36.0
 31
0.0
  0
LINE
  5
D1D
330
CE4
100
AcDbEntity
  8
250
  6
CONTINUOUS
100
AcDbLine
 10
47.23
 20
35.0
 30
0.0
 11
82.77
 21
35.0
 31
0.0
  0
INSERT
  5
D1E
330
CE4
100
AcDbEntity
  8
250
  6
CONTINUOUS
100
AcDbBlockReference
  2
_OPEN
 10
45.0
 20
35.0
 30
0.0
 41
2.23
 42
2.23
 43
2.23
 50
180.0
  0
INSERT
  5
D1F
330
CE4
100
AcDbEntity
  8
250
  6
CONTINUOUS
100
AcDbBlockReference
  2
_OPEN
 10
85.0
 20
35.0
 30
0.0
 41
2.23
 42
2.23
 43
2.23
  0
MTEXT
  5
D20
330
CE4
100
AcDbEntity
  8
250
  6
CONTINUOUS
 62
    40
100
AcDbMText
 10
65.0
 20
37.4
 30
0.0
 40
2.8
 41
0.0
 71
     5
 72
     1
  1
\A1;40
1001
ACAD
1000
MTEXTBEGIN
1070
    73
1070
     1
1070
    44
1040
1.0
1070
    74
1070
     0
1000
MTEXTEND
1000
MTEXTBEGIN
1070
    73
1070
     1
1070
    44
1040
1.0
1070
    74
1070
     0
1000
MTEXTEND
  0
POINT
  5
D21
330
CE4
100
AcDbEntity
  8
DEFPOINTS
  6
CONTINUOUS
 62
     0
100
AcDbPoint
 10
45.0
 20
7.46294179
 30
0.0
  0
POINT
  5
D22
330
CE4
100
AcDbEntity
  8
DEFPOINTS
  6
CONTINUOUS
 62
     0
100
AcDbPoint
 10
85.0
 20
8.0
 30
0.0
  0
POINT
  5
D23
330
CE4
100
AcDbEntity
  8
DEFPOINTS
  6
CONTINUOUS
 62
     0
100
AcDbPoint
 10
85.0
 20
35.0
 30
0.0
  0
ENDBLK
  5
CEF
330
CE4
100
AcDbEntity
  8
0
100
AcDbBlockEnd
  0
BLOCK
  5
CFD
330
CF3
100
AcDbEntity
  8
0
100
AcDbBlockBegin
  2
*D5
 70
     1
 10
0.0
 20
0.0
 30
0.0
  3
*D5
  1

  0
LINE
  5
D24
330
CF3
100
AcDbEntity
  8
250
  6
CONTINUOUS
100
AcDbLine
 10
0.0
 20
31.0
 30
0.0
 11
0.0
 21
43.0
 31
0.0
  0
LINE
  5
D25
330
CF3
100
AcDbEntity
  8
250
  6
CONTINUOUS
100
AcDbLine
 10
85.0
 20
8.5
 30
0.0
 11
85.0
 21
43.0
 31
0.0
  0
LINE
  5
D26
330
CF3
100
AcDbEntity
  8
250
  6
CONTINUOUS
100
AcDbLine
 10
2.23
 20
42.0
 30
0.0
 11
82.77
 21
42.0
 31
0.0
  0
INSERT
  5
D27
330
CF3
100
AcDbEntity
  8
250
  6
CONTINUOUS
100
AcDbBlockReference
  2
_OPEN
 10
0.0
 20
42.0
 30
0.0
 41
2.23
 42
2.23
 43
2.23
 50
180.0
  0
INSERT
  5
D28
330
CF3
100
AcDbEntity
  8
250
  6
CONTINUOUS
100
AcDbBlockReference
  2
_OPEN
 10
85.0
 20
42.0
 30
0.0
 41
2.23
 42
2.23
 43
2.23
  0
MTEXT
  5
D29
330
CF3
100
AcDbEntity
  8
250
  6
CONTINUOUS
 62
    40
100
AcDbMText
 10
42.5
 20
44.4
 30
0.0
 40
2.8
 41
0.0
 71
     5
 72
     1
  1
\A1;85
1001
ACAD
1000
MTEXTBEGIN
1070
    73
1070
     1
1070
    44
1040
1.0
1070
    74
1070
     0
1000
MTEXTEND
1000
MTEXTBEGIN
1070
    73
1070
     1
1070
    44
1040
1.0
1070
    74
1070
     0
1000
MTEXTEND
  0
POINT
  5
D2A
330
CF3
100
AcDbEntity
  8
DEFPOINTS
  6
CONTINUOUS
 62
     0
100
AcDbPoint
 10
0.0
 20
30.5
 30
0.0
  0
POINT
  5
D2B
330
CF3
100
AcDbEntity
  8
DEFPOINTS
  6
CONTINUOUS
 62
     0
100
AcDbPoint
 10
85.0
 20
8.0
 30
0.0
  0
POINT
  5
D2C
330
CF3
100
AcDbEntity
  8
DEFPOINTS
  6
CONTINUOUS
 62
     0
100
AcDbPoint
 10
85.0
 20
42.0
 30
0.0
  0
ENDBLK
  5
CFE
330
CF3
100
AcDbEntity
  8
0
100
AcDbBlockEnd
  0
BLOCK
  5
D40
330
D3F
100
AcDbEntity
  8
0
100
AcDbBlockBegin
  2
1
 70
     0
 10
0.0
 20
0.0
 30
0.0
  3
1
  1

  0
ARC
  5
11B3
330
D3F
100
AcDbEntity
  8
240
100
AcDbCircle
 10
47.05267915
 20
17.25
 30
0.0
 40
10.0
100
AcDbArc
 50
205.55616942
 51
270.0
  0
ARC
  5
11B4
330
D3F
100
AcDbEntity
  8
240
100
AcDbCircle
 10
47.05267915
 20
-17.25
 30
0.0
 40
10.0
100
AcDbArc
 50
90.0
 51
154.44383058
  0
LINE
  5
11B5
330
D3F
100
AcDbEntity
  8
245
100
AcDbLine
 10
-32.0
 20
0.0
 30
0.0
 11
86.0
 21
0.0
 31
0.0
1001
GRPNAME
1000
PASTMD4G
  0
LINE
  5
11B6
330
D3F
100
AcDbEntity
  8
245
  6
CENTER2
100
AcDbLine
 10
18.0
 20
-31.5
 30
0.0
 11
18.0
 21
31.5
 31
0.0
  0
LINE
  5
11B7
330
D3F
100
AcDbEntity
  8
240
  6
CONTINUOUS
100
AcDbLine
 10
0.0
 20
24.215
 30
0.0
 11
0.0
 21
30.5
 31
0.0
  0
LINE
  5
11B8
330
D3F
100
AcDbEntity
  8
241
  6
CONTINUOUS
100
AcDbLine
 10
16.125
 20
8.0
 30
0.0
 11
16.125
 21
27.5
 31
0.0
  0
LINE
  5
11B9
330
D3F
100
AcDbEntity
  8
241
  6
CONTINUOUS
100
AcDbLine
 10
14.62250093
 20
8.0
 30
0.0
 11
14.62250093
 21
31.5
 31
0.0
  0
LINE
  5
11BA
330
D3F
100
AcDbEntity
  8
241
  6
CONTINUOUS
100
AcDbLine
 10
21.37749907
 20
8.0
 30
0.0
 11
21.37749907
 21
31.5
 31
0.0
  0
LINE
  5
11BB
330
D3F
100
AcDbEntity
  8
241
  6
CONTINUOUS
100
AcDbLine
 10
19.875
 20
8.0
 30
0.0
 11
19.875
 21
27.5
 31
0.0
  0
LINE
  5
11BC
330
D3F
100
AcDbEntity
  8
240
  6
CONTINUOUS
100
AcDbLine
 10
26.0
 20
26.3
 30
0.0
 11
26.0
 21
30.5
 31
0.0
  0
LINE
  5
11BD
330
D3F
100
AcDbEntity
  8
240
  6
CONTINUOUS
100
AcDbLine
 10
-2.0
 20
-24.215
 30
0.0
 11
-30.85992514
 21
-22.77200374
 31
0.0
  0
LINE
  5
11BE
330
D3F
100
AcDbEntity
  8
240
  6
CONTINUOUS
100
AcDbLine
 10
-2.0
 20
24.215
 30
0.0
 11
-30.85992514
 21
22.77200374
 31
0.0
  0
LINE
  5
11BF
330
D3F
100
AcDbEntity
  8
240
  6
CONTINUOUS
100
AcDbLine
 10
-31.0
 20
-6.27
 30
0.0
 11
-27.5
 21
-6.27
 31
0.0
  0
LINE
  5
11C0
330
D3F
100
AcDbEntity
  8
240
  6
CONTINUOUS
100
AcDbLine
 10
-31.0
 20
6.27
 30
0.0
 11
-27.5
 21
6.27
 31
0.0
  0
LINE
  5
11C1
330
D3F
100
AcDbEntity
  8
240
  6
CONTINUOUS
100
AcDbLine
 10
-32.0
 20
-21.57350094
 30
0.0
 11
-32.0
 21
-7.27
 31
0.0
  0
ARC
  5
11C2
330
D3F
100
AcDbEntity
  8
240
  6
CONTINUOUS
100
AcDbCircle
 10
-30.8
 20
-21.57350094
 30
0.0
 40
1.199999999999988
100
AcDbArc
 50
180.0
 51
267.13759477
  0
LINE
  5
11C3
330
D3F
100
AcDbEntity
  8
240
  6
CONTINUOUS
100
AcDbLine
 10
-32.0
 20
-7.27
 30
0.0
 11
-31.0
 21
-6.27
 31
0.0
  0
LINE
  5
11C4
330
D3F
100
AcDbEntity
  8
240
  6
CONTINUOUS
100
AcDbLine
 10
-32.0
 20
7.27
 30
0.0
 11
-32.0
 21
21.57350094
 31
0.0
  0
LINE
  5
11C5
330
D3F
100
AcDbEntity
  8
240
  6
CONTINUOUS
100
AcDbLine
 10
-31.0
 20
6.27
 30
0.0
 11
-32.0
 21
7.27
 31
0.0
  0
ARC
  5
11C6
330
D3F
100
AcDbEntity
  8
240
  6
CONTINUOUS
100
AcDbCircle
 10
-30.8
 20
21.57350094
 30
0.0
 40
1.199999999999994
100
AcDbArc
 50
92.86240523
 51
180.0
  0
LINE
  5
11C7
330
D3F
100
AcDbEntity
  8
240
  6
CONTINUOUS
100
AcDbLine
 10
34.0
 20
-25.3
 30
0.0
 11
34.0
 21
-22.5
 31
0.0
  0
LINE
  5
11C8
330
D3F
100
AcDbEntity
  8
241
  6
CONTINUOUS
100
AcDbLine
 10
16.125
 20
-8.0
 30
0.0
 11
16.125
 21
-27.5
 31
0.0
  0
LINE
  5
11C9
330
D3F
100
AcDbEntity
  8
240
  6
CONTINUOUS
100
AcDbLine
 10
0.0
 20
-30.5
 30
0.0
 11
0.0
 21
-24.215
 31
0.0
  0
LINE
  5
11CA
330
D3F
100
AcDbEntity
  8
241
  6
CONTINUOUS
100
AcDbLine
 10
14.62250093
 20
-24.33618705
 30
0.0
 11
14.62250093
 21
-31.5
 31
0.0
  0
LINE
  5
11CB
330
D3F
100
AcDbEntity
  8
241
  6
CONTINUOUS
100
AcDbLine
 10
19.875
 20
-8.0
 30
0.0
 11
19.875
 21
-27.5
 31
0.0
  0
LINE
  5
11CC
330
D3F
100
AcDbEntity
  8
241
  6
CONTINUOUS
100
AcDbLine
 10
21.37749907
 20
-24.33618705
 30
0.0
 11
21.37749907
 21
-31.5
 31
0.0
  0
LINE
  5
11CD
330
D3F
100
AcDbEntity
  8
241
  6
CONTINUOUS
100
AcDbLine
 10
26.5
 20
-25.70500591
 30
0.0
 11
26.5
 21
-7.51828235
 31
0.0
  0
LINE
  5
11CE
330
D3F
100
AcDbEntity
  8
241
  6
CONTINUOUS
100
AcDbLine
 10
26.0
 20
0.0
 30
0.0
 11
26.0
 21
-26.3
 31
0.0
  0
LINE
  5
11CF
330
D3F
100
AcDbEntity
  8
242
  6
CONTINUOUS
100
AcDbLine
 10
26.5
 20
-7.51828235
 30
0.0
 11
33.95512754
 21
-25.59619484
 31
0.0
  0
LINE
  5
11D0
330
D3F
100
AcDbEntity
  8
242
  6
CONTINUOUS
100
AcDbLine
 10
26.5
 20
-25.70500591
 30
0.0
 11
34.0
 21
-7.51828235
 31
0.0
  0
LINE
  5
11D1
330
D3F
100
AcDbEntity
  8
240
  6
CONTINUOUS
100
AcDbLine
 10
1.0
 20
-31.5
 30
0.0
 11
14.62250093
 21
-31.5
 31
0.0
  0
ARC
  5
11D2
330
D3F
100
AcDbEntity
  8
240
  6
CONTINUOUS
100
AcDbCircle
 10
1.0
 20
-30.5
 30
0.0
 40
1.0
100
AcDbArc
 50
180.0
 51
270.0
  0
ARC
  5
11D3
330
D3F
100
AcDbEntity
  8
240
  6
CONTINUOUS
100
AcDbCircle
 10
25.0
 20
-30.5
 30
0.0
 40
1.0
100
AcDbArc
 50
270.0
 51
0.0
  0
LINE
  5
11D4
330
D3F
100
AcDbEntity
  8
240
  6
CONTINUOUS
100
AcDbLine
 10
16.125
 20
-27.5
 30
0.0
 11
19.875
 21
-27.5
 31
0.0
  0
LINE
  5
11D5
330
D3F
100
AcDbEntity
  8
240
  6
CONTINUOUS
100
AcDbLine
 10
16.125
 20
-28.89759526
 30
0.0
 11
14.62250093
 21
-31.5
 31
0.0
  0
LINE
  5
11D6
330
D3F
100
AcDbEntity
  8
240
  6
CONTINUOUS
100
AcDbLine
 10
16.125
 20
-27.5
 30
0.0
 11
16.125
 21
-28.89759526
 31
0.0
  0
LINE
  5
11D7
330
D3F
100
AcDbEntity
  8
240
  6
CONTINUOUS
100
AcDbLine
 10
19.875
 20
-28.89759526
 30
0.0
 11
21.37749907
 21
-31.5
 31
0.0
  0
LINE
  5
11D8
330
D3F
100
AcDbEntity
  8
240
  6
CONTINUOUS
100
AcDbLine
 10
21.37749907
 20
-31.5
 30
0.0
 11
25.0
 21
-31.5
 31
0.0
  0
LINE
  5
11D9
330
D3F
100
AcDbEntity
  8
240
  6
CONTINUOUS
100
AcDbLine
 10
19.875
 20
-27.5
 30
0.0
 11
19.875
 21
-28.89759526
 31
0.0
  0
LINE
  5
11DA
330
D3F
100
AcDbEntity
  8
240
  6
CONTINUOUS
100
AcDbLine
 10
26.0
 20
-26.3
 30
0.0
 11
33.0
 21
-26.3
 31
0.0
  0
LINE
  5
11DB
330
D3F
100
AcDbEntity
  8
241
  6
CONTINUOUS
100
AcDbLine
 10
26.5
 20
-25.70500591
 30
0.0
 11
33.91431406
 21
-25.70500591
 31
0.0
  0
LINE
  5
11DC
330
D3F
100
AcDbEntity
  8
240
  6
CONTINUOUS
100
AcDbLine
 10
26.0
 20
-30.5
 30
0.0
 11
26.0
 21
-26.3
 31
0.0
  0
ARC
  5
11DD
330
D3F
100
AcDbEntity
  8
240
  6
CONTINUOUS
100
AcDbCircle
 10
33.0
 20
-25.3
 30
0.0
 40
1.0
100
AcDbArc
 50
270.0
 51
0.0
  0
ARC
  5
11DE
330
D3F
100
AcDbEntity
  8
241
  6
CONTINUOUS
100
AcDbCircle
 10
12.1117139
 20
-28.0
 30
0.0
 40
8.0
100
AcDbArc
 50
90.0
 51
152.74338069
  0
LINE
  5
11DF
330
D3F
100
AcDbEntity
  8
241
  6
CONTINUOUS
100
AcDbLine
 10
5.0
 20
-24.33618705
 30
0.0
 11
14.62250093
 21
-24.33618705
 31
0.0
  0
ARC
  5
11E0
330
D3F
100
AcDbEntity
  8
241
  6
CONTINUOUS
100
AcDbCircle
 10
13.0
 20
0.0
 30
0.0
 40
8.0
100
AcDbArc
 50
90.0
 51
180.0
  0
ARC
  5
11E1
330
D3F
100
AcDbEntity
  8
241
  6
CONTINUOUS
100
AcDbCircle
 10
13.0
 20
0.0
 30
0.0
 40
8.0
100
AcDbArc
 50
180.0
 51
270.0
  0
LINE
  5
11E2
330
D3F
100
AcDbEntity
  8
241
  6
CONTINUOUS
100
AcDbLine
 10
-2.0
 20
24.215
 30
0.0
 11
-2.0
 21
0.0
 31
0.0
  0
LINE
  5
11E3
330
D3F
100
AcDbEntity
  8
241
100
AcDbLine
 10
0.0
 20
24.215
 30
0.0
 11
0.0
 21
0.0
 31
0.0
  0
LINE
  5
11E4
330
D3F
100
AcDbEntity
  8
241
  6
HIDDEN2
100
AcDbLine
 10
-22.0
 20
4.77
 30
0.0
 11
-22.0
 21
0.0
 31
0.0
  0
LINE
  5
11E5
330
D3F
100
AcDbEntity
  8
240
  6
CONTINUOUS
100
AcDbLine
 10
-26.0
 20
4.77
 30
0.0
 11
-26.0
 21
0.0
 31
0.0
  0
CIRCLE
  5
11E6
330
D3F
100
AcDbEntity
  8
241
  6
CONTINUOUS
100
AcDbCircle
 10
-9.0
 20
0.0
 30
0.0
 40
3.75
  0
LINE
  5
11E7
330
D3F
100
AcDbEntity
  8
245
  6
CENTER2
100
AcDbLine
 10
-9.0
 20
-4.75
 30
0.0
 11
-9.0
 21
4.75
 31
0.0
  0
ARC
  5
11E8
330
D3F
100
AcDbEntity
  8
240
  6
CONTINUOUS
100
AcDbCircle
 10
-27.5
 20
-4.77
 30
0.0
 40
1.499999999999985
100
AcDbArc
 50
270.0
 51
0.0
  0
ARC
  5
11E9
330
D3F
100
AcDbEntity
  8
241
  6
HIDDEN2
100
AcDbCircle
 10
-23.5
 20
-4.77
 30
0.0
 40
1.499999999999985
100
AcDbArc
 50
270.0
 51
0.0
  0
LINE
  5
11EA
330
D3F
100
AcDbEntity
  8
241
  6
HIDDEN2
100
AcDbLine
 10
-27.5
 20
-6.27
 30
0.0
 11
-23.5
 21
-6.27
 31
0.0
  0
LINE
  5
11EB
330
D3F
100
AcDbEntity
  8
240
  6
CONTINUOUS
100
AcDbLine
 10
-26.0
 20
-4.77
 30
0.0
 11
-26.0
 21
0.0
 31
0.0
  0
LINE
  5
11EC
330
D3F
100
AcDbEntity
  8
241
  6
HIDDEN2
100
AcDbLine
 10
-22.0
 20
-4.77
 30
0.0
 11
-22.0
 21
0.0
 31
0.0
  0
LINE
  5
11ED
330
D3F
100
AcDbEntity
  8
241
100
AcDbLine
 10
0.0
 20
-24.215
 30
0.0
 11
0.0
 21
0.0
 31
0.0
  0
LINE
  5
11EE
330
D3F
100
AcDbEntity
  8
241
  6
CONTINUOUS
100
AcDbLine
 10
-2.0
 20
-24.215
 30
0.0
 11
-2.0
 21
0.0
 31
0.0
  0
LINE
  5
11EF
330
D3F
100
AcDbEntity
  8
240
100
AcDbLine
 10
-2.0
 20
-24.215
 30
0.0
 11
0.0
 21
-24.215
 31
0.0
  0
LINE
  5
11F0
330
D3F
100
AcDbEntity
  8
241
  6
HIDDEN2
100
AcDbLine
 10
-27.5
 20
6.27
 30
0.0
 11
-23.5
 21
6.27
 31
0.0
  0
ARC
  5
11F1
330
D3F
100
AcDbEntity
  8
240
  6
CONTINUOUS
100
AcDbCircle
 10
-27.5
 20
4.77
 30
0.0
 40
1.5
100
AcDbArc
 50
0.0
 51
90.0
  0
ARC
  5
11F2
330
D3F
100
AcDbEntity
  8
241
  6
HIDDEN2
100
AcDbCircle
 10
-23.5
 20
4.77
 30
0.0
 40
1.5
100
AcDbArc
 50
0.0
 51
90.0
  0
LINE
  5
11F3
330
D3F
100
AcDbEntity
  8
240
100
AcDbLine
 10
-2.0
 20
24.215
 30
0.0
 11
0.0
 21
24.215
 31
0.0
  0
LINE
  5
11F4
330
D3F
100
AcDbEntity
  8
241
  6
CONTINUOUS
100
AcDbLine
 10
43.21848471
 20
8.01425677
 30
0.0
 11
43.21848471
 21
0.0
 31
0.0
1001
GRPNAME
1000
PASTMD01
  0
LINE
  5
11F5
330
D3F
100
AcDbEntity
  8
241
  6
CONTINUOUS
100
AcDbLine
 10
42.09451135
 20
8.56572846
 30
0.0
 11
42.09451135
 21
0.0
 31
0.0
1001
GRPNAME
1000
PASTMD01
  0
LINE
  5
11F6
330
D3F
100
AcDbEntity
  8
241
100
AcDbLine
 10
40.75
 20
0.0
 30
0.0
 11
40.75
 21
7.25
 31
0.0
  0
LINE
  5
11F7
330
D3F
100
AcDbEntity
  8
241
  6
CONTINUOUS
100
AcDbLine
 10
38.63474761
 20
11.85199805
 30
0.0
 11
38.63474761
 21
0.0
 31
0.0
1001
GRPNAME
1000
PASTMD01
  0
LINE
  5
11F8
330
D3F
100
AcDbEntity
  8
241
  6
CONTINUOUS
100
AcDbLine
 10
38.01361086
 20
12.96411256
 30
0.0
 11
38.01361086
 21
0.0
 31
0.0
1001
GRPNAME
1000
PASTMD01
  0
LINE
  5
11F9
330
D3F
100
AcDbEntity
  8
241
100
AcDbLine
 10
34.0
 20
22.5
 30
0.0
 11
34.0
 21
0.0
 31
0.0
  0
LINE
  5
11FA
330
D3F
100
AcDbEntity
  8
241
  6
CONTINUOUS
100
AcDbLine
 10
26.0
 20
0.0
 30
0.0
 11
26.0
 21
26.3
 31
0.0
  0
LINE
  5
11FB
330
D3F
100
AcDbEntity
  8
241
  6
CONTINUOUS
100
AcDbLine
 10
13.0
 20
-8.0
 30
0.0
 11
26.0
 21
-8.0
 31
0.0
  0
LINE
  5
11FC
330
D3F
100
AcDbEntity
  8
241
  6
CONTINUOUS
100
AcDbLine
 10
21.37749907
 20
-24.33618705
 30
0.0
 11
26.0
 21
-24.33618705
 31
0.0
  0
LINE
  5
11FD
330
D3F
100
AcDbEntity
  8
241
  6
CONTINUOUS
100
AcDbLine
 10
19.875
 20
-20.0
 30
0.0
 11
26.0
 21
-20.0
 31
0.0
  0
LINE
  5
11FE
330
D3F
100
AcDbEntity
  8
241
  6
CONTINUOUS
100
AcDbLine
 10
14.62250093
 20
-8.0
 30
0.0
 11
14.62250093
 21
-20.0
 31
0.0
  0
LINE
  5
11FF
330
D3F
100
AcDbEntity
  8
241
  6
CONTINUOUS
100
AcDbLine
 10
21.37749907
 20
-8.0
 30
0.0
 11
21.37749907
 21
-20.0
 31
0.0
  0
LINE
  5
1200
330
D3F
100
AcDbEntity
  8
241
  6
CONTINUOUS
100
AcDbLine
 10
14.62250093
 20
-24.33618705
 30
0.0
 11
16.125
 21
-20.85835593
 31
0.0
  0
LINE
  5
1201
330
D3F
100
AcDbEntity
  8
241
  6
CONTINUOUS
100
AcDbLine
 10
12.1117139
 20
-20.0
 30
0.0
 11
16.125
 21
-20.0
 31
0.0
  0
LINE
  5
1202
330
D3F
100
AcDbEntity
  8
241
  6
CONTINUOUS
100
AcDbLine
 10
21.37749907
 20
-24.33618705
 30
0.0
 11
19.875
 21
-20.85835593
 31
0.0
  0
LINE
  5
1203
330
D3F
100
AcDbEntity
  8
241
  6
CONTINUOUS
100
AcDbLine
 10
38.01361086
 20
-12.96411256
 30
0.0
 11
38.01361086
 21
0.0
 31
0.0
1001
GRPNAME
1000
PASTMD01
  0
LINE
  5
1204
330
D3F
100
AcDbEntity
  8
241
  6
CONTINUOUS
100
AcDbLine
 10
38.63474761
 20
-11.85199805
 30
0.0
 11
38.63474761
 21
0.0
 31
0.0
1001
GRPNAME
1000
PASTMD01
  0
LINE
  5
1205
330
D3F
100
AcDbEntity
  8
241
100
AcDbLine
 10
34.0
 20
-22.5
 30
0.0
 11
34.0
 21
0.0
 31
0.0
  0
LINE
  5
1206
330
D3F
100
AcDbEntity
  8
240
100
AcDbLine
 10
38.03105112
 20
-12.93604269
 30
0.0
 11
34.48918599
 21
-20.34302134
 31
0.0
  0
ARC
  5
1207
330
D3F
100
AcDbEntity
  8
240
100
AcDbCircle
 10
39.0
 20
-22.5
 30
0.0
 40
5.0
100
AcDbArc
 50
154.45581023
 51
180.0
  0
LINE
  5
1208
330
D3F
100
AcDbEntity
  8
241
  6
CONTINUOUS
100
AcDbLine
 10
26.5
 20
-7.51828235
 30
0.0
 11
34.0
 21
-7.51828235
 31
0.0
  0
LINE
  5
1209
330
D3F
100
AcDbEntity
  8
241
100
AcDbLine
 10
40.75
 20
0.0
 30
0.0
 11
40.75
 21
-7.25
 31
0.0
  0
LINE
  5
120A
330
D3F
100
AcDbEntity
  8
241
  6
CONTINUOUS
100
AcDbLine
 10
42.09451135
 20
-8.56572846
 30
0.0
 11
42.09451135
 21
0.0
 31
0.0
1001
GRPNAME
1000
PASTMD01
  0
LINE
  5
120B
330
D3F
100
AcDbEntity
  8
241
  6
CONTINUOUS
100
AcDbLine
 10
43.21848471
 20
-8.01425677
 30
0.0
 11
43.21848471
 21
0.0
 31
0.0
1001
GRPNAME
1000
PASTMD01
  0
LINE
  5
120C
330
D3F
100
AcDbEntity
  8
241
  6
CONTINUOUS
100
AcDbLine
 10
13.0
 20
8.0
 30
0.0
 11
26.0
 21
8.0
 31
0.0
  0
LINE
  5
120D
330
D3F
100
AcDbEntity
  8
240
100
AcDbLine
 10
38.03105112
 20
12.93604269
 30
0.0
 11
34.48918599
 21
20.34302134
 31
0.0
  0
ARC
  5
120E
330
D3F
100
AcDbEntity
  8
240
100
AcDbCircle
 10
39.0
 20
22.5
 30
0.0
 40
5.0
100
AcDbArc
 50
180.0
 51
205.55615182
  0
LINE
  5
120F
330
D3F
100
AcDbEntity
  8
240
  6
CONTINUOUS
100
AcDbLine
 10
26.0
 20
26.3
 30
0.0
 11
33.0
 21
26.3
 31
0.0
  0
LINE
  5
1210
330
D3F
100
AcDbEntity
  8
240
  6
CONTINUOUS
100
AcDbLine
 10
34.0
 20
22.5
 30
0.0
 11
34.0
 21
25.3
 31
0.0
  0
ARC
  5
1211
330
D3F
100
AcDbEntity
  8
240
  6
CONTINUOUS
100
AcDbCircle
 10
33.0
 20
25.3
 30
0.0
 40
1.0
100
AcDbArc
 50
0.0
 51
90.0
  0
LINE
  5
1212
330
D3F
100
AcDbEntity
  8
240
  6
CONTINUOUS
100
AcDbLine
 10
1.0
 20
31.5
 30
0.0
 11
14.62250093
 21
31.5
 31
0.0
  0
ARC
  5
1213
330
D3F
100
AcDbEntity
  8
240
  6
CONTINUOUS
100
AcDbCircle
 10
1.0
 20
30.5
 30
0.0
 40
1.0
100
AcDbArc
 50
90.0
 51
180.0
  0
ARC
  5
1214
330
D3F
100
AcDbEntity
  8
240
  6
CONTINUOUS
100
AcDbCircle
 10
25.0
 20
30.5
 30
0.0
 40
1.0
100
AcDbArc
 50
0.0
 51
90.0
  0
LINE
  5
1215
330
D3F
100
AcDbEntity
  8
240
  6
CONTINUOUS
100
AcDbLine
 10
16.125
 20
27.5
 30
0.0
 11
19.875
 21
27.5
 31
0.0
  0
LINE
  5
1216
330
D3F
100
AcDbEntity
  8
240
  6
CONTINUOUS
100
AcDbLine
 10
16.125
 20
28.89759526
 30
0.0
 11
14.62250093
 21
31.5
 31
0.0
  0
LINE
  5
1217
330
D3F
100
AcDbEntity
  8
240
  6
CONTINUOUS
100
AcDbLine
 10
16.125
 20
27.5
 30
0.0
 11
16.125
 21
28.89759526
 31
0.0
  0
LINE
  5
1218
330
D3F
100
AcDbEntity
  8
240
  6
CONTINUOUS
100
AcDbLine
 10
19.875
 20
28.89759526
 30
0.0
 11
21.37749907
 21
31.5
 31
0.0
  0
LINE
  5
1219
330
D3F
100
AcDbEntity
  8
240
  6
CONTINUOUS
100
AcDbLine
 10
19.875
 20
27.5
 30
0.0
 11
19.875
 21
28.89759526
 31
0.0
  0
LINE
  5
121A
330
D3F
100
AcDbEntity
  8
240
  6
CONTINUOUS
100
AcDbLine
 10
21.37749907
 20
31.5
 30
0.0
 11
25.0
 21
31.5
 31
0.0
  0
LINE
  5
121B
330
D3F
100
AcDbEntity
  8
241
100
AcDbLine
 10
73.96385985
 20
0.29682651
 30
0.0
 11
84.25
 21
-3.44702232
 31
0.0
  0
LINE
  5
121C
330
D3F
100
AcDbEntity
  8
241
100
AcDbLine
 10
75.19330642
 20
2.42629043
 30
0.0
 11
84.19615249
 21
0.83884577
 31
0.0
  0
LINE
  5
121D
330
D3F
100
AcDbEntity
  8
241
100
AcDbLine
 10
68.363904
 20
-4.31821439
 30
0.0
 11
84.25
 21
-7.23344519
 31
0.0
  0
LINE
  5
121E
330
D3F
100
AcDbEntity
  8
240
100
AcDbLine
 10
84.25
 20
-7.39776704
 30
0.0
 11
75.19330643
 21
-7.6
 31
0.0
  0
LINE
  5
121F
330
D3F
100
AcDbEntity
  8
240
100
AcDbLine
 10
84.25
 20
7.39776704
 30
0.0
 11
75.19330643
 21
7.6
 31
0.0
  0
LINE
  5
1220
330
D3F
100
AcDbEntity
  8
246
100
AcDbLine
 10
85.0
 20
8.0
 30
0.0
 11
77.0
 21
8.0
 31
0.0
1001
GRPNAME
1000
PASTMD4G
  0
LINE
  5
1221
330
D3F
100
AcDbEntity
  8
246
100
AcDbLine
 10
85.0
 20
-8.0
 30
0.0
 11
77.0
 21
-8.0
 31
0.0
1001
GRPNAME
1000
PASTMD4G
  0
POLYLINE
  5
1222
330
D3F
100
AcDbEntity
  8
241
100
AcDb3dPolyline
 66
     1
 10
0.0
 20
0.0
 30
0.0
 70
     8
  0
VERTEX
  5
1223
330
1222
100
AcDbEntity
  8
241
100
AcDbVertex
100
AcDb3dPolylineVertex
 10
78.5983
 20
5.90613
 30
0.0
 70
    32
  0
VERTEX
  5
1224
330
1222
100
AcDbEntity
  8
241
100
AcDbVertex
100
AcDb3dPolylineVertex
 10
78.5939
 20
5.87893
 30
0.0
 70
    32
  0
VERTEX
  5
1225
330
1222
100
AcDbEntity
  8
241
100
AcDbVertex
100
AcDb3dPolylineVertex
 10
78.5903
 20
5.85161
 30
0.0
 70
    32
  0
VERTEX
  5
1226
330
1222
100
AcDbEntity
  8
241
100
AcDbVertex
100
AcDb3dPolylineVertex
 10
78.5876
 20
5.82419
 30
0.0
 70
    32
  0
VERTEX
  5
1227
330
1222
100
AcDbEntity
  8
241
100
AcDbVertex
100
AcDb3dPolylineVertex
 10
78.5856
 20
5.79666
 30
0.0
 70
    32
  0
VERTEX
  5
1228
330
1222
100
AcDbEntity
  8
241
100
AcDbVertex
100
AcDb3dPolylineVertex
 10
78.5844
 20
5.76907
 30
0.0
 70
    32
  0
VERTEX
  5
1229
330
1222
100
AcDbEntity
  8
241
100
AcDbVertex
100
AcDb3dPolylineVertex
 10
78.5841
 20
5.74141
 30
0.0
 70
    32
  0
VERTEX
  5
122A
330
1222
100
AcDbEntity
  8
241
100
AcDbVertex
100
AcDb3dPolylineVertex
 10
78.5846
 20
5.71372
 30
0.0
 70
    32
  0
VERTEX
  5
122B
330
1222
100
AcDbEntity
  8
241
100
AcDbVertex
100
AcDb3dPolylineVertex
 10
78.5858
 20
5.68599
 30
0.0
 70
    32
  0
VERTEX
  5
122C
330
1222
100
AcDbEntity
  8
241
100
AcDbVertex
100
AcDb3dPolylineVertex
 10
78.5879
 20
5.65826
 30
0.0
 70
    32
  0
VERTEX
  5
122D
330
1222
100
AcDbEntity
  8
241
100
AcDbVertex
100
AcDb3dPolylineVertex
 10
78.5908
 20
5.63054
 30
0.0
 70
    32
  0
VERTEX
  5
122E
330
1222
100
AcDbEntity
  8
241
100
AcDbVertex
100
AcDb3dPolylineVertex
 10
78.5945
 20
5.60284
 30
0.0
 70
    32
  0
VERTEX
  5
122F
330
1222
100
AcDbEntity
  8
241
100
AcDbVertex
100
AcDb3dPolylineVertex
 10
78.599
 20
5.57519
 30
0.0
 70
    32
  0
VERTEX
  5
1230
330
1222
100
AcDbEntity
  8
241
100
AcDbVertex
100
AcDb3dPolylineVertex
 10
78.6043
 20
5.54759
 30
0.0
 70
    32
  0
VERTEX
  5
1231
330
1222
100
AcDbEntity
  8
241
100
AcDbVertex
100
AcDb3dPolylineVertex
 10
78.6104
 20
5.52007
 30
0.0
 70
    32
  0
VERTEX
  5
1232
330
1222
100
AcDbEntity
  8
241
100
AcDbVertex
100
AcDb3dPolylineVertex
 10
78.6172
 20
5.49263
 30
0.0
 70
    32
  0
VERTEX
  5
1233
330
1222
100
AcDbEntity
  8
241
100
AcDbVertex
100
AcDb3dPolylineVertex
 10
78.6249
 20
5.46531
 30
0.0
 70
    32
  0
VERTEX
  5
1234
330
1222
100
AcDbEntity
  8
241
100
AcDbVertex
100
AcDb3dPolylineVertex
 10
78.6334
 20
5.43811
 30
0.0
 70
    32
  0
VERTEX
  5
1235
330
1222
100
AcDbEntity
  8
241
100
AcDbVertex
100
AcDb3dPolylineVertex
 10
78.6426
 20
5.41105
 30
0.0
 70
    32
  0
VERTEX
  5
1236
330
1222
100
AcDbEntity
  8
241
100
AcDbVertex
100
AcDb3dPolylineVertex
 10
78.6526
 20
5.38415
 30
0.0
 70
    32
  0
VERTEX
  5
1237
330
1222
100
AcDbEntity
  8
241
100
AcDbVertex
100
AcDb3dPolylineVertex
 10
78.6634
 20
5.35742
 30
0.0
 70
    32
  0
VERTEX
  5
1238
330
1222
100
AcDbEntity
  8
241
100
AcDbVertex
100
AcDb3dPolylineVertex
 10
78.675
 20
5.33088
 30
0.0
 70
    32
  0
VERTEX
  5
1239
330
1222
100
AcDbEntity
  8
241
100
AcDbVertex
100
AcDb3dPolylineVertex
 10
78.6873
 20
5.30455
 30
0.0
 70
    32
  0
VERTEX
  5
123A
330
1222
100
AcDbEntity
  8
241
100
AcDbVertex
100
AcDb3dPolylineVertex
 10
78.7003
 20
5.27843
 30
0.0
 70
    32
  0
VERTEX
  5
123B
330
1222
100
AcDbEntity
  8
241
100
AcDbVertex
100
AcDb3dPolylineVertex
 10
78.7141
 20
5.25256
 30
0.0
 70
    32
  0
VERTEX
  5
123C
330
1222
100
AcDbEntity
  8
241
100
AcDbVertex
100
AcDb3dPolylineVertex
 10
78.7286
 20
5.22693
 30
0.0
 70
    32
  0
VERTEX
  5
123D
330
1222
100
AcDbEntity
  8
241
100
AcDbVertex
100
AcDb3dPolylineVertex
 10
78.7438
 20
5.20158
 30
0.0
 70
    32
  0
VERTEX
  5
123E
330
1222
100
AcDbEntity
  8
241
100
AcDbVertex
100
AcDb3dPolylineVertex
 10
78.7598
 20
5.1765
 30
0.0
 70
    32
  0
VERTEX
  5
123F
330
1222
100
AcDbEntity
  8
241
100
AcDbVertex
100
AcDb3dPolylineVertex
 10
78.7764
 20
5.15173
 30
0.0
 70
    32
  0
VERTEX
  5
1240
330
1222
100
AcDbEntity
  8
241
100
AcDbVertex
100
AcDb3dPolylineVertex
 10
78.7938
 20
5.12727
 30
0.0
 70
    32
  0
VERTEX
  5
1241
330
1222
100
AcDbEntity
  8
241
100
AcDbVertex
100
AcDb3dPolylineVertex
 10
78.8118
 20
5.10314
 30
0.0
 70
    32
  0
VERTEX
  5
1242
330
1222
100
AcDbEntity
  8
241
100
AcDbVertex
100
AcDb3dPolylineVertex
 10
78.8305
 20
5.07934
 30
0.0
 70
    32
  0
VERTEX
  5
1243
330
1222
100
AcDbEntity
  8
241
100
AcDbVertex
100
AcDb3dPolylineVertex
 10
78.8499
 20
5.05591
 30
0.0
 70
    32
  0
VERTEX
  5
1244
330
1222
100
AcDbEntity
  8
241
100
AcDbVertex
100
AcDb3dPolylineVertex
 10
78.8699
 20
5.03285
 30
0.0
 70
    32
  0
VERTEX
  5
1245
330
1222
100
AcDbEntity
  8
241
100
AcDbVertex
100
AcDb3dPolylineVertex
 10
78.8906
 20
5.01017
 30
0.0
 70
    32
  0
VERTEX
  5
1246
330
1222
100
AcDbEntity
  8
241
100
AcDbVertex
100
AcDb3dPolylineVertex
 10
78.9118
 20
4.98789
 30
0.0
 70
    32
  0
VERTEX
  5
1247
330
1222
100
AcDbEntity
  8
241
100
AcDbVertex
100
AcDb3dPolylineVertex
 10
78.9337
 20
4.96602
 30
0.0
 70
    32
  0
VERTEX
  5
1248
330
1222
100
AcDbEntity
  8
241
100
AcDbVertex
100
AcDb3dPolylineVertex
 10
78.9562
 20
4.94458
 30
0.0
 70
    32
  0
VERTEX
  5
1249
330
1222
100
AcDbEntity
  8
241
100
AcDbVertex
100
AcDb3dPolylineVertex
 10
78.9793
 20
4.92357
 30
0.0
 70
    32
  0
VERTEX
  5
124A
330
1222
100
AcDbEntity
  8
241
100
AcDbVertex
100
AcDb3dPolylineVertex
 10
79.0029
 20
4.90302
 30
0.0
 70
    32
  0
VERTEX
  5
124B
330
1222
100
AcDbEntity
  8
241
100
AcDbVertex
100
AcDb3dPolylineVertex
 10
79.0271
 20
4.88293
 30
0.0
 70
    32
  0
VERTEX
  5
124C
330
1222
100
AcDbEntity
  8
241
100
AcDbVertex
100
AcDb3dPolylineVertex
 10
79.0519
 20
4.86331
 30
0.0
 70
    32
  0
VERTEX
  5
124D
330
1222
100
AcDbEntity
  8
241
100
AcDbVertex
100
AcDb3dPolylineVertex
 10
79.0771
 20
4.84419
 30
0.0
 70
    32
  0
VERTEX
  5
124E
330
1222
100
AcDbEntity
  8
241
100
AcDbVertex
100
AcDb3dPolylineVertex
 10
79.1029
 20
4.82555
 30
0.0
 70
    32
  0
VERTEX
  5
124F
330
1222
100
AcDbEntity
  8
241
100
AcDbVertex
100
AcDb3dPolylineVertex
 10
79.1292
 20
4.80743
 30
0.0
 70
    32
  0
VERTEX
  5
1250
330
1222
100
AcDbEntity
  8
241
100
AcDbVertex
100
AcDb3dPolylineVertex
 10
79.156
 20
4.78983
 30
0.0
 70
    32
  0
VERTEX
  5
1251
330
1222
100
AcDbEntity
  8
241
100
AcDbVertex
100
AcDb3dPolylineVertex
 10
79.1832
 20
4.77276
 30
0.0
 70
    32
  0
VERTEX
  5
1252
330
1222
100
AcDbEntity
  8
241
100
AcDbVertex
100
AcDb3dPolylineVertex
 10
79.2109
 20
4.75624
 30
0.0
 70
    32
  0
VERTEX
  5
1253
330
1222
100
AcDbEntity
  8
241
100
AcDbVertex
100
AcDb3dPolylineVertex
 10
79.239
 20
4.74026
 30
0.0
 70
    32
  0
VERTEX
  5
1254
330
1222
100
AcDbEntity
  8
241
100
AcDbVertex
100
AcDb3dPolylineVertex
 10
79.2675
 20
4.72485
 30
0.0
 70
    32
  0
VERTEX
  5
1255
330
1222
100
AcDbEntity
  8
241
100
AcDbVertex
100
AcDb3dPolylineVertex
 10
79.2964
 20
4.71
 30
0.0
 70
    32
  0
VERTEX
  5
1256
330
1222
100
AcDbEntity
  8
241
100
AcDbVertex
100
AcDb3dPolylineVertex
 10
79.3257
 20
4.69574
 30
0.0
 70
    32
  0
VERTEX
  5
1257
330
1222
100
AcDbEntity
  8
241
100
AcDbVertex
100
AcDb3dPolylineVertex
 10
79.3554
 20
4.68206
 30
0.0
 70
    32
  0
VERTEX
  5
1258
330
1222
100
AcDbEntity
  8
241
100
AcDbVertex
100
AcDb3dPolylineVertex
 10
79.3854
 20
4.66898
 30
0.0
 70
    32
  0
VERTEX
  5
1259
330
1222
100
AcDbEntity
  8
241
100
AcDbVertex
100
AcDb3dPolylineVertex
 10
79.4157
 20
4.6565
 30
0.0
 70
    32
  0
VERTEX
  5
125A
330
1222
100
AcDbEntity
  8
241
100
AcDbVertex
100
AcDb3dPolylineVertex
 10
79.4463
 20
4.64463
 30
0.0
 70
    32
  0
VERTEX
  5
125B
330
1222
100
AcDbEntity
  8
241
100
AcDbVertex
100
AcDb3dPolylineVertex
 10
79.4773
 20
4.63339
 30
0.0
 70
    32
  0
VERTEX
  5
125C
330
1222
100
AcDbEntity
  8
241
100
AcDbVertex
100
AcDb3dPolylineVertex
 10
79.5085
 20
4.62277
 30
0.0
 70
    32
  0
VERTEX
  5
125D
330
1222
100
AcDbEntity
  8
241
100
AcDbVertex
100
AcDb3dPolylineVertex
 10
79.5399
 20
4.61278
 30
0.0
 70
    32
  0
VERTEX
  5
125E
330
1222
100
AcDbEntity
  8
241
100
AcDbVertex
100
AcDb3dPolylineVertex
 10
79.5716
 20
4.60342
 30
0.0
 70
    32
  0
VERTEX
  5
125F
330
1222
100
AcDbEntity
  8
241
100
AcDbVertex
100
AcDb3dPolylineVertex
 10
79.6035
 20
4.59472
 30
0.0
 70
    32
  0
VERTEX
  5
1260
330
1222
100
AcDbEntity
  8
241
100
AcDbVertex
100
AcDb3dPolylineVertex
 10
79.6356
 20
4.58666
 30
0.0
 70
    32
  0
VERTEX
  5
1261
330
1222
100
AcDbEntity
  8
241
100
AcDbVertex
100
AcDb3dPolylineVertex
 10
79.6679
 20
4.57925
 30
0.0
 70
    32
  0
VERTEX
  5
1262
330
1222
100
AcDbEntity
  8
241
100
AcDbVertex
100
AcDb3dPolylineVertex
 10
79.7003
 20
4.5725
 30
0.0
 70
    32
  0
VERTEX
  5
1263
330
1222
100
AcDbEntity
  8
241
100
AcDbVertex
100
AcDb3dPolylineVertex
 10
79.7329
 20
4.56642
 30
0.0
 70
    32
  0
VERTEX
  5
1264
330
1222
100
AcDbEntity
  8
241
100
AcDbVertex
100
AcDb3dPolylineVertex
 10
79.7656
 20
4.561
 30
0.0
 70
    32
  0
VERTEX
  5
1265
330
1222
100
AcDbEntity
  8
241
100
AcDbVertex
100
AcDb3dPolylineVertex
 10
79.7984
 20
4.55624
 30
0.0
 70
    32
  0
VERTEX
  5
1266
330
1222
100
AcDbEntity
  8
241
100
AcDbVertex
100
AcDb3dPolylineVertex
 10
79.8312
 20
4.55216
 30
0.0
 70
    32
  0
VERTEX
  5
1267
330
1222
100
AcDbEntity
  8
241
100
AcDbVertex
100
AcDb3dPolylineVertex
 10
79.8642
 20
4.54876
 30
0.0
 70
    32
  0
VERTEX
  5
1268
330
1222
100
AcDbEntity
  8
241
100
AcDbVertex
100
AcDb3dPolylineVertex
 10
79.8971
 20
4.54603
 30
0.0
 70
    32
  0
VERTEX
  5
1269
330
1222
100
AcDbEntity
  8
241
100
AcDbVertex
100
AcDb3dPolylineVertex
 10
79.9301
 20
4.54398
 30
0.0
 70
    32
  0
VERTEX
  5
126A
330
1222
100
AcDbEntity
  8
241
100
AcDbVertex
100
AcDb3dPolylineVertex
 10
79.9631
 20
4.54261
 30
0.0
 70
    32
  0
VERTEX
  5
126B
330
1222
100
AcDbEntity
  8
241
100
AcDbVertex
100
AcDb3dPolylineVertex
 10
79.996
 20
4.54192
 30
0.0
 70
    32
  0
VERTEX
  5
126C
330
1222
100
AcDbEntity
  8
241
100
AcDbVertex
100
AcDb3dPolylineVertex
 10
80.0289
 20
4.54191
 30
0.0
 70
    32
  0
VERTEX
  5
126D
330
1222
100
AcDbEntity
  8
241
100
AcDbVertex
100
AcDb3dPolylineVertex
 10
80.0618
 20
4.54258
 30
0.0
 70
    32
  0
VERTEX
  5
126E
330
1222
100
AcDbEntity
  8
241
100
AcDbVertex
100
AcDb3dPolylineVertex
 10
80.0946
 20
4.54393
 30
0.0
 70
    32
  0
VERTEX
  5
126F
330
1222
100
AcDbEntity
  8
241
100
AcDbVertex
100
AcDb3dPolylineVertex
 10
80.1272
 20
4.54596
 30
0.0
 70
    32
  0
VERTEX
  5
1270
330
1222
100
AcDbEntity
  8
241
100
AcDbVertex
100
AcDb3dPolylineVertex
 10
80.1598
 20
4.54867
 30
0.0
 70
    32
  0
VERTEX
  5
1271
330
1222
100
AcDbEntity
  8
241
100
AcDbVertex
100
AcDb3dPolylineVertex
 10
80.1922
 20
4.55205
 30
0.0
 70
    32
  0
VERTEX
  5
1272
330
1222
100
AcDbEntity
  8
241
100
AcDbVertex
100
AcDb3dPolylineVertex
 10
80.2244
 20
4.55611
 30
0.0
 70
    32
  0
VERTEX
  5
1273
330
1222
100
AcDbEntity
  8
241
100
AcDbVertex
100
AcDb3dPolylineVertex
 10
80.2565
 20
4.56084
 30
0.0
 70
    32
  0
VERTEX
  5
1274
330
1222
100
AcDbEntity
  8
241
100
AcDbVertex
100
AcDb3dPolylineVertex
 10
80.2884
 20
4.56624
 30
0.0
 70
    32
  0
VERTEX
  5
1275
330
1222
100
AcDbEntity
  8
241
100
AcDbVertex
100
AcDb3dPolylineVertex
 10
80.32
 20
4.57231
 30
0.0
 70
    32
  0
VERTEX
  5
1276
330
1222
100
AcDbEntity
  8
241
100
AcDbVertex
100
AcDb3dPolylineVertex
 10
80.3515
 20
4.57903
 30
0.0
 70
    32
  0
VERTEX
  5
1277
330
1222
100
AcDbEntity
  8
241
100
AcDbVertex
100
AcDb3dPolylineVertex
 10
80.3826
 20
4.58642
 30
0.0
 70
    32
  0
VERTEX
  5
1278
330
1222
100
AcDbEntity
  8
241
100
AcDbVertex
100
AcDb3dPolylineVertex
 10
80.4135
 20
4.59446
 30
0.0
 70
    32
  0
VERTEX
  5
1279
330
1222
100
AcDbEntity
  8
241
100
AcDbVertex
100
AcDb3dPolylineVertex
 10
80.4441
 20
4.60315
 30
0.0
 70
    32
  0
VERTEX
  5
127A
330
1222
100
AcDbEntity
  8
241
100
AcDbVertex
100
AcDb3dPolylineVertex
 10
80.4744
 20
4.61248
 30
0.0
 70
    32
  0
VERTEX
  5
127B
330
1222
100
AcDbEntity
  8
241
100
AcDbVertex
100
AcDb3dPolylineVertex
 10
80.5044
 20
4.62245
 30
0.0
 70
    32
  0
VERTEX
  5
127C
330
1222
100
AcDbEntity
  8
241
100
AcDbVertex
100
AcDb3dPolylineVertex
 10
80.534
 20
4.63305
 30
0.0
 70
    32
  0
VERTEX
  5
127D
330
1222
100
AcDbEntity
  8
241
100
AcDbVertex
100
AcDb3dPolylineVertex
 10
80.5632
 20
4.64428
 30
0.0
 70
    32
  0
VERTEX
  5
127E
330
1222
100
AcDbEntity
  8
241
100
AcDbVertex
100
AcDb3dPolylineVertex
 10
80.5921
 20
4.65613
 30
0.0
 70
    32
  0
VERTEX
  5
127F
330
1222
100
AcDbEntity
  8
241
100
AcDbVertex
100
AcDb3dPolylineVertex
 10
80.6206
 20
4.66859
 30
0.0
 70
    32
  0
VERTEX
  5
1280
330
1222
100
AcDbEntity
  8
241
100
AcDbVertex
100
AcDb3dPolylineVertex
 10
80.6486
 20
4.68165
 30
0.0
 70
    32
  0
VERTEX
  5
1281
330
1222
100
AcDbEntity
  8
241
100
AcDbVertex
100
AcDb3dPolylineVertex
 10
80.6762
 20
4.69531
 30
0.0
 70
    32
  0
VERTEX
  5
1282
330
1222
100
AcDbEntity
  8
241
100
AcDbVertex
100
AcDb3dPolylineVertex
 10
80.7034
 20
4.70956
 30
0.0
 70
    32
  0
VERTEX
  5
1283
330
1222
100
AcDbEntity
  8
241
100
AcDbVertex
100
AcDb3dPolylineVertex
 10
80.7301
 20
4.72438
 30
0.0
 70
    32
  0
VERTEX
  5
1284
330
1222
100
AcDbEntity
  8
241
100
AcDbVertex
100
AcDb3dPolylineVertex
 10
80.7563
 20
4.73978
 30
0.0
 70
    32
  0
VERTEX
  5
1285
330
1222
100
AcDbEntity
  8
241
100
AcDbVertex
100
AcDb3dPolylineVertex
 10
80.782
 20
4.75574
 30
0.0
 70
    32
  0
VERTEX
  5
1286
330
1222
100
AcDbEntity
  8
241
100
AcDbVertex
100
AcDb3dPolylineVertex
 10
80.8072
 20
4.77225
 30
0.0
 70
    32
  0
VERTEX
  5
1287
330
1222
100
AcDbEntity
  8
241
100
AcDbVertex
100
AcDb3dPolylineVertex
 10
80.8319
 20
4.7893
 30
0.0
 70
    32
  0
VERTEX
  5
1288
330
1222
100
AcDbEntity
  8
241
100
AcDbVertex
100
AcDb3dPolylineVertex
 10
80.856
 20
4.80689
 30
0.0
 70
    32
  0
VERTEX
  5
1289
330
1222
100
AcDbEntity
  8
241
100
AcDbVertex
100
AcDb3dPolylineVertex
 10
80.8796
 20
4.82499
 30
0.0
 70
    32
  0
VERTEX
  5
128A
330
1222
100
AcDbEntity
  8
241
100
AcDbVertex
100
AcDb3dPolylineVertex
 10
80.9025
 20
4.84361
 30
0.0
 70
    32
  0
VERTEX
  5
128B
330
1222
100
AcDbEntity
  8
241
100
AcDbVertex
100
AcDb3dPolylineVertex
 10
80.9249
 20
4.86272
 30
0.0
 70
    32
  0
VERTEX
  5
128C
330
1222
100
AcDbEntity
  8
241
100
AcDbVertex
100
AcDb3dPolylineVertex
 10
80.9468
 20
4.88232
 30
0.0
 70
    32
  0
VERTEX
  5
128D
330
1222
100
AcDbEntity
  8
241
100
AcDbVertex
100
AcDb3dPolylineVertex
 10
80.9679
 20
4.9024
 30
0.0
 70
    32
  0
VERTEX
  5
128E
330
1222
100
AcDbEntity
  8
241
100
AcDbVertex
100
AcDb3dPolylineVertex
 10
80.9885
 20
4.92294
 30
0.0
 70
    32
  0
VERTEX
  5
128F
330
1222
100
AcDbEntity
  8
241
100
AcDbVertex
100
AcDb3dPolylineVertex
 10
81.0084
 20
4.94393
 30
0.0
 70
    32
  0
VERTEX
  5
1290
330
1222
100
AcDbEntity
  8
241
100
AcDbVertex
100
AcDb3dPolylineVertex
 10
81.0277
 20
4.96536
 30
0.0
 70
    32
  0
VERTEX
  5
1291
330
1222
100
AcDbEntity
  8
241
100
AcDbVertex
100
AcDb3dPolylineVertex
 10
81.0463
 20
4.98722
 30
0.0
 70
    32
  0
VERTEX
  5
1292
330
1222
100
AcDbEntity
  8
241
100
AcDbVertex
100
AcDb3dPolylineVertex
 10
81.0642
 20
5.00948
 30
0.0
 70
    32
  0
VERTEX
  5
1293
330
1222
100
AcDbEntity
  8
241
100
AcDbVertex
100
AcDb3dPolylineVertex
 10
81.0815
 20
5.03215
 30
0.0
 70
    32
  0
VERTEX
  5
1294
330
1222
100
AcDbEntity
  8
241
100
AcDbVertex
100
AcDb3dPolylineVertex
 10
81.0981
 20
5.0552
 30
0.0
 70
    32
  0
VERTEX
  5
1295
330
1222
100
AcDbEntity
  8
241
100
AcDbVertex
100
AcDb3dPolylineVertex
 10
81.1139
 20
5.07862
 30
0.0
 70
    32
  0
VERTEX
  5
1296
330
1222
100
AcDbEntity
  8
241
100
AcDbVertex
100
AcDb3dPolylineVertex
 10
81.129
 20
5.1024
 30
0.0
 70
    32
  0
VERTEX
  5
1297
330
1222
100
AcDbEntity
  8
241
100
AcDbVertex
100
AcDb3dPolylineVertex
 10
81.1435
 20
5.12653
 30
0.0
 70
    32
  0
VERTEX
  5
1298
330
1222
100
AcDbEntity
  8
241
100
AcDbVertex
100
AcDb3dPolylineVertex
 10
81.1571
 20
5.15098
 30
0.0
 70
    32
  0
VERTEX
  5
1299
330
1222
100
AcDbEntity
  8
241
100
AcDbVertex
100
AcDb3dPolylineVertex
 10
81.1701
 20
5.17574
 30
0.0
 70
    32
  0
VERTEX
  5
129A
330
1222
100
AcDbEntity
  8
241
100
AcDbVertex
100
AcDb3dPolylineVertex
 10
81.1823
 20
5.20081
 30
0.0
 70
    32
  0
VERTEX
  5
129B
330
1222
100
AcDbEntity
  8
241
100
AcDbVertex
100
AcDb3dPolylineVertex
 10
81.1937
 20
5.22615
 30
0.0
 70
    32
  0
VERTEX
  5
129C
330
1222
100
AcDbEntity
  8
241
100
AcDbVertex
100
AcDb3dPolylineVertex
 10
81.2044
 20
5.25177
 30
0.0
 70
    32
  0
VERTEX
  5
129D
330
1222
100
AcDbEntity
  8
241
100
AcDbVertex
100
AcDb3dPolylineVertex
 10
81.2143
 20
5.27764
 30
0.0
 70
    32
  0
VERTEX
  5
129E
330
1222
100
AcDbEntity
  8
241
100
AcDbVertex
100
AcDb3dPolylineVertex
 10
81.2234
 20
5.30374
 30
0.0
 70
    32
  0
VERTEX
  5
129F
330
1222
100
AcDbEntity
  8
241
100
AcDbVertex
100
AcDb3dPolylineVertex
 10
81.2318
 20
5.33007
 30
0.0
 70
    32
  0
VERTEX
  5
12A0
330
1222
100
AcDbEntity
  8
241
100
AcDbVertex
100
AcDb3dPolylineVertex
 10
81.2393
 20
5.35661
 30
0.0
 70
    32
  0
VERTEX
  5
12A1
330
1222
100
AcDbEntity
  8
241
100
AcDbVertex
100
AcDb3dPolylineVertex
 10
81.2461
 20
5.38333
 30
0.0
 70
    32
  0
VERTEX
  5
12A2
330
1222
100
AcDbEntity
  8
241
100
AcDbVertex
100
AcDb3dPolylineVertex
 10
81.2521
 20
5.41023
 30
0.0
 70
    32
  0
VERTEX
  5
12A3
330
1222
100
AcDbEntity
  8
241
100
AcDbVertex
100
AcDb3dPolylineVertex
 10
81.2573
 20
5.43728
 30
0.0
 70
    32
  0
SEQEND
  5
12A4
330
1222
100
AcDbEntity
  8
241
  0
POLYLINE
  5
12A5
330
D3F
100
AcDbEntity
  8
241
100
AcDb3dPolyline
 66
     1
 10
0.0
 20
0.0
 30
0.0
 70
     8
  0
VERTEX
  5
12A6
330
12A5
100
AcDbEntity
  8
241
100
AcDbVertex
100
AcDb3dPolylineVertex
 10
81.2573
 20
5.43728
 30
0.0
 70
    32
  0
VERTEX
  5
12A7
330
12A5
100
AcDbEntity
  8
241
100
AcDbVertex
100
AcDb3dPolylineVertex
 10
81.2605
 20
5.45791
 30
0.0
 70
    32
  0
VERTEX
  5
12A8
330
12A5
100
AcDbEntity
  8
241
100
AcDbVertex
100
AcDb3dPolylineVertex
 10
81.2629
 20
5.47866
 30
0.0
 70
    32
  0
VERTEX
  5
12A9
330
12A5
100
AcDbEntity
  8
241
100
AcDbVertex
100
AcDb3dPolylineVertex
 10
81.2645
 20
5.49953
 30
0.0
 70
    32
  0
VERTEX
  5
12AA
330
12A5
100
AcDbEntity
  8
241
100
AcDbVertex
100
AcDb3dPolylineVertex
 10
81.2654
 20
5.5205
 30
0.0
 70
    32
  0
VERTEX
  5
12AB
330
12A5
100
AcDbEntity
  8
241
100
AcDbVertex
100
AcDb3dPolylineVertex
 10
81.2654
 20
5.54157
 30
0.0
 70
    32
  0
VERTEX
  5
12AC
330
12A5
100
AcDbEntity
  8
241
100
AcDbVertex
100
AcDb3dPolylineVertex
 10
81.2646
 20
5.56271
 30
0.0
 70
    32
  0
VERTEX
  5
12AD
330
12A5
100
AcDbEntity
  8
241
100
AcDbVertex
100
AcDb3dPolylineVertex
 10
81.263
 20
5.58392
 30
0.0
 70
    32
  0
VERTEX
  5
12AE
330
12A5
100
AcDbEntity
  8
241
100
AcDbVertex
100
AcDb3dPolylineVertex
 10
81.2606
 20
5.60519
 30
0.0
 70
    32
  0
VERTEX
  5
12AF
330
12A5
100
AcDbEntity
  8
241
100
AcDbVertex
100
AcDb3dPolylineVertex
 10
81.2573
 20
5.62649
 30
0.0
 70
    32
  0
VERTEX
  5
12B0
330
12A5
100
AcDbEntity
  8
241
100
AcDbVertex
100
AcDb3dPolylineVertex
 10
81.2533
 20
5.64782
 30
0.0
 70
    32
  0
VERTEX
  5
12B1
330
12A5
100
AcDbEntity
  8
241
100
AcDbVertex
100
AcDb3dPolylineVertex
 10
81.2485
 20
5.66916
 30
0.0
 70
    32
  0
VERTEX
  5
12B2
330
12A5
100
AcDbEntity
  8
241
100
AcDbVertex
100
AcDb3dPolylineVertex
 10
81.2429
 20
5.69051
 30
0.0
 70
    32
  0
VERTEX
  5
12B3
330
12A5
100
AcDbEntity
  8
241
100
AcDbVertex
100
AcDb3dPolylineVertex
 10
81.2365
 20
5.71184
 30
0.0
 70
    32
  0
VERTEX
  5
12B4
330
12A5
100
AcDbEntity
  8
241
100
AcDbVertex
100
AcDb3dPolylineVertex
 10
81.2293
 20
5.73315
 30
0.0
 70
    32
  0
VERTEX
  5
12B5
330
12A5
100
AcDbEntity
  8
241
100
AcDbVertex
100
AcDb3dPolylineVertex
 10
81.2214
 20
5.75442
 30
0.0
 70
    32
  0
VERTEX
  5
12B6
330
12A5
100
AcDbEntity
  8
241
100
AcDbVertex
100
AcDb3dPolylineVertex
 10
81.2126
 20
5.77565
 30
0.0
 70
    32
  0
VERTEX
  5
12B7
330
12A5
100
AcDbEntity
  8
241
100
AcDbVertex
100
AcDb3dPolylineVertex
 10
81.2031
 20
5.79681
 30
0.0
 70
    32
  0
VERTEX
  5
12B8
330
12A5
100
AcDbEntity
  8
241
100
AcDbVertex
100
AcDb3dPolylineVertex
 10
81.1928
 20
5.81789
 30
0.0
 70
    32
  0
VERTEX
  5
12B9
330
12A5
100
AcDbEntity
  8
241
100
AcDbVertex
100
AcDb3dPolylineVertex
 10
81.1817
 20
5.83889
 30
0.0
 70
    32
  0
VERTEX
  5
12BA
330
12A5
100
AcDbEntity
  8
241
100
AcDbVertex
100
AcDb3dPolylineVertex
 10
81.1699
 20
5.85979
 30
0.0
 70
    32
  0
VERTEX
  5
12BB
330
12A5
100
AcDbEntity
  8
241
100
AcDbVertex
100
AcDb3dPolylineVertex
 10
81.1574
 20
5.88057
 30
0.0
 70
    32
  0
VERTEX
  5
12BC
330
12A5
100
AcDbEntity
  8
241
100
AcDbVertex
100
AcDb3dPolylineVertex
 10
81.1441
 20
5.90123
 30
0.0
 70
    32
  0
VERTEX
  5
12BD
330
12A5
100
AcDbEntity
  8
241
100
AcDbVertex
100
AcDb3dPolylineVertex
 10
81.13
 20
5.92174
 30
0.0
 70
    32
  0
VERTEX
  5
12BE
330
12A5
100
AcDbEntity
  8
241
100
AcDbVertex
100
AcDb3dPolylineVertex
 10
81.1153
 20
5.94211
 30
0.0
 70
    32
  0
VERTEX
  5
12BF
330
12A5
100
AcDbEntity
  8
241
100
AcDbVertex
100
AcDb3dPolylineVertex
 10
81.0998
 20
5.96232
 30
0.0
 70
    32
  0
VERTEX
  5
12C0
330
12A5
100
AcDbEntity
  8
241
100
AcDbVertex
100
AcDb3dPolylineVertex
 10
81.0836
 20
5.98235
 30
0.0
 70
    32
  0
VERTEX
  5
12C1
330
12A5
100
AcDbEntity
  8
241
100
AcDbVertex
100
AcDb3dPolylineVertex
 10
81.0668
 20
6.00219
 30
0.0
 70
    32
  0
VERTEX
  5
12C2
330
12A5
100
AcDbEntity
  8
241
100
AcDbVertex
100
AcDb3dPolylineVertex
 10
81.0492
 20
6.02184
 30
0.0
 70
    32
  0
VERTEX
  5
12C3
330
12A5
100
AcDbEntity
  8
241
100
AcDbVertex
100
AcDb3dPolylineVertex
 10
81.031
 20
6.04127
 30
0.0
 70
    32
  0
VERTEX
  5
12C4
330
12A5
100
AcDbEntity
  8
241
100
AcDbVertex
100
AcDb3dPolylineVertex
 10
81.0121
 20
6.06048
 30
0.0
 70
    32
  0
VERTEX
  5
12C5
330
12A5
100
AcDbEntity
  8
241
100
AcDbVertex
100
AcDb3dPolylineVertex
 10
80.9925
 20
6.07946
 30
0.0
 70
    32
  0
VERTEX
  5
12C6
330
12A5
100
AcDbEntity
  8
241
100
AcDbVertex
100
AcDb3dPolylineVertex
 10
80.9723
 20
6.09819
 30
0.0
 70
    32
  0
VERTEX
  5
12C7
330
12A5
100
AcDbEntity
  8
241
100
AcDbVertex
100
AcDb3dPolylineVertex
 10
80.9515
 20
6.11666
 30
0.0
 70
    32
  0
VERTEX
  5
12C8
330
12A5
100
AcDbEntity
  8
241
100
AcDbVertex
100
AcDb3dPolylineVertex
 10
80.9301
 20
6.13487
 30
0.0
 70
    32
  0
VERTEX
  5
12C9
330
12A5
100
AcDbEntity
  8
241
100
AcDbVertex
100
AcDb3dPolylineVertex
 10
80.908
 20
6.1528
 30
0.0
 70
    32
  0
VERTEX
  5
12CA
330
12A5
100
AcDbEntity
  8
241
100
AcDbVertex
100
AcDb3dPolylineVertex
 10
80.8854
 20
6.17043
 30
0.0
 70
    32
  0
VERTEX
  5
12CB
330
12A5
100
AcDbEntity
  8
241
100
AcDbVertex
100
AcDb3dPolylineVertex
 10
80.8622
 20
6.18777
 30
0.0
 70
    32
  0
VERTEX
  5
12CC
330
12A5
100
AcDbEntity
  8
241
100
AcDbVertex
100
AcDb3dPolylineVertex
 10
80.8384
 20
6.2048
 30
0.0
 70
    32
  0
VERTEX
  5
12CD
330
12A5
100
AcDbEntity
  8
241
100
AcDbVertex
100
AcDb3dPolylineVertex
 10
80.8141
 20
6.2215
 30
0.0
 70
    32
  0
VERTEX
  5
12CE
330
12A5
100
AcDbEntity
  8
241
100
AcDbVertex
100
AcDb3dPolylineVertex
 10
80.7892
 20
6.23787
 30
0.0
 70
    32
  0
VERTEX
  5
12CF
330
12A5
100
AcDbEntity
  8
241
100
AcDbVertex
100
AcDb3dPolylineVertex
 10
80.7638
 20
6.25391
 30
0.0
 70
    32
  0
VERTEX
  5
12D0
330
12A5
100
AcDbEntity
  8
241
100
AcDbVertex
100
AcDb3dPolylineVertex
 10
80.738
 20
6.26959
 30
0.0
 70
    32
  0
VERTEX
  5
12D1
330
12A5
100
AcDbEntity
  8
241
100
AcDbVertex
100
AcDb3dPolylineVertex
 10
80.7116
 20
6.28491
 30
0.0
 70
    32
  0
VERTEX
  5
12D2
330
12A5
100
AcDbEntity
  8
241
100
AcDbVertex
100
AcDb3dPolylineVertex
 10
80.6848
 20
6.29986
 30
0.0
 70
    32
  0
VERTEX
  5
12D3
330
12A5
100
AcDbEntity
  8
241
100
AcDbVertex
100
AcDb3dPolylineVertex
 10
80.6575
 20
6.31444
 30
0.0
 70
    32
  0
VERTEX
  5
12D4
330
12A5
100
AcDbEntity
  8
241
100
AcDbVertex
100
AcDb3dPolylineVertex
 10
80.6297
 20
6.32862
 30
0.0
 70
    32
  0
VERTEX
  5
12D5
330
12A5
100
AcDbEntity
  8
241
100
AcDbVertex
100
AcDb3dPolylineVertex
 10
80.6016
 20
6.34241
 30
0.0
 70
    32
  0
VERTEX
  5
12D6
330
12A5
100
AcDbEntity
  8
241
100
AcDbVertex
100
AcDb3dPolylineVertex
 10
80.573
 20
6.3558
 30
0.0
 70
    32
  0
VERTEX
  5
12D7
330
12A5
100
AcDbEntity
  8
241
100
AcDbVertex
100
AcDb3dPolylineVertex
 10
80.5441
 20
6.36878
 30
0.0
 70
    32
  0
VERTEX
  5
12D8
330
12A5
100
AcDbEntity
  8
241
100
AcDbVertex
100
AcDb3dPolylineVertex
 10
80.5147
 20
6.38133
 30
0.0
 70
    32
  0
VERTEX
  5
12D9
330
12A5
100
AcDbEntity
  8
241
100
AcDbVertex
100
AcDb3dPolylineVertex
 10
80.4851
 20
6.39346
 30
0.0
 70
    32
  0
VERTEX
  5
12DA
330
12A5
100
AcDbEntity
  8
241
100
AcDbVertex
100
AcDb3dPolylineVertex
 10
80.4551
 20
6.40515
 30
0.0
 70
    32
  0
VERTEX
  5
12DB
330
12A5
100
AcDbEntity
  8
241
100
AcDbVertex
100
AcDb3dPolylineVertex
 10
80.4247
 20
6.4164
 30
0.0
 70
    32
  0
VERTEX
  5
12DC
330
12A5
100
AcDbEntity
  8
241
100
AcDbVertex
100
AcDb3dPolylineVertex
 10
80.3941
 20
6.42721
 30
0.0
 70
    32
  0
VERTEX
  5
12DD
330
12A5
100
AcDbEntity
  8
241
100
AcDbVertex
100
AcDb3dPolylineVertex
 10
80.3632
 20
6.43755
 30
0.0
 70
    32
  0
VERTEX
  5
12DE
330
12A5
100
AcDbEntity
  8
241
100
AcDbVertex
100
AcDb3dPolylineVertex
 10
80.332
 20
6.44744
 30
0.0
 70
    32
  0
VERTEX
  5
12DF
330
12A5
100
AcDbEntity
  8
241
100
AcDbVertex
100
AcDb3dPolylineVertex
 10
80.3006
 20
6.45686
 30
0.0
 70
    32
  0
VERTEX
  5
12E0
330
12A5
100
AcDbEntity
  8
241
100
AcDbVertex
100
AcDb3dPolylineVertex
 10
80.269
 20
6.46581
 30
0.0
 70
    32
  0
VERTEX
  5
12E1
330
12A5
100
AcDbEntity
  8
241
100
AcDbVertex
100
AcDb3dPolylineVertex
 10
80.2371
 20
6.47427
 30
0.0
 70
    32
  0
VERTEX
  5
12E2
330
12A5
100
AcDbEntity
  8
241
100
AcDbVertex
100
AcDb3dPolylineVertex
 10
80.2051
 20
6.48226
 30
0.0
 70
    32
  0
VERTEX
  5
12E3
330
12A5
100
AcDbEntity
  8
241
100
AcDbVertex
100
AcDb3dPolylineVertex
 10
80.1729
 20
6.48975
 30
0.0
 70
    32
  0
VERTEX
  5
12E4
330
12A5
100
AcDbEntity
  8
241
100
AcDbVertex
100
AcDb3dPolylineVertex
 10
80.1405
 20
6.49676
 30
0.0
 70
    32
  0
VERTEX
  5
12E5
330
12A5
100
AcDbEntity
  8
241
100
AcDbVertex
100
AcDb3dPolylineVertex
 10
80.1081
 20
6.50326
 30
0.0
 70
    32
  0
VERTEX
  5
12E6
330
12A5
100
AcDbEntity
  8
241
100
AcDbVertex
100
AcDb3dPolylineVertex
 10
80.0755
 20
6.50927
 30
0.0
 70
    32
  0
VERTEX
  5
12E7
330
12A5
100
AcDbEntity
  8
241
100
AcDbVertex
100
AcDb3dPolylineVertex
 10
80.0428
 20
6.51477
 30
0.0
 70
    32
  0
VERTEX
  5
12E8
330
12A5
100
AcDbEntity
  8
241
100
AcDbVertex
100
AcDb3dPolylineVertex
 10
80.0101
 20
6.51976
 30
0.0
 70
    32
  0
VERTEX
  5
12E9
330
12A5
100
AcDbEntity
  8
241
100
AcDbVertex
100
AcDb3dPolylineVertex
 10
79.9773
 20
6.52424
 30
0.0
 70
    32
  0
VERTEX
  5
12EA
330
12A5
100
AcDbEntity
  8
241
100
AcDbVertex
100
AcDb3dPolylineVertex
 10
79.9445
 20
6.52821
 30
0.0
 70
    32
  0
VERTEX
  5
12EB
330
12A5
100
AcDbEntity
  8
241
100
AcDbVertex
100
AcDb3dPolylineVertex
 10
79.9116
 20
6.53167
 30
0.0
 70
    32
  0
VERTEX
  5
12EC
330
12A5
100
AcDbEntity
  8
241
100
AcDbVertex
100
AcDb3dPolylineVertex
 10
79.8788
 20
6.5346
 30
0.0
 70
    32
  0
VERTEX
  5
12ED
330
12A5
100
AcDbEntity
  8
241
100
AcDbVertex
100
AcDb3dPolylineVertex
 10
79.846
 20
6.53701
 30
0.0
 70
    32
  0
VERTEX
  5
12EE
330
12A5
100
AcDbEntity
  8
241
100
AcDbVertex
100
AcDb3dPolylineVertex
 10
79.8133
 20
6.53891
 30
0.0
 70
    32
  0
VERTEX
  5
12EF
330
12A5
100
AcDbEntity
  8
241
100
AcDbVertex
100
AcDb3dPolylineVertex
 10
79.7806
 20
6.54028
 30
0.0
 70
    32
  0
VERTEX
  5
12F0
330
12A5
100
AcDbEntity
  8
241
100
AcDbVertex
100
AcDb3dPolylineVertex
 10
79.748
 20
6.54113
 30
0.0
 70
    32
  0
VERTEX
  5
12F1
330
12A5
100
AcDbEntity
  8
241
100
AcDbVertex
100
AcDb3dPolylineVertex
 10
79.7155
 20
6.54145
 30
0.0
 70
    32
  0
VERTEX
  5
12F2
330
12A5
100
AcDbEntity
  8
241
100
AcDbVertex
100
AcDb3dPolylineVertex
 10
79.6832
 20
6.54125
 30
0.0
 70
    32
  0
VERTEX
  5
12F3
330
12A5
100
AcDbEntity
  8
241
100
AcDbVertex
100
AcDb3dPolylineVertex
 10
79.651
 20
6.54053
 30
0.0
 70
    32
  0
VERTEX
  5
12F4
330
12A5
100
AcDbEntity
  8
241
100
AcDbVertex
100
AcDb3dPolylineVertex
 10
79.619
 20
6.53928
 30
0.0
 70
    32
  0
VERTEX
  5
12F5
330
12A5
100
AcDbEntity
  8
241
100
AcDbVertex
100
AcDb3dPolylineVertex
 10
79.5871
 20
6.53751
 30
0.0
 70
    32
  0
VERTEX
  5
12F6
330
12A5
100
AcDbEntity
  8
241
100
AcDbVertex
100
AcDb3dPolylineVertex
 10
79.5555
 20
6.53522
 30
0.0
 70
    32
  0
VERTEX
  5
12F7
330
12A5
100
AcDbEntity
  8
241
100
AcDbVertex
100
AcDb3dPolylineVertex
 10
79.524
 20
6.53241
 30
0.0
 70
    32
  0
VERTEX
  5
12F8
330
12A5
100
AcDbEntity
  8
241
100
AcDbVertex
100
AcDb3dPolylineVertex
 10
79.4929
 20
6.52908
 30
0.0
 70
    32
  0
VERTEX
  5
12F9
330
12A5
100
AcDbEntity
  8
241
100
AcDbVertex
100
AcDb3dPolylineVertex
 10
79.462
 20
6.52524
 30
0.0
 70
    32
  0
VERTEX
  5
12FA
330
12A5
100
AcDbEntity
  8
241
100
AcDbVertex
100
AcDb3dPolylineVertex
 10
79.4313
 20
6.52088
 30
0.0
 70
    32
  0
VERTEX
  5
12FB
330
12A5
100
AcDbEntity
  8
241
100
AcDbVertex
100
AcDb3dPolylineVertex
 10
79.401
 20
6.51601
 30
0.0
 70
    32
  0
VERTEX
  5
12FC
330
12A5
100
AcDbEntity
  8
241
100
AcDbVertex
100
AcDb3dPolylineVertex
 10
79.371
 20
6.51063
 30
0.0
 70
    32
  0
VERTEX
  5
12FD
330
12A5
100
AcDbEntity
  8
241
100
AcDbVertex
100
AcDb3dPolylineVertex
 10
79.3413
 20
6.50474
 30
0.0
 70
    32
  0
VERTEX
  5
12FE
330
12A5
100
AcDbEntity
  8
241
100
AcDbVertex
100
AcDb3dPolylineVertex
 10
79.312
 20
6.49835
 30
0.0
 70
    32
  0
VERTEX
  5
12FF
330
12A5
100
AcDbEntity
  8
241
100
AcDbVertex
100
AcDb3dPolylineVertex
 10
79.283
 20
6.49147
 30
0.0
 70
    32
  0
VERTEX
  5
1300
330
12A5
100
AcDbEntity
  8
241
100
AcDbVertex
100
AcDb3dPolylineVertex
 10
79.2544
 20
6.48409
 30
0.0
 70
    32
  0
VERTEX
  5
1301
330
12A5
100
AcDbEntity
  8
241
100
AcDbVertex
100
AcDb3dPolylineVertex
 10
79.2263
 20
6.47622
 30
0.0
 70
    32
  0
VERTEX
  5
1302
330
12A5
100
AcDbEntity
  8
241
100
AcDbVertex
100
AcDb3dPolylineVertex
 10
79.1985
 20
6.46787
 30
0.0
 70
    32
  0
VERTEX
  5
1303
330
12A5
100
AcDbEntity
  8
241
100
AcDbVertex
100
AcDb3dPolylineVertex
 10
79.1712
 20
6.45904
 30
0.0
 70
    32
  0
VERTEX
  5
1304
330
12A5
100
AcDbEntity
  8
241
100
AcDbVertex
100
AcDb3dPolylineVertex
 10
79.1444
 20
6.44973
 30
0.0
 70
    32
  0
VERTEX
  5
1305
330
12A5
100
AcDbEntity
  8
241
100
AcDbVertex
100
AcDb3dPolylineVertex
 10
79.118
 20
6.43995
 30
0.0
 70
    32
  0
VERTEX
  5
1306
330
12A5
100
AcDbEntity
  8
241
100
AcDbVertex
100
AcDb3dPolylineVertex
 10
79.0921
 20
6.42972
 30
0.0
 70
    32
  0
VERTEX
  5
1307
330
12A5
100
AcDbEntity
  8
241
100
AcDbVertex
100
AcDb3dPolylineVertex
 10
79.0667
 20
6.41902
 30
0.0
 70
    32
  0
VERTEX
  5
1308
330
12A5
100
AcDbEntity
  8
241
100
AcDbVertex
100
AcDb3dPolylineVertex
 10
79.0419
 20
6.40788
 30
0.0
 70
    32
  0
VERTEX
  5
1309
330
12A5
100
AcDbEntity
  8
241
100
AcDbVertex
100
AcDb3dPolylineVertex
 10
79.0176
 20
6.39629
 30
0.0
 70
    32
  0
VERTEX
  5
130A
330
12A5
100
AcDbEntity
  8
241
100
AcDbVertex
100
AcDb3dPolylineVertex
 10
78.9938
 20
6.38426
 30
0.0
 70
    32
  0
VERTEX
  5
130B
330
12A5
100
AcDbEntity
  8
241
100
AcDbVertex
100
AcDb3dPolylineVertex
 10
78.9706
 20
6.37181
 30
0.0
 70
    32
  0
VERTEX
  5
130C
330
12A5
100
AcDbEntity
  8
241
100
AcDbVertex
100
AcDb3dPolylineVertex
 10
78.9479
 20
6.35893
 30
0.0
 70
    32
  0
VERTEX
  5
130D
330
12A5
100
AcDbEntity
  8
241
100
AcDbVertex
100
AcDb3dPolylineVertex
 10
78.9259
 20
6.34564
 30
0.0
 70
    32
  0
VERTEX
  5
130E
330
12A5
100
AcDbEntity
  8
241
100
AcDbVertex
100
AcDb3dPolylineVertex
 10
78.9044
 20
6.33195
 30
0.0
 70
    32
  0
VERTEX
  5
130F
330
12A5
100
AcDbEntity
  8
241
100
AcDbVertex
100
AcDb3dPolylineVertex
 10
78.8836
 20
6.31785
 30
0.0
 70
    32
  0
VERTEX
  5
1310
330
12A5
100
AcDbEntity
  8
241
100
AcDbVertex
100
AcDb3dPolylineVertex
 10
78.8634
 20
6.30337
 30
0.0
 70
    32
  0
VERTEX
  5
1311
330
12A5
100
AcDbEntity
  8
241
100
AcDbVertex
100
AcDb3dPolylineVertex
 10
78.8438
 20
6.28851
 30
0.0
 70
    32
  0
VERTEX
  5
1312
330
12A5
100
AcDbEntity
  8
241
100
AcDbVertex
100
AcDb3dPolylineVertex
 10
78.8249
 20
6.27327
 30
0.0
 70
    32
  0
VERTEX
  5
1313
330
12A5
100
AcDbEntity
  8
241
100
AcDbVertex
100
AcDb3dPolylineVertex
 10
78.8067
 20
6.25768
 30
0.0
 70
    32
  0
VERTEX
  5
1314
330
12A5
100
AcDbEntity
  8
241
100
AcDbVertex
100
AcDb3dPolylineVertex
 10
78.7891
 20
6.24173
 30
0.0
 70
    32
  0
VERTEX
  5
1315
330
12A5
100
AcDbEntity
  8
241
100
AcDbVertex
100
AcDb3dPolylineVertex
 10
78.7722
 20
6.22543
 30
0.0
 70
    32
  0
VERTEX
  5
1316
330
12A5
100
AcDbEntity
  8
241
100
AcDbVertex
100
AcDb3dPolylineVertex
 10
78.756
 20
6.20881
 30
0.0
 70
    32
  0
VERTEX
  5
1317
330
12A5
100
AcDbEntity
  8
241
100
AcDbVertex
100
AcDb3dPolylineVertex
 10
78.7405
 20
6.19186
 30
0.0
 70
    32
  0
VERTEX
  5
1318
330
12A5
100
AcDbEntity
  8
241
100
AcDbVertex
100
AcDb3dPolylineVertex
 10
78.7258
 20
6.17459
 30
0.0
 70
    32
  0
VERTEX
  5
1319
330
12A5
100
AcDbEntity
  8
241
100
AcDbVertex
100
AcDb3dPolylineVertex
 10
78.7117
 20
6.15703
 30
0.0
 70
    32
  0
VERTEX
  5
131A
330
12A5
100
AcDbEntity
  8
241
100
AcDbVertex
100
AcDb3dPolylineVertex
 10
78.6984
 20
6.13917
 30
0.0
 70
    32
  0
VERTEX
  5
131B
330
12A5
100
AcDbEntity
  8
241
100
AcDbVertex
100
AcDb3dPolylineVertex
 10
78.6859
 20
6.12103
 30
0.0
 70
    32
  0
VERTEX
  5
131C
330
12A5
100
AcDbEntity
  8
241
100
AcDbVertex
100
AcDb3dPolylineVertex
 10
78.674
 20
6.10262
 30
0.0
 70
    32
  0
VERTEX
  5
131D
330
12A5
100
AcDbEntity
  8
241
100
AcDbVertex
100
AcDb3dPolylineVertex
 10
78.663
 20
6.08395
 30
0.0
 70
    32
  0
VERTEX
  5
131E
330
12A5
100
AcDbEntity
  8
241
100
AcDbVertex
100
AcDb3dPolylineVertex
 10
78.6527
 20
6.06503
 30
0.0
 70
    32
  0
VERTEX
  5
131F
330
12A5
100
AcDbEntity
  8
241
100
AcDbVertex
100
AcDb3dPolylineVertex
 10
78.6431
 20
6.04587
 30
0.0
 70
    32
  0
VERTEX
  5
1320
330
12A5
100
AcDbEntity
  8
241
100
AcDbVertex
100
AcDb3dPolylineVertex
 10
78.6344
 20
6.02649
 30
0.0
 70
    32
  0
VERTEX
  5
1321
330
12A5
100
AcDbEntity
  8
241
100
AcDbVertex
100
AcDb3dPolylineVertex
 10
78.6264
 20
6.00689
 30
0.0
 70
    32
  0
VERTEX
  5
1322
330
12A5
100
AcDbEntity
  8
241
100
AcDbVertex
100
AcDb3dPolylineVertex
 10
78.6192
 20
5.9871
 30
0.0
 70
    32
  0
VERTEX
  5
1323
330
12A5
100
AcDbEntity
  8
241
100
AcDbVertex
100
AcDb3dPolylineVertex
 10
78.6128
 20
5.96711
 30
0.0
 70
    32
  0
VERTEX
  5
1324
330
12A5
100
AcDbEntity
  8
241
100
AcDbVertex
100
AcDb3dPolylineVertex
 10
78.6072
 20
5.94695
 30
0.0
 70
    32
  0
VERTEX
  5
1325
330
12A5
100
AcDbEntity
  8
241
100
AcDbVertex
100
AcDb3dPolylineVertex
 10
78.6023
 20
5.92661
 30
0.0
 70
    32
  0
VERTEX
  5
1326
330
12A5
100
AcDbEntity
  8
241
100
AcDbVertex
100
AcDb3dPolylineVertex
 10
78.5983
 20
5.90613
 30
0.0
 70
    32
  0
SEQEND
  5
1327
330
12A5
100
AcDbEntity
  8
241
  0
LINE
  5
1328
330
D3F
100
AcDbEntity
  8
241
100
AcDbLine
 10
73.77313855
 20
-0.03351248
 30
0.0
 11
75.19330642
 21
2.42629043
 31
0.0
  0
LINE
  5
1329
330
D3F
100
AcDbEntity
  8
240
100
AcDbLine
 10
73.88708862
 20
-7.25
 30
0.0
 11
47.05267915
 21
-7.25
 31
0.0
  0
LINE
  5
132A
330
D3F
100
AcDbEntity
  8
241
100
AcDbLine
 10
73.77313855
 20
-0.03351248
 30
0.0
 11
69.27741009
 21
0.75920574
 31
0.0
  0
ARC
  5
132B
330
D3F
100
AcDbEntity
  8
241
100
AcDbCircle
 10
68.8294869
 20
-1.78109295
 30
0.0
 40
2.579486895640701
100
AcDbArc
 50
79.9999824
 51
260.0
  0
LINE
  5
132C
330
D3F
100
AcDbEntity
  8
240
100
AcDbLine
 10
73.88708862
 20
-7.25
 30
0.0
 11
75.19330643
 21
-7.6
 31
0.0
  0
LINE
  5
132D
330
D3F
100
AcDbEntity
  8
240
100
AcDbLine
 10
73.88708862
 20
7.25
 30
0.0
 11
47.05267915
 21
7.25
 31
0.0
  0
LINE
  5
132E
330
D3F
100
AcDbEntity
  8
240
100
AcDbLine
 10
73.88708862
 20
7.25
 30
0.0
 11
75.19330643
 21
7.6
 31
0.0
  0
LINE
  5
132F
330
D3F
100
AcDbEntity
  8
240
100
AcDbLine
 10
84.25
 20
7.39776704
 30
0.0
 11
84.25
 21
0.829351
 31
0.0
  0
LINE
  5
1330
330
D3F
100
AcDbEntity
  8
246
100
AcDbLine
 10
85.0
 20
-8.0
 30
0.0
 11
85.0
 21
8.0
 31
0.0
  0
LINE
  5
1331
330
D3F
100
AcDbEntity
  8
240
100
AcDbLine
 10
84.25
 20
-7.39776704
 30
0.0
 11
84.25
 21
-3.44702232
 31
0.0
  0
LINE
  5
1332
330
D3F
100
AcDbEntity
  8
240
100
AcDbLine
 10
85.0
 20
-3.72
 30
0.0
 11
84.25
 21
-3.44702232
 31
0.0
  0
LINE
  5
1333
330
D3F
100
AcDbEntity
  8
240
100
AcDbLine
 10
84.19615249
 20
0.83884577
 30
0.0
 11
85.0
 21
-3.72
 31
0.0
  0
LINE
  5
1334
330
D3F
100
AcDbEntity
  8
240
100
AcDbLine
 10
84.25
 20
0.829351
 30
0.0
 11
84.19615249
 21
0.83884577
 31
0.0
  0
ENDBLK
  5
D41
330
D3F
100
AcDbEntity
  8
0
100
AcDbBlockEnd
  0
ENDSEC
  0
SECTION
  2
ENTITIES
  0
INSERT
  5
6E6
330
1A
100
AcDbEntity
  8
245
100
AcDbBlockReference
  2
矢印なし
 10
175.62382697
 20
90.55123572
 30
0.0
  0
TEXT
  5
A36
330
1A
100
AcDbEntity
  8
241
100
AcDbText
 10
-32.0
 20
56.0
 30
0.0
 40
5.0
  1
HSK-A63-FCR16082L-85
  7
YOKO
 11
-32.0
 21
56.0
 31
0.0
100
AcDbText
 73
     1
1001
GRPNAME
1000
PASTMD0C
  0
DIMENSION
  5
CC5
330
1A
100
AcDbEntity
  8
250
  6
CONTINUOUS
100
AcDbDimension
  2
*D2
 10
98.0
 20
8.0
 30
0.0
 11
95.6
 21
0.0
 31
0.0
 70
    32
  1
{\H2.8;\U+2205}<>
  3
BIGT
100
AcDbAlignedDimension
 13
85.0
 23
-8.0
 33
0.0
 14
85.0
 24
8.0
 34
0.0
 50
90.0
100
AcDbRotatedDimension
  0
DIMENSION
  5
CD4
330
1A
100
AcDbEntity
  8
250
  6
CONTINUOUS
100
AcDbDimension
  2
*D3
 10
85.0
 20
28.0
 30
0.0
 11
81.0
 21
28.0
 31
0.0
 70
   160
  3
BIGT
100
AcDbAlignedDimension
 13
77.0
 23
8.0
 33
0.0
 14
85.0
 24
8.0
 34
0.0
100
AcDbRotatedDimension
  0
DIMENSION
  5
CE3
330
1A
100
AcDbEntity
  8
250
  6
CONTINUOUS
100
AcDbDimension
  2
*D4
 10
85.0
 20
35.0
 30
0.0
 11
65.0
 21
35.0
 31
0.0
 70
   160
  3
BIGT
100
AcDbAlignedDimension
 13
45.0
 23
7.46294179
 33
0.0
 14
85.0
 24
8.0
 34
0.0
100
AcDbRotatedDimension
  0
DIMENSION
  5
CF2
330
1A
100
AcDbEntity
  8
250
  6
CONTINUOUS
100
AcDbDimension
  2
*D5
 10
85.0
 20
42.0
 30
0.0
 11
42.5
 21
44.4
 31
0.0
 70
    32
  3
BIGT
100
AcDbAlignedDimension
 13
0.0
 23
30.5
 33
0.0
 14
85.0
 24
8.0
 34
0.0
100
AcDbRotatedDimension
  0
LINE
  5
111B
330
1A
100
AcDbEntity
  8
250
  6
CONTINUOUS
100
AcDbLine
 10
-18.44991262
 20
-34.94501046
 30
0.0
 11
-42.71657929
 21
-34.94501046
 31
0.0
1001
ITEMNAME
1000
LNSP2
  0
MTEXT
  5
111C
330
1A
100
AcDbEntity
  8
251
  6
CONTINUOUS
100
AcDbMText
 10
-39.91657929
 20
-33.94501046
 30
0.0
 40
2.8
 41
0.0
 71
     7
 72
     1
  1
HSK-A63
  7
YOKO
1001
ITEMNAME
1000
LNSP3
1001
ACAD
1000
MTEXTBEGIN
1070
    73
1070
     1
1070
    44
1040
1.0
1070
    74
1070
     0
1000
MTEXTEND
1000
MTEXTBEGIN
1070
    73
1070
     1
1070
    44
1040
1.0
1070
    74
1070
     0
1000
MTEXTEND
1000
MTEXTBEGIN
1070
    73
1070
     1
1070
    44
1040
1.0
1070
    74
1070
     0
1000
MTEXTEND
  0
LEADER
  5
112C
330
1A
100
AcDbEntity
  8
250
  6
CONTINUOUS
100
AcDbLeader
  3
BIGT
 76
     2
 10
-11.96720963
 20
-23.71663952
 30
0.0
 10
-18.44991262
 20
-34.94501046
 30
0.0
1001
ACAD
1000
DSTYLE
1002
{
1070
     6
1000
OPEN
1070
   343
1005
594
1002
}
  0
INSERT
  5
1335
330
1A
100
AcDbEntity
  8
245
100
AcDbBlockReference
  2
1
 10
0.0
 20
0.0
 30
0.0
  0
VIEWPORT
  5
22
330
17
100
AcDbEntity
 67
     1
  8
0
100
AcDbViewport
 10
261.51769912
 20
148.5
 30
0.0
 40
523.03539823
 41
297.0
 68
     1
 69
     1
1001
ACAD
1000
MVIEW
1002
{
1070
    16
1010
0.0
1020
0.0
1030
0.0
1010
0.0
1020
0.0
1030
1.0
1040
0.0
1040
297.0
1040
261.51769912
1040
148.5
1040
50.0
1040
0.0
1040
0.0
1070
     0
1070
   100
1070
     1
1070
     1
1070
     0
1070
     0
1070
     0
1070
     0
1040
0.0
1040
0.0
1040
0.0
1040
1.0
1040
1.0
1040
10.0
1040
10.0
1070
     0
1002
{
1002
}
1002
}
  0
ENDSEC
  0
SECTION
  2
OBJECTS
  0
DICTIONARY
  5
C
330
0
100
AcDbDictionary
  3
ACAD_GROUP
350
D
  3
ACAD_LAYOUT
350
565
  3
ACAD_MLINESTYLE
350
E
  3
ACAD_PLOTSETTINGS
350
566
  3
ACAD_PLOTSTYLENAME
350
563
  3
ACDBHEADERROUNDTRIPXREC
350
1337
  3
GRADE_DWG
350
540
  0
DICTIONARY
  5
F19
330
1A
100
AcDbDictionary
280
     1
  3
ACAD_LAYOUTSELFREF
360
1359
  0
DICTIONARY
  5
F17
330
17
100
AcDbDictionary
280
     1
  3
ACAD_LAYOUTSELFREF
360
1358
  0
DICTIONARY
  5
D
102
{ACAD_REACTORS
330
C
102
}
330
C
100
AcDbDictionary
  3
*A1
350
6C7
  3
*A2
350
6C8
  3
*A3
350
6D4
  3
*A4
350
6D5
  3
DREC-1
350
5FC
  3
DREC-2
350
654
  3
DREC-3
350
673
  0
DICTIONARY
  5
565
102
{ACAD_REACTORS
330
C
102
}
330
C
100
AcDbDictionary
  0
DICTIONARY
  5
E
102
{ACAD_REACTORS
330
C
102
}
330
C
100
AcDbDictionary
  3
STANDARD
350
13
  0
DICTIONARY
  5
566
102
{ACAD_REACTORS
330
C
102
}
330
C
100
AcDbDictionary
  3
A3_0_5倍_
350
758
  3
A3_1倍_
350
757
  3
A3_1倍__2000_
350
707
  3
A3_2倍_
350
759
  3
A4_0_5倍_
350
755
  3
A4_1倍_
350
754
  3
A4_1倍__2000_
350
708
  3
A4_2倍_
350
756
  0
ACDBDICTIONARYWDFLT
  5
563
102
{ACAD_REACTORS
330
C
102
}
330
C
100
AcDbDictionary
281
     1
  3
Normal
350
564
100
AcDbDictionaryWithDefault
340
564
  0
DICTIONARY
  5
1337
102
{ACAD_REACTORS
330
C
102
}
330
C
100
AcDbDictionary
  3
CEPSNTYPE
350
1341
  3
DIMSTYLEDATA
350
1345
  3
FINGERPRINTGUID
350
1342
  3
HYPERLINKBASE
350
133A
  3
INSUNITS
350
1340
  3
LAYOUTDICT
350
133C
  3
LWETCUNION
350
133F
  3
PLOTSETDICT
350
133D
  3
PLOTSTYLNAMDICT
350
133E
  3
PSVPSCALE
350
1344
  3
PUCSBASE
350
1348
  3
PUCSORGBACK
350
134E
  3
PUCSORGBOTTOM
350
134A
  3
PUCSORGFRONT
350
134D
  3
PUCSORGLEFT
350
134B
  3
PUCSORGRIGHT
350
134C
  3
PUCSORGTOP
350
1349
  3
PUCSORTHOREF
350
1346
  3
PUCSORTHOVIEW
350
1347
  3
STYLESHEET
350
133B
  3
TSTACKALIGN
350
1338
  3
TSTACKSIZE
350
1339
  3
UCSBASE
350
1351
  3
UCSORGBACK
350
1357
  3
UCSORGBOTTOM
350
1353
  3
UCSORGFRONT
350
1356
  3
UCSORGLEFT
350
1354
  3
UCSORGRIGHT
350
1355
  3
UCSORGTOP
350
1352
  3
UCSORTHOREF
350
134F
  3
UCSORTHOVIEW
350
1350
  3
VERSIONGUID
350
1343
  0
DICTIONARY
  5
540
102
{ACAD_REACTORS
330
C
102
}
330
C
100
AcDbDictionary
  3
VERSION
350
560
  0
XRECORD
  5
1359
102
{ACAD_REACTORS
330
F19
102
}
330
F19
100
AcDbXrecord
340
1A
  0
XRECORD
  5
1358
102
{ACAD_REACTORS
330
F17
102
}
330
F17
100
AcDbXrecord
340
17
  0
GROUP
  5
6C7
102
{ACAD_REACTORS
330
D
102
}
330
D
100
AcDbGroup
300

 70
     0
 71
     1
1001
GRPNAME
1000
DMA00
  0
GROUP
  5
6C8
102
{ACAD_REACTORS
330
D
102
}
330
D
100
AcDbGroup
300

 70
     0
 71
     1
1001
GRPNAME
1000
DMA00
  0
GROUP
  5
6D4
102
{ACAD_REACTORS
330
D
102
}
330
D
100
AcDbGroup
300

 70
     0
 71
     1
1001
GRPNAME
1000
DMA00
  0
GROUP
  5
6D5
102
{ACAD_REACTORS
330
D
102
}
330
D
100
AcDbGroup
300

 70
     0
 71
     1
1001
GRPNAME
1000
DMA00
  0
GROUP
  5
5FC
102
{ACAD_REACTORS
330
D
102
}
330
D
100
AcDbGroup
300

 70
     0
 71
     1
1001
GRPNAME
1000
DREC-
1001
GPARA
1000
xsiz
1000
44.182
1000
ysiz
1000
40.677
1000
angl
1000
0
1000
ctyp
1000
0
1000
csiz
1000
5
1000
lfnt
1000
cont
1000
hcnt
1000
hoff
1000
vcnt
1000
voff
1000
opnt
1000
4
1000
dxpt
1000
0
1000
dypt
1000
0
  0
GROUP
  5
654
102
{ACAD_REACTORS
330
D
102
}
330
D
100
AcDbGroup
300

 70
     0
 71
     1
1001
GRPNAME
1000
DREC-
1001
GPARA
1000
xsiz
1000
54.592
1000
ysiz
1000
53.036
1000
angl
1000
0
1000
ctyp
1000
0
1000
csiz
1000
5
1000
lfnt
1000
cont
1000
hcnt
1000
hoff
1000
vcnt
1000
voff
1000
opnt
1000
4
1000
dxpt
1000
0
1000
dypt
1000
0
  0
GROUP
  5
673
102
{ACAD_REACTORS
330
D
102
}
330
D
100
AcDbGroup
300

 70
     0
 71
     1
1001
GRPNAME
1000
DREC-
1001
GPARA
1000
xsiz
1000
30.363
1000
ysiz
1000
36.175
1000
angl
1000
0
1000
ctyp
1000
0
1000
csiz
1000
5
1000
lfnt
1000
cont
1000
hcnt
1000
hoff
1000
vcnt
1000
voff
1000
opnt
1000
4
1000
dxpt
1000
0
1000
dypt
1000
0
  0
MLINESTYLE
  5
13
102
{ACAD_REACTORS
330
E
102
}
330
E
100
AcDbMlineStyle
  2
STANDARD
 70
     0
  3

 62
     0
 51
90.0
 52
90.0
 71
     2
 49
0.5
 62
   256
  6
BYLAYER
 49
-0.5
 62
   256
  6
BYLAYER
  0
PLOTSETTINGS
  5
758
102
{ACAD_REACTORS
330
566
102
}
330
566
100
AcDbPlotSettings
  1
A3(0.5倍)
  2
\\AWTECPC05\HP DeskJet 1120C
  4
A3
  6

 40
5.95841646
 41
13.49375153
 42
6.04309082
 43
3.67242432
 44
296.92599487
 45
419.94665527
 46
89.96
 47
127.14
 48
0.0
 49
0.0
140
0.0
141
0.0
142
1.0
143
2.0
 70
  1716
 72
     1
 73
     1
 74
     2
  7
big.ctb
 75
    17
147
0.5
148
0.0
149
0.0
  0
PLOTSETTINGS
  5
757
102
{ACAD_REACTORS
330
566
102
}
330
566
100
AcDbPlotSettings
  1
A3(1倍)
  2
\\AWTECPC05\HP DeskJet 1120C
  4
A3
  6

 40
5.95841646
 41
13.49375153
 42
6.04309082
 43
3.67242432
 44
296.92599487
 45
419.94665527
 46
37.46
 47
52.89
 48
0.0
 49
0.0
140
0.0
141
0.0
142
1.0
143
1.0
 70
  1716
 72
     1
 73
     1
 74
     2
  7
big.ctb
 75
    16
147
1.0
148
0.0
149
0.0
  0
PLOTSETTINGS
  5
707
102
{ACAD_REACTORS
330
566
102
}
330
566
100
AcDbPlotSettings
  1
A3(1倍)(2000)
  2
SII LS-1300 (D-SCAN)
  4
User258
  6

 40
3.17499995
 41
3.17499995
 42
3.17498779
 43
3.17498779
 44
419.98898315
 45
296.98950195
 46
58.32
 47
40.32
 48
0.0
 49
0.0
140
0.0
141
0.0
142
1.0
143
1.0
 70
  1716
 72
     1
 73
     0
 74
     2
  7
big.ctb
 75
    16
147
1.0
148
0.0
149
0.0
  0
PLOTSETTINGS
  5
759
102
{ACAD_REACTORS
330
566
102
}
330
566
100
AcDbPlotSettings
  1
A3(2倍)
  2
\\AWTECPC05\HP DeskJet 1120C
  4
A3
  6

 40
5.95841646
 41
13.49375153
 42
6.04309082
 43
3.67242432
 44
296.92599487
 45
419.94665527
 46
-67.54
 47
-95.61
 48
0.0
 49
0.0
140
0.0
141
0.0
142
1.0
143
0.5
 70
  1716
 72
     1
 73
     1
 74
     2
  7
big.ctb
 75
    27
147
2.0
148
0.0
149
0.0
  0
PLOTSETTINGS
  5
755
102
{ACAD_REACTORS
330
566
102
}
330
566
100
AcDbPlotSettings
  1
A4(0.5倍)
  2
\\AWTECPC05\HP DeskJet 1120C
  4
A4
  6

 40
4.18041658
 41
13.49374962
 42
4.18040466
 43
3.92642212
 44
209.97332764
 45
296.92599487
 46
48.31
 47
65.5
 48
0.0
 49
0.0
140
0.0
141
0.0
142
1.0
143
2.0
 70
  1716
 72
     1
 73
     1
 74
     2
  7
big.ctb
 75
    17
147
0.5
148
0.0
149
0.0
  0
PLOTSETTINGS
  5
754
102
{ACAD_REACTORS
330
566
102
}
330
566
100
AcDbPlotSettings
  1
A4(1倍)
  2
\\AWTECPC05\HP DeskJet 1120C
  4
A4
  6

 40
4.18041658
 41
13.49374962
 42
4.18040466
 43
3.92642212
 44
209.97332764
 45
296.92599487
 46
-4.19
 47
-8.75
 48
0.0
 49
0.0
140
0.0
141
0.0
142
1.0
143
1.0
 70
  1716
 72
     1
 73
     1
 74
     2
  7
big.ctb
 75
    16
147
1.0
148
0.0
149
0.0
  0
PLOTSETTINGS
  5
708
102
{ACAD_REACTORS
330
566
102
}
330
566
100
AcDbPlotSettings
  1
A4(1倍)(2000)
  2
SII LS-1300 (D-SCAN)
  4
User259
  6

 40
3.17499995
 41
3.17499995
 42
3.17498779
 43
3.17500305
 44
296.98950195
 45
209.99449158
 46
-3.18
 47
-3.18
 48
0.0
 49
0.0
140
0.0
141
0.0
142
1.0
143
1.0
 70
  1716
 72
     1
 73
     0
 74
     2
  7
big.ctb
 75
    16
147
1.0
148
0.0
149
0.0
  0
PLOTSETTINGS
  5
756
102
{ACAD_REACTORS
330
566
102
}
330
566
100
AcDbPlotSettings
  1
A4(2倍)
  2
\\AWTECPC05\HP DeskJet 1120C
  4
A4
  6

 40
4.18041658
 41
13.49374962
 42
4.18040466
 43
3.92642212
 44
209.97332764
 45
296.92599487
 46
-109.19
 47
-157.25
 48
0.0
 49
0.0
140
0.0
141
0.0
142
1.0
143
0.5
 70
  1716
 72
     1
 73
     1
 74
     2
  7
big.ctb
 75
    27
147
2.0
148
0.0
149
0.0
  0
ACDBPLACEHOLDER
  5
564
102
{ACAD_REACTORS
330
563
102
}
330
563
100
AcDbPlaceHolder
280
     0
  0
XRECORD
  5
1341
102
{ACAD_REACTORS
330
1337
102
}
330
1337
100
AcDbXrecord
 90
        0
  0
XRECORD
  5
1345
102
{ACAD_REACTORS
330
1337
102
}
330
1337
100
AcDbXrecord
1000
DSTYLE
1002
{
1070
    79
 70
     2
1070
   179
 70
     3
1070
   341
340
594
1070
   343
340
594
1070
   344
340
594
1070
   371
 70
    -1
1070
   372
 70
    -1
1002
}
  0
XRECORD
  5
1342
102
{ACAD_REACTORS
330
1337
102
}
330
1337
100
AcDbXrecord
  1
{51294030-9CB4-11D3-8E18-00A0C925D94D}
  0
XRECORD
  5
133A
102
{ACAD_REACTORS
330
1337
102
}
330
1337
100
AcDbXrecord
  1

  0
XRECORD
  5
1340
102
{ACAD_REACTORS
330
1337
102
}
330
1337
100
AcDbXrecord
 90
        0
  0
XRECORD
  5
133C
102
{ACAD_REACTORS
330
1337
102
}
330
1337
100
AcDbXrecord
340
565
  0
XRECORD
  5
133F
102
{ACAD_REACTORS
330
1337
102
}
330
1337
100
AcDbXrecord
 90
    10781
  0
XRECORD
  5
133D
102
{ACAD_REACTORS
330
1337
102
}
330
1337
100
AcDbXrecord
340
566
  0
XRECORD
  5
133E
102
{ACAD_REACTORS
330
1337
102
}
330
1337
100
AcDbXrecord
340
563
  0
XRECORD
  5
1344
102
{ACAD_REACTORS
330
1337
102
}
330
1337
100
AcDbXrecord
 40
0.0
  0
XRECORD
  5
1348
102
{ACAD_REACTORS
330
1337
102
}
330
1337
100
AcDbXrecord
340
0
  0
XRECORD
  5
134E
102
{ACAD_REACTORS
330
1337
102
}
330
1337
100
AcDbXrecord
 10
0.0
 20
0.0
 30
0.0
  0
XRECORD
  5
134A
102
{ACAD_REACTORS
330
1337
102
}
330
1337
100
AcDbXrecord
 10
0.0
 20
0.0
 30
0.0
  0
XRECORD
  5
134D
102
{ACAD_REACTORS
330
1337
102
}
330
1337
100
AcDbXrecord
 10
0.0
 20
0.0
 30
0.0
  0
XRECORD
  5
134B
102
{ACAD_REACTORS
330
1337
102
}
330
1337
100
AcDbXrecord
 10
0.0
 20
0.0
 30
0.0
  0
XRECORD
  5
134C
102
{ACAD_REACTORS
330
1337
102
}
330
1337
100
AcDbXrecord
 10
0.0
 20
0.0
 30
0.0
  0
XRECORD
  5
1349
102
{ACAD_REACTORS
330
1337
102
}
330
1337
100
AcDbXrecord
 10
0.0
 20
0.0
 30
0.0
  0
XRECORD
  5
1346
102
{ACAD_REACTORS
330
1337
102
}
330
1337
100
AcDbXrecord
340
0
  0
XRECORD
  5
1347
102
{ACAD_REACTORS
330
1337
102
}
330
1337
100
AcDbXrecord
 70
     0
  0
XRECORD
  5
133B
102
{ACAD_REACTORS
330
1337
102
}
330
1337
100
AcDbXrecord
  1
big.ctb
  0
XRECORD
  5
1338
102
{ACAD_REACTORS
330
1337
102
}
330
1337
100
AcDbXrecord
 90
        1
  0
XRECORD
  5
1339
102
{ACAD_REACTORS
330
1337
102
}
330
1337
100
AcDbXrecord
 90
       70
  0
XRECORD
  5
1351
102
{ACAD_REACTORS
330
1337
102
}
330
1337
100
AcDbXrecord
340
0
  0
XRECORD
  5
1357
102
{ACAD_REACTORS
330
1337
102
}
330
1337
100
AcDbXrecord
 10
0.0
 20
0.0
 30
0.0
  0
XRECORD
  5
1353
102
{ACAD_REACTORS
330
1337
102
}
330
1337
100
AcDbXrecord
 10
0.0
 20
0.0
 30
0.0
  0
XRECORD
  5
1356
102
{ACAD_REACTORS
330
1337
102
}
330
1337
100
AcDbXrecord
 10
0.0
 20
0.0
 30
0.0
  0
XRECORD
  5
1354
102
{ACAD_REACTORS
330
1337
102
}
330
1337
100
AcDbXrecord
 10
0.0
 20
0.0
 30
0.0
  0
XRECORD
  5
1355
102
{ACAD_REACTORS
330
1337
102
}
330
1337
100
AcDbXrecord
 10
0.0
 20
0.0
 30
0.0
  0
XRECORD
  5
1352
102
{ACAD_REACTORS
330
1337
102
}
330
1337
100
AcDbXrecord
 10
0.0
 20
0.0
 30
0.0
  0
XRECORD
  5
134F
102
{ACAD_REACTORS
330
1337
102
}
330
1337
100
AcDbXrecord
340
0
  0
XRECORD
  5
1350
102
{ACAD_REACTORS
330
1337
102
}
330
1337
100
AcDbXrecord
 70
     0
  0
XRECORD
  5
1343
102
{ACAD_REACTORS
330
1337
102
}
330
1337
100
AcDbXrecord
  1
{FEAF9C49-5A30-4E2F-A26A-8D734F29F321}
  0
XRECORD
  5
560
102
{ACAD_REACTORS
330
540
102
}
330
540
100
AcDbXrecord
  1
2.0.0
  0
ENDSEC
  0
EOF
