  0
SECTION
  2
HEADER
  9
$ACADVER
  1
AC1014
  9
$ACADMAINTVER
 70
     9
  9
$DWGCODEPAGE
  3
ANSI_932
  9
$INSBASE
 10
0.0
 20
0.0
 30
0.0
  9
$EXTMIN
 10
-42.7306992
 20
-34.95513984
 30
-0.00152582
  9
$EXTMAX
 10
148.00856424
 20
64.52300938
 30
0.00000003
  9
$LIMMIN
 10
0.0
 20
0.0
  9
$LIMMAX
 10
420.0
 20
297.0
  9
$ORTHOMODE
 70
     0
  9
$REGENMODE
 70
     1
  9
$FILLMODE
 70
     1
  9
$QTEXTMODE
 70
     0
  9
$MIRRTEXT
 70
     1
  9
$DRAGMODE
 70
     2
  9
$LTSCALE
 40
10.0
  9
$OSMODE
 70
   549
  9
$ATTMODE
 70
     1
  9
$TEXTSIZE
 40
3.0
  9
$TRACEWID
 40
1.0
  9
$TEXTSTYLE
  7
YOKO
  9
$CLAYER
  8
245
  9
$CELTYPE
  6
BYLAYER
  9
$CECOLOR
 62
   256
  9
$CELTSCALE
 40
1.0
  9
$DELOBJ
 70
     1
  9
$DISPSILH
 70
     0
  9
$DIMSCALE
 40
1.0
  9
$DIMASZ
 40
2.23
  9
$DIMEXO
 40
0.5
  9
$DIMDLI
 40
2.5
  9
$DIMRND
 40
0.0
  9
$DIMDLE
 40
0.0
  9
$DIMEXE
 40
1.0
  9
$DIMTP
 40
0.0
  9
$DIMTM
 40
0.0
  9
$DIMTXT
 40
2.8
  9
$DIMCEN
 40
0.0
  9
$DIMTSZ
 40
0.0
  9
$DIMTOL
 70
     0
  9
$DIMLIM
 70
     0
  9
$DIMTIH
 70
     0
  9
$DIMTOH
 70
     0
  9
$DIMSE1
 70
     0
  9
$DIMSE2
 70
     0
  9
$DIMTAD
 70
     3
  9
$DIMZIN
 70
     8
  9
$DIMBLK
  1

  9
$DIMASO
 70
     1
  9
$DIMSHO
 70
     1
  9
$DIMPOST
  1

  9
$DIMAPOST
  1

  9
$DIMALT
 70
     0
  9
$DIMALTD
 70
     2
  9
$DIMALTF
 40
25.4
  9
$DIMLFAC
 40
1.0
  9
$DIMTOFL
 70
     1
  9
$DIMTVP
 40
0.0
  9
$DIMTIX
 70
     1
  9
$DIMSOXD
 70
     0
  9
$DIMSAH
 70
     1
  9
$DIMBLK1
  1
OPEN
  9
$DIMBLK2
  1
OPEN
  9
$DIMSTYLE
  2
BIGT
  9
$DIMCLRD
 70
   256
  9
$DIMCLRE
 70
   256
  9
$DIMCLRT
 70
    40
  9
$DIMTFAC
 40
1.0
  9
$DIMGAP
 40
1.0
  9
$DIMJUST
 70
     0
  9
$DIMSD1
 70
     0
  9
$DIMSD2
 70
     0
  9
$DIMTOLJ
 70
     1
  9
$DIMTZIN
 70
     8
  9
$DIMALTZ
 70
     0
  9
$DIMALTTZ
 70
     0
  9
$DIMFIT
 70
     3
  9
$DIMUPT
 70
     0
  9
$DIMUNIT
 70
     2
  9
$DIMDEC
 70
     3
  9
$DIMTDEC
 70
     3
  9
$DIMALTU
 70
     2
  9
$DIMALTTD
 70
     2
  9
$DIMTXSTY
  7
STANDARD
  9
$DIMAUNIT
 70
     0
  9
$LUNITS
 70
     2
  9
$LUPREC
 70
     3
  9
$SKETCHINC
 40
1.0
  9
$FILLETRAD
 40
1.0
  9
$AUNITS
 70
     0
  9
$AUPREC
 70
     3
  9
$MENU
  1
.
  9
$ELEVATION
 40
0.0
  9
$PELEVATION
 40
0.0
  9
$THICKNESS
 40
0.0
  9
$LIMCHECK
 70
     0
  9
$BLIPMODE
 70
     0
  9
$CHAMFERA
 40
10.0
  9
$CHAMFERB
 40
10.0
  9
$CHAMFERC
 40
0.0
  9
$CHAMFERD
 40
0.0
  9
$SKPOLY
 70
     0
  9
$TDCREATE
 40
2455141.715293321
  9
$TDUPDATE
 40
2455378.433322835
  9
$TDINDWG
 40
0.0212901505
  9
$TDUSRTIMER
 40
0.0212898032
  9
$USRTIMER
 70
     1
  9
$ANGBASE
 50
0.0
  9
$ANGDIR
 70
     0
  9
$PDMODE
 70
     1
  9
$PDSIZE
 40
-5.0
  9
$PLINEWID
 40
0.0
  9
$COORDS
 70
     0
  9
$SPLFRAME
 70
     0
  9
$SPLINETYPE
 70
     6
  9
$SPLINESEGS
 70
     8
  9
$ATTDIA
 70
     0
  9
$ATTREQ
 70
     1
  9
$HANDLING
 70
-16383
  9
$HANDSEED
  5
E4A
  9
$SURFTAB1
 70
     6
  9
$SURFTAB2
 70
     6
  9
$SURFTYPE
 70
     6
  9
$SURFU
 70
     6
  9
$SURFV
 70
     6
  9
$UCSNAME
  2

  9
$UCSORG
 10
0.0
 20
0.0
 30
0.0
  9
$UCSXDIR
 10
1.0
 20
0.0
 30
0.0
  9
$UCSYDIR
 10
0.0
 20
1.0
 30
0.0
  9
$PUCSNAME
  2

  9
$PUCSORG
 10
0.0
 20
0.0
 30
0.0
  9
$PUCSXDIR
 10
1.0
 20
0.0
 30
0.0
  9
$PUCSYDIR
 10
0.0
 20
1.0
 30
0.0
  9
$USERI1
 70
     1
  9
$USERI2
 70
     0
  9
$USERI3
 70
     0
  9
$USERI4
 70
     0
  9
$USERI5
 70
     0
  9
$USERR1
 40
0.0
  9
$USERR2
 40
0.0
  9
$USERR3
 40
0.0
  9
$USERR4
 40
0.0
  9
$USERR5
 40
0.0
  9
$WORLDVIEW
 70
     1
  9
$SHADEDGE
 70
     3
  9
$SHADEDIF
 70
    70
  9
$TILEMODE
 70
     1
  9
$MAXACTVP
 70
    16
  9
$PINSBASE
 10
0.0
 20
0.0
 30
0.0
  9
$PLIMCHECK
 70
     0
  9
$PEXTMIN
 10
1.00000000E+20
 20
1.00000000E+20
 30
1.00000000E+20
  9
$PEXTMAX
 10
-1.00000000E+20
 20
-1.00000000E+20
 30
-1.00000000E+20
  9
$PLIMMIN
 10
0.0
 20
0.0
  9
$PLIMMAX
 10
420.0
 20
297.0
  9
$UNITMODE
 70
     0
  9
$VISRETAIN
 70
     0
  9
$PLINEGEN
 70
     0
  9
$PSLTSCALE
 70
     1
  9
$TREEDEPTH
 70
  3020
  9
$PICKSTYLE
 70
     0
  9
$CMLSTYLE
  2
STANDARD
  9
$CMLJUST
 70
     0
  9
$CMLSCALE
 40
1.0
  9
$PROXYGRAPHICS
 70
     1
  9
$MEASUREMENT
 70
     1
  0
ENDSEC
  0
SECTION
  2
CLASSES
  0
CLASS
  1
XRECORD
  2
AcDbXrecord
  3
AutoCAD 2000
 90
        0
280
     0
281
     0
  0
CLASS
  1
ACDBDICTIONARYWDFLT
  2
AcDbDictionaryWithDefault
  3
AutoCAD 2000
 90
        0
280
     0
281
     0
  0
CLASS
  1
ACDBPLACEHOLDER
  2
AcDbPlaceHolder
  3
AutoCAD 2000
 90
        0
280
     0
281
     0
  0
CLASS
  1
LAYOUT
  2
AcDbLayout
  3
AutoCAD 2000
 90
        0
280
     0
281
     0
  0
CLASS
  1
PLOTSETTINGS
  2
AcDbPlotSettings
  3
AutoCAD 2000
 90
        0
280
     0
281
     0
  0
CLASS
  1
LONG_TRANSACTION
  2
AcDbLongTransaction
  3
AutoCAD 2000
 90
        0
280
     0
281
     0
  0
CLASS
  1
LWPOLYLINE
  2
AcDbPolyline
  3
AutoCAD 2000
 90
        0
280
     0
281
     1
  0
CLASS
  1
HATCH
  2
AcDbHatch
  3
AutoCAD 2000
 90
        0
280
     0
281
     1
  0
CLASS
  1
XRECORD
  2
AcDbXrecord
  3
AutoCAD 2000
 90
        0
280
     0
281
     0
  0
CLASS
  1
LONG_TRANSACTION
  2
AcDbLongTransaction
  3
AutoCAD 2000
 90
        0
280
     0
281
     0
  0
CLASS
  1
LWPOLYLINE
  2
AcDbPolyline
  3
AutoCAD 2000
 90
        0
280
     0
281
     1
  0
CLASS
  1
HATCH
  2
AcDbHatch
  3
AutoCAD 2000
 90
        0
280
     0
281
     1
  0
CLASS
  1
XRECORD
  2
AcDbXrecord
  3
AutoCAD 2000
 90
        0
280
     0
281
     0
  0
CLASS
  1
LONG_TRANSACTION
  2
AcDbLongTransaction
  3
AutoCAD 2000
 90
        0
280
     0
281
     0
  0
CLASS
  1
LWPOLYLINE
  2
AcDbPolyline
  3
AutoCAD 2000
 90
        0
280
     0
281
     1
  0
CLASS
  1
HATCH
  2
AcDbHatch
  3
AutoCAD 2000
 90
        0
280
     0
281
     1
  0
CLASS
  1
XRECORD
  2
AcDbXrecord
  3
AutoCAD 2000
 90
        0
280
     0
281
     0
  0
ENDSEC
  0
SECTION
  2
TABLES
  0
TABLE
  2
VPORT
  5
8
330
0
100
AcDbSymbolTable
 70
     4
  0
VPORT
  5
E25
330
8
100
AcDbSymbolTableRecord
100
AcDbViewportTableRecord
  2
*ACTIVE
 70
     0
 10
0.0
 20
0.0
 11
1.0
 21
1.0
 12
52.63893252
 22
14.78393477
 13
0.0
 23
0.0
 14
7.0
 24
7.0
 15
7.0
 25
7.0
 16
0.0
 26
0.0
 36
1.0
 17
0.0
 27
0.0
 37
0.0
 40
131.70438642
 41
1.45595855
 42
50.0
 43
0.0
 44
0.0
 50
0.0
 51
0.0
 71
     0
 72
  2000
 73
     1
 74
     0
 75
     0
 76
     0
 77
     0
 78
     0
  0
ENDTAB
  0
TABLE
  2
LTYPE
  5
5
330
0
100
AcDbSymbolTable
 70
     4
  0
LTYPE
  5
14
330
5
100
AcDbSymbolTableRecord
100
AcDbLinetypeTableRecord
  2
BYBLOCK
 70
     0
  3

 72
    65
 73
     0
 40
0.0
  0
LTYPE
  5
15
330
5
100
AcDbSymbolTableRecord
100
AcDbLinetypeTableRecord
  2
BYLAYER
 70
     0
  3

 72
    65
 73
     0
 40
0.0
  0
LTYPE
  5
16
330
5
100
AcDbSymbolTableRecord
100
AcDbLinetypeTableRecord
  2
CONTINUOUS
 70
     0
  3
Solid line
 72
    65
 73
     0
 40
0.0
  0
LTYPE
  5
258
330
5
100
AcDbSymbolTableRecord
100
AcDbLinetypeTableRecord
  2
CENTER2
 70
     0
  3
___ _ ___ _ ___ _ ___ _ ___ _ ___ _ ___ _ ___ _
 72
    65
 73
     4
 40
1.125
 49
0.75
 74
     0
 49
-0.125
 74
     0
 49
0.125
 74
     0
 49
-0.125
 74
     0
  0
LTYPE
  5
25C
330
5
100
AcDbSymbolTableRecord
100
AcDbLinetypeTableRecord
  2
HIDDEN2
 70
     0
  3
_ _ _ _ _ _ _ _ _ _ _ _ _ _ _ _ _ _ _ _ _ _ _ _
 72
    65
 73
     2
 40
0.1875
 49
0.125
 74
     0
 49
-0.0625
 74
     0
  0
LTYPE
  5
25D
330
5
100
AcDbSymbolTableRecord
100
AcDbLinetypeTableRecord
  2
PHANTOM2
 70
     0
  3
___ _ _ ___ _ _ ___ _ _ ___ _ _ ___ _ _ ___ _ _
 72
    65
 73
     6
 40
1.25
 49
0.625
 74
     0
 49
-0.125
 74
     0
 49
0.125
 74
     0
 49
-0.125
 74
     0
 49
0.125
 74
     0
 49
-0.125
 74
     0
  0
ENDTAB
  0
TABLE
  2
LAYER
  5
2
330
0
100
AcDbSymbolTable
 70
    10
  0
LAYER
  5
F
330
2
100
AcDbSymbolTableRecord
100
AcDbLayerTableRecord
  2
0
 70
     0
 62
     7
  6
CONTINUOUS
  0
LAYER
  5
1AA
330
2
100
AcDbSymbolTableRecord
100
AcDbLayerTableRecord
  2
240
 70
     0
 62
     4
  6
CONTINUOUS
  0
LAYER
  5
1AB
330
2
100
AcDbSymbolTableRecord
100
AcDbLayerTableRecord
  2
241
 70
     0
 62
   211
  6
CONTINUOUS
  0
LAYER
  5
1AC
330
2
100
AcDbSymbolTableRecord
100
AcDbLayerTableRecord
  2
242
 70
     0
 62
     3
  6
CONTINUOUS
  0
LAYER
  5
1AF
330
2
100
AcDbSymbolTableRecord
100
AcDbLayerTableRecord
  2
245
 70
     0
 62
     2
  6
CENTER2
  0
LAYER
  5
21A
330
2
100
AcDbSymbolTableRecord
100
AcDbLayerTableRecord
  2
246
 70
     0
 62
     3
  6
PHANTOM2
  0
LAYER
  5
21E
330
2
100
AcDbSymbolTableRecord
100
AcDbLayerTableRecord
  2
250
 70
     0
 62
     3
  6
CONTINUOUS
  0
LAYER
  5
21F
330
2
100
AcDbSymbolTableRecord
100
AcDbLayerTableRecord
  2
251
 70
     0
 62
    40
  6
CONTINUOUS
  0
LAYER
  5
5C4
330
2
100
AcDbSymbolTableRecord
100
AcDbLayerTableRecord
  2
DEFPOINTS
 70
     0
 62
     7
  6
CONTINUOUS
  0
ENDTAB
  0
TABLE
  2
STYLE
  5
3
330
0
100
AcDbSymbolTable
 70
     2
  0
STYLE
  5
10
330
3
100
AcDbSymbolTableRecord
100
AcDbTextStyleTableRecord
  2
STANDARD
 70
     0
 40
0.0
 41
1.0
 50
0.0
 71
     0
 42
3.0
  3
romans.shx
  4
BIGFONT.SHX
  0
STYLE
  5
339
330
3
100
AcDbSymbolTableRecord
100
AcDbTextStyleTableRecord
  2
YOKO
 70
     0
 40
0.0
 41
1.0
 50
0.0
 71
     0
 42
3.0
  3
romans.shx
  4
extfont.shx
  0
ENDTAB
  0
TABLE
  2
VIEW
  5
6
330
0
100
AcDbSymbolTable
 70
     1
  0
VIEW
  5
E23
330
6
100
AcDbSymbolTableRecord
100
AcDbViewTableRecord
  2
OLE1
 70
     0
 40
131.70438642
 10
52.63893252
 20
14.78393477
 41
191.75612738
 11
0.0
 21
0.0
 31
1.0
 12
0.0
 22
0.0
 32
0.0
 42
50.0
 43
0.0
 44
0.0
 50
0.0
 71
     0
  0
ENDTAB
  0
TABLE
  2
UCS
  5
7
330
0
100
AcDbSymbolTable
 70
     0
  0
ENDTAB
  0
TABLE
  2
APPID
  5
9
330
0
100
AcDbSymbolTable
 70
    12
  0
APPID
  5
11
330
9
100
AcDbSymbolTableRecord
100
AcDbRegAppTableRecord
  2
ACAD
 70
     0
  0
APPID
  5
1B1
330
9
100
AcDbSymbolTableRecord
100
AcDbRegAppTableRecord
  2
GLOBAL
 70
     0
  0
APPID
  5
2A4
330
9
100
AcDbSymbolTableRecord
100
AcDbRegAppTableRecord
  2
DETAIL
 70
     0
  0
APPID
  5
5FD
330
9
100
AcDbSymbolTableRecord
100
AcDbRegAppTableRecord
  2
GRPNAME
 70
     0
  0
APPID
  5
5FE
330
9
100
AcDbSymbolTableRecord
100
AcDbRegAppTableRecord
  2
GPARA
 70
     0
  0
APPID
  5
6C4
330
9
100
AcDbSymbolTableRecord
100
AcDbRegAppTableRecord
  2
DCO15
 70
     0
  0
APPID
  5
6C5
330
9
100
AcDbSymbolTableRecord
100
AcDbRegAppTableRecord
  2
ITEMNAME
 70
     0
  0
APPID
  5
6C6
330
9
100
AcDbSymbolTableRecord
100
AcDbRegAppTableRecord
  2
GRADE_0
 70
     0
  0
APPID
  5
881
330
9
100
AcDbSymbolTableRecord
100
AcDbRegAppTableRecord
  2
HATCH_TYPE
 70
     0
  0
APPID
  5
882
330
9
100
AcDbSymbolTableRecord
100
AcDbRegAppTableRecord
  2
HATCH_DISPLAY
 70
     0
  0
APPID
  5
883
330
9
100
AcDbSymbolTableRecord
100
AcDbRegAppTableRecord
  2
HATCH_DISTANCE
 70
     0
  0
APPID
  5
B02
330
9
100
AcDbSymbolTableRecord
100
AcDbRegAppTableRecord
  2
CONTENTBLOCKICON
 70
     0
  0
ENDTAB
  0
TABLE
  2
DIMSTYLE
  5
A
330
0
100
AcDbSymbolTable
 70
     1
  0
DIMSTYLE
105
725
102
{ACAD_REACTORS
330
9A7
330
9B6
330
9C5
330
9D4
102
}
330
A
100
AcDbSymbolTableRecord
100
AcDbDimStyleTableRecord
  2
BIGT
 70
     0
  3

  4

  5

  6
OPEN
  7
OPEN
 40
1.0
 41
2.23
 42
0.5
 43
2.5
 44
1.0
 45
0.0
 46
0.0
 47
0.0
 48
0.0
140
2.8
141
0.0
142
0.0
143
25.4
144
1.0
145
0.0
146
1.0
147
1.0
 71
     0
 72
     0
 73
     0
 74
     0
 75
     0
 76
     0
 77
     3
 78
     8
170
     0
171
     2
172
     1
173
     1
174
     1
175
     0
176
   256
177
   256
178
    40
270
     2
271
     3
272
     3
273
     2
274
     2
340
10
275
     0
280
     0
281
     0
282
     0
283
     1
284
     8
285
     0
286
     0
287
     3
288
     0
  0
ENDTAB
  0
TABLE
  2
BLOCK_RECORD
  5
1
330
0
100
AcDbSymbolTable
 70
     7
  0
BLOCK_RECORD
  5
1A
102
{ACAD_XDICTIONARY
360
B00
102
}
330
1
100
AcDbSymbolTableRecord
100
AcDbBlockTableRecord
  2
*MODEL_SPACE
  0
BLOCK_RECORD
  5
17
102
{ACAD_XDICTIONARY
360
AFE
102
}
330
1
100
AcDbSymbolTableRecord
100
AcDbBlockTableRecord
  2
*PAPER_SPACE
  0
BLOCK_RECORD
  5
594
330
1
100
AcDbSymbolTableRecord
100
AcDbBlockTableRecord
  2
_OPEN
  0
BLOCK_RECORD
  5
6E3
330
1
100
AcDbSymbolTableRecord
100
AcDbBlockTableRecord
  2
矢印なし
  0
BLOCK_RECORD
  5
9A8
330
1
100
AcDbSymbolTableRecord
100
AcDbBlockTableRecord
  2
*D2
  0
BLOCK_RECORD
  5
9B7
330
1
100
AcDbSymbolTableRecord
100
AcDbBlockTableRecord
  2
*D3
  0
BLOCK_RECORD
  5
9C6
330
1
100
AcDbSymbolTableRecord
100
AcDbBlockTableRecord
  2
*D4
  0
BLOCK_RECORD
  5
9D5
330
1
100
AcDbSymbolTableRecord
100
AcDbBlockTableRecord
  2
*D5
  0
BLOCK_RECORD
  5
A33
330
1
100
AcDbSymbolTableRecord
100
AcDbBlockTableRecord
  2
1
1001
CONTENTBLOCKICON
1071
        0
1004
2800000020000000200000000100080000000000000400000000000000000000000000000000000000000000000080000080000000808000800000008000800080800000C0C0C000C0DCC000F0CAA6000020400000206000002080000020A0000020C0000020E00000400000004020000040400000406000004080000040A0
1004
000040C0000040E00000600000006020000060400000606000006080000060A0000060C0000060E00000800000008020000080400000806000008080000080A0000080C0000080E00000A0000000A0200000A0400000A0600000A0800000A0A00000A0C00000A0E00000C0000000C0200000C0400000C0600000C0800000C0
1004
A00000C0C00000C0E00000E0000000E0200000E0400000E0600000E0800000E0A00000E0C00000E0E00040000000400020004000400040006000400080004000A0004000C0004000E00040200000402020004020400040206000402080004020A0004020C0004020E000404000004040200040404000404060004040800040
1004
40A0004040C0004040E00040600000406020004060400040606000406080004060A0004060C0004060E00040800000408020004080400040806000408080004080A0004080C0004080E00040A0000040A0200040A0400040A0600040A0800040A0A00040A0C00040A0E00040C0000040C0200040C0400040C0600040C08000
1004
40C0A00040C0C00040C0E00040E0000040E0200040E0400040E0600040E0800040E0A00040E0C00040E0E00080000000800020008000400080006000800080008000A0008000C0008000E00080200000802020008020400080206000802080008020A0008020C0008020E00080400000804020008040400080406000804080
1004
008040A0008040C0008040E00080600000806020008060400080606000806080008060A0008060C0008060E00080800000808020008080400080806000808080008080A0008080C0008080E00080A0000080A0200080A0400080A0600080A0800080A0A00080A0C00080A0E00080C0000080C0200080C0400080C0600080C0
1004
800080C0A00080C0C00080C0E00080E0000080E0200080E0400080E0600080E0800080E0A00080E0C00080E0E000C0000000C0002000C0004000C0006000C0008000C000A000C000C000C000E000C0200000C0202000C0204000C0206000C0208000C020A000C020C000C020E000C0400000C0402000C0404000C0406000C0
1004
408000C040A000C040C000C040E000C0600000C0602000C0604000C0606000C0608000C060A000C060C000C060E000C0800000C0802000C0804000C0806000C0808000C080A000C080C000C080E000C0A00000C0A02000C0A04000C0A06000C0A08000C0A0A000C0A0C000C0A0E000C0C00000C0C02000C0C04000C0C06000
1004
C0C08000C0C0A000F0FBFF00A4A0A000808080000000FF0000FF000000FFFF00FF000000FF00FF00FFFF0000FFFFFF0000000000000000000000000000000000000000000000000000000000000000000000000000000000000000000000000000000000000000000000000000000000000000000000000000000000000000
1004
00000000000000000000000000000000000000000000000000000000000000000000000000000000000000000000000000000000000000000000000000000000000000000000000000000000000000000000000000000000000000000000000000000000000000000000000000000000000000000000000000000000000000
1004
00000000000000000000000000000000000000000000000000000000000000000000000000000000000000000000000000000000000000000000000000000000000000000000000000000000000000000000000000000000000000000000000000000000000000000000000000000000000000000000000000FEFEFEFEFE00
1004
000000000000000000000000000000000000000000000000FEFEFEE7E7E7E7FE0000000000000000000000000000000000000000FEFEFEFE00E7E7E7E7E7E7FEFEFEFEFEFEFEFEFEFEFEFEFEFEFEFEFEFE000000FE00000000E7E700E7E7E7E7000000000000E70000000000000000E7FE000000FEE7E70000E7E7E7E7E7E7
1004
E7000000000000E70000000000E7E7E700FE00000000FEE700E7E7E7E700FBE7E7000000000000E70000000000E7000000E7000000FBFEE7FBE7E7E7E7FBFBE7E7FBFBFBFBFBFBE7FBFBFBFBFBE7E7E7E7FEFB0000FEFEE70000E7E7E7E7E7E7E7000000000000E70000000000000000E7E7000000FE00000000E7E700E7FB
1004
E7E7000000000000E70000000000000000E7E7000000FEFEFE0000E7E700E7FBE7FEFEFEFEFEFEFEFEFEFEFEFEFEFEFEFEFEFE000000000000FEFEFEFE00FEFEFEFE0000000000000000000000000000000000000000000000000000FEFEFEFEFE000000000000000000000000000000000000000000000000000000000000
1004
00000000000000000000000000000000000000000000000000000000000000000000000000000000000000000000000000000000000000000000000000000000000000000000000000000000000000000000000000000000000000000000000000000000000000000000000000000000000000000000000000000000000000
1004
00000000000000000000000000000000000000000000000000000000000000000000000000000000000000000000000000000000000000000000000000000000000000000000000000000000000000000000000000000000000000000000000000000000000000000000000000000000000000000000000000000000000000
1004
0000000000000000000000000000000000000000000000000000000000000000000000000000000000000000000000000000000000000000
  0
ENDTAB
  0
ENDSEC
  0
SECTION
  2
BLOCKS
  0
BLOCK
  5
1B
330
1A
100
AcDbEntity
  8
0
100
AcDbBlockBegin
  2
*MODEL_SPACE
 70
     0
 10
0.0
 20
0.0
 30
0.0
  3
*MODEL_SPACE
  1

  0
ENDBLK
  5
1C
330
1A
100
AcDbEntity
  8
0
100
AcDbBlockEnd
  0
BLOCK
  5
18
330
17
100
AcDbEntity
 67
     1
  8
0
100
AcDbBlockBegin
  2
*PAPER_SPACE
 70
     0
 10
0.0
 20
0.0
 30
0.0
  3
*PAPER_SPACE
  1

  0
ENDBLK
  5
19
330
17
100
AcDbEntity
 67
     1
  8
0
100
AcDbBlockEnd
  0
BLOCK
  5
598
330
594
100
AcDbEntity
  8
0
100
AcDbBlockBegin
  2
_OPEN
 70
     0
 10
0.0
 20
0.0
 30
0.0
  3
_OPEN
  1

  0
LINE
  5
595
330
594
100
AcDbEntity
  8
0
  6
BYBLOCK
 62
     0
100
AcDbLine
 10
-1.0
 20
0.16666667
 30
0.0
 11
0.0
 21
0.0
 31
0.0
  0
LINE
  5
596
330
594
100
AcDbEntity
  8
0
  6
BYBLOCK
 62
     0
100
AcDbLine
 10
-1.0
 20
-0.16666667
 30
0.0
 11
0.0
 21
0.0
 31
0.0
  0
LINE
  5
597
330
594
100
AcDbEntity
  8
0
  6
BYBLOCK
 62
     0
100
AcDbLine
 10
0.0
 20
0.0
 30
0.0
 11
-1.0
 21
0.0
 31
0.0
  0
ENDBLK
  5
599
330
594
100
AcDbEntity
  8
0
100
AcDbBlockEnd
  0
BLOCK
  5
6E4
330
6E3
100
AcDbEntity
  8
0
100
AcDbBlockBegin
  2
矢印なし
 70
     0
 10
0.0
 20
0.0
 30
0.0
  3
矢印なし
  1

  0
ENDBLK
  5
6E5
330
6E3
100
AcDbEntity
  8
0
100
AcDbBlockEnd
  0
BLOCK
  5
9B2
330
9A8
100
AcDbEntity
  8
0
100
AcDbBlockBegin
  2
*D2
 70
     1
 10
0.0
 20
0.0
 30
0.0
  3
*D2
  1

  0
LINE
  5
A0F
330
9A8
100
AcDbEntity
  8
250
  6
CONTINUOUS
100
AcDbLine
 10
135.5
 20
-20.0
 30
0.0
 11
148.0
 21
-20.0
 31
0.0
  0
LINE
  5
A10
330
9A8
100
AcDbEntity
  8
250
  6
CONTINUOUS
100
AcDbLine
 10
135.5
 20
20.0
 30
0.0
 11
148.0
 21
20.0
 31
0.0
  0
LINE
  5
A11
330
9A8
100
AcDbEntity
  8
250
  6
CONTINUOUS
100
AcDbLine
 10
147.0
 20
-17.77
 30
0.0
 11
147.0
 21
17.77
 31
0.0
  0
INSERT
  5
A12
330
9A8
100
AcDbEntity
  8
250
  6
CONTINUOUS
100
AcDbBlockReference
  2
_OPEN
 10
147.0
 20
-20.0
 30
0.0
 41
2.23
 42
2.23
 43
2.23
 50
270.0
  0
INSERT
  5
A13
330
9A8
100
AcDbEntity
  8
250
  6
CONTINUOUS
100
AcDbBlockReference
  2
_OPEN
 10
147.0
 20
20.0
 30
0.0
 41
2.23
 42
2.23
 43
2.23
 50
90.0
  0
MTEXT
  5
A14
330
9A8
100
AcDbEntity
  8
250
  6
CONTINUOUS
 62
    40
100
AcDbMText
 10
144.6
 20
0.0
 30
0.0
 40
2.8
 41
0.0
 71
     5
 72
     1
  1
\A1;{\H2.8;\U+2205}40
 11
0.0
 21
1.0
 31
0.0
1001
ACAD
1000
MTEXTBEGIN
1070
    73
1070
     1
1070
    44
1040
1.0
1070
    74
1070
     0
1000
MTEXTEND
1000
MTEXTBEGIN
1070
    73
1070
     1
1070
    44
1040
1.0
1070
    74
1070
     0
1000
MTEXTEND
1000
MTEXTBEGIN
1070
    73
1070
     1
1070
    44
1040
1.0
1070
    74
1070
     0
1000
MTEXTEND
  0
POINT
  5
A15
330
9A8
100
AcDbEntity
  8
DEFPOINTS
  6
CONTINUOUS
 62
     0
100
AcDbPoint
 10
135.0
 20
-20.0
 30
0.0
  0
POINT
  5
A16
330
9A8
100
AcDbEntity
  8
DEFPOINTS
  6
CONTINUOUS
 62
     0
100
AcDbPoint
 10
135.0
 20
20.0
 30
0.0
  0
POINT
  5
A17
330
9A8
100
AcDbEntity
  8
DEFPOINTS
  6
CONTINUOUS
 62
     0
100
AcDbPoint
 10
147.0
 20
20.0
 30
0.0
  0
ENDBLK
  5
9B3
330
9A8
100
AcDbEntity
  8
0
100
AcDbBlockEnd
  0
BLOCK
  5
9C1
330
9B7
100
AcDbEntity
  8
0
100
AcDbBlockBegin
  2
*D3
 70
     1
 10
0.0
 20
0.0
 30
0.0
  3
*D3
  1

  0
LINE
  5
A2A
330
9B7
100
AcDbEntity
  8
250
  6
CONTINUOUS
100
AcDbLine
 10
124.0
 20
20.5
 30
0.0
 11
124.0
 21
32.5
 31
0.0
  0
LINE
  5
A2B
330
9B7
100
AcDbEntity
  8
250
  6
CONTINUOUS
100
AcDbLine
 10
135.0
 20
20.5
 30
0.0
 11
135.0
 21
32.5
 31
0.0
  0
LINE
  5
A2C
330
9B7
100
AcDbEntity
  8
250
  6
CONTINUOUS
100
AcDbLine
 10
126.23
 20
31.5
 30
0.0
 11
132.77
 21
31.5
 31
0.0
  0
INSERT
  5
A2D
330
9B7
100
AcDbEntity
  8
250
  6
CONTINUOUS
100
AcDbBlockReference
  2
_OPEN
 10
124.0
 20
31.5
 30
0.0
 41
2.23
 42
2.23
 43
2.23
 50
180.0
  0
INSERT
  5
A2E
330
9B7
100
AcDbEntity
  8
250
  6
CONTINUOUS
100
AcDbBlockReference
  2
_OPEN
 10
135.0
 20
31.5
 30
0.0
 41
2.23
 42
2.23
 43
2.23
  0
MTEXT
  5
A2F
330
9B7
100
AcDbEntity
  8
250
  6
CONTINUOUS
 62
    40
100
AcDbMText
 10
129.5
 20
33.9
 30
0.0
 40
2.8
 41
0.0
 71
     5
 72
     1
  1
\A1;11
1001
ACAD
1000
MTEXTBEGIN
1070
    73
1070
     1
1070
    44
1040
1.0
1070
    74
1070
     0
1000
MTEXTEND
1000
MTEXTBEGIN
1070
    73
1070
     1
1070
    44
1040
1.0
1070
    74
1070
     0
1000
MTEXTEND
1000
MTEXTBEGIN
1070
    73
1070
     1
1070
    44
1040
1.0
1070
    74
1070
     0
1000
MTEXTEND
  0
POINT
  5
A30
330
9B7
100
AcDbEntity
  8
DEFPOINTS
  6
CONTINUOUS
 62
     0
100
AcDbPoint
 10
124.0
 20
20.0
 30
0.0
  0
POINT
  5
A31
330
9B7
100
AcDbEntity
  8
DEFPOINTS
  6
CONTINUOUS
 62
     0
100
AcDbPoint
 10
135.0
 20
20.0
 30
0.0
  0
POINT
  5
A32
330
9B7
100
AcDbEntity
  8
DEFPOINTS
  6
CONTINUOUS
 62
     0
100
AcDbPoint
 10
135.0
 20
31.5
 30
0.0
  0
ENDBLK
  5
9C2
330
9B7
100
AcDbEntity
  8
0
100
AcDbBlockEnd
  0
BLOCK
  5
9D0
330
9C6
100
AcDbEntity
  8
0
100
AcDbBlockBegin
  2
*D4
 70
     1
 10
0.0
 20
0.0
 30
0.0
  3
*D4
  1

  0
LINE
  5
A21
330
9C6
100
AcDbEntity
  8
250
  6
CONTINUOUS
100
AcDbLine
 10
75.0
 20
19.9
 30
0.0
 11
75.0
 21
39.5
 31
0.0
  0
LINE
  5
A22
330
9C6
100
AcDbEntity
  8
250
  6
CONTINUOUS
100
AcDbLine
 10
135.0
 20
20.5
 30
0.0
 11
135.0
 21
39.5
 31
0.0
  0
LINE
  5
A23
330
9C6
100
AcDbEntity
  8
250
  6
CONTINUOUS
100
AcDbLine
 10
77.23
 20
38.5
 30
0.0
 11
132.77
 21
38.5
 31
0.0
  0
INSERT
  5
A24
330
9C6
100
AcDbEntity
  8
250
  6
CONTINUOUS
100
AcDbBlockReference
  2
_OPEN
 10
75.0
 20
38.5
 30
0.0
 41
2.23
 42
2.23
 43
2.23
 50
180.0
  0
INSERT
  5
A25
330
9C6
100
AcDbEntity
  8
250
  6
CONTINUOUS
100
AcDbBlockReference
  2
_OPEN
 10
135.0
 20
38.5
 30
0.0
 41
2.23
 42
2.23
 43
2.23
  0
MTEXT
  5
A26
330
9C6
100
AcDbEntity
  8
250
  6
CONTINUOUS
 62
    40
100
AcDbMText
 10
105.0
 20
40.9
 30
0.0
 40
2.8
 41
0.0
 71
     5
 72
     1
  1
\A1;60
1001
ACAD
1000
MTEXTBEGIN
1070
    73
1070
     1
1070
    44
1040
1.0
1070
    74
1070
     0
1000
MTEXTEND
1000
MTEXTBEGIN
1070
    73
1070
     1
1070
    44
1040
1.0
1070
    74
1070
     0
1000
MTEXTEND
1000
MTEXTBEGIN
1070
    73
1070
     1
1070
    44
1040
1.0
1070
    74
1070
     0
1000
MTEXTEND
  0
POINT
  5
A27
330
9C6
100
AcDbEntity
  8
DEFPOINTS
  6
CONTINUOUS
 62
     0
100
AcDbPoint
 10
75.0
 20
19.4
 30
0.0
  0
POINT
  5
A28
330
9C6
100
AcDbEntity
  8
DEFPOINTS
  6
CONTINUOUS
 62
     0
100
AcDbPoint
 10
135.0
 20
20.0
 30
0.0
  0
POINT
  5
A29
330
9C6
100
AcDbEntity
  8
DEFPOINTS
  6
CONTINUOUS
 62
     0
100
AcDbPoint
 10
135.0
 20
38.5
 30
0.0
  0
ENDBLK
  5
9D1
330
9C6
100
AcDbEntity
  8
0
100
AcDbBlockEnd
  0
BLOCK
  5
9DF
330
9D5
100
AcDbEntity
  8
0
100
AcDbBlockBegin
  2
*D5
 70
     1
 10
0.0
 20
0.0
 30
0.0
  3
*D5
  1

  0
LINE
  5
A18
330
9D5
100
AcDbEntity
  8
250
  6
CONTINUOUS
100
AcDbLine
 10
0.0
 20
31.0
 30
0.0
 11
0.0
 21
46.5
 31
0.0
  0
LINE
  5
A19
330
9D5
100
AcDbEntity
  8
250
  6
CONTINUOUS
100
AcDbLine
 10
135.0
 20
20.5
 30
0.0
 11
135.0
 21
46.5
 31
0.0
  0
LINE
  5
A1A
330
9D5
100
AcDbEntity
  8
250
  6
CONTINUOUS
100
AcDbLine
 10
2.23
 20
45.5
 30
0.0
 11
132.77
 21
45.5
 31
0.0
  0
INSERT
  5
A1B
330
9D5
100
AcDbEntity
  8
250
  6
CONTINUOUS
100
AcDbBlockReference
  2
_OPEN
 10
0.0
 20
45.5
 30
0.0
 41
2.23
 42
2.23
 43
2.23
 50
180.0
  0
INSERT
  5
A1C
330
9D5
100
AcDbEntity
  8
250
  6
CONTINUOUS
100
AcDbBlockReference
  2
_OPEN
 10
135.0
 20
45.5
 30
0.0
 41
2.23
 42
2.23
 43
2.23
  0
MTEXT
  5
A1D
330
9D5
100
AcDbEntity
  8
250
  6
CONTINUOUS
 62
    40
100
AcDbMText
 10
67.5
 20
47.9
 30
0.0
 40
2.8
 41
0.0
 71
     5
 72
     1
  1
\A1;135
1001
ACAD
1000
MTEXTBEGIN
1070
    73
1070
     1
1070
    44
1040
1.0
1070
    74
1070
     0
1000
MTEXTEND
1000
MTEXTBEGIN
1070
    73
1070
     1
1070
    44
1040
1.0
1070
    74
1070
     0
1000
MTEXTEND
1000
MTEXTBEGIN
1070
    73
1070
     1
1070
    44
1040
1.0
1070
    74
1070
     0
1000
MTEXTEND
  0
POINT
  5
A1E
330
9D5
100
AcDbEntity
  8
DEFPOINTS
  6
CONTINUOUS
 62
     0
100
AcDbPoint
 10
0.0
 20
30.5
 30
0.0
  0
POINT
  5
A1F
330
9D5
100
AcDbEntity
  8
DEFPOINTS
  6
CONTINUOUS
 62
     0
100
AcDbPoint
 10
135.0
 20
20.0
 30
0.0
  0
POINT
  5
A20
330
9D5
100
AcDbEntity
  8
DEFPOINTS
  6
CONTINUOUS
 62
     0
100
AcDbPoint
 10
135.0
 20
45.5
 30
0.0
  0
ENDBLK
  5
9E0
330
9D5
100
AcDbEntity
  8
0
100
AcDbBlockEnd
  0
BLOCK
  5
A34
330
A33
100
AcDbEntity
  8
0
100
AcDbBlockBegin
  2
1
 70
     0
 10
0.0
 20
0.0
 30
0.0
  3
1
  1

  0
LINE
  5
D87
330
A33
100
AcDbEntity
  8
245
100
AcDbLine
 10
135.94501588
 20
0.0
 30
0.0
 11
-32.0
 21
0.0
 31
0.0
1001
GRPNAME
1000
PASTMD01
  0
ARC
  5
D88
330
A33
100
AcDbEntity
  8
240
100
AcDbCircle
 10
81.19233235
 20
-519.35739245
 30
0.0
 40
500.0
100
AcDbArc
 50
90.78847473
 51
95.3114634
  0
ARC
  5
D89
330
A33
100
AcDbEntity
  8
240
100
AcDbCircle
 10
81.19233235
 20
519.35739245
 30
0.0
 40
500.0
100
AcDbArc
 50
264.6885366
 51
269.21152527
  0
LINE
  5
D8A
330
A33
100
AcDbEntity
  8
240
  6
CONTINUOUS
100
AcDbLine
 10
26.0
 20
26.3
 30
0.0
 11
26.0
 21
30.5
 31
0.0
  0
LINE
  5
D8B
330
A33
100
AcDbEntity
  8
241
  6
CONTINUOUS
100
AcDbLine
 10
19.875
 20
8.0
 30
0.0
 11
19.875
 21
27.5
 31
0.0
  0
LINE
  5
D8C
330
A33
100
AcDbEntity
  8
241
  6
CONTINUOUS
100
AcDbLine
 10
21.37749907
 20
8.0
 30
0.0
 11
21.37749907
 21
31.5
 31
0.0
  0
LINE
  5
D8D
330
A33
100
AcDbEntity
  8
241
  6
CONTINUOUS
100
AcDbLine
 10
14.62250093
 20
8.0
 30
0.0
 11
14.62250093
 21
31.5
 31
0.0
  0
LINE
  5
D8E
330
A33
100
AcDbEntity
  8
241
  6
CONTINUOUS
100
AcDbLine
 10
16.125
 20
8.0
 30
0.0
 11
16.125
 21
27.5
 31
0.0
  0
LINE
  5
D8F
330
A33
100
AcDbEntity
  8
240
  6
CONTINUOUS
100
AcDbLine
 10
0.0
 20
24.215
 30
0.0
 11
0.0
 21
30.5
 31
0.0
  0
LINE
  5
D90
330
A33
100
AcDbEntity
  8
245
  6
CENTER2
100
AcDbLine
 10
18.0
 20
-31.5
 30
0.0
 11
18.0
 21
31.5
 31
0.0
  0
LINE
  5
D91
330
A33
100
AcDbEntity
  8
240
  6
CONTINUOUS
100
AcDbLine
 10
-31.0
 20
6.27
 30
0.0
 11
-27.5
 21
6.27
 31
0.0
  0
LINE
  5
D92
330
A33
100
AcDbEntity
  8
240
  6
CONTINUOUS
100
AcDbLine
 10
-31.0
 20
-6.27
 30
0.0
 11
-27.5
 21
-6.27
 31
0.0
  0
LINE
  5
D93
330
A33
100
AcDbEntity
  8
240
  6
CONTINUOUS
100
AcDbLine
 10
-2.0
 20
24.215
 30
0.0
 11
-30.85992514
 21
22.77200374
 31
0.0
  0
LINE
  5
D94
330
A33
100
AcDbEntity
  8
240
  6
CONTINUOUS
100
AcDbLine
 10
-2.0
 20
-24.215
 30
0.0
 11
-30.85992514
 21
-22.77200374
 31
0.0
  0
LINE
  5
D95
330
A33
100
AcDbEntity
  8
240
  6
CONTINUOUS
100
AcDbLine
 10
-32.0
 20
-21.57350094
 30
0.0
 11
-32.0
 21
-7.27
 31
0.0
  0
ARC
  5
D96
330
A33
100
AcDbEntity
  8
240
  6
CONTINUOUS
100
AcDbCircle
 10
-30.8
 20
-21.57350094
 30
0.0
 40
1.199999999999988
100
AcDbArc
 50
180.0
 51
267.13759477
  0
LINE
  5
D97
330
A33
100
AcDbEntity
  8
240
  6
CONTINUOUS
100
AcDbLine
 10
-32.0
 20
-7.27
 30
0.0
 11
-31.0
 21
-6.27
 31
0.0
  0
LINE
  5
D98
330
A33
100
AcDbEntity
  8
240
  6
CONTINUOUS
100
AcDbLine
 10
-32.0
 20
7.27
 30
0.0
 11
-32.0
 21
21.57350094
 31
0.0
  0
LINE
  5
D99
330
A33
100
AcDbEntity
  8
240
  6
CONTINUOUS
100
AcDbLine
 10
-31.0
 20
6.27
 30
0.0
 11
-32.0
 21
7.27
 31
0.0
  0
ARC
  5
D9A
330
A33
100
AcDbEntity
  8
240
  6
CONTINUOUS
100
AcDbCircle
 10
-30.8
 20
21.57350094
 30
0.0
 40
1.199999999999994
100
AcDbArc
 50
92.86240523
 51
180.0
  0
LINE
  5
D9B
330
A33
100
AcDbEntity
  8
242
  6
CONTINUOUS
100
AcDbLine
 10
26.5
 20
-7.51828235
 30
0.0
 11
33.95512754
 21
-25.59619484
 31
0.0
  0
LINE
  5
D9C
330
A33
100
AcDbEntity
  8
242
  6
CONTINUOUS
100
AcDbLine
 10
26.5
 20
-25.70500591
 30
0.0
 11
34.0
 21
-7.51828235
 31
0.0
  0
LINE
  5
D9D
330
A33
100
AcDbEntity
  8
241
  6
CONTINUOUS
100
AcDbLine
 10
26.0
 20
-26.3
 30
0.0
 11
26.0
 21
0.0
 31
0.0
  0
LINE
  5
D9E
330
A33
100
AcDbEntity
  8
241
  6
CONTINUOUS
100
AcDbLine
 10
26.5
 20
-25.70500591
 30
0.0
 11
26.5
 21
-7.51828235
 31
0.0
  0
LINE
  5
D9F
330
A33
100
AcDbEntity
  8
241
  6
CONTINUOUS
100
AcDbLine
 10
21.37749907
 20
-24.33618705
 30
0.0
 11
21.37749907
 21
-31.5
 31
0.0
  0
LINE
  5
DA0
330
A33
100
AcDbEntity
  8
241
  6
CONTINUOUS
100
AcDbLine
 10
19.875
 20
-8.0
 30
0.0
 11
19.875
 21
-27.5
 31
0.0
  0
LINE
  5
DA1
330
A33
100
AcDbEntity
  8
241
  6
CONTINUOUS
100
AcDbLine
 10
14.62250093
 20
-24.33618705
 30
0.0
 11
14.62250093
 21
-31.5
 31
0.0
  0
LINE
  5
DA2
330
A33
100
AcDbEntity
  8
240
  6
CONTINUOUS
100
AcDbLine
 10
0.0
 20
-30.5
 30
0.0
 11
0.0
 21
-24.215
 31
0.0
  0
LINE
  5
DA3
330
A33
100
AcDbEntity
  8
241
  6
CONTINUOUS
100
AcDbLine
 10
16.125
 20
-8.0
 30
0.0
 11
16.125
 21
-27.5
 31
0.0
  0
LINE
  5
DA4
330
A33
100
AcDbEntity
  8
240
  6
CONTINUOUS
100
AcDbLine
 10
34.0
 20
-25.3
 30
0.0
 11
34.0
 21
-22.5
 31
0.0
  0
LINE
  5
DA5
330
A33
100
AcDbEntity
  8
240
  6
CONTINUOUS
100
AcDbLine
 10
1.0
 20
-31.5
 30
0.0
 11
14.62250093
 21
-31.5
 31
0.0
  0
ARC
  5
DA6
330
A33
100
AcDbEntity
  8
240
  6
CONTINUOUS
100
AcDbCircle
 10
1.0
 20
-30.5
 30
0.0
 40
1.0
100
AcDbArc
 50
180.0
 51
270.0
  0
ARC
  5
DA7
330
A33
100
AcDbEntity
  8
240
  6
CONTINUOUS
100
AcDbCircle
 10
25.0
 20
-30.5
 30
0.0
 40
1.0
100
AcDbArc
 50
270.0
 51
0.0
  0
LINE
  5
DA8
330
A33
100
AcDbEntity
  8
240
  6
CONTINUOUS
100
AcDbLine
 10
16.125
 20
-27.5
 30
0.0
 11
19.875
 21
-27.5
 31
0.0
  0
LINE
  5
DA9
330
A33
100
AcDbEntity
  8
240
  6
CONTINUOUS
100
AcDbLine
 10
16.125
 20
-28.89759526
 30
0.0
 11
14.62250093
 21
-31.5
 31
0.0
  0
LINE
  5
DAA
330
A33
100
AcDbEntity
  8
240
  6
CONTINUOUS
100
AcDbLine
 10
16.125
 20
-27.5
 30
0.0
 11
16.125
 21
-28.89759526
 31
0.0
  0
LINE
  5
DAB
330
A33
100
AcDbEntity
  8
240
  6
CONTINUOUS
100
AcDbLine
 10
19.875
 20
-28.89759526
 30
0.0
 11
21.37749907
 21
-31.5
 31
0.0
  0
LINE
  5
DAC
330
A33
100
AcDbEntity
  8
240
  6
CONTINUOUS
100
AcDbLine
 10
21.37749907
 20
-31.5
 30
0.0
 11
25.0
 21
-31.5
 31
0.0
  0
LINE
  5
DAD
330
A33
100
AcDbEntity
  8
240
  6
CONTINUOUS
100
AcDbLine
 10
19.875
 20
-27.5
 30
0.0
 11
19.875
 21
-28.89759526
 31
0.0
  0
LINE
  5
DAE
330
A33
100
AcDbEntity
  8
241
  6
CONTINUOUS
100
AcDbLine
 10
26.5
 20
-25.70500591
 30
0.0
 11
33.91431406
 21
-25.70500591
 31
0.0
  0
LINE
  5
DAF
330
A33
100
AcDbEntity
  8
240
  6
CONTINUOUS
100
AcDbLine
 10
26.0
 20
-26.3
 30
0.0
 11
33.0
 21
-26.3
 31
0.0
  0
LINE
  5
DB0
330
A33
100
AcDbEntity
  8
240
  6
CONTINUOUS
100
AcDbLine
 10
26.0
 20
-30.5
 30
0.0
 11
26.0
 21
-26.3
 31
0.0
  0
ARC
  5
DB1
330
A33
100
AcDbEntity
  8
240
  6
CONTINUOUS
100
AcDbCircle
 10
33.0
 20
-25.3
 30
0.0
 40
1.0
100
AcDbArc
 50
270.0
 51
0.0
  0
ARC
  5
DB2
330
A33
100
AcDbEntity
  8
241
  6
CONTINUOUS
100
AcDbCircle
 10
13.0
 20
0.0
 30
0.0
 40
8.0
100
AcDbArc
 50
180.0
 51
270.0
  0
ARC
  5
DB3
330
A33
100
AcDbEntity
  8
241
  6
CONTINUOUS
100
AcDbCircle
 10
13.0
 20
0.0
 30
0.0
 40
8.0
100
AcDbArc
 50
90.0
 51
180.0
  0
LINE
  5
DB4
330
A33
100
AcDbEntity
  8
241
  6
CONTINUOUS
100
AcDbLine
 10
5.0
 20
-24.33618705
 30
0.0
 11
14.62250093
 21
-24.33618705
 31
0.0
  0
ARC
  5
DB5
330
A33
100
AcDbEntity
  8
241
  6
CONTINUOUS
100
AcDbCircle
 10
12.1117139
 20
-28.0
 30
0.0
 40
8.0
100
AcDbArc
 50
90.0
 51
152.74338069
  0
LINE
  5
DB6
330
A33
100
AcDbEntity
  8
245
  6
CENTER2
100
AcDbLine
 10
-9.0
 20
-4.75
 30
0.0
 11
-9.0
 21
4.75
 31
0.0
  0
CIRCLE
  5
DB7
330
A33
100
AcDbEntity
  8
241
  6
CONTINUOUS
100
AcDbCircle
 10
-9.0
 20
0.0
 30
0.0
 40
3.75
  0
LINE
  5
DB8
330
A33
100
AcDbEntity
  8
240
  6
CONTINUOUS
100
AcDbLine
 10
-26.0
 20
4.77
 30
0.0
 11
-26.0
 21
0.0
 31
0.0
  0
LINE
  5
DB9
330
A33
100
AcDbEntity
  8
241
  6
HIDDEN2
100
AcDbLine
 10
-22.0
 20
4.77
 30
0.0
 11
-22.0
 21
0.0
 31
0.0
  0
LINE
  5
DBA
330
A33
100
AcDbEntity
  8
241
100
AcDbLine
 10
0.0
 20
24.215
 30
0.0
 11
0.0
 21
0.0
 31
0.0
  0
LINE
  5
DBB
330
A33
100
AcDbEntity
  8
241
  6
CONTINUOUS
100
AcDbLine
 10
-2.0
 20
24.215
 30
0.0
 11
-2.0
 21
0.0
 31
0.0
  0
ARC
  5
DBC
330
A33
100
AcDbEntity
  8
241
  6
HIDDEN2
100
AcDbCircle
 10
-23.5
 20
-4.77
 30
0.0
 40
1.499999999999985
100
AcDbArc
 50
270.0
 51
0.0
  0
ARC
  5
DBD
330
A33
100
AcDbEntity
  8
240
  6
CONTINUOUS
100
AcDbCircle
 10
-27.5
 20
-4.77
 30
0.0
 40
1.499999999999985
100
AcDbArc
 50
270.0
 51
0.0
  0
LINE
  5
DBE
330
A33
100
AcDbEntity
  8
241
  6
HIDDEN2
100
AcDbLine
 10
-27.5
 20
-6.27
 30
0.0
 11
-23.5
 21
-6.27
 31
0.0
  0
LINE
  5
DBF
330
A33
100
AcDbEntity
  8
240
  6
CONTINUOUS
100
AcDbLine
 10
-26.0
 20
-4.77
 30
0.0
 11
-26.0
 21
0.0
 31
0.0
  0
LINE
  5
DC0
330
A33
100
AcDbEntity
  8
241
  6
HIDDEN2
100
AcDbLine
 10
-22.0
 20
-4.77
 30
0.0
 11
-22.0
 21
0.0
 31
0.0
  0
LINE
  5
DC1
330
A33
100
AcDbEntity
  8
241
  6
CONTINUOUS
100
AcDbLine
 10
-2.0
 20
-24.215
 30
0.0
 11
-2.0
 21
0.0
 31
0.0
  0
LINE
  5
DC2
330
A33
100
AcDbEntity
  8
241
100
AcDbLine
 10
0.0
 20
-24.215
 30
0.0
 11
0.0
 21
0.0
 31
0.0
  0
LINE
  5
DC3
330
A33
100
AcDbEntity
  8
240
100
AcDbLine
 10
-2.0
 20
-24.215
 30
0.0
 11
0.0
 21
-24.215
 31
0.0
  0
LINE
  5
DC4
330
A33
100
AcDbEntity
  8
241
  6
HIDDEN2
100
AcDbLine
 10
-27.5
 20
6.27
 30
0.0
 11
-23.5
 21
6.27
 31
0.0
  0
ARC
  5
DC5
330
A33
100
AcDbEntity
  8
240
  6
CONTINUOUS
100
AcDbCircle
 10
-27.5
 20
4.77
 30
0.0
 40
1.5
100
AcDbArc
 50
0.0
 51
90.0
  0
ARC
  5
DC6
330
A33
100
AcDbEntity
  8
241
  6
HIDDEN2
100
AcDbCircle
 10
-23.5
 20
4.77
 30
0.0
 40
1.5
100
AcDbArc
 50
0.0
 51
90.0
  0
LINE
  5
DC7
330
A33
100
AcDbEntity
  8
240
100
AcDbLine
 10
-2.0
 20
24.215
 30
0.0
 11
0.0
 21
24.215
 31
0.0
  0
LINE
  5
DC8
330
A33
100
AcDbEntity
  8
241
  6
CONTINUOUS
100
AcDbLine
 10
26.0
 20
0.0
 30
0.0
 11
26.0
 21
26.3
 31
0.0
  0
LINE
  5
DC9
330
A33
100
AcDbEntity
  8
241
100
AcDbLine
 10
34.0
 20
0.0
 30
0.0
 11
34.0
 21
22.5
 31
0.0
  0
LINE
  5
DCA
330
A33
100
AcDbEntity
  8
241
  6
CONTINUOUS
100
AcDbLine
 10
19.875
 20
-20.0
 30
0.0
 11
26.0
 21
-20.0
 31
0.0
  0
LINE
  5
DCB
330
A33
100
AcDbEntity
  8
241
  6
CONTINUOUS
100
AcDbLine
 10
21.37749907
 20
-24.33618705
 30
0.0
 11
26.0
 21
-24.33618705
 31
0.0
  0
LINE
  5
DCC
330
A33
100
AcDbEntity
  8
241
  6
CONTINUOUS
100
AcDbLine
 10
13.0
 20
-8.0
 30
0.0
 11
26.0
 21
-8.0
 31
0.0
  0
LINE
  5
DCD
330
A33
100
AcDbEntity
  8
241
  6
CONTINUOUS
100
AcDbLine
 10
21.37749907
 20
-8.0
 30
0.0
 11
21.37749907
 21
-20.0
 31
0.0
  0
LINE
  5
DCE
330
A33
100
AcDbEntity
  8
241
  6
CONTINUOUS
100
AcDbLine
 10
14.62250093
 20
-8.0
 30
0.0
 11
14.62250093
 21
-20.0
 31
0.0
  0
LINE
  5
DCF
330
A33
100
AcDbEntity
  8
241
  6
CONTINUOUS
100
AcDbLine
 10
12.1117139
 20
-20.0
 30
0.0
 11
16.125
 21
-20.0
 31
0.0
  0
LINE
  5
DD0
330
A33
100
AcDbEntity
  8
241
  6
CONTINUOUS
100
AcDbLine
 10
14.62250093
 20
-24.33618705
 30
0.0
 11
16.125
 21
-20.85835593
 31
0.0
  0
LINE
  5
DD1
330
A33
100
AcDbEntity
  8
241
  6
CONTINUOUS
100
AcDbLine
 10
21.37749907
 20
-24.33618705
 30
0.0
 11
19.875
 21
-20.85835593
 31
0.0
  0
LINE
  5
DD2
330
A33
100
AcDbEntity
  8
241
100
AcDbLine
 10
34.0
 20
-22.5
 30
0.0
 11
34.0
 21
0.0
 31
0.0
  0
ARC
  5
DD3
330
A33
100
AcDbEntity
  8
240
100
AcDbCircle
 10
35.0
 20
-22.5
 30
0.0
 40
1.0
100
AcDbArc
 50
95.3114634
 51
180.0
  0
LINE
  5
DD4
330
A33
100
AcDbEntity
  8
241
  6
CONTINUOUS
100
AcDbLine
 10
26.5
 20
-7.51828235
 30
0.0
 11
34.0
 21
-7.51828235
 31
0.0
  0
LINE
  5
DD5
330
A33
100
AcDbEntity
  8
241
  6
CONTINUOUS
100
AcDbLine
 10
13.0
 20
8.0
 30
0.0
 11
26.0
 21
8.0
 31
0.0
  0
LINE
  5
DD6
330
A33
100
AcDbEntity
  8
240
  6
CONTINUOUS
100
AcDbLine
 10
26.0
 20
26.3
 30
0.0
 11
33.0
 21
26.3
 31
0.0
  0
ARC
  5
DD7
330
A33
100
AcDbEntity
  8
240
  6
CONTINUOUS
100
AcDbCircle
 10
33.0
 20
25.3
 30
0.0
 40
1.0
100
AcDbArc
 50
0.0
 51
90.0
  0
LINE
  5
DD8
330
A33
100
AcDbEntity
  8
240
  6
CONTINUOUS
100
AcDbLine
 10
34.0
 20
22.5
 30
0.0
 11
34.0
 21
25.3
 31
0.0
  0
ARC
  5
DD9
330
A33
100
AcDbEntity
  8
240
100
AcDbCircle
 10
35.0
 20
22.5
 30
0.0
 40
1.0
100
AcDbArc
 50
180.0
 51
264.6885366
  0
LINE
  5
DDA
330
A33
100
AcDbEntity
  8
240
  6
CONTINUOUS
100
AcDbLine
 10
1.0
 20
31.5
 30
0.0
 11
14.62250093
 21
31.5
 31
0.0
  0
ARC
  5
DDB
330
A33
100
AcDbEntity
  8
240
  6
CONTINUOUS
100
AcDbCircle
 10
1.0
 20
30.5
 30
0.0
 40
1.0
100
AcDbArc
 50
90.0
 51
180.0
  0
ARC
  5
DDC
330
A33
100
AcDbEntity
  8
240
  6
CONTINUOUS
100
AcDbCircle
 10
25.0
 20
30.5
 30
0.0
 40
1.0
100
AcDbArc
 50
0.0
 51
90.0
  0
LINE
  5
DDD
330
A33
100
AcDbEntity
  8
240
  6
CONTINUOUS
100
AcDbLine
 10
16.125
 20
27.5
 30
0.0
 11
19.875
 21
27.5
 31
0.0
  0
LINE
  5
DDE
330
A33
100
AcDbEntity
  8
240
  6
CONTINUOUS
100
AcDbLine
 10
16.125
 20
28.89759526
 30
0.0
 11
14.62250093
 21
31.5
 31
0.0
  0
LINE
  5
DDF
330
A33
100
AcDbEntity
  8
240
  6
CONTINUOUS
100
AcDbLine
 10
16.125
 20
27.5
 30
0.0
 11
16.125
 21
28.89759526
 31
0.0
  0
LINE
  5
DE0
330
A33
100
AcDbEntity
  8
240
  6
CONTINUOUS
100
AcDbLine
 10
21.37749907
 20
31.5
 30
0.0
 11
25.0
 21
31.5
 31
0.0
  0
LINE
  5
DE1
330
A33
100
AcDbEntity
  8
240
  6
CONTINUOUS
100
AcDbLine
 10
19.875
 20
27.5
 30
0.0
 11
19.875
 21
28.89759526
 31
0.0
  0
LINE
  5
DE2
330
A33
100
AcDbEntity
  8
240
  6
CONTINUOUS
100
AcDbLine
 10
19.875
 20
28.89759526
 30
0.0
 11
21.37749907
 21
31.5
 31
0.0
  0
LINE
  5
DE3
330
A33
100
AcDbEntity
  8
241
  6
CONTINUOUS
100
AcDbLine
 10
113.9339475
 20
2.32685751
 30
0.0
 11
122.20514464
 21
0.86842229
 31
0.0
1001
GRPNAME
1000
PASTMD1C
  0
LINE
  5
DE4
330
A33
100
AcDbEntity
  8
240
  6
CONTINUOUS
100
AcDbLine
 10
122.35358982
 20
19.4
 30
0.0
 11
75.0
 21
19.4
 31
0.0
1001
GRPNAME
1000
PASTMD1C
  0
LINE
  5
DE5
330
A33
100
AcDbEntity
  8
241
  6
CONTINUOUS
100
AcDbLine
 10
111.2356607
 20
-6.64105525
 30
0.0
 11
134.4
 21
-16.70898033
 31
0.0
1001
GRPNAME
1000
PASTMD1C
  0
LINE
  5
DE6
330
A33
100
AcDbEntity
  8
240
  6
CONTINUOUS
100
AcDbLine
 10
122.35358982
 20
-19.4
 30
0.0
 11
75.0
 21
-19.4
 31
0.0
1001
GRPNAME
1000
PASTMD1C
  0
LINE
  5
DE7
330
A33
100
AcDbEntity
  8
241
  6
CONTINUOUS
100
AcDbLine
 10
75.0
 20
0.0
 30
0.0
 11
75.0
 21
19.4
 31
0.0
  0
LINE
  5
DE8
330
A33
100
AcDbEntity
  8
241
  6
CONTINUOUS
100
AcDbLine
 10
75.0
 20
0.0
 30
0.0
 11
75.0
 21
-19.4
 31
0.0
  0
ARC
  5
DE9
330
A33
100
AcDbEntity
  8
240
100
AcDbCircle
 10
75.0
 20
-69.4
 30
0.0
 40
50.0
100
AcDbArc
 50
90.0000176
 51
90.78847473
  0
ARC
  5
DEA
330
A33
100
AcDbEntity
  8
240
100
AcDbCircle
 10
75.0
 20
69.4
 30
0.0
 40
50.0
100
AcDbArc
 50
269.21152527
 51
269.9999824
  0
ARC
  5
DEB
330
A33
100
AcDbEntity
  8
241
  6
CONTINUOUS
100
AcDbCircle
 10
113.11516729
 20
-2.3166758
 30
0.0
 40
4.715167294982784
100
AcDbArc
 50
79.99999996
 51
246.5087536
1001
GRPNAME
1000
PASTMD1C
  0
LINE
  5
DEC
330
A33
100
AcDbEntity
  8
246
100
AcDbLine
 10
135.0
 20
20.0
 30
0.0
 11
135.0
 21
-20.0
 31
0.0
1001
GRPNAME
1000
PASTMD1C
  0
LINE
  5
DED
330
A33
100
AcDbEntity
  8
240
  6
CONTINUOUS
100
AcDbLine
 10
134.38670132
 20
1.8051472
 30
0.0
 11
135.0
 21
-4.03
 31
0.0
1001
GRPNAME
1000
PASTMD1C
  0
LINE
  5
DEE
330
A33
100
AcDbEntity
  8
241
  6
CONTINUOUS
100
AcDbLine
 10
123.59049419
 20
3.7088098
 30
0.0
 11
122.1051246
 21
0.66335082
 31
0.0
1001
GRPNAME
1000
PASTMD1C
  0
LINE
  5
DEF
330
A33
100
AcDbEntity
  8
240
  6
CONTINUOUS
100
AcDbLine
 10
134.4
 20
-3.81161786
 30
0.0
 11
135.0
 21
-4.03
 31
0.0
1001
GRPNAME
1000
PASTMD1C
  0
LINE
  5
DF0
330
A33
100
AcDbEntity
  8
246
100
AcDbLine
 10
135.0
 20
-20.0
 30
0.0
 11
124.0
 21
-20.0
 31
0.0
  0
LINE
  5
DF1
330
A33
100
AcDbEntity
  8
240
  6
CONTINUOUS
100
AcDbLine
 10
134.4
 20
-19.3
 30
0.0
 11
134.4
 21
-3.81161786
 31
0.0
1001
GRPNAME
1000
PASTMD1C
  0
LINE
  5
DF2
330
A33
100
AcDbEntity
  8
240
  6
CONTINUOUS
100
AcDbLine
 10
134.4
 20
-19.3
 30
0.0
 11
123.10000003
 21
-19.6
 31
0.0
1001
GRPNAME
1000
PASTMD1C
  0
LINE
  5
DF3
330
A33
100
AcDbEntity
  8
240
  6
CONTINUOUS
100
AcDbLine
 10
122.35358982
 20
-19.4
 30
0.0
 11
123.10000003
 21
-19.6
 31
0.0
1001
GRPNAME
1000
PASTMD1C
  0
LINE
  5
DF4
330
A33
100
AcDbEntity
  8
241
  6
CONTINUOUS
100
AcDbLine
 10
122.1051246
 20
0.66335082
 30
0.0
 11
134.4
 21
-3.81161786
 31
0.0
1001
GRPNAME
1000
PASTMD1C
  0
LINE
  5
DF5
330
A33
100
AcDbEntity
  8
246
100
AcDbLine
 10
135.0
 20
20.0
 30
0.0
 11
124.0
 21
20.0
 31
0.0
  0
LINE
  5
DF6
330
A33
100
AcDbEntity
  8
240
  6
CONTINUOUS
100
AcDbLine
 10
134.4
 20
1.80280228
 30
0.0
 11
134.4
 21
19.3
 31
0.0
1001
GRPNAME
1000
PASTMD1C
  0
LINE
  5
DF7
330
A33
100
AcDbEntity
  8
241
  6
CONTINUOUS
100
AcDbLine
 10
123.59049419
 20
3.7088098
 30
0.0
 11
134.38670132
 21
1.8051472
 31
0.0
1001
GRPNAME
1000
PASTMD1C
  0
LINE
  5
DF8
330
A33
100
AcDbEntity
  8
240
  6
CONTINUOUS
100
AcDbLine
 10
134.4
 20
1.80280228
 30
0.0
 11
134.38670132
 21
1.8051472
 31
0.0
1001
GRPNAME
1000
PASTMD1C
  0
LWPOLYLINE
  5
DF9
330
A33
100
AcDbEntity
  8
241
  6
CONTINUOUS
100
AcDbPolyline
 90
       70
 70
     0
 43
0.0
 10
132.06141888
 20
11.78394386
 10
132.07534381
 20
11.8739654
 10
132.08546379
 20
11.96446611
 10
132.09175786
 20
12.05525841
 10
132.09421297
 20
12.14615413
 10
132.09282403
 20
12.23696488
 10
132.08759392
 20
12.32750244
 10
132.07853349
 20
12.41757917
 10
132.0656615
 20
12.50700837
 10
132.04900463
 20
12.59560469
 10
132.02859742
 20
12.68318451
 10
132.00448216
 20
12.76956631
 10
131.97670882
 20
12.85457105
 10
131.94533497
 20
12.93802255
 10
131.91042564
 20
13.01974784
 10
131.87205318
 20
13.09957756
 10
131.83029712
 20
13.17734623
 10
131.78524401
 20
13.25289268
 10
131.73698722
 20
13.32606032
 10
131.68562676
 20
13.39669752
 10
131.6312691
 20
13.46465786
 10
131.57402689
 20
13.5298005
 10
131.51401876
 20
13.59199041
 10
131.45136911
 20
13.6510987
 10
131.38620776
 20
13.70700287
 10
131.31866978
 20
13.75958705
 10
131.24889515
 20
13.80874225
 10
131.17702848
 20
13.85436659
 10
131.10321872
 20
13.8963655
 10
131.02761885
 20
13.93465196
 10
130.95038556
 20
13.96914659
 10
130.87167892
 20
13.99977791
 10
130.79166206
 20
14.02648243
 10
130.71050083
 20
14.0492048
 10
130.62836344
 20
14.06789793
 10
130.54542012
 20
14.08252308
 10
130.46184279
 20
14.09304992
 10
130.37780467
 20
14.09945665
 10
130.29347994
 20
14.10172999
 10
130.20904336
 20
14.09986522
 10
130.12466995
 20
14.09386621
 10
130.04053457
 20
14.08374539
 10
129.95681161
 20
14.06952374
 10
129.87367459
 20
14.05123074
 10
129.79129581
 20
14.02890429
 10
129.70984602
 20
14.00259068
 10
129.62949404
 20
13.97234443
 10
129.55040639
 20
13.93822825
 10
129.472747
 20
13.90031283
 10
129.39667682
 20
13.85867677
 10
129.32235351
 20
13.81340635
 10
129.24993113
 20
13.76459541
 10
129.17955977
 20
13.71234511
 10
129.11138529
 20
13.65676374
 10
129.04554897
 20
13.59796651
 10
128.98218729
 20
13.53607527
 10
128.92143155
 20
13.47121831
 10
128.86340768
 20
13.40353004
 10
128.80823595
 20
13.33315075
 10
128.7560307
 20
13.26022632
 10
128.70690013
 20
13.18490789
 10
128.66094607
 20
13.10735156
 10
128.61826377
 20
13.02771808
 10
128.57894169
 20
12.9461725
 10
128.54306132
 20
12.86288382
 10
128.51069704
 20
12.77802467
 10
128.48191592
 20
12.69177094
 10
128.45677762
 20
12.60430138
 10
128.43533423
 20
12.5157973
 10
128.4176302
 20
12.42644212
1001
GRPNAME
1000
PASTMD1C
  0
LWPOLYLINE
  5
DFA
330
A33
100
AcDbEntity
  8
241
  6
CONTINUOUS
100
AcDbPolyline
 90
       70
 70
     0
 43
0.0
 10
128.4176302
 20
12.42644212
 10
128.39773529
 20
12.30254334
 10
128.38165753
 20
12.1782359
 10
128.36943026
 20
12.05377741
 10
128.3610788
 20
11.92942582
 10
128.35662047
 20
11.80543884
 10
128.3560645
 20
11.68207345
 10
128.35941206
 20
11.5595853
 10
128.36665619
 20
11.43822827
 10
128.37778189
 20
11.31825385
 10
128.3927661
 20
11.1999107
 10
128.41157777
 20
11.08344408
 10
128.4341779
 20
10.96909536
 10
128.46051966
 20
10.85710155
 10
128.49054846
 20
10.74769473
 10
128.52420206
 20
10.64110166
 10
128.56141072
 20
10.53754324
 10
128.60209731
 20
10.43723412
 10
128.64617752
 20
10.34038216
 10
128.69356
 20
10.2471881
 10
128.74414653
 20
10.15784509
 10
128.79783229
 20
10.07253828
 10
128.854506
 20
9.99144447
 10
128.91405022
 20
9.91473174
 10
128.97634153
 20
9.84255906
 10
129.04125084
 20
9.77507601
 10
129.10864362
 20
9.71242246
 10
129.17838021
 20
9.65472824
 10
129.25031607
 20
9.60211294
 10
129.32430213
 20
9.55468559
 10
129.40018503
 20
9.5125445
 10
129.47780752
 20
9.47577699
 10
129.55700872
 20
9.44445927
 10
129.63762449
 20
9.41865624
 10
129.71948776
 20
9.39842138
 10
129.80242885
 20
9.38379663
 10
129.88627589
 20
9.37481229
 10
129.97085509
 20
9.37148699
 10
130.05599117
 20
9.37382761
 10
130.14150768
 20
9.38182931
 10
130.22722738
 20
9.39547551
 10
130.31297264
 20
9.41473792
 10
130.39856573
 20
9.43957661
 10
130.48382927
 20
9.46994012
 10
130.56858655
 20
9.50576552
 10
130.65266191
 20
9.54697854
 10
130.73588111
 20
9.5934938
 10
130.81807167
 20
9.64521487
 10
130.89906326
 20
9.70203457
 10
130.97868801
 20
9.76383514
 10
131.05678091
 20
9.83048849
 10
131.13318012
 20
9.9018565
 10
131.20772729
 20
9.97779125
 10
131.28026792
 20
10.05813536
 10
131.35065169
 20
10.14272233
 10
131.4187327
 20
10.23137684
 10
131.48436988
 20
10.32391517
 10
131.54742718
 20
10.42014552
 10
131.60777392
 20
10.51986846
 10
131.66528504
 20
10.62287731
 10
131.71984133
 20
10.7289586
 10
131.77132974
 20
10.83789246
 10
131.81964355
 20
10.94945313
 10
131.86468263
 20
11.06340941
 10
131.90635365
 20
11.17952511
 10
131.94457023
 20
11.29755959
 10
131.97925317
 20
11.41726823
 10
132.0103306
 20
11.53840293
 10
132.03773811
 20
11.66071264
 10
132.06141888
 20
11.78394386
1001
GRPNAME
1000
PASTMD1C
  0
LINE
  5
DFB
330
A33
100
AcDbEntity
  8
240
  6
CONTINUOUS
100
AcDbLine
 10
134.4
 20
19.3
 30
0.0
 11
123.10000003
 21
19.6
 31
0.0
1001
GRPNAME
1000
PASTMD1C
  0
LINE
  5
DFC
330
A33
100
AcDbEntity
  8
240
  6
CONTINUOUS
100
AcDbLine
 10
122.35358982
 20
19.4
 30
0.0
 11
123.10000003
 21
19.6
 31
0.0
1001
GRPNAME
1000
PASTMD1C
  0
ENDBLK
  5
A35
330
A33
100
AcDbEntity
  8
0
100
AcDbBlockEnd
  0
ENDSEC
  0
SECTION
  2
ENTITIES
  0
INSERT
  5
6E6
330
1A
100
AcDbEntity
  8
245
100
AcDbBlockReference
  2
矢印なし
 10
175.62382697
 20
90.55123572
 30
0.0
  0
TEXT
  5
8AF
330
1A
100
AcDbEntity
  8
241
100
AcDbText
 10
-32.0
 20
59.5
 30
0.0
 40
5.0
  1
HSK-A63-FCM40114-135
  7
YOKO
 11
-32.0
 21
59.5
 31
0.0
100
AcDbText
 73
     1
  0
DIMENSION
  5
9A7
330
1A
100
AcDbEntity
  8
250
  6
CONTINUOUS
100
AcDbDimension
  2
*D2
 10
147.0
 20
20.0
 30
0.0
 11
144.6
 21
0.0
 31
0.0
 70
    32
  1
{\H2.8;\U+2205}<>
  3
BIGT
100
AcDbAlignedDimension
 13
135.0
 23
-20.0
 33
0.0
 14
135.0
 24
20.0
 34
0.0
 50
90.0
100
AcDbRotatedDimension
  0
DIMENSION
  5
9B6
330
1A
100
AcDbEntity
  8
250
  6
CONTINUOUS
100
AcDbDimension
  2
*D3
 10
135.0
 20
31.5
 30
0.0
 11
129.5
 21
33.9
 31
0.0
 70
    32
  3
BIGT
100
AcDbAlignedDimension
 13
124.0
 23
20.0
 33
0.0
 14
135.0
 24
20.0
 34
0.0
100
AcDbRotatedDimension
  0
DIMENSION
  5
9C5
330
1A
100
AcDbEntity
  8
250
  6
CONTINUOUS
100
AcDbDimension
  2
*D4
 10
135.0
 20
38.5
 30
0.0
 11
105.0
 21
40.9
 31
0.0
 70
    32
  3
BIGT
100
AcDbAlignedDimension
 13
75.0
 23
19.4
 33
0.0
 14
135.0
 24
20.0
 34
0.0
100
AcDbRotatedDimension
  0
DIMENSION
  5
9D4
330
1A
100
AcDbEntity
  8
250
  6
CONTINUOUS
100
AcDbDimension
  2
*D5
 10
135.0
 20
45.5
 30
0.0
 11
67.5
 21
47.9
 31
0.0
 70
    32
  3
BIGT
100
AcDbAlignedDimension
 13
0.0
 23
30.5
 33
0.0
 14
135.0
 24
20.0
 34
0.0
100
AcDbRotatedDimension
  0
LINE
  5
BF5
330
1A
100
AcDbEntity
  8
250
  6
CONTINUOUS
100
AcDbLine
 10
-18.44991262
 20
-34.94501046
 30
0.0
 11
-42.71657929
 21
-34.94501046
 31
0.0
1001
ITEMNAME
1000
LNSP2
  0
MTEXT
  5
BF6
330
1A
100
AcDbEntity
  8
251
  6
CONTINUOUS
100
AcDbMText
 10
-39.91657929
 20
-33.94501046
 30
0.0
 40
2.8
 41
0.0
 71
     7
 72
     1
  1
HSK-A63
  7
YOKO
1001
ITEMNAME
1000
LNSP3
1001
ACAD
1000
MTEXTBEGIN
1070
    73
1070
     1
1070
    44
1040
1.0
1070
    74
1070
     0
1000
MTEXTEND
1000
MTEXTBEGIN
1070
    73
1070
     1
1070
    44
1040
1.0
1070
    74
1070
     0
1000
MTEXTEND
1000
MTEXTBEGIN
1070
    73
1070
     1
1070
    44
1040
1.0
1070
    74
1070
     0
1000
MTEXTEND
1000
MTEXTBEGIN
1070
    73
1070
     1
1070
    44
1040
1.0
1070
    74
1070
     0
1000
MTEXTEND
  0
LEADER
  5
C06
330
1A
100
AcDbEntity
  8
250
  6
CONTINUOUS
100
AcDbLeader
  3
BIGT
 76
     2
 10
-11.96720963
 20
-23.71663952
 30
0.0
 10
-18.44991262
 20
-34.94501046
 30
0.0
1001
ACAD
1000
DSTYLE
1002
{
1070
     6
1000
OPEN
1070
   343
1005
594
1002
}
  0
INSERT
  5
DFD
330
1A
100
AcDbEntity
  8
245
100
AcDbBlockReference
  2
1
 10
0.0
 20
0.0
 30
0.0
  0
VIEWPORT
  5
22
330
17
100
AcDbEntity
 67
     1
  8
0
100
AcDbViewport
 10
261.51769912
 20
148.5
 30
0.0
 40
523.03539823
 41
297.0
 68
     1
 69
     1
1001
ACAD
1000
MVIEW
1002
{
1070
    16
1010
0.0
1020
0.0
1030
0.0
1010
0.0
1020
0.0
1030
1.0
1040
0.0
1040
297.0
1040
261.51769912
1040
148.5
1040
50.0
1040
0.0
1040
0.0
1070
     0
1070
   100
1070
     1
1070
     1
1070
     0
1070
     0
1070
     0
1070
     0
1040
0.0
1040
0.0
1040
0.0
1040
1.0
1040
1.0
1040
10.0
1040
10.0
1070
     0
1002
{
1002
}
1002
}
  0
ENDSEC
  0
SECTION
  2
OBJECTS
  0
DICTIONARY
  5
C
330
0
100
AcDbDictionary
  3
ACAD_GROUP
350
D
  3
ACAD_LAYOUT
350
565
  3
ACAD_MLINESTYLE
350
E
  3
ACAD_PLOTSETTINGS
350
566
  3
ACAD_PLOTSTYLENAME
350
563
  3
ACDBHEADERROUNDTRIPXREC
350
E26
  3
GRADE_DWG
350
540
  0
DICTIONARY
  5
B00
330
1A
100
AcDbDictionary
280
     1
  3
ACAD_LAYOUTSELFREF
360
E48
  0
DICTIONARY
  5
AFE
330
17
100
AcDbDictionary
280
     1
  3
ACAD_LAYOUTSELFREF
360
E47
  0
DICTIONARY
  5
D
102
{ACAD_REACTORS
330
C
102
}
330
C
100
AcDbDictionary
  3
*A1
350
6C7
  3
*A2
350
6C8
  3
*A3
350
6D4
  3
*A4
350
6D5
  3
DREC-1
350
5FC
  3
DREC-2
350
654
  3
DREC-3
350
673
  0
DICTIONARY
  5
565
102
{ACAD_REACTORS
330
C
102
}
330
C
100
AcDbDictionary
  0
DICTIONARY
  5
E
102
{ACAD_REACTORS
330
C
102
}
330
C
100
AcDbDictionary
  3
STANDARD
350
13
  0
DICTIONARY
  5
566
102
{ACAD_REACTORS
330
C
102
}
330
C
100
AcDbDictionary
  3
A3_0_5倍_
350
758
  3
A3_1倍_
350
757
  3
A3_1倍__2000_
350
707
  3
A3_2倍_
350
759
  3
A4_0_5倍_
350
755
  3
A4_1倍_
350
754
  3
A4_1倍__2000_
350
708
  3
A4_2倍_
350
756
  0
ACDBDICTIONARYWDFLT
  5
563
102
{ACAD_REACTORS
330
C
102
}
330
C
100
AcDbDictionary
281
     1
  3
Normal
350
564
100
AcDbDictionaryWithDefault
340
564
  0
DICTIONARY
  5
E26
102
{ACAD_REACTORS
330
C
102
}
330
C
100
AcDbDictionary
  3
CEPSNTYPE
350
E30
  3
DIMSTYLEDATA
350
E34
  3
FINGERPRINTGUID
350
E31
  3
HYPERLINKBASE
350
E29
  3
INSUNITS
350
E2F
  3
LAYOUTDICT
350
E2B
  3
LWETCUNION
350
E2E
  3
PLOTSETDICT
350
E2C
  3
PLOTSTYLNAMDICT
350
E2D
  3
PSVPSCALE
350
E33
  3
PUCSBASE
350
E37
  3
PUCSORGBACK
350
E3D
  3
PUCSORGBOTTOM
350
E39
  3
PUCSORGFRONT
350
E3C
  3
PUCSORGLEFT
350
E3A
  3
PUCSORGRIGHT
350
E3B
  3
PUCSORGTOP
350
E38
  3
PUCSORTHOREF
350
E35
  3
PUCSORTHOVIEW
350
E36
  3
STYLESHEET
350
E2A
  3
TSTACKALIGN
350
E27
  3
TSTACKSIZE
350
E28
  3
UCSBASE
350
E40
  3
UCSORGBACK
350
E46
  3
UCSORGBOTTOM
350
E42
  3
UCSORGFRONT
350
E45
  3
UCSORGLEFT
350
E43
  3
UCSORGRIGHT
350
E44
  3
UCSORGTOP
350
E41
  3
UCSORTHOREF
350
E3E
  3
UCSORTHOVIEW
350
E3F
  3
VERSIONGUID
350
E32
  0
DICTIONARY
  5
540
102
{ACAD_REACTORS
330
C
102
}
330
C
100
AcDbDictionary
  3
VERSION
350
560
  0
XRECORD
  5
E48
102
{ACAD_REACTORS
330
B00
102
}
330
B00
100
AcDbXrecord
340
1A
  0
XRECORD
  5
E47
102
{ACAD_REACTORS
330
AFE
102
}
330
AFE
100
AcDbXrecord
340
17
  0
GROUP
  5
6C7
102
{ACAD_REACTORS
330
D
102
}
330
D
100
AcDbGroup
300

 70
     0
 71
     1
1001
GRPNAME
1000
DMA00
  0
GROUP
  5
6C8
102
{ACAD_REACTORS
330
D
102
}
330
D
100
AcDbGroup
300

 70
     0
 71
     1
1001
GRPNAME
1000
DMA00
  0
GROUP
  5
6D4
102
{ACAD_REACTORS
330
D
102
}
330
D
100
AcDbGroup
300

 70
     0
 71
     1
1001
GRPNAME
1000
DMA00
  0
GROUP
  5
6D5
102
{ACAD_REACTORS
330
D
102
}
330
D
100
AcDbGroup
300

 70
     0
 71
     1
1001
GRPNAME
1000
DMA00
  0
GROUP
  5
5FC
102
{ACAD_REACTORS
330
D
102
}
330
D
100
AcDbGroup
300

 70
     0
 71
     1
1001
GRPNAME
1000
DREC-
1001
GPARA
1000
xsiz
1000
44.182
1000
ysiz
1000
40.677
1000
angl
1000
0
1000
ctyp
1000
0
1000
csiz
1000
5
1000
lfnt
1000
cont
1000
hcnt
1000
hoff
1000
vcnt
1000
voff
1000
opnt
1000
4
1000
dxpt
1000
0
1000
dypt
1000
0
  0
GROUP
  5
654
102
{ACAD_REACTORS
330
D
102
}
330
D
100
AcDbGroup
300

 70
     0
 71
     1
1001
GRPNAME
1000
DREC-
1001
GPARA
1000
xsiz
1000
54.592
1000
ysiz
1000
53.036
1000
angl
1000
0
1000
ctyp
1000
0
1000
csiz
1000
5
1000
lfnt
1000
cont
1000
hcnt
1000
hoff
1000
vcnt
1000
voff
1000
opnt
1000
4
1000
dxpt
1000
0
1000
dypt
1000
0
  0
GROUP
  5
673
102
{ACAD_REACTORS
330
D
102
}
330
D
100
AcDbGroup
300

 70
     0
 71
     1
1001
GRPNAME
1000
DREC-
1001
GPARA
1000
xsiz
1000
30.363
1000
ysiz
1000
36.175
1000
angl
1000
0
1000
ctyp
1000
0
1000
csiz
1000
5
1000
lfnt
1000
cont
1000
hcnt
1000
hoff
1000
vcnt
1000
voff
1000
opnt
1000
4
1000
dxpt
1000
0
1000
dypt
1000
0
  0
MLINESTYLE
  5
13
102
{ACAD_REACTORS
330
E
102
}
330
E
100
AcDbMlineStyle
  2
STANDARD
 70
     0
  3

 62
     0
 51
90.0
 52
90.0
 71
     2
 49
0.5
 62
   256
  6
BYLAYER
 49
-0.5
 62
   256
  6
BYLAYER
  0
PLOTSETTINGS
  5
758
102
{ACAD_REACTORS
330
566
102
}
330
566
100
AcDbPlotSettings
  1
A3(0.5倍)
  2
\\AWTECPC05\HP DeskJet 1120C
  4
A3
  6

 40
5.95841646
 41
13.49375153
 42
6.04309082
 43
3.67242432
 44
296.92599487
 45
419.94665527
 46
89.96
 47
127.14
 48
0.0
 49
0.0
140
0.0
141
0.0
142
1.0
143
2.0
 70
  1716
 72
     1
 73
     1
 74
     2
  7
big.ctb
 75
    17
147
0.5
148
0.0
149
0.0
  0
PLOTSETTINGS
  5
757
102
{ACAD_REACTORS
330
566
102
}
330
566
100
AcDbPlotSettings
  1
A3(1倍)
  2
\\AWTECPC05\HP DeskJet 1120C
  4
A3
  6

 40
5.95841646
 41
13.49375153
 42
6.04309082
 43
3.67242432
 44
296.92599487
 45
419.94665527
 46
37.46
 47
52.89
 48
0.0
 49
0.0
140
0.0
141
0.0
142
1.0
143
1.0
 70
  1716
 72
     1
 73
     1
 74
     2
  7
big.ctb
 75
    16
147
1.0
148
0.0
149
0.0
  0
PLOTSETTINGS
  5
707
102
{ACAD_REACTORS
330
566
102
}
330
566
100
AcDbPlotSettings
  1
A3(1倍)(2000)
  2
SII LS-1300 (D-SCAN)
  4
User258
  6

 40
3.17499995
 41
3.17499995
 42
3.17498779
 43
3.17498779
 44
419.98898315
 45
296.98950195
 46
58.32
 47
40.32
 48
0.0
 49
0.0
140
0.0
141
0.0
142
1.0
143
1.0
 70
  1716
 72
     1
 73
     0
 74
     2
  7
big.ctb
 75
    16
147
1.0
148
0.0
149
0.0
  0
PLOTSETTINGS
  5
759
102
{ACAD_REACTORS
330
566
102
}
330
566
100
AcDbPlotSettings
  1
A3(2倍)
  2
\\AWTECPC05\HP DeskJet 1120C
  4
A3
  6

 40
5.95841646
 41
13.49375153
 42
6.04309082
 43
3.67242432
 44
296.92599487
 45
419.94665527
 46
-67.54
 47
-95.61
 48
0.0
 49
0.0
140
0.0
141
0.0
142
1.0
143
0.5
 70
  1716
 72
     1
 73
     1
 74
     2
  7
big.ctb
 75
    27
147
2.0
148
0.0
149
0.0
  0
PLOTSETTINGS
  5
755
102
{ACAD_REACTORS
330
566
102
}
330
566
100
AcDbPlotSettings
  1
A4(0.5倍)
  2
\\AWTECPC05\HP DeskJet 1120C
  4
A4
  6

 40
4.18041658
 41
13.49374962
 42
4.18040466
 43
3.92642212
 44
209.97332764
 45
296.92599487
 46
48.31
 47
65.5
 48
0.0
 49
0.0
140
0.0
141
0.0
142
1.0
143
2.0
 70
  1716
 72
     1
 73
     1
 74
     2
  7
big.ctb
 75
    17
147
0.5
148
0.0
149
0.0
  0
PLOTSETTINGS
  5
754
102
{ACAD_REACTORS
330
566
102
}
330
566
100
AcDbPlotSettings
  1
A4(1倍)
  2
\\AWTECPC05\HP DeskJet 1120C
  4
A4
  6

 40
4.18041658
 41
13.49374962
 42
4.18040466
 43
3.92642212
 44
209.97332764
 45
296.92599487
 46
-4.19
 47
-8.75
 48
0.0
 49
0.0
140
0.0
141
0.0
142
1.0
143
1.0
 70
  1716
 72
     1
 73
     1
 74
     2
  7
big.ctb
 75
    16
147
1.0
148
0.0
149
0.0
  0
PLOTSETTINGS
  5
708
102
{ACAD_REACTORS
330
566
102
}
330
566
100
AcDbPlotSettings
  1
A4(1倍)(2000)
  2
SII LS-1300 (D-SCAN)
  4
User259
  6

 40
3.17499995
 41
3.17499995
 42
3.17498779
 43
3.17500305
 44
296.98950195
 45
209.99449158
 46
-3.18
 47
-3.18
 48
0.0
 49
0.0
140
0.0
141
0.0
142
1.0
143
1.0
 70
  1716
 72
     1
 73
     0
 74
     2
  7
big.ctb
 75
    16
147
1.0
148
0.0
149
0.0
  0
PLOTSETTINGS
  5
756
102
{ACAD_REACTORS
330
566
102
}
330
566
100
AcDbPlotSettings
  1
A4(2倍)
  2
\\AWTECPC05\HP DeskJet 1120C
  4
A4
  6

 40
4.18041658
 41
13.49374962
 42
4.18040466
 43
3.92642212
 44
209.97332764
 45
296.92599487
 46
-109.19
 47
-157.25
 48
0.0
 49
0.0
140
0.0
141
0.0
142
1.0
143
0.5
 70
  1716
 72
     1
 73
     1
 74
     2
  7
big.ctb
 75
    27
147
2.0
148
0.0
149
0.0
  0
ACDBPLACEHOLDER
  5
564
102
{ACAD_REACTORS
330
563
102
}
330
563
100
AcDbPlaceHolder
280
     0
  0
XRECORD
  5
E30
102
{ACAD_REACTORS
330
E26
102
}
330
E26
100
AcDbXrecord
 90
        0
  0
XRECORD
  5
E34
102
{ACAD_REACTORS
330
E26
102
}
330
E26
100
AcDbXrecord
1000
DSTYLE
1002
{
1070
    79
 70
     2
1070
   179
 70
     3
1070
   341
340
594
1070
   343
340
594
1070
   344
340
594
1070
   371
 70
    -1
1070
   372
 70
    -1
1002
}
  0
XRECORD
  5
E31
102
{ACAD_REACTORS
330
E26
102
}
330
E26
100
AcDbXrecord
  1
{51294030-9CB4-11D3-8E18-00A0C925D94D}
  0
XRECORD
  5
E29
102
{ACAD_REACTORS
330
E26
102
}
330
E26
100
AcDbXrecord
  1

  0
XRECORD
  5
E2F
102
{ACAD_REACTORS
330
E26
102
}
330
E26
100
AcDbXrecord
 90
        0
  0
XRECORD
  5
E2B
102
{ACAD_REACTORS
330
E26
102
}
330
E26
100
AcDbXrecord
340
565
  0
XRECORD
  5
E2E
102
{ACAD_REACTORS
330
E26
102
}
330
E26
100
AcDbXrecord
 90
    10781
  0
XRECORD
  5
E2C
102
{ACAD_REACTORS
330
E26
102
}
330
E26
100
AcDbXrecord
340
566
  0
XRECORD
  5
E2D
102
{ACAD_REACTORS
330
E26
102
}
330
E26
100
AcDbXrecord
340
563
  0
XRECORD
  5
E33
102
{ACAD_REACTORS
330
E26
102
}
330
E26
100
AcDbXrecord
 40
0.0
  0
XRECORD
  5
E37
102
{ACAD_REACTORS
330
E26
102
}
330
E26
100
AcDbXrecord
340
0
  0
XRECORD
  5
E3D
102
{ACAD_REACTORS
330
E26
102
}
330
E26
100
AcDbXrecord
 10
0.0
 20
0.0
 30
0.0
  0
XRECORD
  5
E39
102
{ACAD_REACTORS
330
E26
102
}
330
E26
100
AcDbXrecord
 10
0.0
 20
0.0
 30
0.0
  0
XRECORD
  5
E3C
102
{ACAD_REACTORS
330
E26
102
}
330
E26
100
AcDbXrecord
 10
0.0
 20
0.0
 30
0.0
  0
XRECORD
  5
E3A
102
{ACAD_REACTORS
330
E26
102
}
330
E26
100
AcDbXrecord
 10
0.0
 20
0.0
 30
0.0
  0
XRECORD
  5
E3B
102
{ACAD_REACTORS
330
E26
102
}
330
E26
100
AcDbXrecord
 10
0.0
 20
0.0
 30
0.0
  0
XRECORD
  5
E38
102
{ACAD_REACTORS
330
E26
102
}
330
E26
100
AcDbXrecord
 10
0.0
 20
0.0
 30
0.0
  0
XRECORD
  5
E35
102
{ACAD_REACTORS
330
E26
102
}
330
E26
100
AcDbXrecord
340
0
  0
XRECORD
  5
E36
102
{ACAD_REACTORS
330
E26
102
}
330
E26
100
AcDbXrecord
 70
     0
  0
XRECORD
  5
E2A
102
{ACAD_REACTORS
330
E26
102
}
330
E26
100
AcDbXrecord
  1
big.ctb
  0
XRECORD
  5
E27
102
{ACAD_REACTORS
330
E26
102
}
330
E26
100
AcDbXrecord
 90
        1
  0
XRECORD
  5
E28
102
{ACAD_REACTORS
330
E26
102
}
330
E26
100
AcDbXrecord
 90
       70
  0
XRECORD
  5
E40
102
{ACAD_REACTORS
330
E26
102
}
330
E26
100
AcDbXrecord
340
0
  0
XRECORD
  5
E46
102
{ACAD_REACTORS
330
E26
102
}
330
E26
100
AcDbXrecord
 10
0.0
 20
0.0
 30
0.0
  0
XRECORD
  5
E42
102
{ACAD_REACTORS
330
E26
102
}
330
E26
100
AcDbXrecord
 10
0.0
 20
0.0
 30
0.0
  0
XRECORD
  5
E45
102
{ACAD_REACTORS
330
E26
102
}
330
E26
100
AcDbXrecord
 10
0.0
 20
0.0
 30
0.0
  0
XRECORD
  5
E43
102
{ACAD_REACTORS
330
E26
102
}
330
E26
100
AcDbXrecord
 10
0.0
 20
0.0
 30
0.0
  0
XRECORD
  5
E44
102
{ACAD_REACTORS
330
E26
102
}
330
E26
100
AcDbXrecord
 10
0.0
 20
0.0
 30
0.0
  0
XRECORD
  5
E41
102
{ACAD_REACTORS
330
E26
102
}
330
E26
100
AcDbXrecord
 10
0.0
 20
0.0
 30
0.0
  0
XRECORD
  5
E3E
102
{ACAD_REACTORS
330
E26
102
}
330
E26
100
AcDbXrecord
340
0
  0
XRECORD
  5
E3F
102
{ACAD_REACTORS
330
E26
102
}
330
E26
100
AcDbXrecord
 70
     0
  0
XRECORD
  5
E32
102
{ACAD_REACTORS
330
E26
102
}
330
E26
100
AcDbXrecord
  1
{4378CD08-2BF0-4F99-B89F-99C23CA79BF8}
  0
XRECORD
  5
560
102
{ACAD_REACTORS
330
540
102
}
330
540
100
AcDbXrecord
  1
2.0.0
  0
ENDSEC
  0
EOF
