  0
SECTION
  2
HEADER
  9
$ACADVER
  1
AC1014
  9
$ACADMAINTVER
 70
     9
  9
$DWGCODEPAGE
  3
ANSI_932
  9
$INSBASE
 10
0.0
 20
0.0
 30
0.0
  9
$EXTMIN
 10
-40.3239731
 20
-28.03773424
 30
-0.00152582
  9
$EXTMAX
 10
88.5230077
 20
57.50895504
 30
0.00000003
  9
$LIMMIN
 10
0.0
 20
0.0
  9
$LIMMAX
 10
420.0
 20
297.0
  9
$ORTHOMODE
 70
     0
  9
$REGENMODE
 70
     1
  9
$FILLMODE
 70
     1
  9
$QTEXTMODE
 70
     0
  9
$MIRRTEXT
 70
     1
  9
$DRAGMODE
 70
     2
  9
$LTSCALE
 40
10.0
  9
$OSMODE
 70
   549
  9
$ATTMODE
 70
     1
  9
$TEXTSIZE
 40
3.0
  9
$TRACEWID
 40
1.0
  9
$TEXTSTYLE
  7
YOKO
  9
$CLAYER
  8
245
  9
$CELTYPE
  6
BYLAYER
  9
$CECOLOR
 62
   256
  9
$CELTSCALE
 40
1.0
  9
$DELOBJ
 70
     1
  9
$DISPSILH
 70
     0
  9
$DIMSCALE
 40
1.0
  9
$DIMASZ
 40
2.0
  9
$DIMEXO
 40
2.0
  9
$DIMDLI
 40
2.5
  9
$DIMRND
 40
0.0
  9
$DIMDLE
 40
0.0
  9
$DIMEXE
 40
2.0
  9
$DIMTP
 40
0.0
  9
$DIMTM
 40
0.0
  9
$DIMTXT
 40
4.0
  9
$DIMCEN
 40
0.0
  9
$DIMTSZ
 40
0.0
  9
$DIMTOL
 70
     0
  9
$DIMLIM
 70
     0
  9
$DIMTIH
 70
     0
  9
$DIMTOH
 70
     0
  9
$DIMSE1
 70
     0
  9
$DIMSE2
 70
     0
  9
$DIMTAD
 70
     3
  9
$DIMZIN
 70
     8
  9
$DIMBLK
  1

  9
$DIMASO
 70
     1
  9
$DIMSHO
 70
     1
  9
$DIMPOST
  1

  9
$DIMAPOST
  1

  9
$DIMALT
 70
     0
  9
$DIMALTD
 70
     2
  9
$DIMALTF
 40
25.4
  9
$DIMLFAC
 40
1.0
  9
$DIMTOFL
 70
     1
  9
$DIMTVP
 40
0.0
  9
$DIMTIX
 70
     1
  9
$DIMSOXD
 70
     0
  9
$DIMSAH
 70
     1
  9
$DIMBLK1
  1
OPEN
  9
$DIMBLK2
  1
OPEN
  9
$DIMSTYLE
  2
BIGT
  9
$DIMCLRD
 70
   256
  9
$DIMCLRE
 70
   256
  9
$DIMCLRT
 70
    40
  9
$DIMTFAC
 40
1.0
  9
$DIMGAP
 40
1.0
  9
$DIMJUST
 70
     0
  9
$DIMSD1
 70
     0
  9
$DIMSD2
 70
     0
  9
$DIMTOLJ
 70
     1
  9
$DIMTZIN
 70
     8
  9
$DIMALTZ
 70
     0
  9
$DIMALTTZ
 70
     0
  9
$DIMFIT
 70
     3
  9
$DIMUPT
 70
     0
  9
$DIMUNIT
 70
     2
  9
$DIMDEC
 70
     3
  9
$DIMTDEC
 70
     3
  9
$DIMALTU
 70
     2
  9
$DIMALTTD
 70
     2
  9
$DIMTXSTY
  7
STANDARD
  9
$DIMAUNIT
 70
     0
  9
$LUNITS
 70
     2
  9
$LUPREC
 70
     3
  9
$SKETCHINC
 40
1.0
  9
$FILLETRAD
 40
0.0
  9
$AUNITS
 70
     0
  9
$AUPREC
 70
     3
  9
$MENU
  1
.
  9
$ELEVATION
 40
0.0
  9
$PELEVATION
 40
0.0
  9
$THICKNESS
 40
0.0
  9
$LIMCHECK
 70
     0
  9
$BLIPMODE
 70
     0
  9
$CHAMFERA
 40
10.0
  9
$CHAMFERB
 40
10.0
  9
$CHAMFERC
 40
0.0
  9
$CHAMFERD
 40
0.0
  9
$SKPOLY
 70
     0
  9
$TDCREATE
 40
2455141.614822049
  9
$TDUPDATE
 40
2455383.563219039
  9
$TDINDWG
 40
0.0203967708
  9
$TDUSRTIMER
 40
0.0203967708
  9
$USRTIMER
 70
     1
  9
$ANGBASE
 50
0.0
  9
$ANGDIR
 70
     0
  9
$PDMODE
 70
     1
  9
$PDSIZE
 40
-5.0
  9
$PLINEWID
 40
0.0
  9
$COORDS
 70
     1
  9
$SPLFRAME
 70
     0
  9
$SPLINETYPE
 70
     6
  9
$SPLINESEGS
 70
     8
  9
$ATTDIA
 70
     0
  9
$ATTREQ
 70
     1
  9
$HANDLING
 70
-16383
  9
$HANDSEED
  5
1827
  9
$SURFTAB1
 70
     6
  9
$SURFTAB2
 70
     6
  9
$SURFTYPE
 70
     6
  9
$SURFU
 70
     6
  9
$SURFV
 70
     6
  9
$UCSNAME
  2

  9
$UCSORG
 10
0.0
 20
0.0
 30
0.0
  9
$UCSXDIR
 10
1.0
 20
0.0
 30
0.0
  9
$UCSYDIR
 10
0.0
 20
1.0
 30
0.0
  9
$PUCSNAME
  2

  9
$PUCSORG
 10
0.0
 20
0.0
 30
0.0
  9
$PUCSXDIR
 10
1.0
 20
0.0
 30
0.0
  9
$PUCSYDIR
 10
0.0
 20
1.0
 30
0.0
  9
$USERI1
 70
     1
  9
$USERI2
 70
     0
  9
$USERI3
 70
     0
  9
$USERI4
 70
     0
  9
$USERI5
 70
     0
  9
$USERR1
 40
0.0
  9
$USERR2
 40
0.0
  9
$USERR3
 40
0.0
  9
$USERR4
 40
0.0
  9
$USERR5
 40
0.0
  9
$WORLDVIEW
 70
     1
  9
$SHADEDGE
 70
     3
  9
$SHADEDIF
 70
    70
  9
$TILEMODE
 70
     1
  9
$MAXACTVP
 70
    16
  9
$PINSBASE
 10
0.0
 20
0.0
 30
0.0
  9
$PLIMCHECK
 70
     0
  9
$PEXTMIN
 10
1.00000000E+20
 20
1.00000000E+20
 30
1.00000000E+20
  9
$PEXTMAX
 10
-1.00000000E+20
 20
-1.00000000E+20
 30
-1.00000000E+20
  9
$PLIMMIN
 10
0.0
 20
0.0
  9
$PLIMMAX
 10
420.0
 20
297.0
  9
$UNITMODE
 70
     0
  9
$VISRETAIN
 70
     0
  9
$PLINEGEN
 70
     0
  9
$PSLTSCALE
 70
     1
  9
$TREEDEPTH
 70
  3020
  9
$PICKSTYLE
 70
     0
  9
$CMLSTYLE
  2
STANDARD
  9
$CMLJUST
 70
     0
  9
$CMLSCALE
 40
1.0
  9
$PROXYGRAPHICS
 70
     1
  9
$MEASUREMENT
 70
     1
  0
ENDSEC
  0
SECTION
  2
CLASSES
  0
CLASS
  1
XRECORD
  2
AcDbXrecord
  3
AutoCAD 2000
 90
        0
280
     0
281
     0
  0
CLASS
  1
ACDBDICTIONARYWDFLT
  2
AcDbDictionaryWithDefault
  3
AutoCAD 2000
 90
        0
280
     0
281
     0
  0
CLASS
  1
ACDBPLACEHOLDER
  2
AcDbPlaceHolder
  3
AutoCAD 2000
 90
        0
280
     0
281
     0
  0
CLASS
  1
LAYOUT
  2
AcDbLayout
  3
AutoCAD 2000
 90
        0
280
     0
281
     0
  0
CLASS
  1
PLOTSETTINGS
  2
AcDbPlotSettings
  3
AutoCAD 2000
 90
        0
280
     0
281
     0
  0
CLASS
  1
LONG_TRANSACTION
  2
AcDbLongTransaction
  3
AutoCAD 2000
 90
        0
280
     0
281
     0
  0
CLASS
  1
LWPOLYLINE
  2
AcDbPolyline
  3
AutoCAD 2000
 90
        0
280
     0
281
     1
  0
CLASS
  1
HATCH
  2
AcDbHatch
  3
AutoCAD 2000
 90
        0
280
     0
281
     1
  0
CLASS
  1
XRECORD
  2
AcDbXrecord
  3
AutoCAD 2000
 90
        0
280
     0
281
     0
  0
CLASS
  1
LONG_TRANSACTION
  2
AcDbLongTransaction
  3
AutoCAD 2000
 90
        0
280
     0
281
     0
  0
CLASS
  1
LWPOLYLINE
  2
AcDbPolyline
  3
AutoCAD 2000
 90
        0
280
     0
281
     1
  0
CLASS
  1
HATCH
  2
AcDbHatch
  3
AutoCAD 2000
 90
        0
280
     0
281
     1
  0
CLASS
  1
XRECORD
  2
AcDbXrecord
  3
AutoCAD 2000
 90
        0
280
     0
281
     0
  0
CLASS
  1
LONG_TRANSACTION
  2
AcDbLongTransaction
  3
AutoCAD 2000
 90
        0
280
     0
281
     0
  0
CLASS
  1
LWPOLYLINE
  2
AcDbPolyline
  3
AutoCAD 2000
 90
        0
280
     0
281
     1
  0
CLASS
  1
HATCH
  2
AcDbHatch
  3
AutoCAD 2000
 90
        0
280
     0
281
     1
  0
CLASS
  1
XRECORD
  2
AcDbXrecord
  3
AutoCAD 2000
 90
        0
280
     0
281
     0
  0
ENDSEC
  0
SECTION
  2
TABLES
  0
TABLE
  2
VPORT
  5
8
330
0
100
AcDbSymbolTable
 70
     2
  0
VPORT
  5
1802
330
8
100
AcDbSymbolTableRecord
100
AcDbViewportTableRecord
  2
*ACTIVE
 70
     0
 10
0.0
 20
0.0
 11
1.0
 21
1.0
 12
24.0995173
 22
14.7356104
 13
0.0
 23
0.0
 14
7.0
 24
7.0
 15
7.0
 25
7.0
 16
0.0
 26
0.0
 36
1.0
 17
0.0
 27
0.0
 37
0.0
 40
88.96811408
 41
1.45595855
 42
50.0
 43
0.0
 44
0.0
 50
0.0
 51
0.0
 71
     0
 72
  2000
 73
     1
 74
     0
 75
     0
 76
     0
 77
     0
 78
     0
  0
ENDTAB
  0
TABLE
  2
LTYPE
  5
5
330
0
100
AcDbSymbolTable
 70
     4
  0
LTYPE
  5
14
330
5
100
AcDbSymbolTableRecord
100
AcDbLinetypeTableRecord
  2
BYBLOCK
 70
     0
  3

 72
    65
 73
     0
 40
0.0
  0
LTYPE
  5
15
330
5
100
AcDbSymbolTableRecord
100
AcDbLinetypeTableRecord
  2
BYLAYER
 70
     0
  3

 72
    65
 73
     0
 40
0.0
  0
LTYPE
  5
16
330
5
100
AcDbSymbolTableRecord
100
AcDbLinetypeTableRecord
  2
CONTINUOUS
 70
     0
  3
Solid line
 72
    65
 73
     0
 40
0.0
  0
LTYPE
  5
258
330
5
100
AcDbSymbolTableRecord
100
AcDbLinetypeTableRecord
  2
CENTER2
 70
     0
  3
___ _ ___ _ ___ _ ___ _ ___ _ ___ _ ___ _ ___ _
 72
    65
 73
     4
 40
1.125
 49
0.75
 74
     0
 49
-0.125
 74
     0
 49
0.125
 74
     0
 49
-0.125
 74
     0
  0
LTYPE
  5
25C
330
5
100
AcDbSymbolTableRecord
100
AcDbLinetypeTableRecord
  2
HIDDEN2
 70
     0
  3
_ _ _ _ _ _ _ _ _ _ _ _ _ _ _ _ _ _ _ _ _ _ _ _
 72
    65
 73
     2
 40
0.1875
 49
0.125
 74
     0
 49
-0.0625
 74
     0
  0
LTYPE
  5
25D
330
5
100
AcDbSymbolTableRecord
100
AcDbLinetypeTableRecord
  2
PHANTOM2
 70
     0
  3
___ _ _ ___ _ _ ___ _ _ ___ _ _ ___ _ _ ___ _ _
 72
    65
 73
     6
 40
1.25
 49
0.625
 74
     0
 49
-0.125
 74
     0
 49
0.125
 74
     0
 49
-0.125
 74
     0
 49
0.125
 74
     0
 49
-0.125
 74
     0
  0
ENDTAB
  0
TABLE
  2
LAYER
  5
2
330
0
100
AcDbSymbolTable
 70
    11
  0
LAYER
  5
F
330
2
100
AcDbSymbolTableRecord
100
AcDbLayerTableRecord
  2
0
 70
     0
 62
     7
  6
CONTINUOUS
  0
LAYER
  5
1AA
330
2
100
AcDbSymbolTableRecord
100
AcDbLayerTableRecord
  2
240
 70
     0
 62
     4
  6
CONTINUOUS
  0
LAYER
  5
1AB
330
2
100
AcDbSymbolTableRecord
100
AcDbLayerTableRecord
  2
241
 70
     0
 62
   211
  6
CONTINUOUS
  0
LAYER
  5
1AF
330
2
100
AcDbSymbolTableRecord
100
AcDbLayerTableRecord
  2
245
 70
     0
 62
     2
  6
CENTER2
  0
LAYER
  5
21A
330
2
100
AcDbSymbolTableRecord
100
AcDbLayerTableRecord
  2
246
 70
     0
 62
     3
  6
PHANTOM2
  0
LAYER
  5
21E
330
2
100
AcDbSymbolTableRecord
100
AcDbLayerTableRecord
  2
250
 70
     0
 62
     3
  6
CONTINUOUS
  0
LAYER
  5
21F
330
2
100
AcDbSymbolTableRecord
100
AcDbLayerTableRecord
  2
251
 70
     0
 62
    40
  6
CONTINUOUS
  0
LAYER
  5
5C4
330
2
100
AcDbSymbolTableRecord
100
AcDbLayerTableRecord
  2
DEFPOINTS
 70
     0
 62
     7
  6
CONTINUOUS
  0
LAYER
  5
15A6
330
2
100
AcDbSymbolTableRecord
100
AcDbLayerTableRecord
  2
242
 70
     0
 62
     3
  6
CONTINUOUS
  0
ENDTAB
  0
TABLE
  2
STYLE
  5
3
330
0
100
AcDbSymbolTable
 70
     2
  0
STYLE
  5
10
330
3
100
AcDbSymbolTableRecord
100
AcDbTextStyleTableRecord
  2
STANDARD
 70
     0
 40
0.0
 41
1.0
 50
0.0
 71
     0
 42
3.0
  3
romans.shx
  4
BIGFONT.SHX
  0
STYLE
  5
339
330
3
100
AcDbSymbolTableRecord
100
AcDbTextStyleTableRecord
  2
YOKO
 70
     0
 40
0.0
 41
1.0
 50
0.0
 71
     0
 42
3.0
  3
romans.shx
  4
extfont.shx
  0
ENDTAB
  0
TABLE
  2
VIEW
  5
6
330
0
100
AcDbSymbolTable
 70
     0
  0
ENDTAB
  0
TABLE
  2
UCS
  5
7
330
0
100
AcDbSymbolTable
 70
     0
  0
ENDTAB
  0
TABLE
  2
APPID
  5
9
330
0
100
AcDbSymbolTable
 70
    14
  0
APPID
  5
11
330
9
100
AcDbSymbolTableRecord
100
AcDbRegAppTableRecord
  2
ACAD
 70
     0
  0
APPID
  5
1B1
330
9
100
AcDbSymbolTableRecord
100
AcDbRegAppTableRecord
  2
GLOBAL
 70
     0
  0
APPID
  5
2A4
330
9
100
AcDbSymbolTableRecord
100
AcDbRegAppTableRecord
  2
DETAIL
 70
     0
  0
APPID
  5
5FD
330
9
100
AcDbSymbolTableRecord
100
AcDbRegAppTableRecord
  2
GRPNAME
 70
     0
  0
APPID
  5
5FE
330
9
100
AcDbSymbolTableRecord
100
AcDbRegAppTableRecord
  2
GPARA
 70
     0
  0
APPID
  5
6C4
330
9
100
AcDbSymbolTableRecord
100
AcDbRegAppTableRecord
  2
DCO15
 70
     0
  0
APPID
  5
6C5
330
9
100
AcDbSymbolTableRecord
100
AcDbRegAppTableRecord
  2
ITEMNAME
 70
     0
  0
APPID
  5
6C6
330
9
100
AcDbSymbolTableRecord
100
AcDbRegAppTableRecord
  2
GRADE_0
 70
     0
  0
APPID
  5
AA0
330
9
100
AcDbSymbolTableRecord
100
AcDbRegAppTableRecord
  2
GENIUS_GENODEF_13
 70
     0
  0
APPID
  5
AA1
330
9
100
AcDbSymbolTableRecord
100
AcDbRegAppTableRecord
  2
GENIUS_GENOBJ-N-FIL_13
 70
     0
  0
APPID
  5
AA2
330
9
100
AcDbSymbolTableRecord
100
AcDbRegAppTableRecord
  2
HATCH_TYPE
 70
     0
  0
APPID
  5
AA3
330
9
100
AcDbSymbolTableRecord
100
AcDbRegAppTableRecord
  2
HATCH_DISPLAY
 70
     0
  0
APPID
  5
AA4
330
9
100
AcDbSymbolTableRecord
100
AcDbRegAppTableRecord
  2
HATCH_DISTANCE
 70
     0
  0
APPID
  5
10D9
330
9
100
AcDbSymbolTableRecord
100
AcDbRegAppTableRecord
  2
CONTENTBLOCKICON
 70
     0
  0
ENDTAB
  0
TABLE
  2
DIMSTYLE
  5
A
330
0
100
AcDbSymbolTable
 70
     1
  0
DIMSTYLE
105
725
102
{ACAD_REACTORS
330
E47
330
E56
330
E65
330
E74
102
}
330
A
100
AcDbSymbolTableRecord
100
AcDbDimStyleTableRecord
  2
BIGT
 70
     0
  3

  4

  5

  6
OPEN
  7
OPEN
 40
1.0
 41
2.23
 42
0.5
 43
2.5
 44
1.0
 45
0.0
 46
0.0
 47
0.0
 48
0.0
140
2.8
141
0.0
142
0.0
143
25.4
144
1.0
145
0.0
146
1.0
147
1.0
 71
     0
 72
     0
 73
     0
 74
     0
 75
     0
 76
     0
 77
     3
 78
     8
170
     0
171
     2
172
     1
173
     1
174
     1
175
     0
176
   256
177
   256
178
    40
270
     2
271
     3
272
     3
273
     2
274
     2
340
10
275
     0
280
     0
281
     0
282
     0
283
     1
284
     8
285
     0
286
     0
287
     3
288
     0
  0
ENDTAB
  0
TABLE
  2
BLOCK_RECORD
  5
1
330
0
100
AcDbSymbolTable
 70
     8
  0
BLOCK_RECORD
  5
1A
102
{ACAD_XDICTIONARY
360
10D7
102
}
330
1
100
AcDbSymbolTableRecord
100
AcDbBlockTableRecord
  2
*MODEL_SPACE
  0
BLOCK_RECORD
  5
17
102
{ACAD_XDICTIONARY
360
10D5
102
}
330
1
100
AcDbSymbolTableRecord
100
AcDbBlockTableRecord
  2
*PAPER_SPACE
  0
BLOCK_RECORD
  5
594
330
1
100
AcDbSymbolTableRecord
100
AcDbBlockTableRecord
  2
_OPEN
  0
BLOCK_RECORD
  5
6E3
330
1
100
AcDbSymbolTableRecord
100
AcDbBlockTableRecord
  2
矢印なし
  0
BLOCK_RECORD
  5
E48
330
1
100
AcDbSymbolTableRecord
100
AcDbBlockTableRecord
  2
*D2
  0
BLOCK_RECORD
  5
E57
330
1
100
AcDbSymbolTableRecord
100
AcDbBlockTableRecord
  2
*D3
  0
BLOCK_RECORD
  5
E66
330
1
100
AcDbSymbolTableRecord
100
AcDbBlockTableRecord
  2
*D4
  0
BLOCK_RECORD
  5
E75
330
1
100
AcDbSymbolTableRecord
100
AcDbBlockTableRecord
  2
*D5
  0
BLOCK_RECORD
  5
F03
330
1
100
AcDbSymbolTableRecord
100
AcDbBlockTableRecord
  2
1
1001
CONTENTBLOCKICON
1071
        0
1004
2800000020000000200000000100080000000000000400000000000000000000000000000000000000000000000080000080000000808000800000008000800080800000C0C0C000C0DCC000F0CAA6000020400000206000002080000020A0000020C0000020E00000400000004020000040400000406000004080000040A0
1004
000040C0000040E00000600000006020000060400000606000006080000060A0000060C0000060E00000800000008020000080400000806000008080000080A0000080C0000080E00000A0000000A0200000A0400000A0600000A0800000A0A00000A0C00000A0E00000C0000000C0200000C0400000C0600000C0800000C0
1004
A00000C0C00000C0E00000E0000000E0200000E0400000E0600000E0800000E0A00000E0C00000E0E00040000000400020004000400040006000400080004000A0004000C0004000E00040200000402020004020400040206000402080004020A0004020C0004020E000404000004040200040404000404060004040800040
1004
40A0004040C0004040E00040600000406020004060400040606000406080004060A0004060C0004060E00040800000408020004080400040806000408080004080A0004080C0004080E00040A0000040A0200040A0400040A0600040A0800040A0A00040A0C00040A0E00040C0000040C0200040C0400040C0600040C08000
1004
40C0A00040C0C00040C0E00040E0000040E0200040E0400040E0600040E0800040E0A00040E0C00040E0E00080000000800020008000400080006000800080008000A0008000C0008000E00080200000802020008020400080206000802080008020A0008020C0008020E00080400000804020008040400080406000804080
1004
008040A0008040C0008040E00080600000806020008060400080606000806080008060A0008060C0008060E00080800000808020008080400080806000808080008080A0008080C0008080E00080A0000080A0200080A0400080A0600080A0800080A0A00080A0C00080A0E00080C0000080C0200080C0400080C0600080C0
1004
800080C0A00080C0C00080C0E00080E0000080E0200080E0400080E0600080E0800080E0A00080E0C00080E0E000C0000000C0002000C0004000C0006000C0008000C000A000C000C000C000E000C0200000C0202000C0204000C0206000C0208000C020A000C020C000C020E000C0400000C0402000C0404000C0406000C0
1004
408000C040A000C040C000C040E000C0600000C0602000C0604000C0606000C0608000C060A000C060C000C060E000C0800000C0802000C0804000C0806000C0808000C080A000C080C000C080E000C0A00000C0A02000C0A04000C0A06000C0A08000C0A0A000C0A0C000C0A0E000C0C00000C0C02000C0C04000C0C06000
1004
C0C08000C0C0A000F0FBFF00A4A0A000808080000000FF0000FF000000FFFF00FF000000FF00FF00FFFF0000FFFFFF0000000000000000000000000000000000000000000000000000000000000000000000000000000000000000000000000000000000000000000000000000000000000000000000000000000000000000
1004
00000000000000000000000000000000000000000000000000000000000000000000000000000000000000000000000000000000000000000000000000000000000000000000000000000000000000000000000000000000000000000000000000000000000000000000000000000000000000000000000000000000000000
1004
000000000000000000000000000000000000000000000000000000000000000000000000000000000000000000000000000000000000000000000000000000000000000000000000000000000000000000000000000000000000FEFEFEFEE7FEFEFEFE0000000000000000000000000000000000FEFEFEFEFEFEFE00E7E7E7
1004
FEE7E7E7FEFE0000000000000000000000000000FE000000000000E70000E7E7E7E7E7E7FAFEE7E7FEFEFEFEFEFEFAFAFA000000FE000000000000E7000000E7FBE700E7E7E7E7E700000000000000E7FE000000FE000000000000E7000000E7FBE700E700E7E7E700000000E7E7E700FE000000FEFEFEE700FB00E70000E7
1004
E7E7E7E7E700E7E7E700E7E7E700000000FE0000000000FEE7E7FBE7E70000E700FB0000E700E7E7E700E700000000E7E7FE000000FBFBFEE7E7FBE7E7FBE7E7FBFBFBFBE7FBE7E7E7FBE7E7E7E7E7E7E7FEFB0000FEFEE7E700FB00E70000E7E7E7E7E7E700E7E7E70000000000000000FA000000FE000000000000E70000
1004
00E7E7E700E700E7E7E7000000000000E7E7FA000000FE000000000000E7000000E7E7E700E700E7E7E7000000000000E7E7FA000000FE000000000000E7000000E7E7E700E700FEE7E7FEFEFEFEFEFEFAFAFA00000000FEFEFEFEFEFEFE000000E7FEFE00FEFEFE000000000000000000000000000000000000000000FEFE
1004
FEFEFEFEFEFEFE000000000000000000000000000000000000000000000000000000000000000000000000000000000000000000000000000000000000000000000000000000000000000000000000000000000000000000000000000000000000000000000000000000000000000000000000000000000000000000000000
1004
00000000000000000000000000000000000000000000000000000000000000000000000000000000000000000000000000000000000000000000000000000000000000000000000000000000000000000000000000000000000000000000000000000000000000000000000000000000000000000000000000000000000000
1004
0000000000000000000000000000000000000000000000000000000000000000000000000000000000000000000000000000000000000000
  0
ENDTAB
  0
ENDSEC
  0
SECTION
  2
BLOCKS
  0
BLOCK
  5
1B
330
1A
100
AcDbEntity
  8
0
100
AcDbBlockBegin
  2
*MODEL_SPACE
 70
     0
 10
0.0
 20
0.0
 30
0.0
  3
*MODEL_SPACE
  1

  0
ENDBLK
  5
1C
330
1A
100
AcDbEntity
  8
0
100
AcDbBlockEnd
  0
BLOCK
  5
18
330
17
100
AcDbEntity
 67
     1
  8
0
100
AcDbBlockBegin
  2
*PAPER_SPACE
 70
     0
 10
0.0
 20
0.0
 30
0.0
  3
*PAPER_SPACE
  1

  0
ENDBLK
  5
19
330
17
100
AcDbEntity
 67
     1
  8
0
100
AcDbBlockEnd
  0
BLOCK
  5
598
330
594
100
AcDbEntity
  8
0
100
AcDbBlockBegin
  2
_OPEN
 70
     0
 10
0.0
 20
0.0
 30
0.0
  3
_OPEN
  1

  0
LINE
  5
595
330
594
100
AcDbEntity
  8
0
  6
BYBLOCK
 62
     0
100
AcDbLine
 10
-1.0
 20
0.16666667
 30
0.0
 11
0.0
 21
0.0
 31
0.0
  0
LINE
  5
596
330
594
100
AcDbEntity
  8
0
  6
BYBLOCK
 62
     0
100
AcDbLine
 10
-1.0
 20
-0.16666667
 30
0.0
 11
0.0
 21
0.0
 31
0.0
  0
LINE
  5
597
330
594
100
AcDbEntity
  8
0
  6
BYBLOCK
 62
     0
100
AcDbLine
 10
0.0
 20
0.0
 30
0.0
 11
-1.0
 21
0.0
 31
0.0
  0
ENDBLK
  5
599
330
594
100
AcDbEntity
  8
0
100
AcDbBlockEnd
  0
BLOCK
  5
6E4
330
6E3
100
AcDbEntity
  8
0
100
AcDbBlockBegin
  2
矢印なし
 70
     0
 10
0.0
 20
0.0
 30
0.0
  3
矢印なし
  1

  0
ENDBLK
  5
6E5
330
6E3
100
AcDbEntity
  8
0
100
AcDbBlockEnd
  0
BLOCK
  5
E52
330
E48
100
AcDbEntity
  8
0
100
AcDbBlockBegin
  2
*D2
 70
     1
 10
0.0
 20
0.0
 30
0.0
  3
*D2
  1

  0
LINE
  5
EFA
330
E48
100
AcDbEntity
  8
250
  6
CONTINUOUS
100
AcDbLine
 10
75.5
 20
-16.0
 30
0.0
 11
88.5
 21
-16.0
 31
0.0
  0
LINE
  5
EFB
330
E48
100
AcDbEntity
  8
250
  6
CONTINUOUS
100
AcDbLine
 10
75.5
 20
16.0
 30
0.0
 11
88.5
 21
16.0
 31
0.0
  0
LINE
  5
EFC
330
E48
100
AcDbEntity
  8
250
  6
CONTINUOUS
100
AcDbLine
 10
87.5
 20
-13.77
 30
0.0
 11
87.5
 21
13.77
 31
0.0
  0
INSERT
  5
EFD
330
E48
100
AcDbEntity
  8
250
  6
CONTINUOUS
100
AcDbBlockReference
  2
_OPEN
 10
87.5
 20
-16.0
 30
0.0
 41
2.23
 42
2.23
 43
2.23
 50
270.0
  0
INSERT
  5
EFE
330
E48
100
AcDbEntity
  8
250
  6
CONTINUOUS
100
AcDbBlockReference
  2
_OPEN
 10
87.5
 20
16.0
 30
0.0
 41
2.23
 42
2.23
 43
2.23
 50
90.0
  0
MTEXT
  5
EFF
330
E48
100
AcDbEntity
  8
250
  6
CONTINUOUS
 62
    40
100
AcDbMText
 10
85.1
 20
0.0
 30
0.0
 40
2.8
 41
0.0
 71
     5
 72
     1
  1
\A1;{\H2.8;\U+2205}32
 11
0.0
 21
1.0
 31
0.0
1001
ACAD
1000
MTEXTBEGIN
1070
    73
1070
     1
1070
    44
1040
1.0
1070
    74
1070
     0
1000
MTEXTEND
1000
MTEXTBEGIN
1070
    73
1070
     1
1070
    44
1040
1.0
1070
    74
1070
     0
1000
MTEXTEND
1000
MTEXTBEGIN
1070
    73
1070
     1
1070
    44
1040
1.0
1070
    74
1070
     0
1000
MTEXTEND
  0
POINT
  5
F00
330
E48
100
AcDbEntity
  8
DEFPOINTS
  6
CONTINUOUS
 62
     0
100
AcDbPoint
 10
75.0
 20
-16.0
 30
0.0
  0
POINT
  5
F01
330
E48
100
AcDbEntity
  8
DEFPOINTS
  6
CONTINUOUS
 62
     0
100
AcDbPoint
 10
75.0
 20
16.0
 30
0.0
  0
POINT
  5
F02
330
E48
100
AcDbEntity
  8
DEFPOINTS
  6
CONTINUOUS
 62
     0
100
AcDbPoint
 10
87.5
 20
16.0
 30
0.0
  0
ENDBLK
  5
E53
330
E48
100
AcDbEntity
  8
0
100
AcDbBlockEnd
  0
BLOCK
  5
E61
330
E57
100
AcDbEntity
  8
0
100
AcDbBlockBegin
  2
*D3
 70
     1
 10
0.0
 20
0.0
 30
0.0
  3
*D3
  1

  0
LINE
  5
EF1
330
E57
100
AcDbEntity
  8
250
  6
CONTINUOUS
100
AcDbLine
 10
65.0
 20
16.5
 30
0.0
 11
65.0
 21
25.5
 31
0.0
  0
LINE
  5
EF2
330
E57
100
AcDbEntity
  8
250
  6
CONTINUOUS
100
AcDbLine
 10
75.0
 20
16.5
 30
0.0
 11
75.0
 21
25.5
 31
0.0
  0
LINE
  5
EF3
330
E57
100
AcDbEntity
  8
250
  6
CONTINUOUS
100
AcDbLine
 10
67.23
 20
24.5
 30
0.0
 11
72.77
 21
24.5
 31
0.0
  0
INSERT
  5
EF4
330
E57
100
AcDbEntity
  8
250
  6
CONTINUOUS
100
AcDbBlockReference
  2
_OPEN
 10
65.0
 20
24.5
 30
0.0
 41
2.23
 42
2.23
 43
2.23
 50
180.0
  0
INSERT
  5
EF5
330
E57
100
AcDbEntity
  8
250
  6
CONTINUOUS
100
AcDbBlockReference
  2
_OPEN
 10
75.0
 20
24.5
 30
0.0
 41
2.23
 42
2.23
 43
2.23
  0
MTEXT
  5
EF6
330
E57
100
AcDbEntity
  8
250
  6
CONTINUOUS
 62
    40
100
AcDbMText
 10
70.0
 20
26.9
 30
0.0
 40
2.8
 41
0.0
 71
     5
 72
     1
  1
\A1;10
1001
ACAD
1000
MTEXTBEGIN
1070
    73
1070
     1
1070
    44
1040
1.0
1070
    74
1070
     0
1000
MTEXTEND
1000
MTEXTBEGIN
1070
    73
1070
     1
1070
    44
1040
1.0
1070
    74
1070
     0
1000
MTEXTEND
1000
MTEXTBEGIN
1070
    73
1070
     1
1070
    44
1040
1.0
1070
    74
1070
     0
1000
MTEXTEND
  0
POINT
  5
EF7
330
E57
100
AcDbEntity
  8
DEFPOINTS
  6
CONTINUOUS
 62
     0
100
AcDbPoint
 10
65.0
 20
16.0
 30
0.0
  0
POINT
  5
EF8
330
E57
100
AcDbEntity
  8
DEFPOINTS
  6
CONTINUOUS
 62
     0
100
AcDbPoint
 10
75.0
 20
16.0
 30
0.0
  0
POINT
  5
EF9
330
E57
100
AcDbEntity
  8
DEFPOINTS
  6
CONTINUOUS
 62
     0
100
AcDbPoint
 10
75.0
 20
24.5
 30
0.0
  0
ENDBLK
  5
E62
330
E57
100
AcDbEntity
  8
0
100
AcDbBlockEnd
  0
BLOCK
  5
E70
330
E66
100
AcDbEntity
  8
0
100
AcDbBlockBegin
  2
*D4
 70
     1
 10
0.0
 20
0.0
 30
0.0
  3
*D4
  1

  0
LINE
  5
EE8
330
E66
100
AcDbEntity
  8
250
  6
CONTINUOUS
100
AcDbLine
 10
36.0
 20
15.75
 30
0.0
 11
36.0
 21
32.5
 31
0.0
  0
LINE
  5
EE9
330
E66
100
AcDbEntity
  8
250
  6
CONTINUOUS
100
AcDbLine
 10
75.0
 20
16.5
 30
0.0
 11
75.0
 21
32.5
 31
0.0
  0
LINE
  5
EEA
330
E66
100
AcDbEntity
  8
250
  6
CONTINUOUS
100
AcDbLine
 10
38.23
 20
31.5
 30
0.0
 11
72.77
 21
31.5
 31
0.0
  0
INSERT
  5
EEB
330
E66
100
AcDbEntity
  8
250
  6
CONTINUOUS
100
AcDbBlockReference
  2
_OPEN
 10
36.0
 20
31.5
 30
0.0
 41
2.23
 42
2.23
 43
2.23
 50
180.0
  0
INSERT
  5
EEC
330
E66
100
AcDbEntity
  8
250
  6
CONTINUOUS
100
AcDbBlockReference
  2
_OPEN
 10
75.0
 20
31.5
 30
0.0
 41
2.23
 42
2.23
 43
2.23
  0
MTEXT
  5
EED
330
E66
100
AcDbEntity
  8
250
  6
CONTINUOUS
 62
    40
100
AcDbMText
 10
55.5
 20
33.9
 30
0.0
 40
2.8
 41
0.0
 71
     5
 72
     1
  1
\A1;39
1001
ACAD
1000
MTEXTBEGIN
1070
    73
1070
     1
1070
    44
1040
1.0
1070
    74
1070
     0
1000
MTEXTEND
1000
MTEXTBEGIN
1070
    73
1070
     1
1070
    44
1040
1.0
1070
    74
1070
     0
1000
MTEXTEND
1000
MTEXTBEGIN
1070
    73
1070
     1
1070
    44
1040
1.0
1070
    74
1070
     0
1000
MTEXTEND
  0
POINT
  5
EEE
330
E66
100
AcDbEntity
  8
DEFPOINTS
  6
CONTINUOUS
 62
     0
100
AcDbPoint
 10
36.0
 20
15.25
 30
0.0
  0
POINT
  5
EEF
330
E66
100
AcDbEntity
  8
DEFPOINTS
  6
CONTINUOUS
 62
     0
100
AcDbPoint
 10
75.0
 20
16.0
 30
0.0
  0
POINT
  5
EF0
330
E66
100
AcDbEntity
  8
DEFPOINTS
  6
CONTINUOUS
 62
     0
100
AcDbPoint
 10
75.0
 20
31.5
 30
0.0
  0
ENDBLK
  5
E71
330
E66
100
AcDbEntity
  8
0
100
AcDbBlockEnd
  0
BLOCK
  5
E7F
330
E75
100
AcDbEntity
  8
0
100
AcDbBlockBegin
  2
*D5
 70
     1
 10
0.0
 20
0.0
 30
0.0
  3
*D5
  1

  0
LINE
  5
1655
330
E75
100
AcDbEntity
  8
250
  6
CONTINUOUS
100
AcDbLine
 10
0.0
 20
25.5
 30
0.0
 11
0.0
 21
39.5
 31
0.0
  0
LINE
  5
1656
330
E75
100
AcDbEntity
  8
250
  6
CONTINUOUS
100
AcDbLine
 10
75.0
 20
16.5
 30
0.0
 11
75.0
 21
39.5
 31
0.0
  0
LINE
  5
1657
330
E75
100
AcDbEntity
  8
250
  6
CONTINUOUS
100
AcDbLine
 10
2.23
 20
38.5
 30
0.0
 11
72.77
 21
38.5
 31
0.0
  0
INSERT
  5
1658
330
E75
100
AcDbEntity
  8
250
  6
CONTINUOUS
100
AcDbBlockReference
  2
_OPEN
 10
0.0
 20
38.5
 30
0.0
 41
2.23
 42
2.23
 43
2.23
 50
180.0
  0
INSERT
  5
1659
330
E75
100
AcDbEntity
  8
250
  6
CONTINUOUS
100
AcDbBlockReference
  2
_OPEN
 10
75.0
 20
38.5
 30
0.0
 41
2.23
 42
2.23
 43
2.23
  0
MTEXT
  5
165A
330
E75
100
AcDbEntity
  8
250
  6
CONTINUOUS
 62
    40
100
AcDbMText
 10
37.5
 20
40.9
 30
0.0
 40
2.8
 41
0.0
 71
     5
 72
     1
  1
\A1;75
1001
ACAD
1000
MTEXTBEGIN
1070
    73
1070
     1
1070
    44
1040
1.0
1070
    74
1070
     0
1000
MTEXTEND
  0
POINT
  5
165B
330
E75
100
AcDbEntity
  8
DEFPOINTS
  6
CONTINUOUS
 62
     0
100
AcDbPoint
 10
0.0
 20
25.0
 30
0.0
  0
POINT
  5
165C
330
E75
100
AcDbEntity
  8
DEFPOINTS
  6
CONTINUOUS
 62
     0
100
AcDbPoint
 10
75.0
 20
16.0
 30
0.0
  0
POINT
  5
165D
330
E75
100
AcDbEntity
  8
DEFPOINTS
  6
CONTINUOUS
 62
     0
100
AcDbPoint
 10
75.0
 20
38.5
 30
0.0
  0
ENDBLK
  5
E80
330
E75
100
AcDbEntity
  8
0
100
AcDbBlockEnd
  0
BLOCK
  5
F04
330
F03
100
AcDbEntity
  8
0
100
AcDbBlockBegin
  2
1
 70
     0
 10
0.0
 20
0.0
 30
0.0
  3
1
  1

  0
LINE
  5
1688
330
F03
100
AcDbEntity
  8
240
100
AcDbLine
 10
62.46698728
 20
15.25
 30
0.0
 11
35.5
 21
15.25
 31
0.0
  0
LINE
  5
1689
330
F03
100
AcDbEntity
  8
240
100
AcDbLine
 10
62.46698728
 20
-15.25
 30
0.0
 11
35.5
 21
-15.25
 31
0.0
  0
LINE
  5
168A
330
F03
100
AcDbEntity
  8
245
100
AcDbLine
 10
-25.0
 20
0.0
 30
0.0
 11
76.0
 21
0.0
 31
0.0
  0
ARC
  5
168B
330
F03
100
AcDbEntity
  8
240
  6
CONTINUOUS
100
AcDbCircle
 10
-24.0
 20
17.04875078
 30
0.0
 40
1.000000000000019
100
AcDbArc
 50
92.86240523
 51
180.0
  0
LINE
  5
168C
330
F03
100
AcDbEntity
  8
240
  6
CONTINUOUS
100
AcDbLine
 10
-24.0
 20
5.27
 30
0.0
 11
-25.0
 21
6.27
 31
0.0
  0
LINE
  5
168D
330
F03
100
AcDbEntity
  8
240
  6
CONTINUOUS
100
AcDbLine
 10
-25.0
 20
-6.27
 30
0.0
 11
-24.0
 21
-5.27
 31
0.0
  0
ARC
  5
168E
330
F03
100
AcDbEntity
  8
240
  6
CONTINUOUS
100
AcDbCircle
 10
-24.0
 20
-17.04875078
 30
0.0
 40
1.0
100
AcDbArc
 50
180.0
 51
267.13759477
  0
LINE
  5
168F
330
F03
100
AcDbEntity
  8
240
  6
CONTINUOUS
100
AcDbLine
 10
-25.0
 20
6.27
 30
0.0
 11
-25.0
 21
17.04875078
 31
0.0
  0
LINE
  5
1690
330
F03
100
AcDbEntity
  8
240
  6
CONTINUOUS
100
AcDbLine
 10
-25.0
 20
-17.04875078
 30
0.0
 11
-25.0
 21
-6.27
 31
0.0
  0
LINE
  5
1691
330
F03
100
AcDbEntity
  8
240
100
AcDbLine
 10
34.0
 20
-19.55101506
 30
0.0
 11
34.0
 21
-16.75
 31
0.0
  0
LINE
  5
1692
330
F03
100
AcDbEntity
  8
242
  6
CONTINUOUS
100
AcDbLine
 10
34.0
 20
-13.25700469
 30
0.0
 11
26.5
 21
-20.55101506
 31
0.0
  0
LINE
  5
1693
330
F03
100
AcDbEntity
  8
241
  6
CONTINUOUS
100
AcDbLine
 10
26.5
 20
-13.25700469
 30
0.0
 11
26.5
 21
-20.55101506
 31
0.0
  0
LINE
  5
1694
330
F03
100
AcDbEntity
  8
242
  6
CONTINUOUS
100
AcDbLine
 10
26.5
 20
-13.25700469
 30
0.0
 11
33.70301665
 21
-20.26218844
 31
0.0
  0
LINE
  5
1695
330
F03
100
AcDbEntity
  8
241
  6
CONTINUOUS
100
AcDbLine
 10
26.0
 20
0.0
 30
0.0
 11
26.0
 21
-20.55101506
 31
0.0
  0
LINE
  5
1696
330
F03
100
AcDbEntity
  8
241
  6
CONTINUOUS
100
AcDbLine
 10
21.37749907
 20
-19.61504525
 30
0.0
 11
19.875
 21
-16.16793968
 31
0.0
  0
LINE
  5
1697
330
F03
100
AcDbEntity
  8
241
  6
CONTINUOUS
100
AcDbLine
 10
19.875
 20
-6.0
 30
0.0
 11
19.875
 21
-21.5
 31
0.0
  0
LINE
  5
1698
330
F03
100
AcDbEntity
  8
241
  6
CONTINUOUS
100
AcDbLine
 10
16.125
 20
-16.16793968
 30
0.0
 11
14.62250093
 21
-19.61504525
 31
0.0
  0
ARC
  5
1699
330
F03
100
AcDbEntity
  8
241
  6
CONTINUOUS
100
AcDbCircle
 10
12.69622204
 20
-21.5
 30
0.0
 40
6.0
100
AcDbArc
 50
90.0
 51
161.68994155
  0
LINE
  5
169A
330
F03
100
AcDbEntity
  8
241
  6
CONTINUOUS
100
AcDbLine
 10
16.125
 20
-6.0
 30
0.0
 11
16.125
 21
-21.5
 31
0.0
  0
LINE
  5
169B
330
F03
100
AcDbEntity
  8
241
  6
CONTINUOUS
100
AcDbLine
 10
-2.0
 20
-19.15
 30
0.0
 11
-2.0
 21
0.0
 31
0.0
  0
LINE
  5
169C
330
F03
100
AcDbEntity
  8
241
100
AcDbLine
 10
0.0
 20
-19.15
 30
0.0
 11
0.0
 21
0.0
 31
0.0
  0
LINE
  5
169D
330
F03
100
AcDbEntity
  8
245
  6
CENTER2
100
AcDbLine
 10
18.0
 20
-25.0
 30
0.0
 11
18.0
 21
25.0
 31
0.0
  0
LINE
  5
169E
330
F03
100
AcDbEntity
  8
241
  6
CONTINUOUS
100
AcDbLine
 10
7.0
 20
-19.61504525
 30
0.0
 11
14.62250093
 21
-19.61504525
 31
0.0
  0
LINE
  5
169F
330
F03
100
AcDbEntity
  8
240
  6
CONTINUOUS
100
AcDbLine
 10
0.0
 20
-25.0
 30
0.0
 11
14.62250093
 21
-25.0
 31
0.0
  0
LINE
  5
16A0
330
F03
100
AcDbEntity
  8
240
  6
CONTINUOUS
100
AcDbLine
 10
-2.0
 20
-19.15
 30
0.0
 11
-24.04993762
 21
-18.04750312
 31
0.0
  0
LINE
  5
16A1
330
F03
100
AcDbEntity
  8
240
  6
CONTINUOUS
100
AcDbLine
 10
0.0
 20
-25.0
 30
0.0
 11
0.0
 21
-19.15
 31
0.0
  0
LINE
  5
16A2
330
F03
100
AcDbEntity
  8
240
100
AcDbLine
 10
-2.0
 20
-19.15
 30
0.0
 11
0.0
 21
-19.15
 31
0.0
  0
LINE
  5
16A3
330
F03
100
AcDbEntity
  8
240
  6
CONTINUOUS
100
AcDbLine
 10
26.0
 20
-20.55101506
 30
0.0
 11
33.0
 21
-20.55101506
 31
0.0
  0
LINE
  5
16A4
330
F03
100
AcDbEntity
  8
240
  6
CONTINUOUS
100
AcDbLine
 10
21.37749907
 20
-25.0
 30
0.0
 11
19.875
 21
-22.39759526
 31
0.0
  0
LINE
  5
16A5
330
F03
100
AcDbEntity
  8
240
  6
CONTINUOUS
100
AcDbLine
 10
14.62250093
 20
-25.0
 30
0.0
 11
16.125
 21
-22.39759526
 31
0.0
  0
LINE
  5
16A6
330
F03
100
AcDbEntity
  8
241
  6
CONTINUOUS
100
AcDbLine
 10
14.62250093
 20
-19.61504525
 30
0.0
 11
14.62250093
 21
-25.0
 31
0.0
  0
LINE
  5
16A7
330
F03
100
AcDbEntity
  8
240
  6
CONTINUOUS
100
AcDbLine
 10
19.875
 20
-22.39759526
 30
0.0
 11
19.875
 21
-21.5
 31
0.0
  0
LINE
  5
16A8
330
F03
100
AcDbEntity
  8
240
  6
CONTINUOUS
100
AcDbLine
 10
16.125
 20
-22.39759526
 30
0.0
 11
16.125
 21
-21.5
 31
0.0
  0
LINE
  5
16A9
330
F03
100
AcDbEntity
  8
240
  6
CONTINUOUS
100
AcDbLine
 10
16.125
 20
-21.5
 30
0.0
 11
19.875
 21
-21.5
 31
0.0
  0
LINE
  5
16AA
330
F03
100
AcDbEntity
  8
240
  6
CONTINUOUS
100
AcDbLine
 10
26.0
 20
-25.0
 30
0.0
 11
26.0
 21
-20.55101506
 31
0.0
  0
LINE
  5
16AB
330
F03
100
AcDbEntity
  8
241
  6
CONTINUOUS
100
AcDbLine
 10
21.37749907
 20
-19.61504525
 30
0.0
 11
21.37749907
 21
-25.0
 31
0.0
  0
LINE
  5
16AC
330
F03
100
AcDbEntity
  8
240
  6
CONTINUOUS
100
AcDbLine
 10
21.37749907
 20
-25.0
 30
0.0
 11
26.0
 21
-25.0
 31
0.0
  0
LINE
  5
16AD
330
F03
100
AcDbEntity
  8
241
  6
CONTINUOUS
100
AcDbLine
 10
21.37749907
 20
-19.61504525
 30
0.0
 11
26.0
 21
-19.61504525
 31
0.0
  0
ARC
  5
16AE
330
F03
100
AcDbEntity
  8
240
100
AcDbCircle
 10
33.0
 20
-19.55101506
 30
0.0
 40
1.0
100
AcDbArc
 50
270.0
 51
0.0
  0
LINE
  5
16AF
330
F03
100
AcDbEntity
  8
240
  6
CONTINUOUS
100
AcDbLine
 10
0.0
 20
25.0
 30
0.0
 11
14.62250093
 21
25.0
 31
0.0
  0
ARC
  5
16B0
330
F03
100
AcDbEntity
  8
241
  6
CONTINUOUS
100
AcDbCircle
 10
13.0
 20
0.0
 30
0.0
 40
6.0
100
AcDbArc
 50
90.0
 51
180.0
  0
ARC
  5
16B1
330
F03
100
AcDbEntity
  8
241
  6
CONTINUOUS
100
AcDbCircle
 10
13.0
 20
0.0
 30
0.0
 40
6.0
100
AcDbArc
 50
180.0
 51
270.0
  0
LINE
  5
16B2
330
F03
100
AcDbEntity
  8
241
  6
CONTINUOUS
100
AcDbLine
 10
-2.0
 20
19.15
 30
0.0
 11
-2.0
 21
0.0
 31
0.0
  0
LINE
  5
16B3
330
F03
100
AcDbEntity
  8
241
100
AcDbLine
 10
0.0
 20
0.0
 30
0.0
 11
0.0
 21
19.15
 31
0.0
  0
CIRCLE
  5
16B4
330
F03
100
AcDbEntity
  8
241
  6
CONTINUOUS
100
AcDbCircle
 10
-7.5
 20
0.0
 30
0.0
 40
3.0
  0
ARC
  5
16B5
330
F03
100
AcDbEntity
  8
241
  6
HIDDEN2
100
AcDbCircle
 10
-19.0
 20
-3.77
 30
0.0
 40
1.5
100
AcDbArc
 50
270.0
 51
0.0
  0
ARC
  5
16B6
330
F03
100
AcDbEntity
  8
240
  6
CONTINUOUS
100
AcDbCircle
 10
-22.0
 20
-3.77
 30
0.0
 40
1.500000000000014
100
AcDbArc
 50
270.0
 51
0.0
  0
LINE
  5
16B7
330
F03
100
AcDbEntity
  8
241
  6
HIDDEN2
100
AcDbLine
 10
-22.0
 20
-5.27
 30
0.0
 11
-19.0
 21
-5.27
 31
0.0
  0
LINE
  5
16B8
330
F03
100
AcDbEntity
  8
240
  6
CONTINUOUS
100
AcDbLine
 10
-24.0
 20
-5.27
 30
0.0
 11
-22.0
 21
-5.27
 31
0.0
  0
LINE
  5
16B9
330
F03
100
AcDbEntity
  8
240
  6
CONTINUOUS
100
AcDbLine
 10
-20.5
 20
3.77
 30
0.0
 11
-20.5
 21
0.0
 31
0.0
  0
LINE
  5
16BA
330
F03
100
AcDbEntity
  8
241
  6
HIDDEN2
100
AcDbLine
 10
-17.5
 20
3.77
 30
0.0
 11
-17.5
 21
0.0
 31
0.0
  0
LINE
  5
16BB
330
F03
100
AcDbEntity
  8
240
  6
CONTINUOUS
100
AcDbLine
 10
-20.5
 20
-3.77
 30
0.0
 11
-20.5
 21
0.0
 31
0.0
  0
LINE
  5
16BC
330
F03
100
AcDbEntity
  8
241
  6
HIDDEN2
100
AcDbLine
 10
-17.5
 20
-3.77
 30
0.0
 11
-17.5
 21
0.0
 31
0.0
  0
LINE
  5
16BD
330
F03
100
AcDbEntity
  8
241
  6
HIDDEN2
100
AcDbLine
 10
-22.0
 20
5.27
 30
0.0
 11
-19.0
 21
5.27
 31
0.0
  0
ARC
  5
16BE
330
F03
100
AcDbEntity
  8
240
  6
CONTINUOUS
100
AcDbCircle
 10
-22.0
 20
3.77
 30
0.0
 40
1.5
100
AcDbArc
 50
0.0
 51
90.0
  0
LINE
  5
16BF
330
F03
100
AcDbEntity
  8
240
  6
CONTINUOUS
100
AcDbLine
 10
-24.0
 20
5.27
 30
0.0
 11
-22.0
 21
5.27
 31
0.0
  0
ARC
  5
16C0
330
F03
100
AcDbEntity
  8
241
  6
HIDDEN2
100
AcDbCircle
 10
-19.0
 20
3.77
 30
0.0
 40
1.5
100
AcDbArc
 50
0.0
 51
90.0
  0
LINE
  5
16C1
330
F03
100
AcDbEntity
  8
245
  6
CENTER2
100
AcDbLine
 10
-7.5
 20
-4.0
 30
0.0
 11
-7.5
 21
4.0
 31
0.0
  0
LINE
  5
16C2
330
F03
100
AcDbEntity
  8
240
  6
CONTINUOUS
100
AcDbLine
 10
-2.0
 20
19.15
 30
0.0
 11
-24.04993762
 21
18.04750312
 31
0.0
  0
LINE
  5
16C3
330
F03
100
AcDbEntity
  8
240
  6
CONTINUOUS
100
AcDbLine
 10
0.0
 20
19.15
 30
0.0
 11
0.0
 21
25.0
 31
0.0
  0
LINE
  5
16C4
330
F03
100
AcDbEntity
  8
240
100
AcDbLine
 10
-2.0
 20
19.15
 30
0.0
 11
0.0
 21
19.15
 31
0.0
  0
LINE
  5
16C5
330
F03
100
AcDbEntity
  8
241
  6
CONTINUOUS
100
AcDbLine
 10
35.5
 20
15.25
 30
0.0
 11
35.5
 21
0.0
 31
0.0
1001
GRPNAME
1000
PASTMD18
  0
LINE
  5
16C6
330
F03
100
AcDbEntity
  8
241
100
AcDbLine
 10
37.4
 20
15.25
 30
0.0
 11
37.4
 21
0.0
 31
0.0
  0
LINE
  5
16C7
330
F03
100
AcDbEntity
  8
241
100
AcDbLine
 10
38.6
 20
15.25
 30
0.0
 11
38.6
 21
0.0
 31
0.0
  0
LINE
  5
16C8
330
F03
100
AcDbEntity
  8
241
100
AcDbLine
 10
40.4
 20
15.25
 30
0.0
 11
40.4
 21
0.0
 31
0.0
  0
LINE
  5
16C9
330
F03
100
AcDbEntity
  8
241
100
AcDbLine
 10
41.6
 20
15.25
 30
0.0
 11
41.6
 21
0.0
 31
0.0
  0
LINE
  5
16CA
330
F03
100
AcDbEntity
  8
241
100
AcDbLine
 10
34.0
 20
16.75
 30
0.0
 11
34.0
 21
0.0
 31
0.0
  0
LINE
  5
16CB
330
F03
100
AcDbEntity
  8
241
  6
CONTINUOUS
100
AcDbLine
 10
26.0
 20
0.0
 30
0.0
 11
26.0
 21
20.8
 31
0.0
  0
LINE
  5
16CC
330
F03
100
AcDbEntity
  8
241
  6
CONTINUOUS
100
AcDbLine
 10
19.875
 20
6.0
 30
0.0
 11
19.875
 21
21.5
 31
0.0
  0
LINE
  5
16CD
330
F03
100
AcDbEntity
  8
241
  6
CONTINUOUS
100
AcDbLine
 10
21.37749907
 20
6.0
 30
0.0
 11
21.37749907
 21
25.0
 31
0.0
  0
LINE
  5
16CE
330
F03
100
AcDbEntity
  8
241
  6
CONTINUOUS
100
AcDbLine
 10
16.125
 20
6.0
 30
0.0
 11
16.125
 21
21.5
 31
0.0
  0
LINE
  5
16CF
330
F03
100
AcDbEntity
  8
241
  6
CONTINUOUS
100
AcDbLine
 10
14.62250093
 20
6.0
 30
0.0
 11
14.62250093
 21
25.0
 31
0.0
  0
LINE
  5
16D0
330
F03
100
AcDbEntity
  8
241
100
AcDbLine
 10
26.5
 20
-13.25700469
 30
0.0
 11
34.0
 21
-13.25700469
 31
0.0
  0
LINE
  5
16D1
330
F03
100
AcDbEntity
  8
241
  6
CONTINUOUS
100
AcDbLine
 10
19.875
 20
-15.5
 30
0.0
 11
26.0
 21
-15.5
 31
0.0
  0
LINE
  5
16D2
330
F03
100
AcDbEntity
  8
241
  6
CONTINUOUS
100
AcDbLine
 10
13.0
 20
-6.0
 30
0.0
 11
26.0
 21
-6.0
 31
0.0
  0
LINE
  5
16D3
330
F03
100
AcDbEntity
  8
241
  6
CONTINUOUS
100
AcDbLine
 10
14.62250093
 20
-6.0
 30
0.0
 11
14.62250093
 21
-15.5
 31
0.0
  0
LINE
  5
16D4
330
F03
100
AcDbEntity
  8
241
  6
CONTINUOUS
100
AcDbLine
 10
12.69622204
 20
-15.5
 30
0.0
 11
16.125
 21
-15.5
 31
0.0
  0
LINE
  5
16D5
330
F03
100
AcDbEntity
  8
241
  6
CONTINUOUS
100
AcDbLine
 10
21.37749907
 20
-6.0
 30
0.0
 11
21.37749907
 21
-15.5
 31
0.0
  0
LINE
  5
16D6
330
F03
100
AcDbEntity
  8
241
  6
CONTINUOUS
100
AcDbLine
 10
13.0
 20
6.0
 30
0.0
 11
26.0
 21
6.0
 31
0.0
  0
LINE
  5
16D7
330
F03
100
AcDbEntity
  8
241
100
AcDbLine
 10
41.6
 20
-15.25
 30
0.0
 11
41.6
 21
0.0
 31
0.0
  0
LINE
  5
16D8
330
F03
100
AcDbEntity
  8
241
100
AcDbLine
 10
40.4
 20
-15.25
 30
0.0
 11
40.4
 21
0.0
 31
0.0
  0
LINE
  5
16D9
330
F03
100
AcDbEntity
  8
241
100
AcDbLine
 10
38.6
 20
-15.25
 30
0.0
 11
38.6
 21
0.0
 31
0.0
  0
LINE
  5
16DA
330
F03
100
AcDbEntity
  8
241
100
AcDbLine
 10
37.4
 20
-15.25
 30
0.0
 11
37.4
 21
0.0
 31
0.0
  0
LINE
  5
16DB
330
F03
100
AcDbEntity
  8
241
  6
CONTINUOUS
100
AcDbLine
 10
35.5
 20
-15.25
 30
0.0
 11
35.5
 21
0.0
 31
0.0
1001
GRPNAME
1000
PASTMD18
  0
LINE
  5
16DC
330
F03
100
AcDbEntity
  8
241
100
AcDbLine
 10
34.0
 20
-16.75
 30
0.0
 11
34.0
 21
0.0
 31
0.0
  0
ARC
  5
16DD
330
F03
100
AcDbEntity
  8
240
100
AcDbCircle
 10
35.5
 20
-16.75
 30
0.0
 40
1.5
100
AcDbArc
 50
90.0
 51
180.0
  0
LINE
  5
16DE
330
F03
100
AcDbEntity
  8
240
  6
CONTINUOUS
100
AcDbLine
 10
26.0
 20
20.8
 30
0.0
 11
33.0
 21
20.8
 31
0.0
  0
LINE
  5
16DF
330
F03
100
AcDbEntity
  8
240
  6
CONTINUOUS
100
AcDbLine
 10
21.37749907
 20
25.0
 30
0.0
 11
19.875
 21
22.39759526
 31
0.0
  0
LINE
  5
16E0
330
F03
100
AcDbEntity
  8
240
  6
CONTINUOUS
100
AcDbLine
 10
14.62250093
 20
25.0
 30
0.0
 11
16.125
 21
22.39759526
 31
0.0
  0
LINE
  5
16E1
330
F03
100
AcDbEntity
  8
240
  6
CONTINUOUS
100
AcDbLine
 10
19.875
 20
22.39759526
 30
0.0
 11
19.875
 21
21.5
 31
0.0
  0
LINE
  5
16E2
330
F03
100
AcDbEntity
  8
240
  6
CONTINUOUS
100
AcDbLine
 10
16.125
 20
22.39759526
 30
0.0
 11
16.125
 21
21.5
 31
0.0
  0
LINE
  5
16E3
330
F03
100
AcDbEntity
  8
240
  6
CONTINUOUS
100
AcDbLine
 10
16.125
 20
21.5
 30
0.0
 11
19.875
 21
21.5
 31
0.0
  0
LINE
  5
16E4
330
F03
100
AcDbEntity
  8
240
  6
CONTINUOUS
100
AcDbLine
 10
21.37749907
 20
25.0
 30
0.0
 11
26.0
 21
25.0
 31
0.0
  0
LINE
  5
16E5
330
F03
100
AcDbEntity
  8
240
  6
CONTINUOUS
100
AcDbLine
 10
26.0
 20
25.0
 30
0.0
 11
26.0
 21
20.8
 31
0.0
  0
ARC
  5
16E6
330
F03
100
AcDbEntity
  8
240
  6
PHANTOM2
100
AcDbCircle
 10
33.0
 20
19.8
 30
0.0
 40
1.0
100
AcDbArc
 50
0.0
 51
90.0
  0
LINE
  5
16E7
330
F03
100
AcDbEntity
  8
240
  6
PHANTOM2
100
AcDbLine
 10
34.0
 20
16.75
 30
0.0
 11
34.0
 21
19.8
 31
0.0
  0
ARC
  5
16E8
330
F03
100
AcDbEntity
  8
240
100
AcDbCircle
 10
35.5
 20
16.75
 30
0.0
 40
1.5
100
AcDbArc
 50
180.0
 51
270.0
  0
LINE
  5
16E9
330
F03
100
AcDbEntity
  8
240
100
AcDbLine
 10
73.95
 20
15.24880953
 30
0.0
 11
73.95
 21
1.50353782
 31
0.0
  0
LINE
  5
16EA
330
F03
100
AcDbEntity
  8
246
100
AcDbLine
 10
75.0
 20
-16.0
 30
0.0
 11
75.0
 21
16.0
 31
0.0
  0
LINE
  5
16EB
330
F03
100
AcDbEntity
  8
241
100
AcDbLine
 10
63.40325213
 20
3.36321402
 30
0.0
 11
73.9411388
 21
1.50510029
 31
0.0
  0
LINE
  5
16EC
330
F03
100
AcDbEntity
  8
241
100
AcDbLine
 10
61.66551051
 20
0.35335726
 30
0.0
 11
73.95
 21
-4.11783125
 31
0.0
  0
LINE
  5
16ED
330
F03
100
AcDbEntity
  8
240
100
AcDbLine
 10
73.95
 20
-15.24880953
 30
0.0
 11
63.40000002
 21
-15.5
 31
0.0
  0
LINE
  5
16EE
330
F03
100
AcDbEntity
  8
241
100
AcDbLine
 10
51.09160134
 20
-6.92344036
 30
0.0
 11
73.91782561
 21
-14.21611474
 31
0.0
  0
ARC
  5
16EF
330
F03
100
AcDbEntity
  8
241
100
AcDbCircle
 10
52.46595005
 20
-2.62169996
 30
0.0
 40
4.515950051544669
100
AcDbArc
 50
79.9999824
 51
252.2819944
  0
LINE
  5
16F0
330
F03
100
AcDbEntity
  8
240
100
AcDbLine
 10
62.46698728
 20
-15.25
 30
0.0
 11
63.40000002
 21
-15.5
 31
0.0
  0
LINE
  5
16F1
330
F03
100
AcDbEntity
  8
241
100
AcDbLine
 10
61.65944668
 20
0.3428544
 30
0.0
 11
53.25013655
 21
1.82564266
 31
0.0
  0
LINE
  5
16F2
330
F03
100
AcDbEntity
  8
241
100
AcDbLine
 10
63.40325213
 20
3.36321402
 30
0.0
 11
61.65944668
 21
0.3428544
 31
0.0
  0
LINE
  5
16F3
330
F03
100
AcDbEntity
  8
240
100
AcDbLine
 10
73.95
 20
-4.11783125
 30
0.0
 11
73.95
 21
-15.24880953
 31
0.0
  0
LINE
  5
16F4
330
F03
100
AcDbEntity
  8
246
100
AcDbLine
 10
75.0
 20
-16.0
 30
0.0
 11
65.0
 21
-16.0
 31
0.0
  0
LINE
  5
16F5
330
F03
100
AcDbEntity
  8
240
100
AcDbLine
 10
73.9411388
 20
1.50510028
 30
0.0
 11
75.0
 21
-4.5
 31
0.0
  0
LINE
  5
16F6
330
F03
100
AcDbEntity
  8
240
100
AcDbLine
 10
75.0
 20
-4.5
 30
0.0
 11
73.95
 21
-4.11783125
 31
0.0
  0
LINE
  5
16F7
330
F03
100
AcDbEntity
  8
240
100
AcDbLine
 10
73.95
 20
1.50353782
 30
0.0
 11
73.9411388
 21
1.50510029
 31
0.0
  0
LINE
  5
16F8
330
F03
100
AcDbEntity
  8
240
100
AcDbLine
 10
73.95
 20
15.24880953
 30
0.0
 11
63.40000002
 21
15.5
 31
0.0
  0
LINE
  5
16F9
330
F03
100
AcDbEntity
  8
240
100
AcDbLine
 10
62.46698728
 20
15.25
 30
0.0
 11
63.40000002
 21
15.5
 31
0.0
  0
LINE
  5
16FA
330
F03
100
AcDbEntity
  8
246
100
AcDbLine
 10
75.0
 20
16.0
 30
0.0
 11
65.0
 21
16.0
 31
0.0
  0
POLYLINE
  5
16FB
330
F03
100
AcDbEntity
  8
241
100
AcDb3dPolyline
 66
     1
 10
0.0
 20
0.0
 30
0.0
 70
     8
  0
VERTEX
  5
16FC
330
16FB
100
AcDbEntity
  8
241
100
AcDbVertex
100
AcDb3dPolylineVertex
 10
71.1164
 20
10.1929
 30
0.0
 70
    32
  0
VERTEX
  5
16FD
330
16FB
100
AcDbEntity
  8
241
100
AcDbVertex
100
AcDb3dPolylineVertex
 10
71.1229
 20
10.2331
 30
0.0
 70
    32
  0
VERTEX
  5
16FE
330
16FB
100
AcDbEntity
  8
241
100
AcDbVertex
100
AcDb3dPolylineVertex
 10
71.1284
 20
10.2736
 30
0.0
 70
    32
  0
VERTEX
  5
16FF
330
16FB
100
AcDbEntity
  8
241
100
AcDbVertex
100
AcDb3dPolylineVertex
 10
71.1327
 20
10.3141
 30
0.0
 70
    32
  0
VERTEX
  5
1700
330
16FB
100
AcDbEntity
  8
241
100
AcDbVertex
100
AcDb3dPolylineVertex
 10
71.1359
 20
10.3548
 30
0.0
 70
    32
  0
VERTEX
  5
1701
330
16FB
100
AcDbEntity
  8
241
100
AcDbVertex
100
AcDb3dPolylineVertex
 10
71.138
 20
10.3956
 30
0.0
 70
    32
  0
VERTEX
  5
1702
330
16FB
100
AcDbEntity
  8
241
100
AcDbVertex
100
AcDb3dPolylineVertex
 10
71.139
 20
10.4365
 30
0.0
 70
    32
  0
VERTEX
  5
1703
330
16FB
100
AcDbEntity
  8
241
100
AcDbVertex
100
AcDb3dPolylineVertex
 10
71.1389
 20
10.4774
 30
0.0
 70
    32
  0
VERTEX
  5
1704
330
16FB
100
AcDbEntity
  8
241
100
AcDbVertex
100
AcDb3dPolylineVertex
 10
71.1377
 20
10.5183
 30
0.0
 70
    32
  0
VERTEX
  5
1705
330
16FB
100
AcDbEntity
  8
241
100
AcDbVertex
100
AcDb3dPolylineVertex
 10
71.1353
 20
10.5592
 30
0.0
 70
    32
  0
VERTEX
  5
1706
330
16FB
100
AcDbEntity
  8
241
100
AcDbVertex
100
AcDb3dPolylineVertex
 10
71.1319
 20
10.6001
 30
0.0
 70
    32
  0
VERTEX
  5
1707
330
16FB
100
AcDbEntity
  8
241
100
AcDbVertex
100
AcDb3dPolylineVertex
 10
71.1274
 20
10.641
 30
0.0
 70
    32
  0
VERTEX
  5
1708
330
16FB
100
AcDbEntity
  8
241
100
AcDbVertex
100
AcDb3dPolylineVertex
 10
71.1217
 20
10.6817
 30
0.0
 70
    32
  0
VERTEX
  5
1709
330
16FB
100
AcDbEntity
  8
241
100
AcDbVertex
100
AcDb3dPolylineVertex
 10
71.1149
 20
10.7224
 30
0.0
 70
    32
  0
VERTEX
  5
170A
330
16FB
100
AcDbEntity
  8
241
100
AcDbVertex
100
AcDb3dPolylineVertex
 10
71.1071
 20
10.7629
 30
0.0
 70
    32
  0
VERTEX
  5
170B
330
16FB
100
AcDbEntity
  8
241
100
AcDbVertex
100
AcDb3dPolylineVertex
 10
71.0982
 20
10.8033
 30
0.0
 70
    32
  0
VERTEX
  5
170C
330
16FB
100
AcDbEntity
  8
241
100
AcDbVertex
100
AcDb3dPolylineVertex
 10
71.0881
 20
10.8436
 30
0.0
 70
    32
  0
VERTEX
  5
170D
330
16FB
100
AcDbEntity
  8
241
100
AcDbVertex
100
AcDb3dPolylineVertex
 10
71.077
 20
10.8836
 30
0.0
 70
    32
  0
VERTEX
  5
170E
330
16FB
100
AcDbEntity
  8
241
100
AcDbVertex
100
AcDb3dPolylineVertex
 10
71.0648
 20
10.9234
 30
0.0
 70
    32
  0
VERTEX
  5
170F
330
16FB
100
AcDbEntity
  8
241
100
AcDbVertex
100
AcDb3dPolylineVertex
 10
71.0516
 20
10.9629
 30
0.0
 70
    32
  0
VERTEX
  5
1710
330
16FB
100
AcDbEntity
  8
241
100
AcDbVertex
100
AcDb3dPolylineVertex
 10
71.0373
 20
11.0022
 30
0.0
 70
    32
  0
VERTEX
  5
1711
330
16FB
100
AcDbEntity
  8
241
100
AcDbVertex
100
AcDb3dPolylineVertex
 10
71.0219
 20
11.0412
 30
0.0
 70
    32
  0
VERTEX
  5
1712
330
16FB
100
AcDbEntity
  8
241
100
AcDbVertex
100
AcDb3dPolylineVertex
 10
71.0055
 20
11.0799
 30
0.0
 70
    32
  0
VERTEX
  5
1713
330
16FB
100
AcDbEntity
  8
241
100
AcDbVertex
100
AcDb3dPolylineVertex
 10
70.9881
 20
11.1182
 30
0.0
 70
    32
  0
VERTEX
  5
1714
330
16FB
100
AcDbEntity
  8
241
100
AcDbVertex
100
AcDb3dPolylineVertex
 10
70.9697
 20
11.1562
 30
0.0
 70
    32
  0
VERTEX
  5
1715
330
16FB
100
AcDbEntity
  8
241
100
AcDbVertex
100
AcDb3dPolylineVertex
 10
70.9502
 20
11.1937
 30
0.0
 70
    32
  0
VERTEX
  5
1716
330
16FB
100
AcDbEntity
  8
241
100
AcDbVertex
100
AcDb3dPolylineVertex
 10
70.9297
 20
11.2309
 30
0.0
 70
    32
  0
VERTEX
  5
1717
330
16FB
100
AcDbEntity
  8
241
100
AcDbVertex
100
AcDb3dPolylineVertex
 10
70.9083
 20
11.2676
 30
0.0
 70
    32
  0
VERTEX
  5
1718
330
16FB
100
AcDbEntity
  8
241
100
AcDbVertex
100
AcDb3dPolylineVertex
 10
70.8859
 20
11.3039
 30
0.0
 70
    32
  0
VERTEX
  5
1719
330
16FB
100
AcDbEntity
  8
241
100
AcDbVertex
100
AcDb3dPolylineVertex
 10
70.8625
 20
11.3397
 30
0.0
 70
    32
  0
VERTEX
  5
171A
330
16FB
100
AcDbEntity
  8
241
100
AcDbVertex
100
AcDb3dPolylineVertex
 10
70.8382
 20
11.375
 30
0.0
 70
    32
  0
VERTEX
  5
171B
330
16FB
100
AcDbEntity
  8
241
100
AcDbVertex
100
AcDb3dPolylineVertex
 10
70.813
 20
11.4098
 30
0.0
 70
    32
  0
VERTEX
  5
171C
330
16FB
100
AcDbEntity
  8
241
100
AcDbVertex
100
AcDb3dPolylineVertex
 10
70.7868
 20
11.4441
 30
0.0
 70
    32
  0
VERTEX
  5
171D
330
16FB
100
AcDbEntity
  8
241
100
AcDbVertex
100
AcDb3dPolylineVertex
 10
70.7597
 20
11.4778
 30
0.0
 70
    32
  0
VERTEX
  5
171E
330
16FB
100
AcDbEntity
  8
241
100
AcDbVertex
100
AcDb3dPolylineVertex
 10
70.7318
 20
11.5109
 30
0.0
 70
    32
  0
VERTEX
  5
171F
330
16FB
100
AcDbEntity
  8
241
100
AcDbVertex
100
AcDb3dPolylineVertex
 10
70.703
 20
11.5434
 30
0.0
 70
    32
  0
VERTEX
  5
1720
330
16FB
100
AcDbEntity
  8
241
100
AcDbVertex
100
AcDb3dPolylineVertex
 10
70.6733
 20
11.5753
 30
0.0
 70
    32
  0
VERTEX
  5
1721
330
16FB
100
AcDbEntity
  8
241
100
AcDbVertex
100
AcDb3dPolylineVertex
 10
70.6429
 20
11.6065
 30
0.0
 70
    32
  0
VERTEX
  5
1722
330
16FB
100
AcDbEntity
  8
241
100
AcDbVertex
100
AcDb3dPolylineVertex
 10
70.6116
 20
11.6371
 30
0.0
 70
    32
  0
VERTEX
  5
1723
330
16FB
100
AcDbEntity
  8
241
100
AcDbVertex
100
AcDb3dPolylineVertex
 10
70.5795
 20
11.6671
 30
0.0
 70
    32
  0
VERTEX
  5
1724
330
16FB
100
AcDbEntity
  8
241
100
AcDbVertex
100
AcDb3dPolylineVertex
 10
70.5466
 20
11.6963
 30
0.0
 70
    32
  0
VERTEX
  5
1725
330
16FB
100
AcDbEntity
  8
241
100
AcDbVertex
100
AcDb3dPolylineVertex
 10
70.513
 20
11.7248
 30
0.0
 70
    32
  0
VERTEX
  5
1726
330
16FB
100
AcDbEntity
  8
241
100
AcDbVertex
100
AcDb3dPolylineVertex
 10
70.4786
 20
11.7526
 30
0.0
 70
    32
  0
VERTEX
  5
1727
330
16FB
100
AcDbEntity
  8
241
100
AcDbVertex
100
AcDb3dPolylineVertex
 10
70.4436
 20
11.7796
 30
0.0
 70
    32
  0
VERTEX
  5
1728
330
16FB
100
AcDbEntity
  8
241
100
AcDbVertex
100
AcDb3dPolylineVertex
 10
70.4078
 20
11.8059
 30
0.0
 70
    32
  0
VERTEX
  5
1729
330
16FB
100
AcDbEntity
  8
241
100
AcDbVertex
100
AcDb3dPolylineVertex
 10
70.3714
 20
11.8314
 30
0.0
 70
    32
  0
VERTEX
  5
172A
330
16FB
100
AcDbEntity
  8
241
100
AcDbVertex
100
AcDb3dPolylineVertex
 10
70.3343
 20
11.8561
 30
0.0
 70
    32
  0
VERTEX
  5
172B
330
16FB
100
AcDbEntity
  8
241
100
AcDbVertex
100
AcDb3dPolylineVertex
 10
70.2966
 20
11.88
 30
0.0
 70
    32
  0
VERTEX
  5
172C
330
16FB
100
AcDbEntity
  8
241
100
AcDbVertex
100
AcDb3dPolylineVertex
 10
70.2583
 20
11.903
 30
0.0
 70
    32
  0
VERTEX
  5
172D
330
16FB
100
AcDbEntity
  8
241
100
AcDbVertex
100
AcDb3dPolylineVertex
 10
70.2194
 20
11.9253
 30
0.0
 70
    32
  0
VERTEX
  5
172E
330
16FB
100
AcDbEntity
  8
241
100
AcDbVertex
100
AcDb3dPolylineVertex
 10
70.18
 20
11.9467
 30
0.0
 70
    32
  0
VERTEX
  5
172F
330
16FB
100
AcDbEntity
  8
241
100
AcDbVertex
100
AcDb3dPolylineVertex
 10
70.14
 20
11.9672
 30
0.0
 70
    32
  0
VERTEX
  5
1730
330
16FB
100
AcDbEntity
  8
241
100
AcDbVertex
100
AcDb3dPolylineVertex
 10
70.0995
 20
11.9868
 30
0.0
 70
    32
  0
VERTEX
  5
1731
330
16FB
100
AcDbEntity
  8
241
100
AcDbVertex
100
AcDb3dPolylineVertex
 10
70.0585
 20
12.0056
 30
0.0
 70
    32
  0
VERTEX
  5
1732
330
16FB
100
AcDbEntity
  8
241
100
AcDbVertex
100
AcDb3dPolylineVertex
 10
70.0171
 20
12.0234
 30
0.0
 70
    32
  0
VERTEX
  5
1733
330
16FB
100
AcDbEntity
  8
241
100
AcDbVertex
100
AcDb3dPolylineVertex
 10
69.9752
 20
12.0404
 30
0.0
 70
    32
  0
VERTEX
  5
1734
330
16FB
100
AcDbEntity
  8
241
100
AcDbVertex
100
AcDb3dPolylineVertex
 10
69.9329
 20
12.0564
 30
0.0
 70
    32
  0
VERTEX
  5
1735
330
16FB
100
AcDbEntity
  8
241
100
AcDbVertex
100
AcDb3dPolylineVertex
 10
69.8903
 20
12.0715
 30
0.0
 70
    32
  0
VERTEX
  5
1736
330
16FB
100
AcDbEntity
  8
241
100
AcDbVertex
100
AcDb3dPolylineVertex
 10
69.8472
 20
12.0857
 30
0.0
 70
    32
  0
VERTEX
  5
1737
330
16FB
100
AcDbEntity
  8
241
100
AcDbVertex
100
AcDb3dPolylineVertex
 10
69.8039
 20
12.0989
 30
0.0
 70
    32
  0
VERTEX
  5
1738
330
16FB
100
AcDbEntity
  8
241
100
AcDbVertex
100
AcDb3dPolylineVertex
 10
69.7602
 20
12.1112
 30
0.0
 70
    32
  0
VERTEX
  5
1739
330
16FB
100
AcDbEntity
  8
241
100
AcDbVertex
100
AcDb3dPolylineVertex
 10
69.7163
 20
12.1225
 30
0.0
 70
    32
  0
VERTEX
  5
173A
330
16FB
100
AcDbEntity
  8
241
100
AcDbVertex
100
AcDb3dPolylineVertex
 10
69.6721
 20
12.1328
 30
0.0
 70
    32
  0
VERTEX
  5
173B
330
16FB
100
AcDbEntity
  8
241
100
AcDbVertex
100
AcDb3dPolylineVertex
 10
69.6277
 20
12.1422
 30
0.0
 70
    32
  0
VERTEX
  5
173C
330
16FB
100
AcDbEntity
  8
241
100
AcDbVertex
100
AcDb3dPolylineVertex
 10
69.583
 20
12.1505
 30
0.0
 70
    32
  0
VERTEX
  5
173D
330
16FB
100
AcDbEntity
  8
241
100
AcDbVertex
100
AcDb3dPolylineVertex
 10
69.5382
 20
12.1579
 30
0.0
 70
    32
  0
VERTEX
  5
173E
330
16FB
100
AcDbEntity
  8
241
100
AcDbVertex
100
AcDb3dPolylineVertex
 10
69.4933
 20
12.1643
 30
0.0
 70
    32
  0
VERTEX
  5
173F
330
16FB
100
AcDbEntity
  8
241
100
AcDbVertex
100
AcDb3dPolylineVertex
 10
69.4482
 20
12.1697
 30
0.0
 70
    32
  0
VERTEX
  5
1740
330
16FB
100
AcDbEntity
  8
241
100
AcDbVertex
100
AcDb3dPolylineVertex
 10
69.4031
 20
12.1742
 30
0.0
 70
    32
  0
VERTEX
  5
1741
330
16FB
100
AcDbEntity
  8
241
100
AcDbVertex
100
AcDb3dPolylineVertex
 10
69.3579
 20
12.1776
 30
0.0
 70
    32
  0
VERTEX
  5
1742
330
16FB
100
AcDbEntity
  8
241
100
AcDbVertex
100
AcDb3dPolylineVertex
 10
69.3126
 20
12.18
 30
0.0
 70
    32
  0
VERTEX
  5
1743
330
16FB
100
AcDbEntity
  8
241
100
AcDbVertex
100
AcDb3dPolylineVertex
 10
69.2673
 20
12.1814
 30
0.0
 70
    32
  0
VERTEX
  5
1744
330
16FB
100
AcDbEntity
  8
241
100
AcDbVertex
100
AcDb3dPolylineVertex
 10
69.2221
 20
12.1818
 30
0.0
 70
    32
  0
VERTEX
  5
1745
330
16FB
100
AcDbEntity
  8
241
100
AcDbVertex
100
AcDb3dPolylineVertex
 10
69.1769
 20
12.1812
 30
0.0
 70
    32
  0
VERTEX
  5
1746
330
16FB
100
AcDbEntity
  8
241
100
AcDbVertex
100
AcDb3dPolylineVertex
 10
69.1317
 20
12.1796
 30
0.0
 70
    32
  0
VERTEX
  5
1747
330
16FB
100
AcDbEntity
  8
241
100
AcDbVertex
100
AcDb3dPolylineVertex
 10
69.0867
 20
12.1769
 30
0.0
 70
    32
  0
VERTEX
  5
1748
330
16FB
100
AcDbEntity
  8
241
100
AcDbVertex
100
AcDb3dPolylineVertex
 10
69.0417
 20
12.1733
 30
0.0
 70
    32
  0
VERTEX
  5
1749
330
16FB
100
AcDbEntity
  8
241
100
AcDbVertex
100
AcDb3dPolylineVertex
 10
68.997
 20
12.1687
 30
0.0
 70
    32
  0
VERTEX
  5
174A
330
16FB
100
AcDbEntity
  8
241
100
AcDbVertex
100
AcDb3dPolylineVertex
 10
68.9524
 20
12.1631
 30
0.0
 70
    32
  0
VERTEX
  5
174B
330
16FB
100
AcDbEntity
  8
241
100
AcDbVertex
100
AcDb3dPolylineVertex
 10
68.908
 20
12.1565
 30
0.0
 70
    32
  0
VERTEX
  5
174C
330
16FB
100
AcDbEntity
  8
241
100
AcDbVertex
100
AcDb3dPolylineVertex
 10
68.8639
 20
12.1489
 30
0.0
 70
    32
  0
VERTEX
  5
174D
330
16FB
100
AcDbEntity
  8
241
100
AcDbVertex
100
AcDb3dPolylineVertex
 10
68.82
 20
12.1403
 30
0.0
 70
    32
  0
VERTEX
  5
174E
330
16FB
100
AcDbEntity
  8
241
100
AcDbVertex
100
AcDb3dPolylineVertex
 10
68.7764
 20
12.1308
 30
0.0
 70
    32
  0
VERTEX
  5
174F
330
16FB
100
AcDbEntity
  8
241
100
AcDbVertex
100
AcDb3dPolylineVertex
 10
68.7331
 20
12.1202
 30
0.0
 70
    32
  0
VERTEX
  5
1750
330
16FB
100
AcDbEntity
  8
241
100
AcDbVertex
100
AcDb3dPolylineVertex
 10
68.6901
 20
12.1088
 30
0.0
 70
    32
  0
VERTEX
  5
1751
330
16FB
100
AcDbEntity
  8
241
100
AcDbVertex
100
AcDb3dPolylineVertex
 10
68.6475
 20
12.0963
 30
0.0
 70
    32
  0
VERTEX
  5
1752
330
16FB
100
AcDbEntity
  8
241
100
AcDbVertex
100
AcDb3dPolylineVertex
 10
68.6053
 20
12.0829
 30
0.0
 70
    32
  0
VERTEX
  5
1753
330
16FB
100
AcDbEntity
  8
241
100
AcDbVertex
100
AcDb3dPolylineVertex
 10
68.5636
 20
12.0685
 30
0.0
 70
    32
  0
VERTEX
  5
1754
330
16FB
100
AcDbEntity
  8
241
100
AcDbVertex
100
AcDb3dPolylineVertex
 10
68.5222
 20
12.0532
 30
0.0
 70
    32
  0
VERTEX
  5
1755
330
16FB
100
AcDbEntity
  8
241
100
AcDbVertex
100
AcDb3dPolylineVertex
 10
68.4813
 20
12.037
 30
0.0
 70
    32
  0
VERTEX
  5
1756
330
16FB
100
AcDbEntity
  8
241
100
AcDbVertex
100
AcDb3dPolylineVertex
 10
68.441
 20
12.0199
 30
0.0
 70
    32
  0
VERTEX
  5
1757
330
16FB
100
AcDbEntity
  8
241
100
AcDbVertex
100
AcDb3dPolylineVertex
 10
68.4011
 20
12.0018
 30
0.0
 70
    32
  0
VERTEX
  5
1758
330
16FB
100
AcDbEntity
  8
241
100
AcDbVertex
100
AcDb3dPolylineVertex
 10
68.3617
 20
11.9829
 30
0.0
 70
    32
  0
VERTEX
  5
1759
330
16FB
100
AcDbEntity
  8
241
100
AcDbVertex
100
AcDb3dPolylineVertex
 10
68.323
 20
11.9631
 30
0.0
 70
    32
  0
VERTEX
  5
175A
330
16FB
100
AcDbEntity
  8
241
100
AcDbVertex
100
AcDb3dPolylineVertex
 10
68.2848
 20
11.9424
 30
0.0
 70
    32
  0
VERTEX
  5
175B
330
16FB
100
AcDbEntity
  8
241
100
AcDbVertex
100
AcDb3dPolylineVertex
 10
68.2472
 20
11.9208
 30
0.0
 70
    32
  0
VERTEX
  5
175C
330
16FB
100
AcDbEntity
  8
241
100
AcDbVertex
100
AcDb3dPolylineVertex
 10
68.2103
 20
11.8984
 30
0.0
 70
    32
  0
VERTEX
  5
175D
330
16FB
100
AcDbEntity
  8
241
100
AcDbVertex
100
AcDb3dPolylineVertex
 10
68.174
 20
11.8752
 30
0.0
 70
    32
  0
VERTEX
  5
175E
330
16FB
100
AcDbEntity
  8
241
100
AcDbVertex
100
AcDb3dPolylineVertex
 10
68.1383
 20
11.8511
 30
0.0
 70
    32
  0
VERTEX
  5
175F
330
16FB
100
AcDbEntity
  8
241
100
AcDbVertex
100
AcDb3dPolylineVertex
 10
68.1034
 20
11.8262
 30
0.0
 70
    32
  0
VERTEX
  5
1760
330
16FB
100
AcDbEntity
  8
241
100
AcDbVertex
100
AcDb3dPolylineVertex
 10
68.0692
 20
11.8006
 30
0.0
 70
    32
  0
VERTEX
  5
1761
330
16FB
100
AcDbEntity
  8
241
100
AcDbVertex
100
AcDb3dPolylineVertex
 10
68.0357
 20
11.7742
 30
0.0
 70
    32
  0
VERTEX
  5
1762
330
16FB
100
AcDbEntity
  8
241
100
AcDbVertex
100
AcDb3dPolylineVertex
 10
68.003
 20
11.747
 30
0.0
 70
    32
  0
VERTEX
  5
1763
330
16FB
100
AcDbEntity
  8
241
100
AcDbVertex
100
AcDb3dPolylineVertex
 10
67.9711
 20
11.719
 30
0.0
 70
    32
  0
VERTEX
  5
1764
330
16FB
100
AcDbEntity
  8
241
100
AcDbVertex
100
AcDb3dPolylineVertex
 10
67.94
 20
11.6904
 30
0.0
 70
    32
  0
VERTEX
  5
1765
330
16FB
100
AcDbEntity
  8
241
100
AcDbVertex
100
AcDb3dPolylineVertex
 10
67.9096
 20
11.661
 30
0.0
 70
    32
  0
VERTEX
  5
1766
330
16FB
100
AcDbEntity
  8
241
100
AcDbVertex
100
AcDb3dPolylineVertex
 10
67.8801
 20
11.631
 30
0.0
 70
    32
  0
VERTEX
  5
1767
330
16FB
100
AcDbEntity
  8
241
100
AcDbVertex
100
AcDb3dPolylineVertex
 10
67.8515
 20
11.6002
 30
0.0
 70
    32
  0
VERTEX
  5
1768
330
16FB
100
AcDbEntity
  8
241
100
AcDbVertex
100
AcDb3dPolylineVertex
 10
67.8237
 20
11.5688
 30
0.0
 70
    32
  0
VERTEX
  5
1769
330
16FB
100
AcDbEntity
  8
241
100
AcDbVertex
100
AcDb3dPolylineVertex
 10
67.7969
 20
11.5368
 30
0.0
 70
    32
  0
VERTEX
  5
176A
330
16FB
100
AcDbEntity
  8
241
100
AcDbVertex
100
AcDb3dPolylineVertex
 10
67.7709
 20
11.5042
 30
0.0
 70
    32
  0
VERTEX
  5
176B
330
16FB
100
AcDbEntity
  8
241
100
AcDbVertex
100
AcDb3dPolylineVertex
 10
67.7458
 20
11.471
 30
0.0
 70
    32
  0
VERTEX
  5
176C
330
16FB
100
AcDbEntity
  8
241
100
AcDbVertex
100
AcDb3dPolylineVertex
 10
67.7217
 20
11.4371
 30
0.0
 70
    32
  0
VERTEX
  5
176D
330
16FB
100
AcDbEntity
  8
241
100
AcDbVertex
100
AcDb3dPolylineVertex
 10
67.6985
 20
11.4028
 30
0.0
 70
    32
  0
VERTEX
  5
176E
330
16FB
100
AcDbEntity
  8
241
100
AcDbVertex
100
AcDb3dPolylineVertex
 10
67.6763
 20
11.3679
 30
0.0
 70
    32
  0
VERTEX
  5
176F
330
16FB
100
AcDbEntity
  8
241
100
AcDbVertex
100
AcDb3dPolylineVertex
 10
67.6551
 20
11.3325
 30
0.0
 70
    32
  0
VERTEX
  5
1770
330
16FB
100
AcDbEntity
  8
241
100
AcDbVertex
100
AcDb3dPolylineVertex
 10
67.6348
 20
11.2966
 30
0.0
 70
    32
  0
VERTEX
  5
1771
330
16FB
100
AcDbEntity
  8
241
100
AcDbVertex
100
AcDb3dPolylineVertex
 10
67.6156
 20
11.2602
 30
0.0
 70
    32
  0
VERTEX
  5
1772
330
16FB
100
AcDbEntity
  8
241
100
AcDbVertex
100
AcDb3dPolylineVertex
 10
67.5973
 20
11.2234
 30
0.0
 70
    32
  0
VERTEX
  5
1773
330
16FB
100
AcDbEntity
  8
241
100
AcDbVertex
100
AcDb3dPolylineVertex
 10
67.5801
 20
11.1861
 30
0.0
 70
    32
  0
VERTEX
  5
1774
330
16FB
100
AcDbEntity
  8
241
100
AcDbVertex
100
AcDb3dPolylineVertex
 10
67.5639
 20
11.1484
 30
0.0
 70
    32
  0
VERTEX
  5
1775
330
16FB
100
AcDbEntity
  8
241
100
AcDbVertex
100
AcDb3dPolylineVertex
 10
67.5488
 20
11.1104
 30
0.0
 70
    32
  0
VERTEX
  5
1776
330
16FB
100
AcDbEntity
  8
241
100
AcDbVertex
100
AcDb3dPolylineVertex
 10
67.5347
 20
11.072
 30
0.0
 70
    32
  0
VERTEX
  5
1777
330
16FB
100
AcDbEntity
  8
241
100
AcDbVertex
100
AcDb3dPolylineVertex
 10
67.5216
 20
11.0333
 30
0.0
 70
    32
  0
VERTEX
  5
1778
330
16FB
100
AcDbEntity
  8
241
100
AcDbVertex
100
AcDb3dPolylineVertex
 10
67.5097
 20
10.9942
 30
0.0
 70
    32
  0
VERTEX
  5
1779
330
16FB
100
AcDbEntity
  8
241
100
AcDbVertex
100
AcDb3dPolylineVertex
 10
67.4988
 20
10.9549
 30
0.0
 70
    32
  0
VERTEX
  5
177A
330
16FB
100
AcDbEntity
  8
241
100
AcDbVertex
100
AcDb3dPolylineVertex
 10
67.489
 20
10.9153
 30
0.0
 70
    32
  0
VERTEX
  5
177B
330
16FB
100
AcDbEntity
  8
241
100
AcDbVertex
100
AcDb3dPolylineVertex
 10
67.4802
 20
10.8754
 30
0.0
 70
    32
  0
VERTEX
  5
177C
330
16FB
100
AcDbEntity
  8
241
100
AcDbVertex
100
AcDb3dPolylineVertex
 10
67.4726
 20
10.8354
 30
0.0
 70
    32
  0
SEQEND
  5
177D
330
16FB
100
AcDbEntity
  8
241
  0
POLYLINE
  5
177E
330
F03
100
AcDbEntity
  8
241
100
AcDb3dPolyline
 66
     1
 10
0.0
 20
0.0
 30
0.0
 70
     8
  0
VERTEX
  5
177F
330
177E
100
AcDbEntity
  8
241
100
AcDbVertex
100
AcDb3dPolylineVertex
 10
67.4726
 20
10.8354
 30
0.0
 70
    32
  0
VERTEX
  5
1780
330
177E
100
AcDbEntity
  8
241
100
AcDbVertex
100
AcDb3dPolylineVertex
 10
67.4636
 20
10.7813
 30
0.0
 70
    32
  0
VERTEX
  5
1781
330
177E
100
AcDbEntity
  8
241
100
AcDbVertex
100
AcDb3dPolylineVertex
 10
67.4558
 20
10.7271
 30
0.0
 70
    32
  0
VERTEX
  5
1782
330
177E
100
AcDbEntity
  8
241
100
AcDbVertex
100
AcDb3dPolylineVertex
 10
67.449
 20
10.6727
 30
0.0
 70
    32
  0
VERTEX
  5
1783
330
177E
100
AcDbEntity
  8
241
100
AcDbVertex
100
AcDb3dPolylineVertex
 10
67.4434
 20
10.6183
 30
0.0
 70
    32
  0
VERTEX
  5
1784
330
177E
100
AcDbEntity
  8
241
100
AcDbVertex
100
AcDb3dPolylineVertex
 10
67.4388
 20
10.5638
 30
0.0
 70
    32
  0
VERTEX
  5
1785
330
177E
100
AcDbEntity
  8
241
100
AcDbVertex
100
AcDb3dPolylineVertex
 10
67.4354
 20
10.5093
 30
0.0
 70
    32
  0
VERTEX
  5
1786
330
177E
100
AcDbEntity
  8
241
100
AcDbVertex
100
AcDb3dPolylineVertex
 10
67.4331
 20
10.4547
 30
0.0
 70
    32
  0
VERTEX
  5
1787
330
177E
100
AcDbEntity
  8
241
100
AcDbVertex
100
AcDb3dPolylineVertex
 10
67.432
 20
10.4002
 30
0.0
 70
    32
  0
VERTEX
  5
1788
330
177E
100
AcDbEntity
  8
241
100
AcDbVertex
100
AcDb3dPolylineVertex
 10
67.4319
 20
10.3458
 30
0.0
 70
    32
  0
VERTEX
  5
1789
330
177E
100
AcDbEntity
  8
241
100
AcDbVertex
100
AcDb3dPolylineVertex
 10
67.433
 20
10.2915
 30
0.0
 70
    32
  0
VERTEX
  5
178A
330
177E
100
AcDbEntity
  8
241
100
AcDbVertex
100
AcDb3dPolylineVertex
 10
67.4352
 20
10.2373
 30
0.0
 70
    32
  0
VERTEX
  5
178B
330
177E
100
AcDbEntity
  8
241
100
AcDbVertex
100
AcDb3dPolylineVertex
 10
67.4385
 20
10.1833
 30
0.0
 70
    32
  0
VERTEX
  5
178C
330
177E
100
AcDbEntity
  8
241
100
AcDbVertex
100
AcDb3dPolylineVertex
 10
67.4429
 20
10.1294
 30
0.0
 70
    32
  0
VERTEX
  5
178D
330
177E
100
AcDbEntity
  8
241
100
AcDbVertex
100
AcDb3dPolylineVertex
 10
67.4485
 20
10.0758
 30
0.0
 70
    32
  0
VERTEX
  5
178E
330
177E
100
AcDbEntity
  8
241
100
AcDbVertex
100
AcDb3dPolylineVertex
 10
67.4551
 20
10.0225
 30
0.0
 70
    32
  0
VERTEX
  5
178F
330
177E
100
AcDbEntity
  8
241
100
AcDbVertex
100
AcDb3dPolylineVertex
 10
67.4629
 20
9.96948
 30
0.0
 70
    32
  0
VERTEX
  5
1790
330
177E
100
AcDbEntity
  8
241
100
AcDbVertex
100
AcDb3dPolylineVertex
 10
67.4718
 20
9.91677
 30
0.0
 70
    32
  0
VERTEX
  5
1791
330
177E
100
AcDbEntity
  8
241
100
AcDbVertex
100
AcDb3dPolylineVertex
 10
67.4818
 20
9.86442
 30
0.0
 70
    32
  0
VERTEX
  5
1792
330
177E
100
AcDbEntity
  8
241
100
AcDbVertex
100
AcDb3dPolylineVertex
 10
67.4928
 20
9.81247
 30
0.0
 70
    32
  0
VERTEX
  5
1793
330
177E
100
AcDbEntity
  8
241
100
AcDbVertex
100
AcDb3dPolylineVertex
 10
67.505
 20
9.76094
 30
0.0
 70
    32
  0
VERTEX
  5
1794
330
177E
100
AcDbEntity
  8
241
100
AcDbVertex
100
AcDb3dPolylineVertex
 10
67.5182
 20
9.70986
 30
0.0
 70
    32
  0
VERTEX
  5
1795
330
177E
100
AcDbEntity
  8
241
100
AcDbVertex
100
AcDb3dPolylineVertex
 10
67.5325
 20
9.65926
 30
0.0
 70
    32
  0
VERTEX
  5
1796
330
177E
100
AcDbEntity
  8
241
100
AcDbVertex
100
AcDb3dPolylineVertex
 10
67.5478
 20
9.60918
 30
0.0
 70
    32
  0
VERTEX
  5
1797
330
177E
100
AcDbEntity
  8
241
100
AcDbVertex
100
AcDb3dPolylineVertex
 10
67.5642
 20
9.55965
 30
0.0
 70
    32
  0
VERTEX
  5
1798
330
177E
100
AcDbEntity
  8
241
100
AcDbVertex
100
AcDb3dPolylineVertex
 10
67.5817
 20
9.51069
 30
0.0
 70
    32
  0
VERTEX
  5
1799
330
177E
100
AcDbEntity
  8
241
100
AcDbVertex
100
AcDb3dPolylineVertex
 10
67.6002
 20
9.46233
 30
0.0
 70
    32
  0
VERTEX
  5
179A
330
177E
100
AcDbEntity
  8
241
100
AcDbVertex
100
AcDb3dPolylineVertex
 10
67.6197
 20
9.41461
 30
0.0
 70
    32
  0
VERTEX
  5
179B
330
177E
100
AcDbEntity
  8
241
100
AcDbVertex
100
AcDb3dPolylineVertex
 10
67.6402
 20
9.36755
 30
0.0
 70
    32
  0
VERTEX
  5
179C
330
177E
100
AcDbEntity
  8
241
100
AcDbVertex
100
AcDb3dPolylineVertex
 10
67.6617
 20
9.32118
 30
0.0
 70
    32
  0
VERTEX
  5
179D
330
177E
100
AcDbEntity
  8
241
100
AcDbVertex
100
AcDb3dPolylineVertex
 10
67.6842
 20
9.27553
 30
0.0
 70
    32
  0
VERTEX
  5
179E
330
177E
100
AcDbEntity
  8
241
100
AcDbVertex
100
AcDb3dPolylineVertex
 10
67.7077
 20
9.23063
 30
0.0
 70
    32
  0
VERTEX
  5
179F
330
177E
100
AcDbEntity
  8
241
100
AcDbVertex
100
AcDb3dPolylineVertex
 10
67.7321
 20
9.1865
 30
0.0
 70
    32
  0
VERTEX
  5
17A0
330
177E
100
AcDbEntity
  8
241
100
AcDbVertex
100
AcDb3dPolylineVertex
 10
67.7574
 20
9.14317
 30
0.0
 70
    32
  0
VERTEX
  5
17A1
330
177E
100
AcDbEntity
  8
241
100
AcDbVertex
100
AcDb3dPolylineVertex
 10
67.7837
 20
9.10066
 30
0.0
 70
    32
  0
VERTEX
  5
17A2
330
177E
100
AcDbEntity
  8
241
100
AcDbVertex
100
AcDb3dPolylineVertex
 10
67.8109
 20
9.05901
 30
0.0
 70
    32
  0
VERTEX
  5
17A3
330
177E
100
AcDbEntity
  8
241
100
AcDbVertex
100
AcDb3dPolylineVertex
 10
67.839
 20
9.01823
 30
0.0
 70
    32
  0
VERTEX
  5
17A4
330
177E
100
AcDbEntity
  8
241
100
AcDbVertex
100
AcDb3dPolylineVertex
 10
67.868
 20
8.97836
 30
0.0
 70
    32
  0
VERTEX
  5
17A5
330
177E
100
AcDbEntity
  8
241
100
AcDbVertex
100
AcDb3dPolylineVertex
 10
67.8978
 20
8.9394
 30
0.0
 70
    32
  0
VERTEX
  5
17A6
330
177E
100
AcDbEntity
  8
241
100
AcDbVertex
100
AcDb3dPolylineVertex
 10
67.9285
 20
8.9014
 30
0.0
 70
    32
  0
VERTEX
  5
17A7
330
177E
100
AcDbEntity
  8
241
100
AcDbVertex
100
AcDb3dPolylineVertex
 10
67.9599
 20
8.86437
 30
0.0
 70
    32
  0
VERTEX
  5
17A8
330
177E
100
AcDbEntity
  8
241
100
AcDbVertex
100
AcDb3dPolylineVertex
 10
67.9922
 20
8.82833
 30
0.0
 70
    32
  0
VERTEX
  5
17A9
330
177E
100
AcDbEntity
  8
241
100
AcDbVertex
100
AcDb3dPolylineVertex
 10
68.0253
 20
8.79331
 30
0.0
 70
    32
  0
VERTEX
  5
17AA
330
177E
100
AcDbEntity
  8
241
100
AcDbVertex
100
AcDb3dPolylineVertex
 10
68.0591
 20
8.75933
 30
0.0
 70
    32
  0
VERTEX
  5
17AB
330
177E
100
AcDbEntity
  8
241
100
AcDbVertex
100
AcDb3dPolylineVertex
 10
68.0937
 20
8.7264
 30
0.0
 70
    32
  0
VERTEX
  5
17AC
330
177E
100
AcDbEntity
  8
241
100
AcDbVertex
100
AcDb3dPolylineVertex
 10
68.129
 20
8.69455
 30
0.0
 70
    32
  0
VERTEX
  5
17AD
330
177E
100
AcDbEntity
  8
241
100
AcDbVertex
100
AcDb3dPolylineVertex
 10
68.1651
 20
8.66379
 30
0.0
 70
    32
  0
VERTEX
  5
17AE
330
177E
100
AcDbEntity
  8
241
100
AcDbVertex
100
AcDb3dPolylineVertex
 10
68.2017
 20
8.63415
 30
0.0
 70
    32
  0
VERTEX
  5
17AF
330
177E
100
AcDbEntity
  8
241
100
AcDbVertex
100
AcDb3dPolylineVertex
 10
68.2391
 20
8.60564
 30
0.0
 70
    32
  0
VERTEX
  5
17B0
330
177E
100
AcDbEntity
  8
241
100
AcDbVertex
100
AcDb3dPolylineVertex
 10
68.2771
 20
8.57828
 30
0.0
 70
    32
  0
VERTEX
  5
17B1
330
177E
100
AcDbEntity
  8
241
100
AcDbVertex
100
AcDb3dPolylineVertex
 10
68.3157
 20
8.55209
 30
0.0
 70
    32
  0
VERTEX
  5
17B2
330
177E
100
AcDbEntity
  8
241
100
AcDbVertex
100
AcDb3dPolylineVertex
 10
68.3549
 20
8.52708
 30
0.0
 70
    32
  0
VERTEX
  5
17B3
330
177E
100
AcDbEntity
  8
241
100
AcDbVertex
100
AcDb3dPolylineVertex
 10
68.3946
 20
8.50326
 30
0.0
 70
    32
  0
VERTEX
  5
17B4
330
177E
100
AcDbEntity
  8
241
100
AcDbVertex
100
AcDb3dPolylineVertex
 10
68.4349
 20
8.48066
 30
0.0
 70
    32
  0
VERTEX
  5
17B5
330
177E
100
AcDbEntity
  8
241
100
AcDbVertex
100
AcDb3dPolylineVertex
 10
68.4757
 20
8.45928
 30
0.0
 70
    32
  0
VERTEX
  5
17B6
330
177E
100
AcDbEntity
  8
241
100
AcDbVertex
100
AcDb3dPolylineVertex
 10
68.517
 20
8.43914
 30
0.0
 70
    32
  0
VERTEX
  5
17B7
330
177E
100
AcDbEntity
  8
241
100
AcDbVertex
100
AcDb3dPolylineVertex
 10
68.5588
 20
8.42025
 30
0.0
 70
    32
  0
VERTEX
  5
17B8
330
177E
100
AcDbEntity
  8
241
100
AcDbVertex
100
AcDb3dPolylineVertex
 10
68.601
 20
8.40262
 30
0.0
 70
    32
  0
VERTEX
  5
17B9
330
177E
100
AcDbEntity
  8
241
100
AcDbVertex
100
AcDb3dPolylineVertex
 10
68.6437
 20
8.38627
 30
0.0
 70
    32
  0
VERTEX
  5
17BA
330
177E
100
AcDbEntity
  8
241
100
AcDbVertex
100
AcDb3dPolylineVertex
 10
68.6867
 20
8.37119
 30
0.0
 70
    32
  0
VERTEX
  5
17BB
330
177E
100
AcDbEntity
  8
241
100
AcDbVertex
100
AcDb3dPolylineVertex
 10
68.7301
 20
8.35741
 30
0.0
 70
    32
  0
VERTEX
  5
17BC
330
177E
100
AcDbEntity
  8
241
100
AcDbVertex
100
AcDb3dPolylineVertex
 10
68.7738
 20
8.34492
 30
0.0
 70
    32
  0
VERTEX
  5
17BD
330
177E
100
AcDbEntity
  8
241
100
AcDbVertex
100
AcDb3dPolylineVertex
 10
68.8179
 20
8.33374
 30
0.0
 70
    32
  0
VERTEX
  5
17BE
330
177E
100
AcDbEntity
  8
241
100
AcDbVertex
100
AcDb3dPolylineVertex
 10
68.8622
 20
8.32388
 30
0.0
 70
    32
  0
VERTEX
  5
17BF
330
177E
100
AcDbEntity
  8
241
100
AcDbVertex
100
AcDb3dPolylineVertex
 10
68.9068
 20
8.31533
 30
0.0
 70
    32
  0
VERTEX
  5
17C0
330
177E
100
AcDbEntity
  8
241
100
AcDbVertex
100
AcDb3dPolylineVertex
 10
68.9516
 20
8.30811
 30
0.0
 70
    32
  0
VERTEX
  5
17C1
330
177E
100
AcDbEntity
  8
241
100
AcDbVertex
100
AcDb3dPolylineVertex
 10
68.9967
 20
8.30222
 30
0.0
 70
    32
  0
VERTEX
  5
17C2
330
177E
100
AcDbEntity
  8
241
100
AcDbVertex
100
AcDb3dPolylineVertex
 10
69.0419
 20
8.29766
 30
0.0
 70
    32
  0
VERTEX
  5
17C3
330
177E
100
AcDbEntity
  8
241
100
AcDbVertex
100
AcDb3dPolylineVertex
 10
69.0872
 20
8.29443
 30
0.0
 70
    32
  0
VERTEX
  5
17C4
330
177E
100
AcDbEntity
  8
241
100
AcDbVertex
100
AcDb3dPolylineVertex
 10
69.1327
 20
8.29254
 30
0.0
 70
    32
  0
VERTEX
  5
17C5
330
177E
100
AcDbEntity
  8
241
100
AcDbVertex
100
AcDb3dPolylineVertex
 10
69.1783
 20
8.29199
 30
0.0
 70
    32
  0
VERTEX
  5
17C6
330
177E
100
AcDbEntity
  8
241
100
AcDbVertex
100
AcDb3dPolylineVertex
 10
69.224
 20
8.29278
 30
0.0
 70
    32
  0
VERTEX
  5
17C7
330
177E
100
AcDbEntity
  8
241
100
AcDbVertex
100
AcDb3dPolylineVertex
 10
69.2697
 20
8.29491
 30
0.0
 70
    32
  0
VERTEX
  5
17C8
330
177E
100
AcDbEntity
  8
241
100
AcDbVertex
100
AcDb3dPolylineVertex
 10
69.3154
 20
8.29837
 30
0.0
 70
    32
  0
VERTEX
  5
17C9
330
177E
100
AcDbEntity
  8
241
100
AcDbVertex
100
AcDb3dPolylineVertex
 10
69.3611
 20
8.30317
 30
0.0
 70
    32
  0
VERTEX
  5
17CA
330
177E
100
AcDbEntity
  8
241
100
AcDbVertex
100
AcDb3dPolylineVertex
 10
69.4068
 20
8.3093
 30
0.0
 70
    32
  0
VERTEX
  5
17CB
330
177E
100
AcDbEntity
  8
241
100
AcDbVertex
100
AcDb3dPolylineVertex
 10
69.4524
 20
8.31676
 30
0.0
 70
    32
  0
VERTEX
  5
17CC
330
177E
100
AcDbEntity
  8
241
100
AcDbVertex
100
AcDb3dPolylineVertex
 10
69.4979
 20
8.32554
 30
0.0
 70
    32
  0
VERTEX
  5
17CD
330
177E
100
AcDbEntity
  8
241
100
AcDbVertex
100
AcDb3dPolylineVertex
 10
69.5432
 20
8.33564
 30
0.0
 70
    32
  0
VERTEX
  5
17CE
330
177E
100
AcDbEntity
  8
241
100
AcDbVertex
100
AcDb3dPolylineVertex
 10
69.5885
 20
8.34705
 30
0.0
 70
    32
  0
VERTEX
  5
17CF
330
177E
100
AcDbEntity
  8
241
100
AcDbVertex
100
AcDb3dPolylineVertex
 10
69.6335
 20
8.35977
 30
0.0
 70
    32
  0
VERTEX
  5
17D0
330
177E
100
AcDbEntity
  8
241
100
AcDbVertex
100
AcDb3dPolylineVertex
 10
69.6784
 20
8.37378
 30
0.0
 70
    32
  0
VERTEX
  5
17D1
330
177E
100
AcDbEntity
  8
241
100
AcDbVertex
100
AcDb3dPolylineVertex
 10
69.723
 20
8.38909
 30
0.0
 70
    32
  0
VERTEX
  5
17D2
330
177E
100
AcDbEntity
  8
241
100
AcDbVertex
100
AcDb3dPolylineVertex
 10
69.7673
 20
8.40567
 30
0.0
 70
    32
  0
VERTEX
  5
17D3
330
177E
100
AcDbEntity
  8
241
100
AcDbVertex
100
AcDb3dPolylineVertex
 10
69.8114
 20
8.42353
 30
0.0
 70
    32
  0
VERTEX
  5
17D4
330
177E
100
AcDbEntity
  8
241
100
AcDbVertex
100
AcDb3dPolylineVertex
 10
69.8552
 20
8.44264
 30
0.0
 70
    32
  0
VERTEX
  5
17D5
330
177E
100
AcDbEntity
  8
241
100
AcDbVertex
100
AcDb3dPolylineVertex
 10
69.8986
 20
8.463
 30
0.0
 70
    32
  0
VERTEX
  5
17D6
330
177E
100
AcDbEntity
  8
241
100
AcDbVertex
100
AcDb3dPolylineVertex
 10
69.9416
 20
8.4846
 30
0.0
 70
    32
  0
VERTEX
  5
17D7
330
177E
100
AcDbEntity
  8
241
100
AcDbVertex
100
AcDb3dPolylineVertex
 10
69.9843
 20
8.50742
 30
0.0
 70
    32
  0
VERTEX
  5
17D8
330
177E
100
AcDbEntity
  8
241
100
AcDbVertex
100
AcDb3dPolylineVertex
 10
70.0266
 20
8.53145
 30
0.0
 70
    32
  0
VERTEX
  5
17D9
330
177E
100
AcDbEntity
  8
241
100
AcDbVertex
100
AcDb3dPolylineVertex
 10
70.0684
 20
8.55667
 30
0.0
 70
    32
  0
VERTEX
  5
17DA
330
177E
100
AcDbEntity
  8
241
100
AcDbVertex
100
AcDb3dPolylineVertex
 10
70.1097
 20
8.58307
 30
0.0
 70
    32
  0
VERTEX
  5
17DB
330
177E
100
AcDbEntity
  8
241
100
AcDbVertex
100
AcDb3dPolylineVertex
 10
70.1506
 20
8.61064
 30
0.0
 70
    32
  0
VERTEX
  5
17DC
330
177E
100
AcDbEntity
  8
241
100
AcDbVertex
100
AcDb3dPolylineVertex
 10
70.1909
 20
8.63935
 30
0.0
 70
    32
  0
VERTEX
  5
17DD
330
177E
100
AcDbEntity
  8
241
100
AcDbVertex
100
AcDb3dPolylineVertex
 10
70.2307
 20
8.66919
 30
0.0
 70
    32
  0
VERTEX
  5
17DE
330
177E
100
AcDbEntity
  8
241
100
AcDbVertex
100
AcDb3dPolylineVertex
 10
70.27
 20
8.70014
 30
0.0
 70
    32
  0
VERTEX
  5
17DF
330
177E
100
AcDbEntity
  8
241
100
AcDbVertex
100
AcDb3dPolylineVertex
 10
70.3086
 20
8.73218
 30
0.0
 70
    32
  0
VERTEX
  5
17E0
330
177E
100
AcDbEntity
  8
241
100
AcDbVertex
100
AcDb3dPolylineVertex
 10
70.3467
 20
8.7653
 30
0.0
 70
    32
  0
VERTEX
  5
17E1
330
177E
100
AcDbEntity
  8
241
100
AcDbVertex
100
AcDb3dPolylineVertex
 10
70.3841
 20
8.79947
 30
0.0
 70
    32
  0
VERTEX
  5
17E2
330
177E
100
AcDbEntity
  8
241
100
AcDbVertex
100
AcDb3dPolylineVertex
 10
70.4208
 20
8.83468
 30
0.0
 70
    32
  0
VERTEX
  5
17E3
330
177E
100
AcDbEntity
  8
241
100
AcDbVertex
100
AcDb3dPolylineVertex
 10
70.4569
 20
8.8709
 30
0.0
 70
    32
  0
VERTEX
  5
17E4
330
177E
100
AcDbEntity
  8
241
100
AcDbVertex
100
AcDb3dPolylineVertex
 10
70.4923
 20
8.9081
 30
0.0
 70
    32
  0
VERTEX
  5
17E5
330
177E
100
AcDbEntity
  8
241
100
AcDbVertex
100
AcDb3dPolylineVertex
 10
70.5269
 20
8.94627
 30
0.0
 70
    32
  0
VERTEX
  5
17E6
330
177E
100
AcDbEntity
  8
241
100
AcDbVertex
100
AcDb3dPolylineVertex
 10
70.5608
 20
8.98539
 30
0.0
 70
    32
  0
VERTEX
  5
17E7
330
177E
100
AcDbEntity
  8
241
100
AcDbVertex
100
AcDb3dPolylineVertex
 10
70.5939
 20
9.02543
 30
0.0
 70
    32
  0
VERTEX
  5
17E8
330
177E
100
AcDbEntity
  8
241
100
AcDbVertex
100
AcDb3dPolylineVertex
 10
70.6263
 20
9.06637
 30
0.0
 70
    32
  0
VERTEX
  5
17E9
330
177E
100
AcDbEntity
  8
241
100
AcDbVertex
100
AcDb3dPolylineVertex
 10
70.6579
 20
9.10817
 30
0.0
 70
    32
  0
VERTEX
  5
17EA
330
177E
100
AcDbEntity
  8
241
100
AcDbVertex
100
AcDb3dPolylineVertex
 10
70.6886
 20
9.15083
 30
0.0
 70
    32
  0
VERTEX
  5
17EB
330
177E
100
AcDbEntity
  8
241
100
AcDbVertex
100
AcDb3dPolylineVertex
 10
70.7185
 20
9.1943
 30
0.0
 70
    32
  0
VERTEX
  5
17EC
330
177E
100
AcDbEntity
  8
241
100
AcDbVertex
100
AcDb3dPolylineVertex
 10
70.7475
 20
9.23857
 30
0.0
 70
    32
  0
VERTEX
  5
17ED
330
177E
100
AcDbEntity
  8
241
100
AcDbVertex
100
AcDb3dPolylineVertex
 10
70.7757
 20
9.28361
 30
0.0
 70
    32
  0
VERTEX
  5
17EE
330
177E
100
AcDbEntity
  8
241
100
AcDbVertex
100
AcDb3dPolylineVertex
 10
70.803
 20
9.32939
 30
0.0
 70
    32
  0
VERTEX
  5
17EF
330
177E
100
AcDbEntity
  8
241
100
AcDbVertex
100
AcDb3dPolylineVertex
 10
70.8293
 20
9.37589
 30
0.0
 70
    32
  0
VERTEX
  5
17F0
330
177E
100
AcDbEntity
  8
241
100
AcDbVertex
100
AcDb3dPolylineVertex
 10
70.8548
 20
9.42307
 30
0.0
 70
    32
  0
VERTEX
  5
17F1
330
177E
100
AcDbEntity
  8
241
100
AcDbVertex
100
AcDb3dPolylineVertex
 10
70.8793
 20
9.4709
 30
0.0
 70
    32
  0
VERTEX
  5
17F2
330
177E
100
AcDbEntity
  8
241
100
AcDbVertex
100
AcDb3dPolylineVertex
 10
70.9028
 20
9.51937
 30
0.0
 70
    32
  0
VERTEX
  5
17F3
330
177E
100
AcDbEntity
  8
241
100
AcDbVertex
100
AcDb3dPolylineVertex
 10
70.9254
 20
9.56843
 30
0.0
 70
    32
  0
VERTEX
  5
17F4
330
177E
100
AcDbEntity
  8
241
100
AcDbVertex
100
AcDb3dPolylineVertex
 10
70.947
 20
9.61806
 30
0.0
 70
    32
  0
VERTEX
  5
17F5
330
177E
100
AcDbEntity
  8
241
100
AcDbVertex
100
AcDb3dPolylineVertex
 10
70.9676
 20
9.66824
 30
0.0
 70
    32
  0
VERTEX
  5
17F6
330
177E
100
AcDbEntity
  8
241
100
AcDbVertex
100
AcDb3dPolylineVertex
 10
70.9872
 20
9.71892
 30
0.0
 70
    32
  0
VERTEX
  5
17F7
330
177E
100
AcDbEntity
  8
241
100
AcDbVertex
100
AcDb3dPolylineVertex
 10
71.0057
 20
9.77008
 30
0.0
 70
    32
  0
VERTEX
  5
17F8
330
177E
100
AcDbEntity
  8
241
100
AcDbVertex
100
AcDb3dPolylineVertex
 10
71.0233
 20
9.82169
 30
0.0
 70
    32
  0
VERTEX
  5
17F9
330
177E
100
AcDbEntity
  8
241
100
AcDbVertex
100
AcDb3dPolylineVertex
 10
71.0398
 20
9.87372
 30
0.0
 70
    32
  0
VERTEX
  5
17FA
330
177E
100
AcDbEntity
  8
241
100
AcDbVertex
100
AcDb3dPolylineVertex
 10
71.0552
 20
9.92613
 30
0.0
 70
    32
  0
VERTEX
  5
17FB
330
177E
100
AcDbEntity
  8
241
100
AcDbVertex
100
AcDb3dPolylineVertex
 10
71.0696
 20
9.9789
 30
0.0
 70
    32
  0
VERTEX
  5
17FC
330
177E
100
AcDbEntity
  8
241
100
AcDbVertex
100
AcDb3dPolylineVertex
 10
71.0829
 20
10.032
 30
0.0
 70
    32
  0
VERTEX
  5
17FD
330
177E
100
AcDbEntity
  8
241
100
AcDbVertex
100
AcDb3dPolylineVertex
 10
71.0952
 20
10.0854
 30
0.0
 70
    32
  0
VERTEX
  5
17FE
330
177E
100
AcDbEntity
  8
241
100
AcDbVertex
100
AcDb3dPolylineVertex
 10
71.1063
 20
10.139
 30
0.0
 70
    32
  0
VERTEX
  5
17FF
330
177E
100
AcDbEntity
  8
241
100
AcDbVertex
100
AcDb3dPolylineVertex
 10
71.1164
 20
10.1929
 30
0.0
 70
    32
  0
SEQEND
  5
1800
330
177E
100
AcDbEntity
  8
241
  0
ENDBLK
  5
F05
330
F03
100
AcDbEntity
  8
0
100
AcDbBlockEnd
  0
ENDSEC
  0
SECTION
  2
ENTITIES
  0
INSERT
  5
6E6
330
1A
100
AcDbEntity
  8
245
100
AcDbBlockReference
  2
矢印なし
 10
175.62382697
 20
90.55123572
 30
0.0
  0
TEXT
  5
AD2
330
1A
100
AcDbEntity
  8
241
100
AcDbText
 10
-25.0
 20
52.5
 30
0.0
 40
5.0
  1
HSK-A50-FCR32103-75
  7
YOKO
100
AcDbText
  0
DIMENSION
  5
E47
330
1A
100
AcDbEntity
  8
250
  6
CONTINUOUS
100
AcDbDimension
  2
*D2
 10
87.5
 20
16.0
 30
0.0
 11
85.1
 21
0.0
 31
0.0
 70
    32
  1
{\H2.8;\U+2205}<>
  3
BIGT
100
AcDbAlignedDimension
 13
75.0
 23
-16.0
 33
0.0
 14
75.0
 24
16.0
 34
0.0
 50
90.0
100
AcDbRotatedDimension
  0
DIMENSION
  5
E56
330
1A
100
AcDbEntity
  8
250
  6
CONTINUOUS
100
AcDbDimension
  2
*D3
 10
75.0
 20
24.5
 30
0.0
 11
70.0
 21
26.9
 31
0.0
 70
    32
  3
BIGT
100
AcDbAlignedDimension
 13
65.0
 23
16.0
 33
0.0
 14
75.0
 24
16.0
 34
0.0
100
AcDbRotatedDimension
  0
DIMENSION
  5
E65
330
1A
100
AcDbEntity
  8
250
  6
CONTINUOUS
100
AcDbDimension
  2
*D4
 10
75.0
 20
31.5
 30
0.0
 11
55.5
 21
33.9
 31
0.0
 70
    32
  3
BIGT
100
AcDbAlignedDimension
 13
36.0
 23
15.25
 33
0.0
 14
75.0
 24
16.0
 34
0.0
100
AcDbRotatedDimension
  0
DIMENSION
  5
E74
330
1A
100
AcDbEntity
  8
250
  6
CONTINUOUS
100
AcDbDimension
  2
*D5
 10
75.0
 20
38.5
 30
0.0
 11
37.5
 21
40.9
 31
0.0
 70
    32
  3
BIGT
100
AcDbAlignedDimension
 13
0.0
 23
25.0
 33
0.0
 14
75.0
 24
16.0
 34
0.0
100
AcDbRotatedDimension
  0
LINE
  5
1600
330
1A
100
AcDbEntity
  8
250
  6
CONTINUOUS
100
AcDbLine
 10
-16.04440773
 20
-28.02592197
 30
0.0
 11
-40.3110744
 21
-28.02592197
 31
0.0
1001
ITEMNAME
1000
LNSP2
  0
MTEXT
  5
1601
330
1A
100
AcDbEntity
  8
251
  6
CONTINUOUS
100
AcDbMText
 10
-37.5110744
 20
-27.02592197
 30
0.0
 40
2.8
 41
0.0
 71
     7
 72
     1
  1
HSK-A50
  7
YOKO
1001
ITEMNAME
1000
LNSP3
1001
ACAD
1000
MTEXTBEGIN
1070
    73
1070
     1
1070
    44
1040
1.0
1070
    74
1070
     0
1000
MTEXTEND
1000
MTEXTBEGIN
1070
    73
1070
     1
1070
    44
1040
1.0
1070
    74
1070
     0
1000
MTEXTEND
1000
MTEXTBEGIN
1070
    73
1070
     1
1070
    44
1040
1.0
1070
    74
1070
     0
1000
MTEXTEND
1000
MTEXTBEGIN
1070
    73
1070
     1
1070
    44
1040
1.0
1070
    74
1070
     0
1000
MTEXTEND
  0
LEADER
  5
1613
330
1A
100
AcDbEntity
  8
250
  6
CONTINUOUS
100
AcDbLeader
  3
BIGT
 76
     2
 10
-10.66962138
 20
-18.71651893
 30
0.0
 10
-16.04440773
 20
-28.02592197
 30
0.0
1001
ACAD
1000
DSTYLE
1002
{
1070
     6
1000
OPEN
1070
   343
1005
594
1002
}
  0
INSERT
  5
1801
330
1A
100
AcDbEntity
  8
245
100
AcDbBlockReference
  2
1
 10
0.0
 20
0.0
 30
0.0
  0
VIEWPORT
  5
22
330
17
100
AcDbEntity
 67
     1
  8
0
100
AcDbViewport
 10
261.51769912
 20
148.5
 30
0.0
 40
523.03539823
 41
297.0
 68
     1
 69
     1
1001
ACAD
1000
MVIEW
1002
{
1070
    16
1010
0.0
1020
0.0
1030
0.0
1010
0.0
1020
0.0
1030
1.0
1040
0.0
1040
297.0
1040
261.51769912
1040
148.5
1040
50.0
1040
0.0
1040
0.0
1070
     0
1070
   100
1070
     1
1070
     1
1070
     0
1070
     0
1070
     0
1070
     0
1040
0.0
1040
0.0
1040
0.0
1040
1.0
1040
1.0
1040
10.0
1040
10.0
1070
     0
1002
{
1002
}
1002
}
  0
ENDSEC
  0
SECTION
  2
OBJECTS
  0
DICTIONARY
  5
C
330
0
100
AcDbDictionary
  3
ACAD_GROUP
350
D
  3
ACAD_LAYOUT
350
565
  3
ACAD_MLINESTYLE
350
E
  3
ACAD_PLOTSETTINGS
350
566
  3
ACAD_PLOTSTYLENAME
350
563
  3
ACDBHEADERROUNDTRIPXREC
350
1803
  3
GRADE_DWG
350
540
  0
DICTIONARY
  5
10D7
330
1A
100
AcDbDictionary
280
     1
  3
ACAD_LAYOUTSELFREF
360
1825
  0
DICTIONARY
  5
10D5
330
17
100
AcDbDictionary
280
     1
  3
ACAD_LAYOUTSELFREF
360
1824
  0
DICTIONARY
  5
D
102
{ACAD_REACTORS
330
C
102
}
330
C
100
AcDbDictionary
  3
*A1
350
6C7
  3
*A2
350
6C8
  3
*A3
350
6D4
  3
*A4
350
6D5
  3
DREC-1
350
5FC
  3
DREC-2
350
654
  3
DREC-3
350
673
  0
DICTIONARY
  5
565
102
{ACAD_REACTORS
330
C
102
}
330
C
100
AcDbDictionary
  0
DICTIONARY
  5
E
102
{ACAD_REACTORS
330
C
102
}
330
C
100
AcDbDictionary
  3
STANDARD
350
13
  0
DICTIONARY
  5
566
102
{ACAD_REACTORS
330
C
102
}
330
C
100
AcDbDictionary
  3
A3_0_5倍_
350
758
  3
A3_1倍_
350
757
  3
A3_1倍__2000_
350
707
  3
A3_2倍_
350
759
  3
A4_0_5倍_
350
755
  3
A4_1倍_
350
754
  3
A4_1倍__2000_
350
708
  3
A4_2倍_
350
756
  0
ACDBDICTIONARYWDFLT
  5
563
102
{ACAD_REACTORS
330
C
102
}
330
C
100
AcDbDictionary
281
     1
  3
Normal
350
564
100
AcDbDictionaryWithDefault
340
564
  0
DICTIONARY
  5
1803
102
{ACAD_REACTORS
330
C
102
}
330
C
100
AcDbDictionary
  3
CEPSNTYPE
350
180D
  3
DIMSTYLEDATA
350
1811
  3
FINGERPRINTGUID
350
180E
  3
HYPERLINKBASE
350
1806
  3
INSUNITS
350
180C
  3
LAYOUTDICT
350
1808
  3
LWETCUNION
350
180B
  3
PLOTSETDICT
350
1809
  3
PLOTSTYLNAMDICT
350
180A
  3
PSVPSCALE
350
1810
  3
PUCSBASE
350
1814
  3
PUCSORGBACK
350
181A
  3
PUCSORGBOTTOM
350
1816
  3
PUCSORGFRONT
350
1819
  3
PUCSORGLEFT
350
1817
  3
PUCSORGRIGHT
350
1818
  3
PUCSORGTOP
350
1815
  3
PUCSORTHOREF
350
1812
  3
PUCSORTHOVIEW
350
1813
  3
STYLESHEET
350
1807
  3
TSTACKALIGN
350
1804
  3
TSTACKSIZE
350
1805
  3
UCSBASE
350
181D
  3
UCSORGBACK
350
1823
  3
UCSORGBOTTOM
350
181F
  3
UCSORGFRONT
350
1822
  3
UCSORGLEFT
350
1820
  3
UCSORGRIGHT
350
1821
  3
UCSORGTOP
350
181E
  3
UCSORTHOREF
350
181B
  3
UCSORTHOVIEW
350
181C
  3
VERSIONGUID
350
180F
  0
DICTIONARY
  5
540
102
{ACAD_REACTORS
330
C
102
}
330
C
100
AcDbDictionary
  3
VERSION
350
560
  0
XRECORD
  5
1825
102
{ACAD_REACTORS
330
10D7
102
}
330
10D7
100
AcDbXrecord
340
1A
  0
XRECORD
  5
1824
102
{ACAD_REACTORS
330
10D5
102
}
330
10D5
100
AcDbXrecord
340
17
  0
GROUP
  5
6C7
102
{ACAD_REACTORS
330
D
102
}
330
D
100
AcDbGroup
300

 70
     0
 71
     1
1001
GRPNAME
1000
DMA00
  0
GROUP
  5
6C8
102
{ACAD_REACTORS
330
D
102
}
330
D
100
AcDbGroup
300

 70
     0
 71
     1
1001
GRPNAME
1000
DMA00
  0
GROUP
  5
6D4
102
{ACAD_REACTORS
330
D
102
}
330
D
100
AcDbGroup
300

 70
     0
 71
     1
1001
GRPNAME
1000
DMA00
  0
GROUP
  5
6D5
102
{ACAD_REACTORS
330
D
102
}
330
D
100
AcDbGroup
300

 70
     0
 71
     1
1001
GRPNAME
1000
DMA00
  0
GROUP
  5
5FC
102
{ACAD_REACTORS
330
D
102
}
330
D
100
AcDbGroup
300

 70
     0
 71
     1
1001
GRPNAME
1000
DREC-
1001
GPARA
1000
xsiz
1000
44.182
1000
ysiz
1000
40.677
1000
angl
1000
0
1000
ctyp
1000
0
1000
csiz
1000
5
1000
lfnt
1000
cont
1000
hcnt
1000
hoff
1000
vcnt
1000
voff
1000
opnt
1000
4
1000
dxpt
1000
0
1000
dypt
1000
0
  0
GROUP
  5
654
102
{ACAD_REACTORS
330
D
102
}
330
D
100
AcDbGroup
300

 70
     0
 71
     1
1001
GRPNAME
1000
DREC-
1001
GPARA
1000
xsiz
1000
54.592
1000
ysiz
1000
53.036
1000
angl
1000
0
1000
ctyp
1000
0
1000
csiz
1000
5
1000
lfnt
1000
cont
1000
hcnt
1000
hoff
1000
vcnt
1000
voff
1000
opnt
1000
4
1000
dxpt
1000
0
1000
dypt
1000
0
  0
GROUP
  5
673
102
{ACAD_REACTORS
330
D
102
}
330
D
100
AcDbGroup
300

 70
     0
 71
     1
1001
GRPNAME
1000
DREC-
1001
GPARA
1000
xsiz
1000
30.363
1000
ysiz
1000
36.175
1000
angl
1000
0
1000
ctyp
1000
0
1000
csiz
1000
5
1000
lfnt
1000
cont
1000
hcnt
1000
hoff
1000
vcnt
1000
voff
1000
opnt
1000
4
1000
dxpt
1000
0
1000
dypt
1000
0
  0
MLINESTYLE
  5
13
102
{ACAD_REACTORS
330
E
102
}
330
E
100
AcDbMlineStyle
  2
STANDARD
 70
     0
  3

 62
     0
 51
90.0
 52
90.0
 71
     2
 49
0.5
 62
   256
  6
BYLAYER
 49
-0.5
 62
   256
  6
BYLAYER
  0
PLOTSETTINGS
  5
758
102
{ACAD_REACTORS
330
566
102
}
330
566
100
AcDbPlotSettings
  1
A3(0.5倍)
  2
\\AWTECPC05\HP DeskJet 1120C
  4
A3
  6

 40
5.95841646
 41
13.49375153
 42
6.04309082
 43
3.67242432
 44
296.92599487
 45
419.94665527
 46
89.96
 47
127.14
 48
0.0
 49
0.0
140
0.0
141
0.0
142
1.0
143
2.0
 70
  1716
 72
     1
 73
     1
 74
     2
  7
big.ctb
 75
    17
147
0.5
148
0.0
149
0.0
  0
PLOTSETTINGS
  5
757
102
{ACAD_REACTORS
330
566
102
}
330
566
100
AcDbPlotSettings
  1
A3(1倍)
  2
\\AWTECPC05\HP DeskJet 1120C
  4
A3
  6

 40
5.95841646
 41
13.49375153
 42
6.04309082
 43
3.67242432
 44
296.92599487
 45
419.94665527
 46
37.46
 47
52.89
 48
0.0
 49
0.0
140
0.0
141
0.0
142
1.0
143
1.0
 70
  1716
 72
     1
 73
     1
 74
     2
  7
big.ctb
 75
    16
147
1.0
148
0.0
149
0.0
  0
PLOTSETTINGS
  5
707
102
{ACAD_REACTORS
330
566
102
}
330
566
100
AcDbPlotSettings
  1
A3(1倍)(2000)
  2
SII LS-1300 (D-SCAN)
  4
User258
  6

 40
3.17499995
 41
3.17499995
 42
3.17498779
 43
3.17498779
 44
419.98898315
 45
296.98950195
 46
58.32
 47
40.32
 48
0.0
 49
0.0
140
0.0
141
0.0
142
1.0
143
1.0
 70
  1716
 72
     1
 73
     0
 74
     2
  7
big.ctb
 75
    16
147
1.0
148
0.0
149
0.0
  0
PLOTSETTINGS
  5
759
102
{ACAD_REACTORS
330
566
102
}
330
566
100
AcDbPlotSettings
  1
A3(2倍)
  2
\\AWTECPC05\HP DeskJet 1120C
  4
A3
  6

 40
5.95841646
 41
13.49375153
 42
6.04309082
 43
3.67242432
 44
296.92599487
 45
419.94665527
 46
-67.54
 47
-95.61
 48
0.0
 49
0.0
140
0.0
141
0.0
142
1.0
143
0.5
 70
  1716
 72
     1
 73
     1
 74
     2
  7
big.ctb
 75
    27
147
2.0
148
0.0
149
0.0
  0
PLOTSETTINGS
  5
755
102
{ACAD_REACTORS
330
566
102
}
330
566
100
AcDbPlotSettings
  1
A4(0.5倍)
  2
\\AWTECPC05\HP DeskJet 1120C
  4
A4
  6

 40
4.18041658
 41
13.49374962
 42
4.18040466
 43
3.92642212
 44
209.97332764
 45
296.92599487
 46
48.31
 47
65.5
 48
0.0
 49
0.0
140
0.0
141
0.0
142
1.0
143
2.0
 70
  1716
 72
     1
 73
     1
 74
     2
  7
big.ctb
 75
    17
147
0.5
148
0.0
149
0.0
  0
PLOTSETTINGS
  5
754
102
{ACAD_REACTORS
330
566
102
}
330
566
100
AcDbPlotSettings
  1
A4(1倍)
  2
\\AWTECPC05\HP DeskJet 1120C
  4
A4
  6

 40
4.18041658
 41
13.49374962
 42
4.18040466
 43
3.92642212
 44
209.97332764
 45
296.92599487
 46
-4.19
 47
-8.75
 48
0.0
 49
0.0
140
0.0
141
0.0
142
1.0
143
1.0
 70
  1716
 72
     1
 73
     1
 74
     2
  7
big.ctb
 75
    16
147
1.0
148
0.0
149
0.0
  0
PLOTSETTINGS
  5
708
102
{ACAD_REACTORS
330
566
102
}
330
566
100
AcDbPlotSettings
  1
A4(1倍)(2000)
  2
SII LS-1300 (D-SCAN)
  4
User259
  6

 40
3.17499995
 41
3.17499995
 42
3.17498779
 43
3.17500305
 44
296.98950195
 45
209.99449158
 46
-3.18
 47
-3.18
 48
0.0
 49
0.0
140
0.0
141
0.0
142
1.0
143
1.0
 70
  1716
 72
     1
 73
     0
 74
     2
  7
big.ctb
 75
    16
147
1.0
148
0.0
149
0.0
  0
PLOTSETTINGS
  5
756
102
{ACAD_REACTORS
330
566
102
}
330
566
100
AcDbPlotSettings
  1
A4(2倍)
  2
\\AWTECPC05\HP DeskJet 1120C
  4
A4
  6

 40
4.18041658
 41
13.49374962
 42
4.18040466
 43
3.92642212
 44
209.97332764
 45
296.92599487
 46
-109.19
 47
-157.25
 48
0.0
 49
0.0
140
0.0
141
0.0
142
1.0
143
0.5
 70
  1716
 72
     1
 73
     1
 74
     2
  7
big.ctb
 75
    27
147
2.0
148
0.0
149
0.0
  0
ACDBPLACEHOLDER
  5
564
102
{ACAD_REACTORS
330
563
102
}
330
563
100
AcDbPlaceHolder
280
     0
  0
XRECORD
  5
180D
102
{ACAD_REACTORS
330
1803
102
}
330
1803
100
AcDbXrecord
 90
        0
  0
XRECORD
  5
1811
102
{ACAD_REACTORS
330
1803
102
}
330
1803
100
AcDbXrecord
1000
DSTYLE
1002
{
1070
    79
 70
     2
1070
   179
 70
     3
1070
   341
340
594
1070
   343
340
594
1070
   344
340
594
1070
   371
 70
    -1
1070
   372
 70
    -1
1002
}
  0
XRECORD
  5
180E
102
{ACAD_REACTORS
330
1803
102
}
330
1803
100
AcDbXrecord
  1
{51294030-9CB4-11D3-8E18-00A0C925D94D}
  0
XRECORD
  5
1806
102
{ACAD_REACTORS
330
1803
102
}
330
1803
100
AcDbXrecord
  1

  0
XRECORD
  5
180C
102
{ACAD_REACTORS
330
1803
102
}
330
1803
100
AcDbXrecord
 90
        0
  0
XRECORD
  5
1808
102
{ACAD_REACTORS
330
1803
102
}
330
1803
100
AcDbXrecord
340
565
  0
XRECORD
  5
180B
102
{ACAD_REACTORS
330
1803
102
}
330
1803
100
AcDbXrecord
 90
    10781
  0
XRECORD
  5
1809
102
{ACAD_REACTORS
330
1803
102
}
330
1803
100
AcDbXrecord
340
566
  0
XRECORD
  5
180A
102
{ACAD_REACTORS
330
1803
102
}
330
1803
100
AcDbXrecord
340
563
  0
XRECORD
  5
1810
102
{ACAD_REACTORS
330
1803
102
}
330
1803
100
AcDbXrecord
 40
0.0
  0
XRECORD
  5
1814
102
{ACAD_REACTORS
330
1803
102
}
330
1803
100
AcDbXrecord
340
0
  0
XRECORD
  5
181A
102
{ACAD_REACTORS
330
1803
102
}
330
1803
100
AcDbXrecord
 10
0.0
 20
0.0
 30
0.0
  0
XRECORD
  5
1816
102
{ACAD_REACTORS
330
1803
102
}
330
1803
100
AcDbXrecord
 10
0.0
 20
0.0
 30
0.0
  0
XRECORD
  5
1819
102
{ACAD_REACTORS
330
1803
102
}
330
1803
100
AcDbXrecord
 10
0.0
 20
0.0
 30
0.0
  0
XRECORD
  5
1817
102
{ACAD_REACTORS
330
1803
102
}
330
1803
100
AcDbXrecord
 10
0.0
 20
0.0
 30
0.0
  0
XRECORD
  5
1818
102
{ACAD_REACTORS
330
1803
102
}
330
1803
100
AcDbXrecord
 10
0.0
 20
0.0
 30
0.0
  0
XRECORD
  5
1815
102
{ACAD_REACTORS
330
1803
102
}
330
1803
100
AcDbXrecord
 10
0.0
 20
0.0
 30
0.0
  0
XRECORD
  5
1812
102
{ACAD_REACTORS
330
1803
102
}
330
1803
100
AcDbXrecord
340
0
  0
XRECORD
  5
1813
102
{ACAD_REACTORS
330
1803
102
}
330
1803
100
AcDbXrecord
 70
     0
  0
XRECORD
  5
1807
102
{ACAD_REACTORS
330
1803
102
}
330
1803
100
AcDbXrecord
  1
big.ctb
  0
XRECORD
  5
1804
102
{ACAD_REACTORS
330
1803
102
}
330
1803
100
AcDbXrecord
 90
        1
  0
XRECORD
  5
1805
102
{ACAD_REACTORS
330
1803
102
}
330
1803
100
AcDbXrecord
 90
       70
  0
XRECORD
  5
181D
102
{ACAD_REACTORS
330
1803
102
}
330
1803
100
AcDbXrecord
340
0
  0
XRECORD
  5
1823
102
{ACAD_REACTORS
330
1803
102
}
330
1803
100
AcDbXrecord
 10
0.0
 20
0.0
 30
0.0
  0
XRECORD
  5
181F
102
{ACAD_REACTORS
330
1803
102
}
330
1803
100
AcDbXrecord
 10
0.0
 20
0.0
 30
0.0
  0
XRECORD
  5
1822
102
{ACAD_REACTORS
330
1803
102
}
330
1803
100
AcDbXrecord
 10
0.0
 20
0.0
 30
0.0
  0
XRECORD
  5
1820
102
{ACAD_REACTORS
330
1803
102
}
330
1803
100
AcDbXrecord
 10
0.0
 20
0.0
 30
0.0
  0
XRECORD
  5
1821
102
{ACAD_REACTORS
330
1803
102
}
330
1803
100
AcDbXrecord
 10
0.0
 20
0.0
 30
0.0
  0
XRECORD
  5
181E
102
{ACAD_REACTORS
330
1803
102
}
330
1803
100
AcDbXrecord
 10
0.0
 20
0.0
 30
0.0
  0
XRECORD
  5
181B
102
{ACAD_REACTORS
330
1803
102
}
330
1803
100
AcDbXrecord
340
0
  0
XRECORD
  5
181C
102
{ACAD_REACTORS
330
1803
102
}
330
1803
100
AcDbXrecord
 70
     0
  0
XRECORD
  5
180F
102
{ACAD_REACTORS
330
1803
102
}
330
1803
100
AcDbXrecord
  1
{639D3BFB-1BE0-4D5B-B082-27AC555A3BAC}
  0
XRECORD
  5
560
102
{ACAD_REACTORS
330
540
102
}
330
540
100
AcDbXrecord
  1
2.0.0
  0
ENDSEC
  0
EOF
