  0
SECTION
  2
HEADER
  9
$ACADVER
  1
AC1014
  9
$ACADMAINTVER
 70
     9
  9
$DWGCODEPAGE
  3
ANSI_932
  9
$INSBASE
 10
0.0
 20
0.0
 30
0.0
  9
$EXTMIN
 10
-40.3239731
 20
-28.03773424
 30
-0.00152582
  9
$EXTMAX
 10
85.0188744
 20
54.01168533
 30
0.00000003
  9
$LIMMIN
 10
0.0
 20
0.0
  9
$LIMMAX
 10
420.0
 20
297.0
  9
$ORTHOMODE
 70
     0
  9
$REGENMODE
 70
     1
  9
$FILLMODE
 70
     1
  9
$QTEXTMODE
 70
     0
  9
$MIRRTEXT
 70
     1
  9
$DRAGMODE
 70
     2
  9
$LTSCALE
 40
10.0
  9
$OSMODE
 70
   549
  9
$ATTMODE
 70
     1
  9
$TEXTSIZE
 40
3.0
  9
$TRACEWID
 40
1.0
  9
$TEXTSTYLE
  7
YOKO
  9
$CLAYER
  8
245
  9
$CELTYPE
  6
BYLAYER
  9
$CECOLOR
 62
   256
  9
$CELTSCALE
 40
1.0
  9
$DELOBJ
 70
     1
  9
$DISPSILH
 70
     0
  9
$DIMSCALE
 40
1.0
  9
$DIMASZ
 40
2.0
  9
$DIMEXO
 40
2.0
  9
$DIMDLI
 40
2.5
  9
$DIMRND
 40
0.0
  9
$DIMDLE
 40
0.0
  9
$DIMEXE
 40
2.0
  9
$DIMTP
 40
0.0
  9
$DIMTM
 40
0.0
  9
$DIMTXT
 40
4.0
  9
$DIMCEN
 40
0.0
  9
$DIMTSZ
 40
0.0
  9
$DIMTOL
 70
     0
  9
$DIMLIM
 70
     0
  9
$DIMTIH
 70
     0
  9
$DIMTOH
 70
     0
  9
$DIMSE1
 70
     0
  9
$DIMSE2
 70
     0
  9
$DIMTAD
 70
     3
  9
$DIMZIN
 70
     8
  9
$DIMBLK
  1

  9
$DIMASO
 70
     1
  9
$DIMSHO
 70
     1
  9
$DIMPOST
  1

  9
$DIMAPOST
  1

  9
$DIMALT
 70
     0
  9
$DIMALTD
 70
     2
  9
$DIMALTF
 40
25.4
  9
$DIMLFAC
 40
1.0
  9
$DIMTOFL
 70
     1
  9
$DIMTVP
 40
0.0
  9
$DIMTIX
 70
     1
  9
$DIMSOXD
 70
     0
  9
$DIMSAH
 70
     1
  9
$DIMBLK1
  1
OPEN
  9
$DIMBLK2
  1
OPEN
  9
$DIMSTYLE
  2
BIGT
  9
$DIMCLRD
 70
   256
  9
$DIMCLRE
 70
   256
  9
$DIMCLRT
 70
    40
  9
$DIMTFAC
 40
1.0
  9
$DIMGAP
 40
1.0
  9
$DIMJUST
 70
     0
  9
$DIMSD1
 70
     0
  9
$DIMSD2
 70
     0
  9
$DIMTOLJ
 70
     1
  9
$DIMTZIN
 70
     8
  9
$DIMALTZ
 70
     0
  9
$DIMALTTZ
 70
     0
  9
$DIMFIT
 70
     3
  9
$DIMUPT
 70
     0
  9
$DIMUNIT
 70
     2
  9
$DIMDEC
 70
     3
  9
$DIMTDEC
 70
     3
  9
$DIMALTU
 70
     2
  9
$DIMALTTD
 70
     2
  9
$DIMTXSTY
  7
STANDARD
  9
$DIMAUNIT
 70
     0
  9
$LUNITS
 70
     2
  9
$LUPREC
 70
     3
  9
$SKETCHINC
 40
1.0
  9
$FILLETRAD
 40
1.0
  9
$AUNITS
 70
     0
  9
$AUPREC
 70
     3
  9
$MENU
  1
.
  9
$ELEVATION
 40
0.0
  9
$PELEVATION
 40
0.0
  9
$THICKNESS
 40
0.0
  9
$LIMCHECK
 70
     0
  9
$BLIPMODE
 70
     0
  9
$CHAMFERA
 40
10.0
  9
$CHAMFERB
 40
10.0
  9
$CHAMFERC
 40
0.0
  9
$CHAMFERD
 40
0.0
  9
$SKPOLY
 70
     0
  9
$TDCREATE
 40
2455141.606121955
  9
$TDUPDATE
 40
2455383.554311516
  9
$TDINDWG
 40
0.0075698032
  9
$TDUSRTIMER
 40
0.0075698032
  9
$USRTIMER
 70
     1
  9
$ANGBASE
 50
0.0
  9
$ANGDIR
 70
     0
  9
$PDMODE
 70
     1
  9
$PDSIZE
 40
-5.0
  9
$PLINEWID
 40
0.0
  9
$COORDS
 70
     1
  9
$SPLFRAME
 70
     0
  9
$SPLINETYPE
 70
     6
  9
$SPLINESEGS
 70
     8
  9
$ATTDIA
 70
     0
  9
$ATTREQ
 70
     1
  9
$HANDLING
 70
-16383
  9
$HANDSEED
  5
186C
  9
$SURFTAB1
 70
     6
  9
$SURFTAB2
 70
     6
  9
$SURFTYPE
 70
     6
  9
$SURFU
 70
     6
  9
$SURFV
 70
     6
  9
$UCSNAME
  2

  9
$UCSORG
 10
0.0
 20
0.0
 30
0.0
  9
$UCSXDIR
 10
1.0
 20
0.0
 30
0.0
  9
$UCSYDIR
 10
0.0
 20
1.0
 30
0.0
  9
$PUCSNAME
  2

  9
$PUCSORG
 10
0.0
 20
0.0
 30
0.0
  9
$PUCSXDIR
 10
1.0
 20
0.0
 30
0.0
  9
$PUCSYDIR
 10
0.0
 20
1.0
 30
0.0
  9
$USERI1
 70
     1
  9
$USERI2
 70
     0
  9
$USERI3
 70
     0
  9
$USERI4
 70
     0
  9
$USERI5
 70
     0
  9
$USERR1
 40
0.0
  9
$USERR2
 40
0.0
  9
$USERR3
 40
0.0
  9
$USERR4
 40
0.0
  9
$USERR5
 40
0.0
  9
$WORLDVIEW
 70
     1
  9
$SHADEDGE
 70
     3
  9
$SHADEDIF
 70
    70
  9
$TILEMODE
 70
     1
  9
$MAXACTVP
 70
    16
  9
$PINSBASE
 10
0.0
 20
0.0
 30
0.0
  9
$PLIMCHECK
 70
     0
  9
$PEXTMIN
 10
1.00000000E+20
 20
1.00000000E+20
 30
1.00000000E+20
  9
$PEXTMAX
 10
-1.00000000E+20
 20
-1.00000000E+20
 30
-1.00000000E+20
  9
$PLIMMIN
 10
0.0
 20
0.0
  9
$PLIMMAX
 10
420.0
 20
297.0
  9
$UNITMODE
 70
     0
  9
$VISRETAIN
 70
     0
  9
$PLINEGEN
 70
     0
  9
$PSLTSCALE
 70
     1
  9
$TREEDEPTH
 70
  3020
  9
$PICKSTYLE
 70
     0
  9
$CMLSTYLE
  2
STANDARD
  9
$CMLJUST
 70
     0
  9
$CMLSCALE
 40
1.0
  9
$PROXYGRAPHICS
 70
     1
  9
$MEASUREMENT
 70
     1
  0
ENDSEC
  0
SECTION
  2
CLASSES
  0
CLASS
  1
XRECORD
  2
AcDbXrecord
  3
AutoCAD 2000
 90
        0
280
     0
281
     0
  0
CLASS
  1
ACDBDICTIONARYWDFLT
  2
AcDbDictionaryWithDefault
  3
AutoCAD 2000
 90
        0
280
     0
281
     0
  0
CLASS
  1
ACDBPLACEHOLDER
  2
AcDbPlaceHolder
  3
AutoCAD 2000
 90
        0
280
     0
281
     0
  0
CLASS
  1
LAYOUT
  2
AcDbLayout
  3
AutoCAD 2000
 90
        0
280
     0
281
     0
  0
CLASS
  1
PLOTSETTINGS
  2
AcDbPlotSettings
  3
AutoCAD 2000
 90
        0
280
     0
281
     0
  0
CLASS
  1
LONG_TRANSACTION
  2
AcDbLongTransaction
  3
AutoCAD 2000
 90
        0
280
     0
281
     0
  0
CLASS
  1
LWPOLYLINE
  2
AcDbPolyline
  3
AutoCAD 2000
 90
        0
280
     0
281
     1
  0
CLASS
  1
HATCH
  2
AcDbHatch
  3
AutoCAD 2000
 90
        0
280
     0
281
     1
  0
CLASS
  1
XRECORD
  2
AcDbXrecord
  3
AutoCAD 2000
 90
        0
280
     0
281
     0
  0
CLASS
  1
LONG_TRANSACTION
  2
AcDbLongTransaction
  3
AutoCAD 2000
 90
        0
280
     0
281
     0
  0
CLASS
  1
LWPOLYLINE
  2
AcDbPolyline
  3
AutoCAD 2000
 90
        0
280
     0
281
     1
  0
CLASS
  1
HATCH
  2
AcDbHatch
  3
AutoCAD 2000
 90
        0
280
     0
281
     1
  0
CLASS
  1
XRECORD
  2
AcDbXrecord
  3
AutoCAD 2000
 90
        0
280
     0
281
     0
  0
CLASS
  1
LONG_TRANSACTION
  2
AcDbLongTransaction
  3
AutoCAD 2000
 90
        0
280
     0
281
     0
  0
CLASS
  1
LWPOLYLINE
  2
AcDbPolyline
  3
AutoCAD 2000
 90
        0
280
     0
281
     1
  0
CLASS
  1
HATCH
  2
AcDbHatch
  3
AutoCAD 2000
 90
        0
280
     0
281
     1
  0
CLASS
  1
XRECORD
  2
AcDbXrecord
  3
AutoCAD 2000
 90
        0
280
     0
281
     0
  0
ENDSEC
  0
SECTION
  2
TABLES
  0
TABLE
  2
VPORT
  5
8
330
0
100
AcDbSymbolTable
 70
     2
  0
VPORT
  5
1847
330
8
100
AcDbSymbolTableRecord
100
AcDbViewportTableRecord
  2
*ACTIVE
 70
     0
 10
0.0
 20
0.0
 11
1.0
 21
1.0
 12
22.34745065
 22
12.98697554
 13
0.0
 23
0.0
 14
7.0
 24
7.0
 15
7.0
 25
7.0
 16
0.0
 26
0.0
 36
1.0
 17
0.0
 27
0.0
 37
0.0
 40
86.54852978
 41
1.45595855
 42
50.0
 43
0.0
 44
0.0
 50
0.0
 51
0.0
 71
     0
 72
  2000
 73
     1
 74
     0
 75
     0
 76
     0
 77
     0
 78
     0
  0
ENDTAB
  0
TABLE
  2
LTYPE
  5
5
330
0
100
AcDbSymbolTable
 70
     4
  0
LTYPE
  5
14
330
5
100
AcDbSymbolTableRecord
100
AcDbLinetypeTableRecord
  2
BYBLOCK
 70
     0
  3

 72
    65
 73
     0
 40
0.0
  0
LTYPE
  5
15
330
5
100
AcDbSymbolTableRecord
100
AcDbLinetypeTableRecord
  2
BYLAYER
 70
     0
  3

 72
    65
 73
     0
 40
0.0
  0
LTYPE
  5
16
330
5
100
AcDbSymbolTableRecord
100
AcDbLinetypeTableRecord
  2
CONTINUOUS
 70
     0
  3
Solid line
 72
    65
 73
     0
 40
0.0
  0
LTYPE
  5
258
330
5
100
AcDbSymbolTableRecord
100
AcDbLinetypeTableRecord
  2
CENTER2
 70
     0
  3
___ _ ___ _ ___ _ ___ _ ___ _ ___ _ ___ _ ___ _
 72
    65
 73
     4
 40
1.125
 49
0.75
 74
     0
 49
-0.125
 74
     0
 49
0.125
 74
     0
 49
-0.125
 74
     0
  0
LTYPE
  5
25C
330
5
100
AcDbSymbolTableRecord
100
AcDbLinetypeTableRecord
  2
HIDDEN2
 70
     0
  3
_ _ _ _ _ _ _ _ _ _ _ _ _ _ _ _ _ _ _ _ _ _ _ _
 72
    65
 73
     2
 40
0.1875
 49
0.125
 74
     0
 49
-0.0625
 74
     0
  0
LTYPE
  5
25D
330
5
100
AcDbSymbolTableRecord
100
AcDbLinetypeTableRecord
  2
PHANTOM2
 70
     0
  3
___ _ _ ___ _ _ ___ _ _ ___ _ _ ___ _ _ ___ _ _
 72
    65
 73
     6
 40
1.25
 49
0.625
 74
     0
 49
-0.125
 74
     0
 49
0.125
 74
     0
 49
-0.125
 74
     0
 49
0.125
 74
     0
 49
-0.125
 74
     0
  0
ENDTAB
  0
TABLE
  2
LAYER
  5
2
330
0
100
AcDbSymbolTable
 70
    11
  0
LAYER
  5
F
330
2
100
AcDbSymbolTableRecord
100
AcDbLayerTableRecord
  2
0
 70
     0
 62
     7
  6
CONTINUOUS
  0
LAYER
  5
1AA
330
2
100
AcDbSymbolTableRecord
100
AcDbLayerTableRecord
  2
240
 70
     0
 62
     4
  6
CONTINUOUS
  0
LAYER
  5
1AB
330
2
100
AcDbSymbolTableRecord
100
AcDbLayerTableRecord
  2
241
 70
     0
 62
   211
  6
CONTINUOUS
  0
LAYER
  5
1AF
330
2
100
AcDbSymbolTableRecord
100
AcDbLayerTableRecord
  2
245
 70
     0
 62
     2
  6
CENTER2
  0
LAYER
  5
21A
330
2
100
AcDbSymbolTableRecord
100
AcDbLayerTableRecord
  2
246
 70
     0
 62
     3
  6
PHANTOM2
  0
LAYER
  5
21E
330
2
100
AcDbSymbolTableRecord
100
AcDbLayerTableRecord
  2
250
 70
     0
 62
     3
  6
CONTINUOUS
  0
LAYER
  5
21F
330
2
100
AcDbSymbolTableRecord
100
AcDbLayerTableRecord
  2
251
 70
     0
 62
    40
  6
CONTINUOUS
  0
LAYER
  5
5C4
330
2
100
AcDbSymbolTableRecord
100
AcDbLayerTableRecord
  2
DEFPOINTS
 70
     0
 62
     7
  6
CONTINUOUS
  0
LAYER
  5
1660
330
2
100
AcDbSymbolTableRecord
100
AcDbLayerTableRecord
  2
242
 70
     0
 62
     3
  6
CONTINUOUS
  0
ENDTAB
  0
TABLE
  2
STYLE
  5
3
330
0
100
AcDbSymbolTable
 70
     2
  0
STYLE
  5
10
330
3
100
AcDbSymbolTableRecord
100
AcDbTextStyleTableRecord
  2
STANDARD
 70
     0
 40
0.0
 41
1.0
 50
0.0
 71
     0
 42
3.0
  3
romans.shx
  4
BIGFONT.SHX
  0
STYLE
  5
339
330
3
100
AcDbSymbolTableRecord
100
AcDbTextStyleTableRecord
  2
YOKO
 70
     0
 40
0.0
 41
1.0
 50
0.0
 71
     0
 42
3.0
  3
romans.shx
  4
extfont.shx
  0
ENDTAB
  0
TABLE
  2
VIEW
  5
6
330
0
100
AcDbSymbolTable
 70
     0
  0
ENDTAB
  0
TABLE
  2
UCS
  5
7
330
0
100
AcDbSymbolTable
 70
     0
  0
ENDTAB
  0
TABLE
  2
APPID
  5
9
330
0
100
AcDbSymbolTable
 70
    14
  0
APPID
  5
11
330
9
100
AcDbSymbolTableRecord
100
AcDbRegAppTableRecord
  2
ACAD
 70
     0
  0
APPID
  5
1B1
330
9
100
AcDbSymbolTableRecord
100
AcDbRegAppTableRecord
  2
GLOBAL
 70
     0
  0
APPID
  5
2A4
330
9
100
AcDbSymbolTableRecord
100
AcDbRegAppTableRecord
  2
DETAIL
 70
     0
  0
APPID
  5
5FD
330
9
100
AcDbSymbolTableRecord
100
AcDbRegAppTableRecord
  2
GRPNAME
 70
     0
  0
APPID
  5
5FE
330
9
100
AcDbSymbolTableRecord
100
AcDbRegAppTableRecord
  2
GPARA
 70
     0
  0
APPID
  5
6C4
330
9
100
AcDbSymbolTableRecord
100
AcDbRegAppTableRecord
  2
DCO15
 70
     0
  0
APPID
  5
6C5
330
9
100
AcDbSymbolTableRecord
100
AcDbRegAppTableRecord
  2
ITEMNAME
 70
     0
  0
APPID
  5
6C6
330
9
100
AcDbSymbolTableRecord
100
AcDbRegAppTableRecord
  2
GRADE_0
 70
     0
  0
APPID
  5
AA0
330
9
100
AcDbSymbolTableRecord
100
AcDbRegAppTableRecord
  2
GENIUS_GENODEF_13
 70
     0
  0
APPID
  5
AA1
330
9
100
AcDbSymbolTableRecord
100
AcDbRegAppTableRecord
  2
GENIUS_GENOBJ-N-FIL_13
 70
     0
  0
APPID
  5
AA2
330
9
100
AcDbSymbolTableRecord
100
AcDbRegAppTableRecord
  2
HATCH_TYPE
 70
     0
  0
APPID
  5
AA3
330
9
100
AcDbSymbolTableRecord
100
AcDbRegAppTableRecord
  2
HATCH_DISPLAY
 70
     0
  0
APPID
  5
AA4
330
9
100
AcDbSymbolTableRecord
100
AcDbRegAppTableRecord
  2
HATCH_DISTANCE
 70
     0
  0
APPID
  5
10C7
330
9
100
AcDbSymbolTableRecord
100
AcDbRegAppTableRecord
  2
CONTENTBLOCKICON
 70
     0
  0
ENDTAB
  0
TABLE
  2
DIMSTYLE
  5
A
330
0
100
AcDbSymbolTable
 70
     4
  0
DIMSTYLE
105
725
102
{ACAD_REACTORS
330
E50
330
E5F
330
E6E
330
E7D
102
}
330
A
100
AcDbSymbolTableRecord
100
AcDbDimStyleTableRecord
  2
BIGT
 70
     0
  3

  4

  5

  6
OPEN
  7
OPEN
 40
1.0
 41
2.23
 42
0.5
 43
2.5
 44
1.0
 45
0.0
 46
0.0
 47
0.0
 48
0.0
140
2.8
141
0.0
142
0.0
143
25.4
144
1.0
145
0.0
146
1.0
147
1.0
 71
     0
 72
     0
 73
     0
 74
     0
 75
     0
 76
     0
 77
     3
 78
     8
170
     0
171
     2
172
     1
173
     1
174
     1
175
     0
176
   256
177
   256
178
    40
270
     2
271
     3
272
     3
273
     2
274
     2
340
10
275
     0
280
     0
281
     0
282
     0
283
     1
284
     8
285
     0
286
     0
287
     3
288
     0
  0
ENDTAB
  0
TABLE
  2
BLOCK_RECORD
  5
1
330
0
100
AcDbSymbolTable
 70
     9
  0
BLOCK_RECORD
  5
1A
102
{ACAD_XDICTIONARY
360
10C5
102
}
330
1
100
AcDbSymbolTableRecord
100
AcDbBlockTableRecord
  2
*MODEL_SPACE
  0
BLOCK_RECORD
  5
17
102
{ACAD_XDICTIONARY
360
10C3
102
}
330
1
100
AcDbSymbolTableRecord
100
AcDbBlockTableRecord
  2
*PAPER_SPACE
  0
BLOCK_RECORD
  5
594
330
1
100
AcDbSymbolTableRecord
100
AcDbBlockTableRecord
  2
_OPEN
  0
BLOCK_RECORD
  5
6E3
330
1
100
AcDbSymbolTableRecord
100
AcDbBlockTableRecord
  2
矢印なし
  0
BLOCK_RECORD
  5
E51
330
1
100
AcDbSymbolTableRecord
100
AcDbBlockTableRecord
  2
*D2
  0
BLOCK_RECORD
  5
E60
330
1
100
AcDbSymbolTableRecord
100
AcDbBlockTableRecord
  2
*D3
  0
BLOCK_RECORD
  5
E6F
330
1
100
AcDbSymbolTableRecord
100
AcDbBlockTableRecord
  2
*D4
  0
BLOCK_RECORD
  5
E7E
330
1
100
AcDbSymbolTableRecord
100
AcDbBlockTableRecord
  2
*D5
  0
BLOCK_RECORD
  5
EC9
330
1
100
AcDbSymbolTableRecord
100
AcDbBlockTableRecord
  2
1
1001
CONTENTBLOCKICON
1071
        0
1004
2800000020000000200000000100080000000000000400000000000000000000000000000000000000000000000080000080000000808000800000008000800080800000C0C0C000C0DCC000F0CAA6000020400000206000002080000020A0000020C0000020E00000400000004020000040400000406000004080000040A0
1004
000040C0000040E00000600000006020000060400000606000006080000060A0000060C0000060E00000800000008020000080400000806000008080000080A0000080C0000080E00000A0000000A0200000A0400000A0600000A0800000A0A00000A0C00000A0E00000C0000000C0200000C0400000C0600000C0800000C0
1004
A00000C0C00000C0E00000E0000000E0200000E0400000E0600000E0800000E0A00000E0C00000E0E00040000000400020004000400040006000400080004000A0004000C0004000E00040200000402020004020400040206000402080004020A0004020C0004020E000404000004040200040404000404060004040800040
1004
40A0004040C0004040E00040600000406020004060400040606000406080004060A0004060C0004060E00040800000408020004080400040806000408080004080A0004080C0004080E00040A0000040A0200040A0400040A0600040A0800040A0A00040A0C00040A0E00040C0000040C0200040C0400040C0600040C08000
1004
40C0A00040C0C00040C0E00040E0000040E0200040E0400040E0600040E0800040E0A00040E0C00040E0E00080000000800020008000400080006000800080008000A0008000C0008000E00080200000802020008020400080206000802080008020A0008020C0008020E00080400000804020008040400080406000804080
1004
008040A0008040C0008040E00080600000806020008060400080606000806080008060A0008060C0008060E00080800000808020008080400080806000808080008080A0008080C0008080E00080A0000080A0200080A0400080A0600080A0800080A0A00080A0C00080A0E00080C0000080C0200080C0400080C0600080C0
1004
800080C0A00080C0C00080C0E00080E0000080E0200080E0400080E0600080E0800080E0A00080E0C00080E0E000C0000000C0002000C0004000C0006000C0008000C000A000C000C000C000E000C0200000C0202000C0204000C0206000C0208000C020A000C020C000C020E000C0400000C0402000C0404000C0406000C0
1004
408000C040A000C040C000C040E000C0600000C0602000C0604000C0606000C0608000C060A000C060C000C060E000C0800000C0802000C0804000C0806000C0808000C080A000C080C000C080E000C0A00000C0A02000C0A04000C0A06000C0A08000C0A0A000C0A0C000C0A0E000C0C00000C0C02000C0C04000C0C06000
1004
C0C08000C0C0A000F0FBFF00A4A0A000808080000000FF0000FF000000FFFF00FF000000FF00FF00FFFF0000FFFFFF0000000000000000000000000000000000000000000000000000000000000000000000000000000000000000000000000000000000000000000000000000000000000000000000000000000000000000
1004
00000000000000000000000000000000000000000000000000000000000000000000000000000000000000000000000000000000000000000000000000000000000000000000000000000000000000000000000000000000000000000000000000000000000000000000000000000000000000000000000000000000000000
1004
000000000000000000000000000000000000000000000000000000000000000000000000000000000000000000000000000000000000000000000000000000000000000000000000000000000000000000000000000000000000FEFEFEFEE7FEFEFEFE0000000000000000000000000000000000FEFEFEFEFEFEFE00E7E7E7
1004
FEE7E7E7FEFE0000000000000000000000000000FE000000000000E70000E7E7E7E7E7E7FAFE0000000000000000000000000000FE000000000000E7000000E7FBE700E7E7FEFEE7000000000000000000000000FE000000000000E7000000E7FBE700E700E7E7FEFEE7FEFEFEFEFAFAFA000000FEFEFEE700FB00E70000E7
1004
E7E7E7E7E700E7E7E700E700E7E7E7E700FE0000000000FEE7E7FBE7E70000E700FB0000E700E7E7E700E700E700E700E7FE000000FBFBFEE7E7FBE7E7FBE7E7FBFBFBFBE7FBE7E7E7FBE7FBFBE7E7E7E7FEFB0000FEFEE7E700FB00E70000E7E7E7E7E7E700E7E7E700E70000000000E7FE000000FE000000000000E70000
1004
00E7E7E700E700E7E7FEFEE7FEFEFEFEFAFAFA000000FE000000000000E7000000E7E7E700E700FEFEE7000000000000000000000000FE000000000000E7000000E7E7E700E700FE000000000000000000000000000000FEFEFEFEFEFEFE000000E7FEFE00FEFEFE000000000000000000000000000000000000000000FEFE
1004
FEFEFEFEFEFEFE000000000000000000000000000000000000000000000000000000000000000000000000000000000000000000000000000000000000000000000000000000000000000000000000000000000000000000000000000000000000000000000000000000000000000000000000000000000000000000000000
1004
00000000000000000000000000000000000000000000000000000000000000000000000000000000000000000000000000000000000000000000000000000000000000000000000000000000000000000000000000000000000000000000000000000000000000000000000000000000000000000000000000000000000000
1004
0000000000000000000000000000000000000000000000000000000000000000000000000000000000000000000000000000000000000000
  0
ENDTAB
  0
ENDSEC
  0
SECTION
  2
BLOCKS
  0
BLOCK
  5
1B
330
1A
100
AcDbEntity
  8
0
100
AcDbBlockBegin
  2
*MODEL_SPACE
 70
     0
 10
0.0
 20
0.0
 30
0.0
  3
*MODEL_SPACE
  1

  0
ENDBLK
  5
1C
330
1A
100
AcDbEntity
  8
0
100
AcDbBlockEnd
  0
BLOCK
  5
18
330
17
100
AcDbEntity
 67
     1
  8
0
100
AcDbBlockBegin
  2
*PAPER_SPACE
 70
     0
 10
0.0
 20
0.0
 30
0.0
  3
*PAPER_SPACE
  1

  0
ENDBLK
  5
19
330
17
100
AcDbEntity
 67
     1
  8
0
100
AcDbBlockEnd
  0
BLOCK
  5
598
330
594
100
AcDbEntity
  8
0
100
AcDbBlockBegin
  2
_OPEN
 70
     0
 10
0.0
 20
0.0
 30
0.0
  3
_OPEN
  1

  0
LINE
  5
595
330
594
100
AcDbEntity
  8
0
  6
BYBLOCK
 62
     0
100
AcDbLine
 10
-1.0
 20
0.16666667
 30
0.0
 11
0.0
 21
0.0
 31
0.0
  0
LINE
  5
596
330
594
100
AcDbEntity
  8
0
  6
BYBLOCK
 62
     0
100
AcDbLine
 10
-1.0
 20
-0.16666667
 30
0.0
 11
0.0
 21
0.0
 31
0.0
  0
LINE
  5
597
330
594
100
AcDbEntity
  8
0
  6
BYBLOCK
 62
     0
100
AcDbLine
 10
0.0
 20
0.0
 30
0.0
 11
-1.0
 21
0.0
 31
0.0
  0
ENDBLK
  5
599
330
594
100
AcDbEntity
  8
0
100
AcDbBlockEnd
  0
BLOCK
  5
6E4
330
6E3
100
AcDbEntity
  8
0
100
AcDbBlockBegin
  2
矢印なし
 70
     0
 10
0.0
 20
0.0
 30
0.0
  3
矢印なし
  1

  0
ENDBLK
  5
6E5
330
6E3
100
AcDbEntity
  8
0
100
AcDbBlockEnd
  0
BLOCK
  5
E5B
330
E51
100
AcDbEntity
  8
0
100
AcDbBlockBegin
  2
*D2
 70
     1
 10
0.0
 20
0.0
 30
0.0
  3
*D2
  1

  0
LINE
  5
EC0
330
E51
100
AcDbEntity
  8
250
  6
CONTINUOUS
100
AcDbLine
 10
75.5
 20
-8.0
 30
0.0
 11
85.0
 21
-8.0
 31
0.0
  0
LINE
  5
EC1
330
E51
100
AcDbEntity
  8
250
  6
CONTINUOUS
100
AcDbLine
 10
75.5
 20
8.0
 30
0.0
 11
85.0
 21
8.0
 31
0.0
  0
LINE
  5
EC2
330
E51
100
AcDbEntity
  8
250
  6
CONTINUOUS
100
AcDbLine
 10
84.0
 20
-5.77
 30
0.0
 11
84.0
 21
5.77
 31
0.0
  0
INSERT
  5
EC3
330
E51
100
AcDbEntity
  8
250
  6
CONTINUOUS
100
AcDbBlockReference
  2
_OPEN
 10
84.0
 20
-8.0
 30
0.0
 41
2.23
 42
2.23
 43
2.23
 50
270.0
  0
INSERT
  5
EC4
330
E51
100
AcDbEntity
  8
250
  6
CONTINUOUS
100
AcDbBlockReference
  2
_OPEN
 10
84.0
 20
8.0
 30
0.0
 41
2.23
 42
2.23
 43
2.23
 50
90.0
  0
MTEXT
  5
EC5
330
E51
100
AcDbEntity
  8
250
  6
CONTINUOUS
 62
    40
100
AcDbMText
 10
81.6
 20
0.0
 30
0.0
 40
2.8
 41
0.0
 71
     5
 72
     1
  1
\A1;{\H2.8;\U+2205}16
 11
0.0
 21
1.0
 31
0.0
1001
ACAD
1000
MTEXTBEGIN
1070
    73
1070
     1
1070
    44
1040
1.0
1070
    74
1070
     0
1000
MTEXTEND
1000
MTEXTBEGIN
1070
    73
1070
     1
1070
    44
1040
1.0
1070
    74
1070
     0
1000
MTEXTEND
1000
MTEXTBEGIN
1070
    73
1070
     1
1070
    44
1040
1.0
1070
    74
1070
     0
1000
MTEXTEND
  0
POINT
  5
EC6
330
E51
100
AcDbEntity
  8
DEFPOINTS
  6
CONTINUOUS
 62
     0
100
AcDbPoint
 10
75.0
 20
-8.0
 30
0.0
  0
POINT
  5
EC7
330
E51
100
AcDbEntity
  8
DEFPOINTS
  6
CONTINUOUS
 62
     0
100
AcDbPoint
 10
75.0
 20
8.0
 30
0.0
  0
POINT
  5
EC8
330
E51
100
AcDbEntity
  8
DEFPOINTS
  6
CONTINUOUS
 62
     0
100
AcDbPoint
 10
84.0
 20
8.0
 30
0.0
  0
ENDBLK
  5
E5C
330
E51
100
AcDbEntity
  8
0
100
AcDbBlockEnd
  0
BLOCK
  5
E6A
330
E60
100
AcDbEntity
  8
0
100
AcDbBlockBegin
  2
*D3
 70
     1
 10
0.0
 20
0.0
 30
0.0
  3
*D3
  1

  0
LINE
  5
EB7
330
E60
100
AcDbEntity
  8
250
  6
CONTINUOUS
100
AcDbLine
 10
67.0
 20
8.5
 30
0.0
 11
67.0
 21
22.0
 31
0.0
  0
LINE
  5
EB8
330
E60
100
AcDbEntity
  8
250
  6
CONTINUOUS
100
AcDbLine
 10
75.0
 20
8.5
 30
0.0
 11
75.0
 21
22.0
 31
0.0
  0
LINE
  5
EB9
330
E60
100
AcDbEntity
  8
250
  6
CONTINUOUS
100
AcDbLine
 10
69.23
 20
21.0
 30
0.0
 11
72.77
 21
21.0
 31
0.0
  0
INSERT
  5
EBA
330
E60
100
AcDbEntity
  8
250
  6
CONTINUOUS
100
AcDbBlockReference
  2
_OPEN
 10
67.0
 20
21.0
 30
0.0
 41
2.23
 42
2.23
 43
2.23
 50
180.0
  0
INSERT
  5
EBB
330
E60
100
AcDbEntity
  8
250
  6
CONTINUOUS
100
AcDbBlockReference
  2
_OPEN
 10
75.0
 20
21.0
 30
0.0
 41
2.23
 42
2.23
 43
2.23
  0
MTEXT
  5
EBC
330
E60
100
AcDbEntity
  8
250
  6
CONTINUOUS
 62
    40
100
AcDbMText
 10
71.0
 20
23.4
 30
0.0
 40
2.8
 41
0.0
 71
     5
 72
     1
  1
\A1;8
1001
ACAD
1000
MTEXTBEGIN
1070
    73
1070
     1
1070
    44
1040
1.0
1070
    74
1070
     0
1000
MTEXTEND
1000
MTEXTBEGIN
1070
    73
1070
     1
1070
    44
1040
1.0
1070
    74
1070
     0
1000
MTEXTEND
1000
MTEXTBEGIN
1070
    73
1070
     1
1070
    44
1040
1.0
1070
    74
1070
     0
1000
MTEXTEND
  0
POINT
  5
EBD
330
E60
100
AcDbEntity
  8
DEFPOINTS
  6
CONTINUOUS
 62
     0
100
AcDbPoint
 10
67.0
 20
8.0
 30
0.0
  0
POINT
  5
EBE
330
E60
100
AcDbEntity
  8
DEFPOINTS
  6
CONTINUOUS
 62
     0
100
AcDbPoint
 10
75.0
 20
8.0
 30
0.0
  0
POINT
  5
EBF
330
E60
100
AcDbEntity
  8
DEFPOINTS
  6
CONTINUOUS
 62
     0
100
AcDbPoint
 10
75.0
 20
21.0
 30
0.0
  0
ENDBLK
  5
E6B
330
E60
100
AcDbEntity
  8
0
100
AcDbBlockEnd
  0
BLOCK
  5
E79
330
E6F
100
AcDbEntity
  8
0
100
AcDbBlockBegin
  2
*D4
 70
     1
 10
0.0
 20
0.0
 30
0.0
  3
*D4
  1

  0
LINE
  5
EAE
330
E6F
100
AcDbEntity
  8
250
  6
CONTINUOUS
100
AcDbLine
 10
48.0
 20
8.16103304
 30
0.0
 11
48.0
 21
29.0
 31
0.0
  0
LINE
  5
EAF
330
E6F
100
AcDbEntity
  8
250
  6
CONTINUOUS
100
AcDbLine
 10
75.0
 20
8.5
 30
0.0
 11
75.0
 21
29.0
 31
0.0
  0
LINE
  5
EB0
330
E6F
100
AcDbEntity
  8
250
  6
CONTINUOUS
100
AcDbLine
 10
50.23
 20
28.0
 30
0.0
 11
72.77
 21
28.0
 31
0.0
  0
INSERT
  5
EB1
330
E6F
100
AcDbEntity
  8
250
  6
CONTINUOUS
100
AcDbBlockReference
  2
_OPEN
 10
48.0
 20
28.0
 30
0.0
 41
2.23
 42
2.23
 43
2.23
 50
180.0
  0
INSERT
  5
EB2
330
E6F
100
AcDbEntity
  8
250
  6
CONTINUOUS
100
AcDbBlockReference
  2
_OPEN
 10
75.0
 20
28.0
 30
0.0
 41
2.23
 42
2.23
 43
2.23
  0
MTEXT
  5
EB3
330
E6F
100
AcDbEntity
  8
250
  6
CONTINUOUS
 62
    40
100
AcDbMText
 10
61.5
 20
30.4
 30
0.0
 40
2.8
 41
0.0
 71
     5
 72
     1
  1
\A1;27
1001
ACAD
1000
MTEXTBEGIN
1070
    73
1070
     1
1070
    44
1040
1.0
1070
    74
1070
     0
1000
MTEXTEND
1000
MTEXTBEGIN
1070
    73
1070
     1
1070
    44
1040
1.0
1070
    74
1070
     0
1000
MTEXTEND
1000
MTEXTBEGIN
1070
    73
1070
     1
1070
    44
1040
1.0
1070
    74
1070
     0
1000
MTEXTEND
  0
POINT
  5
EB4
330
E6F
100
AcDbEntity
  8
DEFPOINTS
  6
CONTINUOUS
 62
     0
100
AcDbPoint
 10
48.0
 20
7.66103304
 30
0.0
  0
POINT
  5
EB5
330
E6F
100
AcDbEntity
  8
DEFPOINTS
  6
CONTINUOUS
 62
     0
100
AcDbPoint
 10
75.0
 20
8.0
 30
0.0
  0
POINT
  5
EB6
330
E6F
100
AcDbEntity
  8
DEFPOINTS
  6
CONTINUOUS
 62
     0
100
AcDbPoint
 10
75.0
 20
28.0
 30
0.0
  0
ENDBLK
  5
E7A
330
E6F
100
AcDbEntity
  8
0
100
AcDbBlockEnd
  0
BLOCK
  5
E88
330
E7E
100
AcDbEntity
  8
0
100
AcDbBlockBegin
  2
*D5
 70
     1
 10
0.0
 20
0.0
 30
0.0
  3
*D5
  1

  0
LINE
  5
1656
330
E7E
100
AcDbEntity
  8
250
  6
CONTINUOUS
100
AcDbLine
 10
0.0
 20
25.5
 30
0.0
 11
0.0
 21
36.0
 31
0.0
  0
LINE
  5
1657
330
E7E
100
AcDbEntity
  8
250
  6
CONTINUOUS
100
AcDbLine
 10
75.0
 20
8.5
 30
0.0
 11
75.0
 21
36.0
 31
0.0
  0
LINE
  5
1658
330
E7E
100
AcDbEntity
  8
250
  6
CONTINUOUS
100
AcDbLine
 10
2.23
 20
35.0
 30
0.0
 11
72.77
 21
35.0
 31
0.0
  0
INSERT
  5
1659
330
E7E
100
AcDbEntity
  8
250
  6
CONTINUOUS
100
AcDbBlockReference
  2
_OPEN
 10
0.0
 20
35.0
 30
0.0
 41
2.23
 42
2.23
 43
2.23
 50
180.0
  0
INSERT
  5
165A
330
E7E
100
AcDbEntity
  8
250
  6
CONTINUOUS
100
AcDbBlockReference
  2
_OPEN
 10
75.0
 20
35.0
 30
0.0
 41
2.23
 42
2.23
 43
2.23
  0
MTEXT
  5
165B
330
E7E
100
AcDbEntity
  8
250
  6
CONTINUOUS
 62
    40
100
AcDbMText
 10
37.5
 20
37.4
 30
0.0
 40
2.8
 41
0.0
 71
     5
 72
     1
  1
\A1;75
1001
ACAD
1000
MTEXTBEGIN
1070
    73
1070
     1
1070
    44
1040
1.0
1070
    74
1070
     0
1000
MTEXTEND
  0
POINT
  5
165C
330
E7E
100
AcDbEntity
  8
DEFPOINTS
  6
CONTINUOUS
 62
     0
100
AcDbPoint
 10
0.0
 20
25.0
 30
0.0
  0
POINT
  5
165D
330
E7E
100
AcDbEntity
  8
DEFPOINTS
  6
CONTINUOUS
 62
     0
100
AcDbPoint
 10
75.0
 20
8.0
 30
0.0
  0
POINT
  5
165E
330
E7E
100
AcDbEntity
  8
DEFPOINTS
  6
CONTINUOUS
 62
     0
100
AcDbPoint
 10
75.0
 20
35.0
 30
0.0
  0
ENDBLK
  5
E89
330
E7E
100
AcDbEntity
  8
0
100
AcDbBlockEnd
  0
BLOCK
  5
ECA
330
EC9
100
AcDbEntity
  8
0
100
AcDbBlockBegin
  2
1
 70
     0
 10
0.0
 20
0.0
 30
0.0
  3
1
  1

  0
LINE
  5
16C9
330
EC9
100
AcDbEntity
  8
245
100
AcDbLine
 10
-25.0
 20
0.0
 30
0.0
 11
76.0
 21
0.0
 31
0.0
  0
ARC
  5
16CA
330
EC9
100
AcDbEntity
  8
240
100
AcDbCircle
 10
51.4874121
 20
22.25
 30
0.0
 40
15.0
100
AcDbArc
 50
243.82317149
 51
270.0
  0
ARC
  5
16CB
330
EC9
100
AcDbEntity
  8
240
100
AcDbCircle
 10
51.4874121
 20
-22.25
 30
0.0
 40
15.0
100
AcDbArc
 50
90.0
 51
116.17682851
  0
ARC
  5
16CC
330
EC9
100
AcDbEntity
  8
240
  6
CONTINUOUS
100
AcDbCircle
 10
-24.0
 20
17.04875078
 30
0.0
 40
1.000000000000019
100
AcDbArc
 50
92.86240523
 51
180.0
  0
LINE
  5
16CD
330
EC9
100
AcDbEntity
  8
240
  6
CONTINUOUS
100
AcDbLine
 10
-24.0
 20
5.27
 30
0.0
 11
-25.0
 21
6.27
 31
0.0
  0
LINE
  5
16CE
330
EC9
100
AcDbEntity
  8
240
  6
CONTINUOUS
100
AcDbLine
 10
-25.0
 20
-6.27
 30
0.0
 11
-24.0
 21
-5.27
 31
0.0
  0
ARC
  5
16CF
330
EC9
100
AcDbEntity
  8
240
  6
CONTINUOUS
100
AcDbCircle
 10
-24.0
 20
-17.04875078
 30
0.0
 40
1.0
100
AcDbArc
 50
180.0
 51
267.13759477
  0
LINE
  5
16D0
330
EC9
100
AcDbEntity
  8
240
  6
CONTINUOUS
100
AcDbLine
 10
-25.0
 20
6.27
 30
0.0
 11
-25.0
 21
17.04875078
 31
0.0
  0
LINE
  5
16D1
330
EC9
100
AcDbEntity
  8
240
  6
CONTINUOUS
100
AcDbLine
 10
-25.0
 20
-17.04875078
 30
0.0
 11
-25.0
 21
-6.27
 31
0.0
  0
LINE
  5
16D2
330
EC9
100
AcDbEntity
  8
242
  6
CONTINUOUS
100
AcDbLine
 10
34.0
 20
-13.25700469
 30
0.0
 11
26.5
 21
-20.55101506
 31
0.0
  0
LINE
  5
16D3
330
EC9
100
AcDbEntity
  8
241
  6
CONTINUOUS
100
AcDbLine
 10
26.5
 20
-13.25700469
 30
0.0
 11
26.5
 21
-20.55101506
 31
0.0
  0
LINE
  5
16D4
330
EC9
100
AcDbEntity
  8
242
  6
CONTINUOUS
100
AcDbLine
 10
26.5
 20
-13.25700469
 30
0.0
 11
33.70301665
 21
-20.26218844
 31
0.0
  0
LINE
  5
16D5
330
EC9
100
AcDbEntity
  8
240
100
AcDbLine
 10
34.0
 20
-19.55101506
 30
0.0
 11
34.0
 21
-16.0
 31
0.0
  0
LINE
  5
16D6
330
EC9
100
AcDbEntity
  8
241
  6
CONTINUOUS
100
AcDbLine
 10
26.0
 20
0.0
 30
0.0
 11
26.0
 21
-20.55101506
 31
0.0
  0
LINE
  5
16D7
330
EC9
100
AcDbEntity
  8
241
  6
CONTINUOUS
100
AcDbLine
 10
21.37749907
 20
-19.61504525
 30
0.0
 11
19.875
 21
-16.16793968
 31
0.0
  0
LINE
  5
16D8
330
EC9
100
AcDbEntity
  8
241
  6
CONTINUOUS
100
AcDbLine
 10
19.875
 20
-6.0
 30
0.0
 11
19.875
 21
-21.5
 31
0.0
  0
LINE
  5
16D9
330
EC9
100
AcDbEntity
  8
241
  6
CONTINUOUS
100
AcDbLine
 10
16.125
 20
-16.16793968
 30
0.0
 11
14.62250093
 21
-19.61504525
 31
0.0
  0
ARC
  5
16DA
330
EC9
100
AcDbEntity
  8
241
  6
CONTINUOUS
100
AcDbCircle
 10
12.69622204
 20
-21.5
 30
0.0
 40
6.0
100
AcDbArc
 50
90.0
 51
161.68994155
  0
LINE
  5
16DB
330
EC9
100
AcDbEntity
  8
241
  6
CONTINUOUS
100
AcDbLine
 10
16.125
 20
-6.0
 30
0.0
 11
16.125
 21
-21.5
 31
0.0
  0
LINE
  5
16DC
330
EC9
100
AcDbEntity
  8
241
  6
CONTINUOUS
100
AcDbLine
 10
-2.0
 20
-19.15
 30
0.0
 11
-2.0
 21
0.0
 31
0.0
  0
LINE
  5
16DD
330
EC9
100
AcDbEntity
  8
241
100
AcDbLine
 10
0.0
 20
-19.15
 30
0.0
 11
0.0
 21
0.0
 31
0.0
  0
LINE
  5
16DE
330
EC9
100
AcDbEntity
  8
245
  6
CENTER2
100
AcDbLine
 10
18.0
 20
-25.0
 30
0.0
 11
18.0
 21
25.0
 31
0.0
  0
LINE
  5
16DF
330
EC9
100
AcDbEntity
  8
241
  6
CONTINUOUS
100
AcDbLine
 10
7.0
 20
-19.61504525
 30
0.0
 11
14.62250093
 21
-19.61504525
 31
0.0
  0
LINE
  5
16E0
330
EC9
100
AcDbEntity
  8
240
  6
CONTINUOUS
100
AcDbLine
 10
0.0
 20
-25.0
 30
0.0
 11
14.62250093
 21
-25.0
 31
0.0
  0
LINE
  5
16E1
330
EC9
100
AcDbEntity
  8
240
  6
CONTINUOUS
100
AcDbLine
 10
-2.0
 20
-19.15
 30
0.0
 11
-24.04993762
 21
-18.04750312
 31
0.0
  0
LINE
  5
16E2
330
EC9
100
AcDbEntity
  8
240
  6
CONTINUOUS
100
AcDbLine
 10
0.0
 20
-25.0
 30
0.0
 11
0.0
 21
-19.15
 31
0.0
  0
LINE
  5
16E3
330
EC9
100
AcDbEntity
  8
240
100
AcDbLine
 10
-2.0
 20
-19.15
 30
0.0
 11
0.0
 21
-19.15
 31
0.0
  0
LINE
  5
16E4
330
EC9
100
AcDbEntity
  8
240
  6
CONTINUOUS
100
AcDbLine
 10
26.0
 20
-20.55101506
 30
0.0
 11
33.0
 21
-20.55101506
 31
0.0
  0
LINE
  5
16E5
330
EC9
100
AcDbEntity
  8
240
  6
CONTINUOUS
100
AcDbLine
 10
21.37749907
 20
-25.0
 30
0.0
 11
19.875
 21
-22.39759526
 31
0.0
  0
LINE
  5
16E6
330
EC9
100
AcDbEntity
  8
240
  6
CONTINUOUS
100
AcDbLine
 10
14.62250093
 20
-25.0
 30
0.0
 11
16.125
 21
-22.39759526
 31
0.0
  0
LINE
  5
16E7
330
EC9
100
AcDbEntity
  8
241
  6
CONTINUOUS
100
AcDbLine
 10
14.62250093
 20
-19.61504525
 30
0.0
 11
14.62250093
 21
-25.0
 31
0.0
  0
LINE
  5
16E8
330
EC9
100
AcDbEntity
  8
240
  6
CONTINUOUS
100
AcDbLine
 10
19.875
 20
-22.39759526
 30
0.0
 11
19.875
 21
-21.5
 31
0.0
  0
LINE
  5
16E9
330
EC9
100
AcDbEntity
  8
240
  6
CONTINUOUS
100
AcDbLine
 10
16.125
 20
-22.39759526
 30
0.0
 11
16.125
 21
-21.5
 31
0.0
  0
LINE
  5
16EA
330
EC9
100
AcDbEntity
  8
240
  6
CONTINUOUS
100
AcDbLine
 10
16.125
 20
-21.5
 30
0.0
 11
19.875
 21
-21.5
 31
0.0
  0
LINE
  5
16EB
330
EC9
100
AcDbEntity
  8
240
  6
CONTINUOUS
100
AcDbLine
 10
26.0
 20
-25.0
 30
0.0
 11
26.0
 21
-20.55101506
 31
0.0
  0
LINE
  5
16EC
330
EC9
100
AcDbEntity
  8
241
  6
CONTINUOUS
100
AcDbLine
 10
21.37749907
 20
-19.61504525
 30
0.0
 11
21.37749907
 21
-25.0
 31
0.0
  0
LINE
  5
16ED
330
EC9
100
AcDbEntity
  8
240
  6
CONTINUOUS
100
AcDbLine
 10
21.37749907
 20
-25.0
 30
0.0
 11
26.0
 21
-25.0
 31
0.0
  0
LINE
  5
16EE
330
EC9
100
AcDbEntity
  8
241
  6
CONTINUOUS
100
AcDbLine
 10
21.37749907
 20
-19.61504525
 30
0.0
 11
26.0
 21
-19.61504525
 31
0.0
  0
ARC
  5
16EF
330
EC9
100
AcDbEntity
  8
240
100
AcDbCircle
 10
33.0
 20
-19.55101506
 30
0.0
 40
1.0
100
AcDbArc
 50
270.0
 51
0.0
  0
LINE
  5
16F0
330
EC9
100
AcDbEntity
  8
240
  6
CONTINUOUS
100
AcDbLine
 10
0.0
 20
25.0
 30
0.0
 11
14.62250093
 21
25.0
 31
0.0
  0
ARC
  5
16F1
330
EC9
100
AcDbEntity
  8
241
  6
CONTINUOUS
100
AcDbCircle
 10
13.0
 20
0.0
 30
0.0
 40
6.0
100
AcDbArc
 50
90.0
 51
180.0
  0
ARC
  5
16F2
330
EC9
100
AcDbEntity
  8
241
  6
CONTINUOUS
100
AcDbCircle
 10
13.0
 20
0.0
 30
0.0
 40
6.0
100
AcDbArc
 50
180.0
 51
270.0
  0
LINE
  5
16F3
330
EC9
100
AcDbEntity
  8
241
  6
CONTINUOUS
100
AcDbLine
 10
-2.0
 20
19.15
 30
0.0
 11
-2.0
 21
0.0
 31
0.0
  0
LINE
  5
16F4
330
EC9
100
AcDbEntity
  8
241
100
AcDbLine
 10
0.0
 20
0.0
 30
0.0
 11
0.0
 21
19.15
 31
0.0
  0
CIRCLE
  5
16F5
330
EC9
100
AcDbEntity
  8
241
  6
CONTINUOUS
100
AcDbCircle
 10
-7.5
 20
0.0
 30
0.0
 40
3.0
  0
ARC
  5
16F6
330
EC9
100
AcDbEntity
  8
241
  6
HIDDEN2
100
AcDbCircle
 10
-19.0
 20
-3.77
 30
0.0
 40
1.5
100
AcDbArc
 50
270.0
 51
0.0
  0
ARC
  5
16F7
330
EC9
100
AcDbEntity
  8
240
  6
CONTINUOUS
100
AcDbCircle
 10
-22.0
 20
-3.77
 30
0.0
 40
1.500000000000014
100
AcDbArc
 50
270.0
 51
0.0
  0
LINE
  5
16F8
330
EC9
100
AcDbEntity
  8
241
  6
HIDDEN2
100
AcDbLine
 10
-22.0
 20
-5.27
 30
0.0
 11
-19.0
 21
-5.27
 31
0.0
  0
LINE
  5
16F9
330
EC9
100
AcDbEntity
  8
240
  6
CONTINUOUS
100
AcDbLine
 10
-24.0
 20
-5.27
 30
0.0
 11
-22.0
 21
-5.27
 31
0.0
  0
LINE
  5
16FA
330
EC9
100
AcDbEntity
  8
240
  6
CONTINUOUS
100
AcDbLine
 10
-20.5
 20
3.77
 30
0.0
 11
-20.5
 21
0.0
 31
0.0
  0
LINE
  5
16FB
330
EC9
100
AcDbEntity
  8
241
  6
HIDDEN2
100
AcDbLine
 10
-17.5
 20
3.77
 30
0.0
 11
-17.5
 21
0.0
 31
0.0
  0
LINE
  5
16FC
330
EC9
100
AcDbEntity
  8
240
  6
CONTINUOUS
100
AcDbLine
 10
-20.5
 20
-3.77
 30
0.0
 11
-20.5
 21
0.0
 31
0.0
  0
LINE
  5
16FD
330
EC9
100
AcDbEntity
  8
241
  6
HIDDEN2
100
AcDbLine
 10
-17.5
 20
-3.77
 30
0.0
 11
-17.5
 21
0.0
 31
0.0
  0
LINE
  5
16FE
330
EC9
100
AcDbEntity
  8
241
  6
HIDDEN2
100
AcDbLine
 10
-22.0
 20
5.27
 30
0.0
 11
-19.0
 21
5.27
 31
0.0
  0
ARC
  5
16FF
330
EC9
100
AcDbEntity
  8
240
  6
CONTINUOUS
100
AcDbCircle
 10
-22.0
 20
3.77
 30
0.0
 40
1.5
100
AcDbArc
 50
0.0
 51
90.0
  0
LINE
  5
1700
330
EC9
100
AcDbEntity
  8
240
  6
CONTINUOUS
100
AcDbLine
 10
-24.0
 20
5.27
 30
0.0
 11
-22.0
 21
5.27
 31
0.0
  0
ARC
  5
1701
330
EC9
100
AcDbEntity
  8
241
  6
HIDDEN2
100
AcDbCircle
 10
-19.0
 20
3.77
 30
0.0
 40
1.5
100
AcDbArc
 50
0.0
 51
90.0
  0
LINE
  5
1702
330
EC9
100
AcDbEntity
  8
245
  6
CENTER2
100
AcDbLine
 10
-7.5
 20
-4.0
 30
0.0
 11
-7.5
 21
4.0
 31
0.0
  0
LINE
  5
1703
330
EC9
100
AcDbEntity
  8
240
  6
CONTINUOUS
100
AcDbLine
 10
-2.0
 20
19.15
 30
0.0
 11
-24.04993762
 21
18.04750312
 31
0.0
  0
LINE
  5
1704
330
EC9
100
AcDbEntity
  8
240
  6
CONTINUOUS
100
AcDbLine
 10
0.0
 20
19.15
 30
0.0
 11
0.0
 21
25.0
 31
0.0
  0
LINE
  5
1705
330
EC9
100
AcDbEntity
  8
240
100
AcDbLine
 10
-2.0
 20
19.15
 30
0.0
 11
0.0
 21
19.15
 31
0.0
  0
LINE
  5
1706
330
EC9
100
AcDbEntity
  8
241
100
AcDbLine
 10
36.60862353
 20
12.84953094
 30
0.0
 11
36.60862353
 21
0.0
 31
0.0
  0
LINE
  5
1707
330
EC9
100
AcDbEntity
  8
241
100
AcDbLine
 10
37.68554775
 20
12.3201594
 30
0.0
 11
37.68554775
 21
0.0
 31
0.0
  0
LINE
  5
1708
330
EC9
100
AcDbEntity
  8
241
100
AcDbLine
 10
39.60862353
 20
11.37485464
 30
0.0
 11
39.60862353
 21
0.0
 31
0.0
  0
LINE
  5
1709
330
EC9
100
AcDbEntity
  8
241
100
AcDbLine
 10
40.68554775
 20
10.84548311
 30
0.0
 11
40.68554775
 21
0.0
 31
0.0
  0
LINE
  5
170A
330
EC9
100
AcDbEntity
  8
241
100
AcDbLine
 10
34.0
 20
16.0
 30
0.0
 11
34.0
 21
0.0
 31
0.0
  0
LINE
  5
170B
330
EC9
100
AcDbEntity
  8
241
  6
CONTINUOUS
100
AcDbLine
 10
26.0
 20
0.0
 30
0.0
 11
26.0
 21
20.8
 31
0.0
  0
LINE
  5
170C
330
EC9
100
AcDbEntity
  8
241
  6
CONTINUOUS
100
AcDbLine
 10
19.875
 20
6.0
 30
0.0
 11
19.875
 21
21.5
 31
0.0
  0
LINE
  5
170D
330
EC9
100
AcDbEntity
  8
241
  6
CONTINUOUS
100
AcDbLine
 10
21.37749907
 20
6.0
 30
0.0
 11
21.37749907
 21
25.0
 31
0.0
  0
LINE
  5
170E
330
EC9
100
AcDbEntity
  8
241
  6
CONTINUOUS
100
AcDbLine
 10
16.125
 20
6.0
 30
0.0
 11
16.125
 21
21.5
 31
0.0
  0
LINE
  5
170F
330
EC9
100
AcDbEntity
  8
241
  6
CONTINUOUS
100
AcDbLine
 10
14.62250093
 20
6.0
 30
0.0
 11
14.62250093
 21
25.0
 31
0.0
  0
LINE
  5
1710
330
EC9
100
AcDbEntity
  8
241
100
AcDbLine
 10
26.5
 20
-13.25700469
 30
0.0
 11
34.0
 21
-13.25700469
 31
0.0
  0
LINE
  5
1711
330
EC9
100
AcDbEntity
  8
241
  6
CONTINUOUS
100
AcDbLine
 10
19.875
 20
-15.5
 30
0.0
 11
26.0
 21
-15.5
 31
0.0
  0
LINE
  5
1712
330
EC9
100
AcDbEntity
  8
241
  6
CONTINUOUS
100
AcDbLine
 10
13.0
 20
-6.0
 30
0.0
 11
26.0
 21
-6.0
 31
0.0
  0
LINE
  5
1713
330
EC9
100
AcDbEntity
  8
241
  6
CONTINUOUS
100
AcDbLine
 10
14.62250093
 20
-6.0
 30
0.0
 11
14.62250093
 21
-15.5
 31
0.0
  0
LINE
  5
1714
330
EC9
100
AcDbEntity
  8
241
  6
CONTINUOUS
100
AcDbLine
 10
12.69622204
 20
-15.5
 30
0.0
 11
16.125
 21
-15.5
 31
0.0
  0
LINE
  5
1715
330
EC9
100
AcDbEntity
  8
241
  6
CONTINUOUS
100
AcDbLine
 10
21.37749907
 20
-6.0
 30
0.0
 11
21.37749907
 21
-15.5
 31
0.0
  0
LINE
  5
1716
330
EC9
100
AcDbEntity
  8
241
  6
CONTINUOUS
100
AcDbLine
 10
13.0
 20
6.0
 30
0.0
 11
26.0
 21
6.0
 31
0.0
  0
LINE
  5
1717
330
EC9
100
AcDbEntity
  8
241
100
AcDbLine
 10
40.68554775
 20
-10.84548311
 30
0.0
 11
40.68554775
 21
0.0
 31
0.0
  0
LINE
  5
1718
330
EC9
100
AcDbEntity
  8
241
100
AcDbLine
 10
39.60862353
 20
-11.37485464
 30
0.0
 11
39.60862353
 21
0.0
 31
0.0
  0
LINE
  5
1719
330
EC9
100
AcDbEntity
  8
241
100
AcDbLine
 10
37.68554775
 20
-12.3201594
 30
0.0
 11
37.68554775
 21
0.0
 31
0.0
  0
LINE
  5
171A
330
EC9
100
AcDbEntity
  8
241
100
AcDbLine
 10
36.60862353
 20
-12.84953094
 30
0.0
 11
36.60862353
 21
0.0
 31
0.0
  0
LINE
  5
171B
330
EC9
100
AcDbEntity
  8
241
100
AcDbLine
 10
34.0
 20
-16.0
 30
0.0
 11
34.0
 21
0.0
 31
0.0
  0
LINE
  5
171C
330
EC9
100
AcDbEntity
  8
240
100
AcDbLine
 10
44.87026787
 20
-8.78844726
 30
0.0
 11
35.67657116
 21
-13.30768945
 31
0.0
  0
ARC
  5
171D
330
EC9
100
AcDbEntity
  8
240
100
AcDbCircle
 10
37.0
 20
-16.0
 30
0.0
 40
3.0
100
AcDbArc
 50
116.17682851
 51
180.0
  0
LINE
  5
171E
330
EC9
100
AcDbEntity
  8
240
  6
CONTINUOUS
100
AcDbLine
 10
26.0
 20
20.8
 30
0.0
 11
33.0
 21
20.8
 31
0.0
  0
LINE
  5
171F
330
EC9
100
AcDbEntity
  8
240
  6
CONTINUOUS
100
AcDbLine
 10
21.37749907
 20
25.0
 30
0.0
 11
19.875
 21
22.39759526
 31
0.0
  0
LINE
  5
1720
330
EC9
100
AcDbEntity
  8
240
  6
CONTINUOUS
100
AcDbLine
 10
14.62250093
 20
25.0
 30
0.0
 11
16.125
 21
22.39759526
 31
0.0
  0
LINE
  5
1721
330
EC9
100
AcDbEntity
  8
240
  6
CONTINUOUS
100
AcDbLine
 10
19.875
 20
22.39759526
 30
0.0
 11
19.875
 21
21.5
 31
0.0
  0
LINE
  5
1722
330
EC9
100
AcDbEntity
  8
240
  6
CONTINUOUS
100
AcDbLine
 10
16.125
 20
22.39759526
 30
0.0
 11
16.125
 21
21.5
 31
0.0
  0
LINE
  5
1723
330
EC9
100
AcDbEntity
  8
240
  6
CONTINUOUS
100
AcDbLine
 10
16.125
 20
21.5
 30
0.0
 11
19.875
 21
21.5
 31
0.0
  0
LINE
  5
1724
330
EC9
100
AcDbEntity
  8
240
  6
CONTINUOUS
100
AcDbLine
 10
21.37749907
 20
25.0
 30
0.0
 11
26.0
 21
25.0
 31
0.0
  0
LINE
  5
1725
330
EC9
100
AcDbEntity
  8
240
  6
CONTINUOUS
100
AcDbLine
 10
26.0
 20
25.0
 30
0.0
 11
26.0
 21
20.8
 31
0.0
  0
ARC
  5
1726
330
EC9
100
AcDbEntity
  8
240
  6
PHANTOM2
100
AcDbCircle
 10
33.0
 20
19.8
 30
0.0
 40
1.0
100
AcDbArc
 50
360.0
 51
90.0
  0
LINE
  5
1727
330
EC9
100
AcDbEntity
  8
240
100
AcDbLine
 10
44.87026787
 20
8.78844726
 30
0.0
 11
35.67657116
 21
13.30768945
 31
0.0
  0
ARC
  5
1728
330
EC9
100
AcDbEntity
  8
240
100
AcDbCircle
 10
37.0
 20
16.0
 30
0.0
 40
3.0
100
AcDbArc
 50
180.0
 51
243.82317149
  0
LINE
  5
1729
330
EC9
100
AcDbEntity
  8
240
  6
PHANTOM2
100
AcDbLine
 10
34.0
 20
16.0
 30
0.0
 11
34.0
 21
19.8
 31
0.0
  0
LINE
  5
172A
330
EC9
100
AcDbEntity
  8
240
100
AcDbLine
 10
74.25
 20
7.39776704
 30
0.0
 11
65.19330643
 21
7.6
 31
0.0
  0
LINE
  5
172B
330
EC9
100
AcDbEntity
  8
240
100
AcDbLine
 10
63.88708862
 20
7.25
 30
0.0
 11
65.19330643
 21
7.6
 31
0.0
  0
LINE
  5
172C
330
EC9
100
AcDbEntity
  8
246
100
AcDbLine
 10
75.0
 20
-8.0
 30
0.0
 11
75.0
 21
8.0
 31
0.0
  0
LINE
  5
172D
330
EC9
100
AcDbEntity
  8
241
100
AcDbLine
 10
63.96385985
 20
0.29682651
 30
0.0
 11
74.25
 21
-3.44702232
 31
0.0
  0
LINE
  5
172E
330
EC9
100
AcDbEntity
  8
241
100
AcDbLine
 10
65.19330642
 20
2.42629043
 30
0.0
 11
63.77313855
 21
-0.03351248
 31
0.0
  0
LINE
  5
172F
330
EC9
100
AcDbEntity
  8
241
100
AcDbLine
 10
58.363904
 20
-4.31821439
 30
0.0
 11
74.25
 21
-7.23344519
 31
0.0
  0
LINE
  5
1730
330
EC9
100
AcDbEntity
  8
240
100
AcDbLine
 10
63.88708862
 20
-7.25
 30
0.0
 11
65.19330643
 21
-7.6
 31
0.0
  0
LINE
  5
1731
330
EC9
100
AcDbEntity
  8
241
100
AcDbLine
 10
48.0
 20
0.0
 30
0.0
 11
48.0
 21
-7.25
 31
0.0
  0
LINE
  5
1732
330
EC9
100
AcDbEntity
  8
240
100
AcDbLine
 10
63.88708862
 20
-7.25
 30
0.0
 11
51.4874121
 21
-7.25
 31
0.0
  0
LINE
  5
1733
330
EC9
100
AcDbEntity
  8
240
100
AcDbLine
 10
63.88708862
 20
7.25
 30
0.0
 11
51.4874121
 21
7.25
 31
0.0
  0
LINE
  5
1734
330
EC9
100
AcDbEntity
  8
241
100
AcDbLine
 10
48.0
 20
0.0
 30
0.0
 11
48.0
 21
7.25
 31
0.0
  0
LINE
  5
1735
330
EC9
100
AcDbEntity
  8
241
100
AcDbLine
 10
63.77313855
 20
-0.03351248
 30
0.0
 11
59.27741009
 21
0.75920574
 31
0.0
  0
ARC
  5
1736
330
EC9
100
AcDbEntity
  8
241
100
AcDbCircle
 10
58.8294869
 20
-1.78109295
 30
0.0
 40
2.5794868956407
100
AcDbArc
 50
79.9999824
 51
260.0
  0
LINE
  5
1737
330
EC9
100
AcDbEntity
  8
240
100
AcDbLine
 10
74.25
 20
-7.39776704
 30
0.0
 11
74.25
 21
-3.44702232
 31
0.0
  0
LINE
  5
1738
330
EC9
100
AcDbEntity
  8
240
100
AcDbLine
 10
74.25
 20
-7.39776704
 30
0.0
 11
65.19330643
 21
-7.6
 31
0.0
  0
LINE
  5
1739
330
EC9
100
AcDbEntity
  8
246
100
AcDbLine
 10
75.0
 20
-8.0
 30
0.0
 11
67.0
 21
-8.0
 31
0.0
  0
LINE
  5
173A
330
EC9
100
AcDbEntity
  8
241
100
AcDbLine
 10
65.19330642
 20
2.42629043
 30
0.0
 11
74.19615249
 21
0.83884577
 31
0.0
  0
POLYLINE
  5
173B
330
EC9
100
AcDbEntity
  8
241
100
AcDb3dPolyline
 66
     1
 10
0.0
 20
0.0
 30
0.0
 70
     8
  0
VERTEX
  5
173C
330
173B
100
AcDbEntity
  8
241
100
AcDbVertex
100
AcDb3dPolylineVertex
 10
68.5983
 20
5.90613
 30
0.0
 70
    32
  0
VERTEX
  5
173D
330
173B
100
AcDbEntity
  8
241
100
AcDbVertex
100
AcDb3dPolylineVertex
 10
68.5939
 20
5.87893
 30
0.0
 70
    32
  0
VERTEX
  5
173E
330
173B
100
AcDbEntity
  8
241
100
AcDbVertex
100
AcDb3dPolylineVertex
 10
68.5903
 20
5.85161
 30
0.0
 70
    32
  0
VERTEX
  5
173F
330
173B
100
AcDbEntity
  8
241
100
AcDbVertex
100
AcDb3dPolylineVertex
 10
68.5876
 20
5.82419
 30
0.0
 70
    32
  0
VERTEX
  5
1740
330
173B
100
AcDbEntity
  8
241
100
AcDbVertex
100
AcDb3dPolylineVertex
 10
68.5856
 20
5.79666
 30
0.0
 70
    32
  0
VERTEX
  5
1741
330
173B
100
AcDbEntity
  8
241
100
AcDbVertex
100
AcDb3dPolylineVertex
 10
68.5844
 20
5.76907
 30
0.0
 70
    32
  0
VERTEX
  5
1742
330
173B
100
AcDbEntity
  8
241
100
AcDbVertex
100
AcDb3dPolylineVertex
 10
68.5841
 20
5.74141
 30
0.0
 70
    32
  0
VERTEX
  5
1743
330
173B
100
AcDbEntity
  8
241
100
AcDbVertex
100
AcDb3dPolylineVertex
 10
68.5846
 20
5.71372
 30
0.0
 70
    32
  0
VERTEX
  5
1744
330
173B
100
AcDbEntity
  8
241
100
AcDbVertex
100
AcDb3dPolylineVertex
 10
68.5858
 20
5.68599
 30
0.0
 70
    32
  0
VERTEX
  5
1745
330
173B
100
AcDbEntity
  8
241
100
AcDbVertex
100
AcDb3dPolylineVertex
 10
68.5879
 20
5.65826
 30
0.0
 70
    32
  0
VERTEX
  5
1746
330
173B
100
AcDbEntity
  8
241
100
AcDbVertex
100
AcDb3dPolylineVertex
 10
68.5908
 20
5.63054
 30
0.0
 70
    32
  0
VERTEX
  5
1747
330
173B
100
AcDbEntity
  8
241
100
AcDbVertex
100
AcDb3dPolylineVertex
 10
68.5945
 20
5.60284
 30
0.0
 70
    32
  0
VERTEX
  5
1748
330
173B
100
AcDbEntity
  8
241
100
AcDbVertex
100
AcDb3dPolylineVertex
 10
68.599
 20
5.57519
 30
0.0
 70
    32
  0
VERTEX
  5
1749
330
173B
100
AcDbEntity
  8
241
100
AcDbVertex
100
AcDb3dPolylineVertex
 10
68.6043
 20
5.54759
 30
0.0
 70
    32
  0
VERTEX
  5
174A
330
173B
100
AcDbEntity
  8
241
100
AcDbVertex
100
AcDb3dPolylineVertex
 10
68.6104
 20
5.52007
 30
0.0
 70
    32
  0
VERTEX
  5
174B
330
173B
100
AcDbEntity
  8
241
100
AcDbVertex
100
AcDb3dPolylineVertex
 10
68.6172
 20
5.49263
 30
0.0
 70
    32
  0
VERTEX
  5
174C
330
173B
100
AcDbEntity
  8
241
100
AcDbVertex
100
AcDb3dPolylineVertex
 10
68.6249
 20
5.46531
 30
0.0
 70
    32
  0
VERTEX
  5
174D
330
173B
100
AcDbEntity
  8
241
100
AcDbVertex
100
AcDb3dPolylineVertex
 10
68.6334
 20
5.43811
 30
0.0
 70
    32
  0
VERTEX
  5
174E
330
173B
100
AcDbEntity
  8
241
100
AcDbVertex
100
AcDb3dPolylineVertex
 10
68.6426
 20
5.41105
 30
0.0
 70
    32
  0
VERTEX
  5
174F
330
173B
100
AcDbEntity
  8
241
100
AcDbVertex
100
AcDb3dPolylineVertex
 10
68.6526
 20
5.38415
 30
0.0
 70
    32
  0
VERTEX
  5
1750
330
173B
100
AcDbEntity
  8
241
100
AcDbVertex
100
AcDb3dPolylineVertex
 10
68.6634
 20
5.35742
 30
0.0
 70
    32
  0
VERTEX
  5
1751
330
173B
100
AcDbEntity
  8
241
100
AcDbVertex
100
AcDb3dPolylineVertex
 10
68.675
 20
5.33088
 30
0.0
 70
    32
  0
VERTEX
  5
1752
330
173B
100
AcDbEntity
  8
241
100
AcDbVertex
100
AcDb3dPolylineVertex
 10
68.6873
 20
5.30455
 30
0.0
 70
    32
  0
VERTEX
  5
1753
330
173B
100
AcDbEntity
  8
241
100
AcDbVertex
100
AcDb3dPolylineVertex
 10
68.7003
 20
5.27843
 30
0.0
 70
    32
  0
VERTEX
  5
1754
330
173B
100
AcDbEntity
  8
241
100
AcDbVertex
100
AcDb3dPolylineVertex
 10
68.7141
 20
5.25256
 30
0.0
 70
    32
  0
VERTEX
  5
1755
330
173B
100
AcDbEntity
  8
241
100
AcDbVertex
100
AcDb3dPolylineVertex
 10
68.7286
 20
5.22693
 30
0.0
 70
    32
  0
VERTEX
  5
1756
330
173B
100
AcDbEntity
  8
241
100
AcDbVertex
100
AcDb3dPolylineVertex
 10
68.7438
 20
5.20158
 30
0.0
 70
    32
  0
VERTEX
  5
1757
330
173B
100
AcDbEntity
  8
241
100
AcDbVertex
100
AcDb3dPolylineVertex
 10
68.7598
 20
5.1765
 30
0.0
 70
    32
  0
VERTEX
  5
1758
330
173B
100
AcDbEntity
  8
241
100
AcDbVertex
100
AcDb3dPolylineVertex
 10
68.7764
 20
5.15173
 30
0.0
 70
    32
  0
VERTEX
  5
1759
330
173B
100
AcDbEntity
  8
241
100
AcDbVertex
100
AcDb3dPolylineVertex
 10
68.7938
 20
5.12727
 30
0.0
 70
    32
  0
VERTEX
  5
175A
330
173B
100
AcDbEntity
  8
241
100
AcDbVertex
100
AcDb3dPolylineVertex
 10
68.8118
 20
5.10314
 30
0.0
 70
    32
  0
VERTEX
  5
175B
330
173B
100
AcDbEntity
  8
241
100
AcDbVertex
100
AcDb3dPolylineVertex
 10
68.8305
 20
5.07934
 30
0.0
 70
    32
  0
VERTEX
  5
175C
330
173B
100
AcDbEntity
  8
241
100
AcDbVertex
100
AcDb3dPolylineVertex
 10
68.8499
 20
5.05591
 30
0.0
 70
    32
  0
VERTEX
  5
175D
330
173B
100
AcDbEntity
  8
241
100
AcDbVertex
100
AcDb3dPolylineVertex
 10
68.8699
 20
5.03285
 30
0.0
 70
    32
  0
VERTEX
  5
175E
330
173B
100
AcDbEntity
  8
241
100
AcDbVertex
100
AcDb3dPolylineVertex
 10
68.8906
 20
5.01017
 30
0.0
 70
    32
  0
VERTEX
  5
175F
330
173B
100
AcDbEntity
  8
241
100
AcDbVertex
100
AcDb3dPolylineVertex
 10
68.9118
 20
4.98789
 30
0.0
 70
    32
  0
VERTEX
  5
1760
330
173B
100
AcDbEntity
  8
241
100
AcDbVertex
100
AcDb3dPolylineVertex
 10
68.9337
 20
4.96602
 30
0.0
 70
    32
  0
VERTEX
  5
1761
330
173B
100
AcDbEntity
  8
241
100
AcDbVertex
100
AcDb3dPolylineVertex
 10
68.9562
 20
4.94458
 30
0.0
 70
    32
  0
VERTEX
  5
1762
330
173B
100
AcDbEntity
  8
241
100
AcDbVertex
100
AcDb3dPolylineVertex
 10
68.9793
 20
4.92357
 30
0.0
 70
    32
  0
VERTEX
  5
1763
330
173B
100
AcDbEntity
  8
241
100
AcDbVertex
100
AcDb3dPolylineVertex
 10
69.0029
 20
4.90302
 30
0.0
 70
    32
  0
VERTEX
  5
1764
330
173B
100
AcDbEntity
  8
241
100
AcDbVertex
100
AcDb3dPolylineVertex
 10
69.0271
 20
4.88293
 30
0.0
 70
    32
  0
VERTEX
  5
1765
330
173B
100
AcDbEntity
  8
241
100
AcDbVertex
100
AcDb3dPolylineVertex
 10
69.0519
 20
4.86331
 30
0.0
 70
    32
  0
VERTEX
  5
1766
330
173B
100
AcDbEntity
  8
241
100
AcDbVertex
100
AcDb3dPolylineVertex
 10
69.0771
 20
4.84419
 30
0.0
 70
    32
  0
VERTEX
  5
1767
330
173B
100
AcDbEntity
  8
241
100
AcDbVertex
100
AcDb3dPolylineVertex
 10
69.1029
 20
4.82555
 30
0.0
 70
    32
  0
VERTEX
  5
1768
330
173B
100
AcDbEntity
  8
241
100
AcDbVertex
100
AcDb3dPolylineVertex
 10
69.1292
 20
4.80743
 30
0.0
 70
    32
  0
VERTEX
  5
1769
330
173B
100
AcDbEntity
  8
241
100
AcDbVertex
100
AcDb3dPolylineVertex
 10
69.156
 20
4.78983
 30
0.0
 70
    32
  0
VERTEX
  5
176A
330
173B
100
AcDbEntity
  8
241
100
AcDbVertex
100
AcDb3dPolylineVertex
 10
69.1832
 20
4.77276
 30
0.0
 70
    32
  0
VERTEX
  5
176B
330
173B
100
AcDbEntity
  8
241
100
AcDbVertex
100
AcDb3dPolylineVertex
 10
69.2109
 20
4.75624
 30
0.0
 70
    32
  0
VERTEX
  5
176C
330
173B
100
AcDbEntity
  8
241
100
AcDbVertex
100
AcDb3dPolylineVertex
 10
69.239
 20
4.74026
 30
0.0
 70
    32
  0
VERTEX
  5
176D
330
173B
100
AcDbEntity
  8
241
100
AcDbVertex
100
AcDb3dPolylineVertex
 10
69.2675
 20
4.72485
 30
0.0
 70
    32
  0
VERTEX
  5
176E
330
173B
100
AcDbEntity
  8
241
100
AcDbVertex
100
AcDb3dPolylineVertex
 10
69.2964
 20
4.71
 30
0.0
 70
    32
  0
VERTEX
  5
176F
330
173B
100
AcDbEntity
  8
241
100
AcDbVertex
100
AcDb3dPolylineVertex
 10
69.3257
 20
4.69574
 30
0.0
 70
    32
  0
VERTEX
  5
1770
330
173B
100
AcDbEntity
  8
241
100
AcDbVertex
100
AcDb3dPolylineVertex
 10
69.3554
 20
4.68206
 30
0.0
 70
    32
  0
VERTEX
  5
1771
330
173B
100
AcDbEntity
  8
241
100
AcDbVertex
100
AcDb3dPolylineVertex
 10
69.3854
 20
4.66898
 30
0.0
 70
    32
  0
VERTEX
  5
1772
330
173B
100
AcDbEntity
  8
241
100
AcDbVertex
100
AcDb3dPolylineVertex
 10
69.4157
 20
4.6565
 30
0.0
 70
    32
  0
VERTEX
  5
1773
330
173B
100
AcDbEntity
  8
241
100
AcDbVertex
100
AcDb3dPolylineVertex
 10
69.4463
 20
4.64463
 30
0.0
 70
    32
  0
VERTEX
  5
1774
330
173B
100
AcDbEntity
  8
241
100
AcDbVertex
100
AcDb3dPolylineVertex
 10
69.4773
 20
4.63339
 30
0.0
 70
    32
  0
VERTEX
  5
1775
330
173B
100
AcDbEntity
  8
241
100
AcDbVertex
100
AcDb3dPolylineVertex
 10
69.5085
 20
4.62277
 30
0.0
 70
    32
  0
VERTEX
  5
1776
330
173B
100
AcDbEntity
  8
241
100
AcDbVertex
100
AcDb3dPolylineVertex
 10
69.5399
 20
4.61278
 30
0.0
 70
    32
  0
VERTEX
  5
1777
330
173B
100
AcDbEntity
  8
241
100
AcDbVertex
100
AcDb3dPolylineVertex
 10
69.5716
 20
4.60342
 30
0.0
 70
    32
  0
VERTEX
  5
1778
330
173B
100
AcDbEntity
  8
241
100
AcDbVertex
100
AcDb3dPolylineVertex
 10
69.6035
 20
4.59472
 30
0.0
 70
    32
  0
VERTEX
  5
1779
330
173B
100
AcDbEntity
  8
241
100
AcDbVertex
100
AcDb3dPolylineVertex
 10
69.6356
 20
4.58666
 30
0.0
 70
    32
  0
VERTEX
  5
177A
330
173B
100
AcDbEntity
  8
241
100
AcDbVertex
100
AcDb3dPolylineVertex
 10
69.6679
 20
4.57925
 30
0.0
 70
    32
  0
VERTEX
  5
177B
330
173B
100
AcDbEntity
  8
241
100
AcDbVertex
100
AcDb3dPolylineVertex
 10
69.7003
 20
4.5725
 30
0.0
 70
    32
  0
VERTEX
  5
177C
330
173B
100
AcDbEntity
  8
241
100
AcDbVertex
100
AcDb3dPolylineVertex
 10
69.7329
 20
4.56642
 30
0.0
 70
    32
  0
VERTEX
  5
177D
330
173B
100
AcDbEntity
  8
241
100
AcDbVertex
100
AcDb3dPolylineVertex
 10
69.7656
 20
4.561
 30
0.0
 70
    32
  0
VERTEX
  5
177E
330
173B
100
AcDbEntity
  8
241
100
AcDbVertex
100
AcDb3dPolylineVertex
 10
69.7984
 20
4.55624
 30
0.0
 70
    32
  0
VERTEX
  5
177F
330
173B
100
AcDbEntity
  8
241
100
AcDbVertex
100
AcDb3dPolylineVertex
 10
69.8312
 20
4.55216
 30
0.0
 70
    32
  0
VERTEX
  5
1780
330
173B
100
AcDbEntity
  8
241
100
AcDbVertex
100
AcDb3dPolylineVertex
 10
69.8642
 20
4.54876
 30
0.0
 70
    32
  0
VERTEX
  5
1781
330
173B
100
AcDbEntity
  8
241
100
AcDbVertex
100
AcDb3dPolylineVertex
 10
69.8971
 20
4.54603
 30
0.0
 70
    32
  0
VERTEX
  5
1782
330
173B
100
AcDbEntity
  8
241
100
AcDbVertex
100
AcDb3dPolylineVertex
 10
69.9301
 20
4.54398
 30
0.0
 70
    32
  0
VERTEX
  5
1783
330
173B
100
AcDbEntity
  8
241
100
AcDbVertex
100
AcDb3dPolylineVertex
 10
69.9631
 20
4.54261
 30
0.0
 70
    32
  0
VERTEX
  5
1784
330
173B
100
AcDbEntity
  8
241
100
AcDbVertex
100
AcDb3dPolylineVertex
 10
69.996
 20
4.54192
 30
0.0
 70
    32
  0
VERTEX
  5
1785
330
173B
100
AcDbEntity
  8
241
100
AcDbVertex
100
AcDb3dPolylineVertex
 10
70.0289
 20
4.54191
 30
0.0
 70
    32
  0
VERTEX
  5
1786
330
173B
100
AcDbEntity
  8
241
100
AcDbVertex
100
AcDb3dPolylineVertex
 10
70.0618
 20
4.54258
 30
0.0
 70
    32
  0
VERTEX
  5
1787
330
173B
100
AcDbEntity
  8
241
100
AcDbVertex
100
AcDb3dPolylineVertex
 10
70.0946
 20
4.54393
 30
0.0
 70
    32
  0
VERTEX
  5
1788
330
173B
100
AcDbEntity
  8
241
100
AcDbVertex
100
AcDb3dPolylineVertex
 10
70.1272
 20
4.54596
 30
0.0
 70
    32
  0
VERTEX
  5
1789
330
173B
100
AcDbEntity
  8
241
100
AcDbVertex
100
AcDb3dPolylineVertex
 10
70.1598
 20
4.54867
 30
0.0
 70
    32
  0
VERTEX
  5
178A
330
173B
100
AcDbEntity
  8
241
100
AcDbVertex
100
AcDb3dPolylineVertex
 10
70.1922
 20
4.55205
 30
0.0
 70
    32
  0
VERTEX
  5
178B
330
173B
100
AcDbEntity
  8
241
100
AcDbVertex
100
AcDb3dPolylineVertex
 10
70.2244
 20
4.55611
 30
0.0
 70
    32
  0
VERTEX
  5
178C
330
173B
100
AcDbEntity
  8
241
100
AcDbVertex
100
AcDb3dPolylineVertex
 10
70.2565
 20
4.56084
 30
0.0
 70
    32
  0
VERTEX
  5
178D
330
173B
100
AcDbEntity
  8
241
100
AcDbVertex
100
AcDb3dPolylineVertex
 10
70.2884
 20
4.56624
 30
0.0
 70
    32
  0
VERTEX
  5
178E
330
173B
100
AcDbEntity
  8
241
100
AcDbVertex
100
AcDb3dPolylineVertex
 10
70.32
 20
4.57231
 30
0.0
 70
    32
  0
VERTEX
  5
178F
330
173B
100
AcDbEntity
  8
241
100
AcDbVertex
100
AcDb3dPolylineVertex
 10
70.3515
 20
4.57903
 30
0.0
 70
    32
  0
VERTEX
  5
1790
330
173B
100
AcDbEntity
  8
241
100
AcDbVertex
100
AcDb3dPolylineVertex
 10
70.3826
 20
4.58642
 30
0.0
 70
    32
  0
VERTEX
  5
1791
330
173B
100
AcDbEntity
  8
241
100
AcDbVertex
100
AcDb3dPolylineVertex
 10
70.4135
 20
4.59446
 30
0.0
 70
    32
  0
VERTEX
  5
1792
330
173B
100
AcDbEntity
  8
241
100
AcDbVertex
100
AcDb3dPolylineVertex
 10
70.4441
 20
4.60315
 30
0.0
 70
    32
  0
VERTEX
  5
1793
330
173B
100
AcDbEntity
  8
241
100
AcDbVertex
100
AcDb3dPolylineVertex
 10
70.4744
 20
4.61248
 30
0.0
 70
    32
  0
VERTEX
  5
1794
330
173B
100
AcDbEntity
  8
241
100
AcDbVertex
100
AcDb3dPolylineVertex
 10
70.5044
 20
4.62245
 30
0.0
 70
    32
  0
VERTEX
  5
1795
330
173B
100
AcDbEntity
  8
241
100
AcDbVertex
100
AcDb3dPolylineVertex
 10
70.534
 20
4.63305
 30
0.0
 70
    32
  0
VERTEX
  5
1796
330
173B
100
AcDbEntity
  8
241
100
AcDbVertex
100
AcDb3dPolylineVertex
 10
70.5632
 20
4.64428
 30
0.0
 70
    32
  0
VERTEX
  5
1797
330
173B
100
AcDbEntity
  8
241
100
AcDbVertex
100
AcDb3dPolylineVertex
 10
70.5921
 20
4.65613
 30
0.0
 70
    32
  0
VERTEX
  5
1798
330
173B
100
AcDbEntity
  8
241
100
AcDbVertex
100
AcDb3dPolylineVertex
 10
70.6206
 20
4.66859
 30
0.0
 70
    32
  0
VERTEX
  5
1799
330
173B
100
AcDbEntity
  8
241
100
AcDbVertex
100
AcDb3dPolylineVertex
 10
70.6486
 20
4.68165
 30
0.0
 70
    32
  0
VERTEX
  5
179A
330
173B
100
AcDbEntity
  8
241
100
AcDbVertex
100
AcDb3dPolylineVertex
 10
70.6762
 20
4.69531
 30
0.0
 70
    32
  0
VERTEX
  5
179B
330
173B
100
AcDbEntity
  8
241
100
AcDbVertex
100
AcDb3dPolylineVertex
 10
70.7034
 20
4.70956
 30
0.0
 70
    32
  0
VERTEX
  5
179C
330
173B
100
AcDbEntity
  8
241
100
AcDbVertex
100
AcDb3dPolylineVertex
 10
70.7301
 20
4.72438
 30
0.0
 70
    32
  0
VERTEX
  5
179D
330
173B
100
AcDbEntity
  8
241
100
AcDbVertex
100
AcDb3dPolylineVertex
 10
70.7563
 20
4.73978
 30
0.0
 70
    32
  0
VERTEX
  5
179E
330
173B
100
AcDbEntity
  8
241
100
AcDbVertex
100
AcDb3dPolylineVertex
 10
70.782
 20
4.75574
 30
0.0
 70
    32
  0
VERTEX
  5
179F
330
173B
100
AcDbEntity
  8
241
100
AcDbVertex
100
AcDb3dPolylineVertex
 10
70.8072
 20
4.77225
 30
0.0
 70
    32
  0
VERTEX
  5
17A0
330
173B
100
AcDbEntity
  8
241
100
AcDbVertex
100
AcDb3dPolylineVertex
 10
70.8319
 20
4.7893
 30
0.0
 70
    32
  0
VERTEX
  5
17A1
330
173B
100
AcDbEntity
  8
241
100
AcDbVertex
100
AcDb3dPolylineVertex
 10
70.856
 20
4.80689
 30
0.0
 70
    32
  0
VERTEX
  5
17A2
330
173B
100
AcDbEntity
  8
241
100
AcDbVertex
100
AcDb3dPolylineVertex
 10
70.8796
 20
4.82499
 30
0.0
 70
    32
  0
VERTEX
  5
17A3
330
173B
100
AcDbEntity
  8
241
100
AcDbVertex
100
AcDb3dPolylineVertex
 10
70.9025
 20
4.84361
 30
0.0
 70
    32
  0
VERTEX
  5
17A4
330
173B
100
AcDbEntity
  8
241
100
AcDbVertex
100
AcDb3dPolylineVertex
 10
70.9249
 20
4.86272
 30
0.0
 70
    32
  0
VERTEX
  5
17A5
330
173B
100
AcDbEntity
  8
241
100
AcDbVertex
100
AcDb3dPolylineVertex
 10
70.9468
 20
4.88232
 30
0.0
 70
    32
  0
VERTEX
  5
17A6
330
173B
100
AcDbEntity
  8
241
100
AcDbVertex
100
AcDb3dPolylineVertex
 10
70.9679
 20
4.9024
 30
0.0
 70
    32
  0
VERTEX
  5
17A7
330
173B
100
AcDbEntity
  8
241
100
AcDbVertex
100
AcDb3dPolylineVertex
 10
70.9885
 20
4.92294
 30
0.0
 70
    32
  0
VERTEX
  5
17A8
330
173B
100
AcDbEntity
  8
241
100
AcDbVertex
100
AcDb3dPolylineVertex
 10
71.0084
 20
4.94393
 30
0.0
 70
    32
  0
VERTEX
  5
17A9
330
173B
100
AcDbEntity
  8
241
100
AcDbVertex
100
AcDb3dPolylineVertex
 10
71.0277
 20
4.96536
 30
0.0
 70
    32
  0
VERTEX
  5
17AA
330
173B
100
AcDbEntity
  8
241
100
AcDbVertex
100
AcDb3dPolylineVertex
 10
71.0463
 20
4.98722
 30
0.0
 70
    32
  0
VERTEX
  5
17AB
330
173B
100
AcDbEntity
  8
241
100
AcDbVertex
100
AcDb3dPolylineVertex
 10
71.0642
 20
5.00948
 30
0.0
 70
    32
  0
VERTEX
  5
17AC
330
173B
100
AcDbEntity
  8
241
100
AcDbVertex
100
AcDb3dPolylineVertex
 10
71.0815
 20
5.03215
 30
0.0
 70
    32
  0
VERTEX
  5
17AD
330
173B
100
AcDbEntity
  8
241
100
AcDbVertex
100
AcDb3dPolylineVertex
 10
71.0981
 20
5.0552
 30
0.0
 70
    32
  0
VERTEX
  5
17AE
330
173B
100
AcDbEntity
  8
241
100
AcDbVertex
100
AcDb3dPolylineVertex
 10
71.1139
 20
5.07862
 30
0.0
 70
    32
  0
VERTEX
  5
17AF
330
173B
100
AcDbEntity
  8
241
100
AcDbVertex
100
AcDb3dPolylineVertex
 10
71.129
 20
5.1024
 30
0.0
 70
    32
  0
VERTEX
  5
17B0
330
173B
100
AcDbEntity
  8
241
100
AcDbVertex
100
AcDb3dPolylineVertex
 10
71.1435
 20
5.12653
 30
0.0
 70
    32
  0
VERTEX
  5
17B1
330
173B
100
AcDbEntity
  8
241
100
AcDbVertex
100
AcDb3dPolylineVertex
 10
71.1571
 20
5.15098
 30
0.0
 70
    32
  0
VERTEX
  5
17B2
330
173B
100
AcDbEntity
  8
241
100
AcDbVertex
100
AcDb3dPolylineVertex
 10
71.1701
 20
5.17574
 30
0.0
 70
    32
  0
VERTEX
  5
17B3
330
173B
100
AcDbEntity
  8
241
100
AcDbVertex
100
AcDb3dPolylineVertex
 10
71.1823
 20
5.20081
 30
0.0
 70
    32
  0
VERTEX
  5
17B4
330
173B
100
AcDbEntity
  8
241
100
AcDbVertex
100
AcDb3dPolylineVertex
 10
71.1937
 20
5.22615
 30
0.0
 70
    32
  0
VERTEX
  5
17B5
330
173B
100
AcDbEntity
  8
241
100
AcDbVertex
100
AcDb3dPolylineVertex
 10
71.2044
 20
5.25177
 30
0.0
 70
    32
  0
VERTEX
  5
17B6
330
173B
100
AcDbEntity
  8
241
100
AcDbVertex
100
AcDb3dPolylineVertex
 10
71.2143
 20
5.27764
 30
0.0
 70
    32
  0
VERTEX
  5
17B7
330
173B
100
AcDbEntity
  8
241
100
AcDbVertex
100
AcDb3dPolylineVertex
 10
71.2234
 20
5.30374
 30
0.0
 70
    32
  0
VERTEX
  5
17B8
330
173B
100
AcDbEntity
  8
241
100
AcDbVertex
100
AcDb3dPolylineVertex
 10
71.2318
 20
5.33007
 30
0.0
 70
    32
  0
VERTEX
  5
17B9
330
173B
100
AcDbEntity
  8
241
100
AcDbVertex
100
AcDb3dPolylineVertex
 10
71.2393
 20
5.35661
 30
0.0
 70
    32
  0
VERTEX
  5
17BA
330
173B
100
AcDbEntity
  8
241
100
AcDbVertex
100
AcDb3dPolylineVertex
 10
71.2461
 20
5.38333
 30
0.0
 70
    32
  0
VERTEX
  5
17BB
330
173B
100
AcDbEntity
  8
241
100
AcDbVertex
100
AcDb3dPolylineVertex
 10
71.2521
 20
5.41023
 30
0.0
 70
    32
  0
VERTEX
  5
17BC
330
173B
100
AcDbEntity
  8
241
100
AcDbVertex
100
AcDb3dPolylineVertex
 10
71.2573
 20
5.43728
 30
0.0
 70
    32
  0
SEQEND
  5
17BD
330
173B
100
AcDbEntity
  8
241
  0
POLYLINE
  5
17BE
330
EC9
100
AcDbEntity
  8
241
100
AcDb3dPolyline
 66
     1
 10
0.0
 20
0.0
 30
0.0
 70
     8
  0
VERTEX
  5
17BF
330
17BE
100
AcDbEntity
  8
241
100
AcDbVertex
100
AcDb3dPolylineVertex
 10
71.2573
 20
5.43728
 30
0.0
 70
    32
  0
VERTEX
  5
17C0
330
17BE
100
AcDbEntity
  8
241
100
AcDbVertex
100
AcDb3dPolylineVertex
 10
71.2605
 20
5.45791
 30
0.0
 70
    32
  0
VERTEX
  5
17C1
330
17BE
100
AcDbEntity
  8
241
100
AcDbVertex
100
AcDb3dPolylineVertex
 10
71.2629
 20
5.47866
 30
0.0
 70
    32
  0
VERTEX
  5
17C2
330
17BE
100
AcDbEntity
  8
241
100
AcDbVertex
100
AcDb3dPolylineVertex
 10
71.2645
 20
5.49953
 30
0.0
 70
    32
  0
VERTEX
  5
17C3
330
17BE
100
AcDbEntity
  8
241
100
AcDbVertex
100
AcDb3dPolylineVertex
 10
71.2654
 20
5.5205
 30
0.0
 70
    32
  0
VERTEX
  5
17C4
330
17BE
100
AcDbEntity
  8
241
100
AcDbVertex
100
AcDb3dPolylineVertex
 10
71.2654
 20
5.54157
 30
0.0
 70
    32
  0
VERTEX
  5
17C5
330
17BE
100
AcDbEntity
  8
241
100
AcDbVertex
100
AcDb3dPolylineVertex
 10
71.2646
 20
5.56271
 30
0.0
 70
    32
  0
VERTEX
  5
17C6
330
17BE
100
AcDbEntity
  8
241
100
AcDbVertex
100
AcDb3dPolylineVertex
 10
71.263
 20
5.58392
 30
0.0
 70
    32
  0
VERTEX
  5
17C7
330
17BE
100
AcDbEntity
  8
241
100
AcDbVertex
100
AcDb3dPolylineVertex
 10
71.2606
 20
5.60519
 30
0.0
 70
    32
  0
VERTEX
  5
17C8
330
17BE
100
AcDbEntity
  8
241
100
AcDbVertex
100
AcDb3dPolylineVertex
 10
71.2573
 20
5.62649
 30
0.0
 70
    32
  0
VERTEX
  5
17C9
330
17BE
100
AcDbEntity
  8
241
100
AcDbVertex
100
AcDb3dPolylineVertex
 10
71.2533
 20
5.64782
 30
0.0
 70
    32
  0
VERTEX
  5
17CA
330
17BE
100
AcDbEntity
  8
241
100
AcDbVertex
100
AcDb3dPolylineVertex
 10
71.2485
 20
5.66916
 30
0.0
 70
    32
  0
VERTEX
  5
17CB
330
17BE
100
AcDbEntity
  8
241
100
AcDbVertex
100
AcDb3dPolylineVertex
 10
71.2429
 20
5.69051
 30
0.0
 70
    32
  0
VERTEX
  5
17CC
330
17BE
100
AcDbEntity
  8
241
100
AcDbVertex
100
AcDb3dPolylineVertex
 10
71.2365
 20
5.71184
 30
0.0
 70
    32
  0
VERTEX
  5
17CD
330
17BE
100
AcDbEntity
  8
241
100
AcDbVertex
100
AcDb3dPolylineVertex
 10
71.2293
 20
5.73315
 30
0.0
 70
    32
  0
VERTEX
  5
17CE
330
17BE
100
AcDbEntity
  8
241
100
AcDbVertex
100
AcDb3dPolylineVertex
 10
71.2214
 20
5.75442
 30
0.0
 70
    32
  0
VERTEX
  5
17CF
330
17BE
100
AcDbEntity
  8
241
100
AcDbVertex
100
AcDb3dPolylineVertex
 10
71.2126
 20
5.77565
 30
0.0
 70
    32
  0
VERTEX
  5
17D0
330
17BE
100
AcDbEntity
  8
241
100
AcDbVertex
100
AcDb3dPolylineVertex
 10
71.2031
 20
5.79681
 30
0.0
 70
    32
  0
VERTEX
  5
17D1
330
17BE
100
AcDbEntity
  8
241
100
AcDbVertex
100
AcDb3dPolylineVertex
 10
71.1928
 20
5.81789
 30
0.0
 70
    32
  0
VERTEX
  5
17D2
330
17BE
100
AcDbEntity
  8
241
100
AcDbVertex
100
AcDb3dPolylineVertex
 10
71.1817
 20
5.83889
 30
0.0
 70
    32
  0
VERTEX
  5
17D3
330
17BE
100
AcDbEntity
  8
241
100
AcDbVertex
100
AcDb3dPolylineVertex
 10
71.1699
 20
5.85979
 30
0.0
 70
    32
  0
VERTEX
  5
17D4
330
17BE
100
AcDbEntity
  8
241
100
AcDbVertex
100
AcDb3dPolylineVertex
 10
71.1574
 20
5.88057
 30
0.0
 70
    32
  0
VERTEX
  5
17D5
330
17BE
100
AcDbEntity
  8
241
100
AcDbVertex
100
AcDb3dPolylineVertex
 10
71.1441
 20
5.90123
 30
0.0
 70
    32
  0
VERTEX
  5
17D6
330
17BE
100
AcDbEntity
  8
241
100
AcDbVertex
100
AcDb3dPolylineVertex
 10
71.13
 20
5.92174
 30
0.0
 70
    32
  0
VERTEX
  5
17D7
330
17BE
100
AcDbEntity
  8
241
100
AcDbVertex
100
AcDb3dPolylineVertex
 10
71.1153
 20
5.94211
 30
0.0
 70
    32
  0
VERTEX
  5
17D8
330
17BE
100
AcDbEntity
  8
241
100
AcDbVertex
100
AcDb3dPolylineVertex
 10
71.0998
 20
5.96232
 30
0.0
 70
    32
  0
VERTEX
  5
17D9
330
17BE
100
AcDbEntity
  8
241
100
AcDbVertex
100
AcDb3dPolylineVertex
 10
71.0836
 20
5.98235
 30
0.0
 70
    32
  0
VERTEX
  5
17DA
330
17BE
100
AcDbEntity
  8
241
100
AcDbVertex
100
AcDb3dPolylineVertex
 10
71.0668
 20
6.00219
 30
0.0
 70
    32
  0
VERTEX
  5
17DB
330
17BE
100
AcDbEntity
  8
241
100
AcDbVertex
100
AcDb3dPolylineVertex
 10
71.0492
 20
6.02184
 30
0.0
 70
    32
  0
VERTEX
  5
17DC
330
17BE
100
AcDbEntity
  8
241
100
AcDbVertex
100
AcDb3dPolylineVertex
 10
71.031
 20
6.04127
 30
0.0
 70
    32
  0
VERTEX
  5
17DD
330
17BE
100
AcDbEntity
  8
241
100
AcDbVertex
100
AcDb3dPolylineVertex
 10
71.0121
 20
6.06048
 30
0.0
 70
    32
  0
VERTEX
  5
17DE
330
17BE
100
AcDbEntity
  8
241
100
AcDbVertex
100
AcDb3dPolylineVertex
 10
70.9925
 20
6.07946
 30
0.0
 70
    32
  0
VERTEX
  5
17DF
330
17BE
100
AcDbEntity
  8
241
100
AcDbVertex
100
AcDb3dPolylineVertex
 10
70.9723
 20
6.09819
 30
0.0
 70
    32
  0
VERTEX
  5
17E0
330
17BE
100
AcDbEntity
  8
241
100
AcDbVertex
100
AcDb3dPolylineVertex
 10
70.9515
 20
6.11666
 30
0.0
 70
    32
  0
VERTEX
  5
17E1
330
17BE
100
AcDbEntity
  8
241
100
AcDbVertex
100
AcDb3dPolylineVertex
 10
70.9301
 20
6.13487
 30
0.0
 70
    32
  0
VERTEX
  5
17E2
330
17BE
100
AcDbEntity
  8
241
100
AcDbVertex
100
AcDb3dPolylineVertex
 10
70.908
 20
6.1528
 30
0.0
 70
    32
  0
VERTEX
  5
17E3
330
17BE
100
AcDbEntity
  8
241
100
AcDbVertex
100
AcDb3dPolylineVertex
 10
70.8854
 20
6.17043
 30
0.0
 70
    32
  0
VERTEX
  5
17E4
330
17BE
100
AcDbEntity
  8
241
100
AcDbVertex
100
AcDb3dPolylineVertex
 10
70.8622
 20
6.18777
 30
0.0
 70
    32
  0
VERTEX
  5
17E5
330
17BE
100
AcDbEntity
  8
241
100
AcDbVertex
100
AcDb3dPolylineVertex
 10
70.8384
 20
6.2048
 30
0.0
 70
    32
  0
VERTEX
  5
17E6
330
17BE
100
AcDbEntity
  8
241
100
AcDbVertex
100
AcDb3dPolylineVertex
 10
70.8141
 20
6.2215
 30
0.0
 70
    32
  0
VERTEX
  5
17E7
330
17BE
100
AcDbEntity
  8
241
100
AcDbVertex
100
AcDb3dPolylineVertex
 10
70.7892
 20
6.23787
 30
0.0
 70
    32
  0
VERTEX
  5
17E8
330
17BE
100
AcDbEntity
  8
241
100
AcDbVertex
100
AcDb3dPolylineVertex
 10
70.7638
 20
6.25391
 30
0.0
 70
    32
  0
VERTEX
  5
17E9
330
17BE
100
AcDbEntity
  8
241
100
AcDbVertex
100
AcDb3dPolylineVertex
 10
70.738
 20
6.26959
 30
0.0
 70
    32
  0
VERTEX
  5
17EA
330
17BE
100
AcDbEntity
  8
241
100
AcDbVertex
100
AcDb3dPolylineVertex
 10
70.7116
 20
6.28491
 30
0.0
 70
    32
  0
VERTEX
  5
17EB
330
17BE
100
AcDbEntity
  8
241
100
AcDbVertex
100
AcDb3dPolylineVertex
 10
70.6848
 20
6.29986
 30
0.0
 70
    32
  0
VERTEX
  5
17EC
330
17BE
100
AcDbEntity
  8
241
100
AcDbVertex
100
AcDb3dPolylineVertex
 10
70.6575
 20
6.31444
 30
0.0
 70
    32
  0
VERTEX
  5
17ED
330
17BE
100
AcDbEntity
  8
241
100
AcDbVertex
100
AcDb3dPolylineVertex
 10
70.6297
 20
6.32862
 30
0.0
 70
    32
  0
VERTEX
  5
17EE
330
17BE
100
AcDbEntity
  8
241
100
AcDbVertex
100
AcDb3dPolylineVertex
 10
70.6016
 20
6.34241
 30
0.0
 70
    32
  0
VERTEX
  5
17EF
330
17BE
100
AcDbEntity
  8
241
100
AcDbVertex
100
AcDb3dPolylineVertex
 10
70.573
 20
6.3558
 30
0.0
 70
    32
  0
VERTEX
  5
17F0
330
17BE
100
AcDbEntity
  8
241
100
AcDbVertex
100
AcDb3dPolylineVertex
 10
70.5441
 20
6.36878
 30
0.0
 70
    32
  0
VERTEX
  5
17F1
330
17BE
100
AcDbEntity
  8
241
100
AcDbVertex
100
AcDb3dPolylineVertex
 10
70.5147
 20
6.38133
 30
0.0
 70
    32
  0
VERTEX
  5
17F2
330
17BE
100
AcDbEntity
  8
241
100
AcDbVertex
100
AcDb3dPolylineVertex
 10
70.4851
 20
6.39346
 30
0.0
 70
    32
  0
VERTEX
  5
17F3
330
17BE
100
AcDbEntity
  8
241
100
AcDbVertex
100
AcDb3dPolylineVertex
 10
70.4551
 20
6.40515
 30
0.0
 70
    32
  0
VERTEX
  5
17F4
330
17BE
100
AcDbEntity
  8
241
100
AcDbVertex
100
AcDb3dPolylineVertex
 10
70.4247
 20
6.4164
 30
0.0
 70
    32
  0
VERTEX
  5
17F5
330
17BE
100
AcDbEntity
  8
241
100
AcDbVertex
100
AcDb3dPolylineVertex
 10
70.3941
 20
6.42721
 30
0.0
 70
    32
  0
VERTEX
  5
17F6
330
17BE
100
AcDbEntity
  8
241
100
AcDbVertex
100
AcDb3dPolylineVertex
 10
70.3632
 20
6.43755
 30
0.0
 70
    32
  0
VERTEX
  5
17F7
330
17BE
100
AcDbEntity
  8
241
100
AcDbVertex
100
AcDb3dPolylineVertex
 10
70.332
 20
6.44744
 30
0.0
 70
    32
  0
VERTEX
  5
17F8
330
17BE
100
AcDbEntity
  8
241
100
AcDbVertex
100
AcDb3dPolylineVertex
 10
70.3006
 20
6.45686
 30
0.0
 70
    32
  0
VERTEX
  5
17F9
330
17BE
100
AcDbEntity
  8
241
100
AcDbVertex
100
AcDb3dPolylineVertex
 10
70.269
 20
6.46581
 30
0.0
 70
    32
  0
VERTEX
  5
17FA
330
17BE
100
AcDbEntity
  8
241
100
AcDbVertex
100
AcDb3dPolylineVertex
 10
70.2371
 20
6.47427
 30
0.0
 70
    32
  0
VERTEX
  5
17FB
330
17BE
100
AcDbEntity
  8
241
100
AcDbVertex
100
AcDb3dPolylineVertex
 10
70.2051
 20
6.48226
 30
0.0
 70
    32
  0
VERTEX
  5
17FC
330
17BE
100
AcDbEntity
  8
241
100
AcDbVertex
100
AcDb3dPolylineVertex
 10
70.1729
 20
6.48975
 30
0.0
 70
    32
  0
VERTEX
  5
17FD
330
17BE
100
AcDbEntity
  8
241
100
AcDbVertex
100
AcDb3dPolylineVertex
 10
70.1405
 20
6.49676
 30
0.0
 70
    32
  0
VERTEX
  5
17FE
330
17BE
100
AcDbEntity
  8
241
100
AcDbVertex
100
AcDb3dPolylineVertex
 10
70.1081
 20
6.50326
 30
0.0
 70
    32
  0
VERTEX
  5
17FF
330
17BE
100
AcDbEntity
  8
241
100
AcDbVertex
100
AcDb3dPolylineVertex
 10
70.0755
 20
6.50927
 30
0.0
 70
    32
  0
VERTEX
  5
1800
330
17BE
100
AcDbEntity
  8
241
100
AcDbVertex
100
AcDb3dPolylineVertex
 10
70.0428
 20
6.51477
 30
0.0
 70
    32
  0
VERTEX
  5
1801
330
17BE
100
AcDbEntity
  8
241
100
AcDbVertex
100
AcDb3dPolylineVertex
 10
70.0101
 20
6.51976
 30
0.0
 70
    32
  0
VERTEX
  5
1802
330
17BE
100
AcDbEntity
  8
241
100
AcDbVertex
100
AcDb3dPolylineVertex
 10
69.9773
 20
6.52424
 30
0.0
 70
    32
  0
VERTEX
  5
1803
330
17BE
100
AcDbEntity
  8
241
100
AcDbVertex
100
AcDb3dPolylineVertex
 10
69.9445
 20
6.52821
 30
0.0
 70
    32
  0
VERTEX
  5
1804
330
17BE
100
AcDbEntity
  8
241
100
AcDbVertex
100
AcDb3dPolylineVertex
 10
69.9116
 20
6.53167
 30
0.0
 70
    32
  0
VERTEX
  5
1805
330
17BE
100
AcDbEntity
  8
241
100
AcDbVertex
100
AcDb3dPolylineVertex
 10
69.8788
 20
6.5346
 30
0.0
 70
    32
  0
VERTEX
  5
1806
330
17BE
100
AcDbEntity
  8
241
100
AcDbVertex
100
AcDb3dPolylineVertex
 10
69.846
 20
6.53701
 30
0.0
 70
    32
  0
VERTEX
  5
1807
330
17BE
100
AcDbEntity
  8
241
100
AcDbVertex
100
AcDb3dPolylineVertex
 10
69.8133
 20
6.53891
 30
0.0
 70
    32
  0
VERTEX
  5
1808
330
17BE
100
AcDbEntity
  8
241
100
AcDbVertex
100
AcDb3dPolylineVertex
 10
69.7806
 20
6.54028
 30
0.0
 70
    32
  0
VERTEX
  5
1809
330
17BE
100
AcDbEntity
  8
241
100
AcDbVertex
100
AcDb3dPolylineVertex
 10
69.748
 20
6.54113
 30
0.0
 70
    32
  0
VERTEX
  5
180A
330
17BE
100
AcDbEntity
  8
241
100
AcDbVertex
100
AcDb3dPolylineVertex
 10
69.7155
 20
6.54145
 30
0.0
 70
    32
  0
VERTEX
  5
180B
330
17BE
100
AcDbEntity
  8
241
100
AcDbVertex
100
AcDb3dPolylineVertex
 10
69.6832
 20
6.54125
 30
0.0
 70
    32
  0
VERTEX
  5
180C
330
17BE
100
AcDbEntity
  8
241
100
AcDbVertex
100
AcDb3dPolylineVertex
 10
69.651
 20
6.54053
 30
0.0
 70
    32
  0
VERTEX
  5
180D
330
17BE
100
AcDbEntity
  8
241
100
AcDbVertex
100
AcDb3dPolylineVertex
 10
69.619
 20
6.53928
 30
0.0
 70
    32
  0
VERTEX
  5
180E
330
17BE
100
AcDbEntity
  8
241
100
AcDbVertex
100
AcDb3dPolylineVertex
 10
69.5871
 20
6.53751
 30
0.0
 70
    32
  0
VERTEX
  5
180F
330
17BE
100
AcDbEntity
  8
241
100
AcDbVertex
100
AcDb3dPolylineVertex
 10
69.5555
 20
6.53522
 30
0.0
 70
    32
  0
VERTEX
  5
1810
330
17BE
100
AcDbEntity
  8
241
100
AcDbVertex
100
AcDb3dPolylineVertex
 10
69.524
 20
6.53241
 30
0.0
 70
    32
  0
VERTEX
  5
1811
330
17BE
100
AcDbEntity
  8
241
100
AcDbVertex
100
AcDb3dPolylineVertex
 10
69.4929
 20
6.52908
 30
0.0
 70
    32
  0
VERTEX
  5
1812
330
17BE
100
AcDbEntity
  8
241
100
AcDbVertex
100
AcDb3dPolylineVertex
 10
69.462
 20
6.52524
 30
0.0
 70
    32
  0
VERTEX
  5
1813
330
17BE
100
AcDbEntity
  8
241
100
AcDbVertex
100
AcDb3dPolylineVertex
 10
69.4313
 20
6.52088
 30
0.0
 70
    32
  0
VERTEX
  5
1814
330
17BE
100
AcDbEntity
  8
241
100
AcDbVertex
100
AcDb3dPolylineVertex
 10
69.401
 20
6.51601
 30
0.0
 70
    32
  0
VERTEX
  5
1815
330
17BE
100
AcDbEntity
  8
241
100
AcDbVertex
100
AcDb3dPolylineVertex
 10
69.371
 20
6.51063
 30
0.0
 70
    32
  0
VERTEX
  5
1816
330
17BE
100
AcDbEntity
  8
241
100
AcDbVertex
100
AcDb3dPolylineVertex
 10
69.3413
 20
6.50474
 30
0.0
 70
    32
  0
VERTEX
  5
1817
330
17BE
100
AcDbEntity
  8
241
100
AcDbVertex
100
AcDb3dPolylineVertex
 10
69.312
 20
6.49835
 30
0.0
 70
    32
  0
VERTEX
  5
1818
330
17BE
100
AcDbEntity
  8
241
100
AcDbVertex
100
AcDb3dPolylineVertex
 10
69.283
 20
6.49147
 30
0.0
 70
    32
  0
VERTEX
  5
1819
330
17BE
100
AcDbEntity
  8
241
100
AcDbVertex
100
AcDb3dPolylineVertex
 10
69.2544
 20
6.48409
 30
0.0
 70
    32
  0
VERTEX
  5
181A
330
17BE
100
AcDbEntity
  8
241
100
AcDbVertex
100
AcDb3dPolylineVertex
 10
69.2263
 20
6.47622
 30
0.0
 70
    32
  0
VERTEX
  5
181B
330
17BE
100
AcDbEntity
  8
241
100
AcDbVertex
100
AcDb3dPolylineVertex
 10
69.1985
 20
6.46787
 30
0.0
 70
    32
  0
VERTEX
  5
181C
330
17BE
100
AcDbEntity
  8
241
100
AcDbVertex
100
AcDb3dPolylineVertex
 10
69.1712
 20
6.45904
 30
0.0
 70
    32
  0
VERTEX
  5
181D
330
17BE
100
AcDbEntity
  8
241
100
AcDbVertex
100
AcDb3dPolylineVertex
 10
69.1444
 20
6.44973
 30
0.0
 70
    32
  0
VERTEX
  5
181E
330
17BE
100
AcDbEntity
  8
241
100
AcDbVertex
100
AcDb3dPolylineVertex
 10
69.118
 20
6.43995
 30
0.0
 70
    32
  0
VERTEX
  5
181F
330
17BE
100
AcDbEntity
  8
241
100
AcDbVertex
100
AcDb3dPolylineVertex
 10
69.0921
 20
6.42972
 30
0.0
 70
    32
  0
VERTEX
  5
1820
330
17BE
100
AcDbEntity
  8
241
100
AcDbVertex
100
AcDb3dPolylineVertex
 10
69.0667
 20
6.41902
 30
0.0
 70
    32
  0
VERTEX
  5
1821
330
17BE
100
AcDbEntity
  8
241
100
AcDbVertex
100
AcDb3dPolylineVertex
 10
69.0419
 20
6.40788
 30
0.0
 70
    32
  0
VERTEX
  5
1822
330
17BE
100
AcDbEntity
  8
241
100
AcDbVertex
100
AcDb3dPolylineVertex
 10
69.0176
 20
6.39629
 30
0.0
 70
    32
  0
VERTEX
  5
1823
330
17BE
100
AcDbEntity
  8
241
100
AcDbVertex
100
AcDb3dPolylineVertex
 10
68.9938
 20
6.38426
 30
0.0
 70
    32
  0
VERTEX
  5
1824
330
17BE
100
AcDbEntity
  8
241
100
AcDbVertex
100
AcDb3dPolylineVertex
 10
68.9706
 20
6.37181
 30
0.0
 70
    32
  0
VERTEX
  5
1825
330
17BE
100
AcDbEntity
  8
241
100
AcDbVertex
100
AcDb3dPolylineVertex
 10
68.9479
 20
6.35893
 30
0.0
 70
    32
  0
VERTEX
  5
1826
330
17BE
100
AcDbEntity
  8
241
100
AcDbVertex
100
AcDb3dPolylineVertex
 10
68.9259
 20
6.34564
 30
0.0
 70
    32
  0
VERTEX
  5
1827
330
17BE
100
AcDbEntity
  8
241
100
AcDbVertex
100
AcDb3dPolylineVertex
 10
68.9044
 20
6.33195
 30
0.0
 70
    32
  0
VERTEX
  5
1828
330
17BE
100
AcDbEntity
  8
241
100
AcDbVertex
100
AcDb3dPolylineVertex
 10
68.8836
 20
6.31785
 30
0.0
 70
    32
  0
VERTEX
  5
1829
330
17BE
100
AcDbEntity
  8
241
100
AcDbVertex
100
AcDb3dPolylineVertex
 10
68.8634
 20
6.30337
 30
0.0
 70
    32
  0
VERTEX
  5
182A
330
17BE
100
AcDbEntity
  8
241
100
AcDbVertex
100
AcDb3dPolylineVertex
 10
68.8438
 20
6.28851
 30
0.0
 70
    32
  0
VERTEX
  5
182B
330
17BE
100
AcDbEntity
  8
241
100
AcDbVertex
100
AcDb3dPolylineVertex
 10
68.8249
 20
6.27327
 30
0.0
 70
    32
  0
VERTEX
  5
182C
330
17BE
100
AcDbEntity
  8
241
100
AcDbVertex
100
AcDb3dPolylineVertex
 10
68.8067
 20
6.25768
 30
0.0
 70
    32
  0
VERTEX
  5
182D
330
17BE
100
AcDbEntity
  8
241
100
AcDbVertex
100
AcDb3dPolylineVertex
 10
68.7891
 20
6.24173
 30
0.0
 70
    32
  0
VERTEX
  5
182E
330
17BE
100
AcDbEntity
  8
241
100
AcDbVertex
100
AcDb3dPolylineVertex
 10
68.7722
 20
6.22543
 30
0.0
 70
    32
  0
VERTEX
  5
182F
330
17BE
100
AcDbEntity
  8
241
100
AcDbVertex
100
AcDb3dPolylineVertex
 10
68.756
 20
6.20881
 30
0.0
 70
    32
  0
VERTEX
  5
1830
330
17BE
100
AcDbEntity
  8
241
100
AcDbVertex
100
AcDb3dPolylineVertex
 10
68.7405
 20
6.19186
 30
0.0
 70
    32
  0
VERTEX
  5
1831
330
17BE
100
AcDbEntity
  8
241
100
AcDbVertex
100
AcDb3dPolylineVertex
 10
68.7258
 20
6.17459
 30
0.0
 70
    32
  0
VERTEX
  5
1832
330
17BE
100
AcDbEntity
  8
241
100
AcDbVertex
100
AcDb3dPolylineVertex
 10
68.7117
 20
6.15703
 30
0.0
 70
    32
  0
VERTEX
  5
1833
330
17BE
100
AcDbEntity
  8
241
100
AcDbVertex
100
AcDb3dPolylineVertex
 10
68.6984
 20
6.13917
 30
0.0
 70
    32
  0
VERTEX
  5
1834
330
17BE
100
AcDbEntity
  8
241
100
AcDbVertex
100
AcDb3dPolylineVertex
 10
68.6859
 20
6.12103
 30
0.0
 70
    32
  0
VERTEX
  5
1835
330
17BE
100
AcDbEntity
  8
241
100
AcDbVertex
100
AcDb3dPolylineVertex
 10
68.674
 20
6.10262
 30
0.0
 70
    32
  0
VERTEX
  5
1836
330
17BE
100
AcDbEntity
  8
241
100
AcDbVertex
100
AcDb3dPolylineVertex
 10
68.663
 20
6.08395
 30
0.0
 70
    32
  0
VERTEX
  5
1837
330
17BE
100
AcDbEntity
  8
241
100
AcDbVertex
100
AcDb3dPolylineVertex
 10
68.6527
 20
6.06503
 30
0.0
 70
    32
  0
VERTEX
  5
1838
330
17BE
100
AcDbEntity
  8
241
100
AcDbVertex
100
AcDb3dPolylineVertex
 10
68.6431
 20
6.04587
 30
0.0
 70
    32
  0
VERTEX
  5
1839
330
17BE
100
AcDbEntity
  8
241
100
AcDbVertex
100
AcDb3dPolylineVertex
 10
68.6344
 20
6.02649
 30
0.0
 70
    32
  0
VERTEX
  5
183A
330
17BE
100
AcDbEntity
  8
241
100
AcDbVertex
100
AcDb3dPolylineVertex
 10
68.6264
 20
6.00689
 30
0.0
 70
    32
  0
VERTEX
  5
183B
330
17BE
100
AcDbEntity
  8
241
100
AcDbVertex
100
AcDb3dPolylineVertex
 10
68.6192
 20
5.9871
 30
0.0
 70
    32
  0
VERTEX
  5
183C
330
17BE
100
AcDbEntity
  8
241
100
AcDbVertex
100
AcDb3dPolylineVertex
 10
68.6128
 20
5.96711
 30
0.0
 70
    32
  0
VERTEX
  5
183D
330
17BE
100
AcDbEntity
  8
241
100
AcDbVertex
100
AcDb3dPolylineVertex
 10
68.6072
 20
5.94695
 30
0.0
 70
    32
  0
VERTEX
  5
183E
330
17BE
100
AcDbEntity
  8
241
100
AcDbVertex
100
AcDb3dPolylineVertex
 10
68.6023
 20
5.92661
 30
0.0
 70
    32
  0
VERTEX
  5
183F
330
17BE
100
AcDbEntity
  8
241
100
AcDbVertex
100
AcDb3dPolylineVertex
 10
68.5983
 20
5.90613
 30
0.0
 70
    32
  0
SEQEND
  5
1840
330
17BE
100
AcDbEntity
  8
241
  0
LINE
  5
1841
330
EC9
100
AcDbEntity
  8
240
100
AcDbLine
 10
74.25
 20
7.39776704
 30
0.0
 11
74.25
 21
0.829351
 31
0.0
  0
LINE
  5
1842
330
EC9
100
AcDbEntity
  8
240
100
AcDbLine
 10
75.0
 20
-3.72
 30
0.0
 11
74.25
 21
-3.44702232
 31
0.0
  0
LINE
  5
1843
330
EC9
100
AcDbEntity
  8
240
100
AcDbLine
 10
74.25
 20
0.829351
 30
0.0
 11
74.19615249
 21
0.83884577
 31
0.0
  0
LINE
  5
1844
330
EC9
100
AcDbEntity
  8
240
100
AcDbLine
 10
74.19615249
 20
0.83884577
 30
0.0
 11
75.0
 21
-3.72
 31
0.0
  0
LINE
  5
1845
330
EC9
100
AcDbEntity
  8
246
100
AcDbLine
 10
75.0
 20
8.0
 30
0.0
 11
67.0
 21
8.0
 31
0.0
  0
ENDBLK
  5
ECB
330
EC9
100
AcDbEntity
  8
0
100
AcDbBlockEnd
  0
ENDSEC
  0
SECTION
  2
ENTITIES
  0
INSERT
  5
6E6
330
1A
100
AcDbEntity
  8
245
100
AcDbBlockReference
  2
矢印なし
 10
175.62382697
 20
90.55123572
 30
0.0
  0
TEXT
  5
AD3
330
1A
100
AcDbEntity
  8
241
100
AcDbText
 10
-25.0
 20
49.0
 30
0.0
 40
5.0
  1
HSK-A50-FCR16082-75
  7
YOKO
100
AcDbText
  0
DIMENSION
  5
E50
330
1A
100
AcDbEntity
  8
250
  6
CONTINUOUS
100
AcDbDimension
  2
*D2
 10
84.0
 20
8.0
 30
0.0
 11
81.6
 21
0.0
 31
0.0
 70
    32
  1
{\H2.8;\U+2205}<>
  3
BIGT
100
AcDbAlignedDimension
 13
75.0
 23
-8.0
 33
0.0
 14
75.0
 24
8.0
 34
0.0
 50
90.0
100
AcDbRotatedDimension
  0
DIMENSION
  5
E5F
330
1A
100
AcDbEntity
  8
250
  6
CONTINUOUS
100
AcDbDimension
  2
*D3
 10
75.0
 20
21.0
 30
0.0
 11
71.0
 21
23.4
 31
0.0
 70
    32
  3
BIGT
100
AcDbAlignedDimension
 13
67.0
 23
8.0
 33
0.0
 14
75.0
 24
8.0
 34
0.0
100
AcDbRotatedDimension
  0
DIMENSION
  5
E6E
330
1A
100
AcDbEntity
  8
250
  6
CONTINUOUS
100
AcDbDimension
  2
*D4
 10
75.0
 20
28.0
 30
0.0
 11
61.5
 21
30.4
 31
0.0
 70
    32
  3
BIGT
100
AcDbAlignedDimension
 13
48.0
 23
7.66103304
 33
0.0
 14
75.0
 24
8.0
 34
0.0
100
AcDbRotatedDimension
  0
DIMENSION
  5
E7D
330
1A
100
AcDbEntity
  8
250
  6
CONTINUOUS
100
AcDbDimension
  2
*D5
 10
75.0
 20
35.0
 30
0.0
 11
37.5
 21
37.4
 31
0.0
 70
    32
  3
BIGT
100
AcDbAlignedDimension
 13
0.0
 23
25.0
 33
0.0
 14
75.0
 24
8.0
 34
0.0
100
AcDbRotatedDimension
  0
LEADER
  5
160D
330
1A
100
AcDbEntity
  8
250
  6
CONTINUOUS
100
AcDbLeader
  3
BIGT
 76
     2
 10
-10.66962138
 20
-18.71651893
 30
0.0
 10
-16.04440773
 20
-28.02592197
 30
0.0
1001
ACAD
1000
DSTYLE
1002
{
1070
     6
1000
OPEN
1070
   343
1005
594
1002
}
  0
MTEXT
  5
160E
330
1A
100
AcDbEntity
  8
251
  6
CONTINUOUS
100
AcDbMText
 10
-37.5110744
 20
-27.02592197
 30
0.0
 40
2.8
 41
0.0
 71
     7
 72
     1
  1
HSK-A50
  7
YOKO
1001
ITEMNAME
1000
LNSP3
1001
ACAD
1000
MTEXTBEGIN
1070
    73
1070
     1
1070
    44
1040
1.0
1070
    74
1070
     0
1000
MTEXTEND
1000
MTEXTBEGIN
1070
    73
1070
     1
1070
    44
1040
1.0
1070
    74
1070
     0
1000
MTEXTEND
1000
MTEXTBEGIN
1070
    73
1070
     1
1070
    44
1040
1.0
1070
    74
1070
     0
1000
MTEXTEND
  0
LINE
  5
160F
330
1A
100
AcDbEntity
  8
250
  6
CONTINUOUS
100
AcDbLine
 10
-16.04440773
 20
-28.02592197
 30
0.0
 11
-40.3110744
 21
-28.02592197
 31
0.0
1001
ITEMNAME
1000
LNSP2
  0
INSERT
  5
1846
330
1A
100
AcDbEntity
  8
245
100
AcDbBlockReference
  2
1
 10
0.0
 20
0.0
 30
0.0
  0
VIEWPORT
  5
22
330
17
100
AcDbEntity
 67
     1
  8
0
100
AcDbViewport
 10
261.51769912
 20
148.5
 30
0.0
 40
523.03539823
 41
297.0
 68
     1
 69
     1
1001
ACAD
1000
MVIEW
1002
{
1070
    16
1010
0.0
1020
0.0
1030
0.0
1010
0.0
1020
0.0
1030
1.0
1040
0.0
1040
9.0
1040
6.55181347
1040
4.5
1040
50.0
1040
0.0
1040
0.0
1070
     0
1070
   100
1070
     1
1070
     3
1070
     0
1070
     0
1070
     0
1070
     0
1040
0.0
1040
0.0
1040
0.0
1040
1.0
1040
1.0
1040
0.0
1040
0.0
1070
     0
1002
{
1002
}
1002
}
  0
ENDSEC
  0
SECTION
  2
OBJECTS
  0
DICTIONARY
  5
C
330
0
100
AcDbDictionary
  3
ACAD_GROUP
350
D
  3
ACAD_LAYOUT
350
565
  3
ACAD_MLINESTYLE
350
E
  3
ACAD_PLOTSETTINGS
350
566
  3
ACAD_PLOTSTYLENAME
350
563
  3
ACDBHEADERROUNDTRIPXREC
350
1848
  3
GRADE_DWG
350
540
  0
DICTIONARY
  5
10C5
330
1A
100
AcDbDictionary
280
     1
  3
ACAD_LAYOUTSELFREF
360
186A
  0
DICTIONARY
  5
10C3
330
17
100
AcDbDictionary
280
     1
  3
ACAD_LAYOUTSELFREF
360
1869
  0
DICTIONARY
  5
D
102
{ACAD_REACTORS
330
C
102
}
330
C
100
AcDbDictionary
  3
*A1
350
6C7
  3
*A2
350
6C8
  3
*A3
350
6D4
  3
*A4
350
6D5
  3
DREC-1
350
5FC
  3
DREC-2
350
654
  3
DREC-3
350
673
  3
LNSP-1
350
E9A
  0
DICTIONARY
  5
565
102
{ACAD_REACTORS
330
C
102
}
330
C
100
AcDbDictionary
  0
DICTIONARY
  5
E
102
{ACAD_REACTORS
330
C
102
}
330
C
100
AcDbDictionary
  3
STANDARD
350
13
  0
DICTIONARY
  5
566
102
{ACAD_REACTORS
330
C
102
}
330
C
100
AcDbDictionary
  3
A3_0_5倍_
350
758
  3
A3_1倍_
350
757
  3
A3_1倍__2000_
350
707
  3
A3_2倍_
350
759
  3
A4_0_5倍_
350
755
  3
A4_1倍_
350
754
  3
A4_1倍__2000_
350
708
  3
A4_2倍_
350
756
  0
ACDBDICTIONARYWDFLT
  5
563
102
{ACAD_REACTORS
330
C
102
}
330
C
100
AcDbDictionary
281
     1
  3
Normal
350
564
100
AcDbDictionaryWithDefault
340
564
  0
DICTIONARY
  5
1848
102
{ACAD_REACTORS
330
C
102
}
330
C
100
AcDbDictionary
  3
CEPSNTYPE
350
1852
  3
DIMSTYLEDATA
350
1856
  3
FINGERPRINTGUID
350
1853
  3
HYPERLINKBASE
350
184B
  3
INSUNITS
350
1851
  3
LAYOUTDICT
350
184D
  3
LWETCUNION
350
1850
  3
PLOTSETDICT
350
184E
  3
PLOTSTYLNAMDICT
350
184F
  3
PSVPSCALE
350
1855
  3
PUCSBASE
350
1859
  3
PUCSORGBACK
350
185F
  3
PUCSORGBOTTOM
350
185B
  3
PUCSORGFRONT
350
185E
  3
PUCSORGLEFT
350
185C
  3
PUCSORGRIGHT
350
185D
  3
PUCSORGTOP
350
185A
  3
PUCSORTHOREF
350
1857
  3
PUCSORTHOVIEW
350
1858
  3
STYLESHEET
350
184C
  3
TSTACKALIGN
350
1849
  3
TSTACKSIZE
350
184A
  3
UCSBASE
350
1862
  3
UCSORGBACK
350
1868
  3
UCSORGBOTTOM
350
1864
  3
UCSORGFRONT
350
1867
  3
UCSORGLEFT
350
1865
  3
UCSORGRIGHT
350
1866
  3
UCSORGTOP
350
1863
  3
UCSORTHOREF
350
1860
  3
UCSORTHOVIEW
350
1861
  3
VERSIONGUID
350
1854
  0
DICTIONARY
  5
540
102
{ACAD_REACTORS
330
C
102
}
330
C
100
AcDbDictionary
  3
VERSION
350
560
  0
XRECORD
  5
186A
102
{ACAD_REACTORS
330
10C5
102
}
330
10C5
100
AcDbXrecord
340
1A
  0
XRECORD
  5
1869
102
{ACAD_REACTORS
330
10C3
102
}
330
10C3
100
AcDbXrecord
340
17
  0
GROUP
  5
6C7
102
{ACAD_REACTORS
330
D
102
}
330
D
100
AcDbGroup
300

 70
     0
 71
     1
1001
GRPNAME
1000
DMA00
  0
GROUP
  5
6C8
102
{ACAD_REACTORS
330
D
102
}
330
D
100
AcDbGroup
300

 70
     0
 71
     1
1001
GRPNAME
1000
DMA00
  0
GROUP
  5
6D4
102
{ACAD_REACTORS
330
D
102
}
330
D
100
AcDbGroup
300

 70
     0
 71
     1
1001
GRPNAME
1000
DMA00
  0
GROUP
  5
6D5
102
{ACAD_REACTORS
330
D
102
}
330
D
100
AcDbGroup
300

 70
     0
 71
     1
1001
GRPNAME
1000
DMA00
  0
GROUP
  5
5FC
102
{ACAD_REACTORS
330
D
102
}
330
D
100
AcDbGroup
300

 70
     0
 71
     1
1001
GRPNAME
1000
DREC-
1001
GPARA
1000
xsiz
1000
44.182
1000
ysiz
1000
40.677
1000
angl
1000
0
1000
ctyp
1000
0
1000
csiz
1000
5
1000
lfnt
1000
cont
1000
hcnt
1000
hoff
1000
vcnt
1000
voff
1000
opnt
1000
4
1000
dxpt
1000
0
1000
dypt
1000
0
  0
GROUP
  5
654
102
{ACAD_REACTORS
330
D
102
}
330
D
100
AcDbGroup
300

 70
     0
 71
     1
1001
GRPNAME
1000
DREC-
1001
GPARA
1000
xsiz
1000
54.592
1000
ysiz
1000
53.036
1000
angl
1000
0
1000
ctyp
1000
0
1000
csiz
1000
5
1000
lfnt
1000
cont
1000
hcnt
1000
hoff
1000
vcnt
1000
voff
1000
opnt
1000
4
1000
dxpt
1000
0
1000
dypt
1000
0
  0
GROUP
  5
673
102
{ACAD_REACTORS
330
D
102
}
330
D
100
AcDbGroup
300

 70
     0
 71
     1
1001
GRPNAME
1000
DREC-
1001
GPARA
1000
xsiz
1000
30.363
1000
ysiz
1000
36.175
1000
angl
1000
0
1000
ctyp
1000
0
1000
csiz
1000
5
1000
lfnt
1000
cont
1000
hcnt
1000
hoff
1000
vcnt
1000
voff
1000
opnt
1000
4
1000
dxpt
1000
0
1000
dypt
1000
0
  0
GROUP
  5
E9A
102
{ACAD_REACTORS
330
D
102
}
330
D
100
AcDbGroup
300

 70
     0
 71
     1
1001
GRPNAME
1000
LNSP
  0
MLINESTYLE
  5
13
102
{ACAD_REACTORS
330
E
102
}
330
E
100
AcDbMlineStyle
  2
STANDARD
 70
     0
  3

 62
     0
 51
90.0
 52
90.0
 71
     2
 49
0.5
 62
   256
  6
BYLAYER
 49
-0.5
 62
   256
  6
BYLAYER
  0
PLOTSETTINGS
  5
758
102
{ACAD_REACTORS
330
566
102
}
330
566
100
AcDbPlotSettings
  1
A3(0.5倍)
  2
\\AWTECPC05\HP DeskJet 1120C
  4
A3
  6

 40
5.95841646
 41
13.49375153
 42
6.04309082
 43
3.67242432
 44
296.92599487
 45
419.94665527
 46
89.96
 47
127.14
 48
0.0
 49
0.0
140
0.0
141
0.0
142
1.0
143
2.0
 70
  1716
 72
     1
 73
     1
 74
     2
  7
big.ctb
 75
    17
147
0.5
148
0.0
149
0.0
  0
PLOTSETTINGS
  5
757
102
{ACAD_REACTORS
330
566
102
}
330
566
100
AcDbPlotSettings
  1
A3(1倍)
  2
\\AWTECPC05\HP DeskJet 1120C
  4
A3
  6

 40
5.95841646
 41
13.49375153
 42
6.04309082
 43
3.67242432
 44
296.92599487
 45
419.94665527
 46
37.46
 47
52.89
 48
0.0
 49
0.0
140
0.0
141
0.0
142
1.0
143
1.0
 70
  1716
 72
     1
 73
     1
 74
     2
  7
big.ctb
 75
    16
147
1.0
148
0.0
149
0.0
  0
PLOTSETTINGS
  5
707
102
{ACAD_REACTORS
330
566
102
}
330
566
100
AcDbPlotSettings
  1
A3(1倍)(2000)
  2
SII LS-1300 (D-SCAN)
  4
User258
  6

 40
3.17499995
 41
3.17499995
 42
3.17498779
 43
3.17498779
 44
419.98898315
 45
296.98950195
 46
58.32
 47
40.32
 48
0.0
 49
0.0
140
0.0
141
0.0
142
1.0
143
1.0
 70
  1716
 72
     1
 73
     0
 74
     2
  7
big.ctb
 75
    16
147
1.0
148
0.0
149
0.0
  0
PLOTSETTINGS
  5
759
102
{ACAD_REACTORS
330
566
102
}
330
566
100
AcDbPlotSettings
  1
A3(2倍)
  2
\\AWTECPC05\HP DeskJet 1120C
  4
A3
  6

 40
5.95841646
 41
13.49375153
 42
6.04309082
 43
3.67242432
 44
296.92599487
 45
419.94665527
 46
-67.54
 47
-95.61
 48
0.0
 49
0.0
140
0.0
141
0.0
142
1.0
143
0.5
 70
  1716
 72
     1
 73
     1
 74
     2
  7
big.ctb
 75
    27
147
2.0
148
0.0
149
0.0
  0
PLOTSETTINGS
  5
755
102
{ACAD_REACTORS
330
566
102
}
330
566
100
AcDbPlotSettings
  1
A4(0.5倍)
  2
\\AWTECPC05\HP DeskJet 1120C
  4
A4
  6

 40
4.18041658
 41
13.49374962
 42
4.18040466
 43
3.92642212
 44
209.97332764
 45
296.92599487
 46
48.31
 47
65.5
 48
0.0
 49
0.0
140
0.0
141
0.0
142
1.0
143
2.0
 70
  1716
 72
     1
 73
     1
 74
     2
  7
big.ctb
 75
    17
147
0.5
148
0.0
149
0.0
  0
PLOTSETTINGS
  5
754
102
{ACAD_REACTORS
330
566
102
}
330
566
100
AcDbPlotSettings
  1
A4(1倍)
  2
\\AWTECPC05\HP DeskJet 1120C
  4
A4
  6

 40
4.18041658
 41
13.49374962
 42
4.18040466
 43
3.92642212
 44
209.97332764
 45
296.92599487
 46
-4.19
 47
-8.75
 48
0.0
 49
0.0
140
0.0
141
0.0
142
1.0
143
1.0
 70
  1716
 72
     1
 73
     1
 74
     2
  7
big.ctb
 75
    16
147
1.0
148
0.0
149
0.0
  0
PLOTSETTINGS
  5
708
102
{ACAD_REACTORS
330
566
102
}
330
566
100
AcDbPlotSettings
  1
A4(1倍)(2000)
  2
SII LS-1300 (D-SCAN)
  4
User259
  6

 40
3.17499995
 41
3.17499995
 42
3.17498779
 43
3.17500305
 44
296.98950195
 45
209.99449158
 46
-3.18
 47
-3.18
 48
0.0
 49
0.0
140
0.0
141
0.0
142
1.0
143
1.0
 70
  1716
 72
     1
 73
     0
 74
     2
  7
big.ctb
 75
    16
147
1.0
148
0.0
149
0.0
  0
PLOTSETTINGS
  5
756
102
{ACAD_REACTORS
330
566
102
}
330
566
100
AcDbPlotSettings
  1
A4(2倍)
  2
\\AWTECPC05\HP DeskJet 1120C
  4
A4
  6

 40
4.18041658
 41
13.49374962
 42
4.18040466
 43
3.92642212
 44
209.97332764
 45
296.92599487
 46
-109.19
 47
-157.25
 48
0.0
 49
0.0
140
0.0
141
0.0
142
1.0
143
0.5
 70
  1716
 72
     1
 73
     1
 74
     2
  7
big.ctb
 75
    27
147
2.0
148
0.0
149
0.0
  0
ACDBPLACEHOLDER
  5
564
102
{ACAD_REACTORS
330
563
102
}
330
563
100
AcDbPlaceHolder
280
     0
  0
XRECORD
  5
1852
102
{ACAD_REACTORS
330
1848
102
}
330
1848
100
AcDbXrecord
 90
        0
  0
XRECORD
  5
1856
102
{ACAD_REACTORS
330
1848
102
}
330
1848
100
AcDbXrecord
1000
DSTYLE
1002
{
1070
    79
 70
     2
1070
   179
 70
     3
1070
   341
340
594
1070
   343
340
594
1070
   344
340
594
1070
   371
 70
    -1
1070
   372
 70
    -1
1002
}
  0
XRECORD
  5
1853
102
{ACAD_REACTORS
330
1848
102
}
330
1848
100
AcDbXrecord
  1
{51294030-9CB4-11D3-8E18-00A0C925D94D}
  0
XRECORD
  5
184B
102
{ACAD_REACTORS
330
1848
102
}
330
1848
100
AcDbXrecord
  1

  0
XRECORD
  5
1851
102
{ACAD_REACTORS
330
1848
102
}
330
1848
100
AcDbXrecord
 90
        0
  0
XRECORD
  5
184D
102
{ACAD_REACTORS
330
1848
102
}
330
1848
100
AcDbXrecord
340
565
  0
XRECORD
  5
1850
102
{ACAD_REACTORS
330
1848
102
}
330
1848
100
AcDbXrecord
 90
    10781
  0
XRECORD
  5
184E
102
{ACAD_REACTORS
330
1848
102
}
330
1848
100
AcDbXrecord
340
566
  0
XRECORD
  5
184F
102
{ACAD_REACTORS
330
1848
102
}
330
1848
100
AcDbXrecord
340
563
  0
XRECORD
  5
1855
102
{ACAD_REACTORS
330
1848
102
}
330
1848
100
AcDbXrecord
 40
0.0
  0
XRECORD
  5
1859
102
{ACAD_REACTORS
330
1848
102
}
330
1848
100
AcDbXrecord
340
0
  0
XRECORD
  5
185F
102
{ACAD_REACTORS
330
1848
102
}
330
1848
100
AcDbXrecord
 10
0.0
 20
0.0
 30
0.0
  0
XRECORD
  5
185B
102
{ACAD_REACTORS
330
1848
102
}
330
1848
100
AcDbXrecord
 10
0.0
 20
0.0
 30
0.0
  0
XRECORD
  5
185E
102
{ACAD_REACTORS
330
1848
102
}
330
1848
100
AcDbXrecord
 10
0.0
 20
0.0
 30
0.0
  0
XRECORD
  5
185C
102
{ACAD_REACTORS
330
1848
102
}
330
1848
100
AcDbXrecord
 10
0.0
 20
0.0
 30
0.0
  0
XRECORD
  5
185D
102
{ACAD_REACTORS
330
1848
102
}
330
1848
100
AcDbXrecord
 10
0.0
 20
0.0
 30
0.0
  0
XRECORD
  5
185A
102
{ACAD_REACTORS
330
1848
102
}
330
1848
100
AcDbXrecord
 10
0.0
 20
0.0
 30
0.0
  0
XRECORD
  5
1857
102
{ACAD_REACTORS
330
1848
102
}
330
1848
100
AcDbXrecord
340
0
  0
XRECORD
  5
1858
102
{ACAD_REACTORS
330
1848
102
}
330
1848
100
AcDbXrecord
 70
     0
  0
XRECORD
  5
184C
102
{ACAD_REACTORS
330
1848
102
}
330
1848
100
AcDbXrecord
  1
big.ctb
  0
XRECORD
  5
1849
102
{ACAD_REACTORS
330
1848
102
}
330
1848
100
AcDbXrecord
 90
        1
  0
XRECORD
  5
184A
102
{ACAD_REACTORS
330
1848
102
}
330
1848
100
AcDbXrecord
 90
       70
  0
XRECORD
  5
1862
102
{ACAD_REACTORS
330
1848
102
}
330
1848
100
AcDbXrecord
340
0
  0
XRECORD
  5
1868
102
{ACAD_REACTORS
330
1848
102
}
330
1848
100
AcDbXrecord
 10
0.0
 20
0.0
 30
0.0
  0
XRECORD
  5
1864
102
{ACAD_REACTORS
330
1848
102
}
330
1848
100
AcDbXrecord
 10
0.0
 20
0.0
 30
0.0
  0
XRECORD
  5
1867
102
{ACAD_REACTORS
330
1848
102
}
330
1848
100
AcDbXrecord
 10
0.0
 20
0.0
 30
0.0
  0
XRECORD
  5
1865
102
{ACAD_REACTORS
330
1848
102
}
330
1848
100
AcDbXrecord
 10
0.0
 20
0.0
 30
0.0
  0
XRECORD
  5
1866
102
{ACAD_REACTORS
330
1848
102
}
330
1848
100
AcDbXrecord
 10
0.0
 20
0.0
 30
0.0
  0
XRECORD
  5
1863
102
{ACAD_REACTORS
330
1848
102
}
330
1848
100
AcDbXrecord
 10
0.0
 20
0.0
 30
0.0
  0
XRECORD
  5
1860
102
{ACAD_REACTORS
330
1848
102
}
330
1848
100
AcDbXrecord
340
0
  0
XRECORD
  5
1861
102
{ACAD_REACTORS
330
1848
102
}
330
1848
100
AcDbXrecord
 70
     0
  0
XRECORD
  5
1854
102
{ACAD_REACTORS
330
1848
102
}
330
1848
100
AcDbXrecord
  1
{B28C1C39-1998-4749-B2AC-4C5EADBF63C7}
  0
XRECORD
  5
560
102
{ACAD_REACTORS
330
540
102
}
330
540
100
AcDbXrecord
  1
2.0.0
  0
ENDSEC
  0
EOF
