  0
SECTION
  2
HEADER
  9
$ACADVER
  1
AC1014
  9
$ACADMAINTVER
 70
     9
  9
$DWGCODEPAGE
  3
ANSI_932
  9
$INSBASE
 10
0.0
 20
0.0
 30
0.0
  9
$EXTMIN
 10
-1.51729168
 20
-31.58035255
 30
-0.00152582
  9
$EXTMAX
 10
89.29756607
 20
75.00847065
 30
0.00000003
  9
$LIMMIN
 10
0.0
 20
0.0
  9
$LIMMAX
 10
420.0
 20
297.0
  9
$ORTHOMODE
 70
     1
  9
$REGENMODE
 70
     1
  9
$FILLMODE
 70
     1
  9
$QTEXTMODE
 70
     0
  9
$MIRRTEXT
 70
     1
  9
$DRAGMODE
 70
     2
  9
$LTSCALE
 40
10.0
  9
$OSMODE
 70
   549
  9
$ATTMODE
 70
     1
  9
$TEXTSIZE
 40
3.0
  9
$TRACEWID
 40
1.0
  9
$TEXTSTYLE
  7
YOKO
  9
$CLAYER
  8
245
  9
$CELTYPE
  6
BYLAYER
  9
$CECOLOR
 62
   256
  9
$CELTSCALE
 40
1.0
  9
$DELOBJ
 70
     1
  9
$DISPSILH
 70
     0
  9
$DIMSCALE
 40
1.0
  9
$DIMASZ
 40
2.0
  9
$DIMEXO
 40
2.0
  9
$DIMDLI
 40
2.5
  9
$DIMRND
 40
0.0
  9
$DIMDLE
 40
0.0
  9
$DIMEXE
 40
2.0
  9
$DIMTP
 40
0.0
  9
$DIMTM
 40
0.0
  9
$DIMTXT
 40
4.0
  9
$DIMCEN
 40
0.0
  9
$DIMTSZ
 40
0.0
  9
$DIMTOL
 70
     0
  9
$DIMLIM
 70
     0
  9
$DIMTIH
 70
     0
  9
$DIMTOH
 70
     0
  9
$DIMSE1
 70
     0
  9
$DIMSE2
 70
     0
  9
$DIMTAD
 70
     3
  9
$DIMZIN
 70
     8
  9
$DIMBLK
  1

  9
$DIMASO
 70
     1
  9
$DIMSHO
 70
     1
  9
$DIMPOST
  1

  9
$DIMAPOST
  1

  9
$DIMALT
 70
     0
  9
$DIMALTD
 70
     2
  9
$DIMALTF
 40
25.4
  9
$DIMLFAC
 40
1.0
  9
$DIMTOFL
 70
     1
  9
$DIMTVP
 40
0.0
  9
$DIMTIX
 70
     1
  9
$DIMSOXD
 70
     0
  9
$DIMSAH
 70
     1
  9
$DIMBLK1
  1
OPEN
  9
$DIMBLK2
  1
OPEN
  9
$DIMSTYLE
  2
BIGT
  9
$DIMCLRD
 70
   256
  9
$DIMCLRE
 70
   256
  9
$DIMCLRT
 70
    40
  9
$DIMTFAC
 40
1.0
  9
$DIMGAP
 40
1.0
  9
$DIMJUST
 70
     0
  9
$DIMSD1
 70
     0
  9
$DIMSD2
 70
     0
  9
$DIMTOLJ
 70
     1
  9
$DIMTZIN
 70
     8
  9
$DIMALTZ
 70
     0
  9
$DIMALTTZ
 70
     0
  9
$DIMFIT
 70
     3
  9
$DIMUPT
 70
     0
  9
$DIMUNIT
 70
     2
  9
$DIMDEC
 70
     3
  9
$DIMTDEC
 70
     3
  9
$DIMALTU
 70
     2
  9
$DIMALTTD
 70
     2
  9
$DIMTXSTY
  7
STANDARD
  9
$DIMAUNIT
 70
     0
  9
$LUNITS
 70
     2
  9
$LUPREC
 70
     3
  9
$SKETCHINC
 40
1.0
  9
$FILLETRAD
 40
0.0
  9
$AUNITS
 70
     0
  9
$AUPREC
 70
     3
  9
$MENU
  1
.
  9
$ELEVATION
 40
0.0
  9
$PELEVATION
 40
0.0
  9
$THICKNESS
 40
0.0
  9
$LIMCHECK
 70
     0
  9
$BLIPMODE
 70
     0
  9
$CHAMFERA
 40
10.0
  9
$CHAMFERB
 40
10.0
  9
$CHAMFERC
 40
0.0
  9
$CHAMFERD
 40
0.0
  9
$SKPOLY
 70
     0
  9
$TDCREATE
 40
2455100.374535590
  9
$TDUPDATE
 40
2455387.473320486
  9
$TDINDWG
 40
0.0049245949
  9
$TDUSRTIMER
 40
0.0049240394
  9
$USRTIMER
 70
     1
  9
$ANGBASE
 50
0.0
  9
$ANGDIR
 70
     0
  9
$PDMODE
 70
     1
  9
$PDSIZE
 40
-5.0
  9
$PLINEWID
 40
0.0
  9
$COORDS
 70
     1
  9
$SPLFRAME
 70
     0
  9
$SPLINETYPE
 70
     6
  9
$SPLINESEGS
 70
     8
  9
$ATTDIA
 70
     0
  9
$ATTREQ
 70
     1
  9
$HANDLING
 70
-16383
  9
$HANDSEED
  5
FE2
  9
$SURFTAB1
 70
     6
  9
$SURFTAB2
 70
     6
  9
$SURFTYPE
 70
     6
  9
$SURFU
 70
     6
  9
$SURFV
 70
     6
  9
$UCSNAME
  2

  9
$UCSORG
 10
0.0
 20
0.0
 30
0.0
  9
$UCSXDIR
 10
1.0
 20
0.0
 30
0.0
  9
$UCSYDIR
 10
0.0
 20
1.0
 30
0.0
  9
$PUCSNAME
  2

  9
$PUCSORG
 10
0.0
 20
0.0
 30
0.0
  9
$PUCSXDIR
 10
1.0
 20
0.0
 30
0.0
  9
$PUCSYDIR
 10
0.0
 20
1.0
 30
0.0
  9
$USERI1
 70
     1
  9
$USERI2
 70
     0
  9
$USERI3
 70
     0
  9
$USERI4
 70
     0
  9
$USERI5
 70
     0
  9
$USERR1
 40
0.0
  9
$USERR2
 40
0.0
  9
$USERR3
 40
0.0
  9
$USERR4
 40
0.0
  9
$USERR5
 40
0.0
  9
$WORLDVIEW
 70
     1
  9
$SHADEDGE
 70
     3
  9
$SHADEDIF
 70
    70
  9
$TILEMODE
 70
     1
  9
$MAXACTVP
 70
    16
  9
$PINSBASE
 10
0.0
 20
0.0
 30
0.0
  9
$PLIMCHECK
 70
     0
  9
$PEXTMIN
 10
1.00000000E+20
 20
1.00000000E+20
 30
1.00000000E+20
  9
$PEXTMAX
 10
-1.00000000E+20
 20
-1.00000000E+20
 30
-1.00000000E+20
  9
$PLIMMIN
 10
0.0
 20
0.0
  9
$PLIMMAX
 10
420.0
 20
297.0
  9
$UNITMODE
 70
     0
  9
$VISRETAIN
 70
     0
  9
$PLINEGEN
 70
     0
  9
$PSLTSCALE
 70
     1
  9
$TREEDEPTH
 70
  3020
  9
$PICKSTYLE
 70
     0
  9
$CMLSTYLE
  2
STANDARD
  9
$CMLJUST
 70
     0
  9
$CMLSCALE
 40
1.0
  9
$PROXYGRAPHICS
 70
     1
  9
$MEASUREMENT
 70
     1
  0
ENDSEC
  0
SECTION
  2
CLASSES
  0
CLASS
  1
XRECORD
  2
AcDbXrecord
  3
AutoCAD 2000
 90
        0
280
     0
281
     0
  0
CLASS
  1
ACDBDICTIONARYWDFLT
  2
AcDbDictionaryWithDefault
  3
AutoCAD 2000
 90
        0
280
     0
281
     0
  0
CLASS
  1
ACDBPLACEHOLDER
  2
AcDbPlaceHolder
  3
AutoCAD 2000
 90
        0
280
     0
281
     0
  0
CLASS
  1
LAYOUT
  2
AcDbLayout
  3
AutoCAD 2000
 90
        0
280
     0
281
     0
  0
CLASS
  1
PLOTSETTINGS
  2
AcDbPlotSettings
  3
AutoCAD 2000
 90
        0
280
     0
281
     0
  0
CLASS
  1
LONG_TRANSACTION
  2
AcDbLongTransaction
  3
AutoCAD 2000
 90
        0
280
     0
281
     0
  0
CLASS
  1
LWPOLYLINE
  2
AcDbPolyline
  3
AutoCAD 2000
 90
        0
280
     0
281
     1
  0
CLASS
  1
HATCH
  2
AcDbHatch
  3
AutoCAD 2000
 90
        0
280
     0
281
     1
  0
CLASS
  1
XRECORD
  2
AcDbXrecord
  3
AutoCAD 2000
 90
        0
280
     0
281
     0
  0
CLASS
  1
LONG_TRANSACTION
  2
AcDbLongTransaction
  3
AutoCAD 2000
 90
        0
280
     0
281
     0
  0
CLASS
  1
LWPOLYLINE
  2
AcDbPolyline
  3
AutoCAD 2000
 90
        0
280
     0
281
     1
  0
CLASS
  1
HATCH
  2
AcDbHatch
  3
AutoCAD 2000
 90
        0
280
     0
281
     1
  0
CLASS
  1
XRECORD
  2
AcDbXrecord
  3
AutoCAD 2000
 90
        0
280
     0
281
     0
  0
CLASS
  1
LONG_TRANSACTION
  2
AcDbLongTransaction
  3
AutoCAD 2000
 90
        0
280
     0
281
     0
  0
CLASS
  1
LWPOLYLINE
  2
AcDbPolyline
  3
AutoCAD 2000
 90
        0
280
     0
281
     1
  0
CLASS
  1
HATCH
  2
AcDbHatch
  3
AutoCAD 2000
 90
        0
280
     0
281
     1
  0
CLASS
  1
XRECORD
  2
AcDbXrecord
  3
AutoCAD 2000
 90
        0
280
     0
281
     0
  0
CLASS
  1
LONG_TRANSACTION
  2
AcDbLongTransaction
  3
AutoCAD 2000
 90
        0
280
     0
281
     0
  0
CLASS
  1
LWPOLYLINE
  2
AcDbPolyline
  3
AutoCAD 2000
 90
        0
280
     0
281
     1
  0
CLASS
  1
HATCH
  2
AcDbHatch
  3
AutoCAD 2000
 90
        0
280
     0
281
     1
  0
CLASS
  1
XRECORD
  2
AcDbXrecord
  3
AutoCAD 2000
 90
        0
280
     0
281
     0
  0
CLASS
  1
LONG_TRANSACTION
  2
AcDbLongTransaction
  3
AutoCAD 2000
 90
        0
280
     0
281
     0
  0
CLASS
  1
LWPOLYLINE
  2
AcDbPolyline
  3
AutoCAD 2000
 90
        0
280
     0
281
     1
  0
CLASS
  1
HATCH
  2
AcDbHatch
  3
AutoCAD 2000
 90
        0
280
     0
281
     1
  0
CLASS
  1
XRECORD
  2
AcDbXrecord
  3
AutoCAD 2000
 90
        0
280
     0
281
     0
  0
ENDSEC
  0
SECTION
  2
TABLES
  0
TABLE
  2
VPORT
  5
8
330
0
100
AcDbSymbolTable
 70
     2
  0
VPORT
  5
FBD
330
8
100
AcDbSymbolTableRecord
100
AcDbViewportTableRecord
  2
*ACTIVE
 70
     0
 10
0.0
 20
0.0
 11
1.0
 21
1.0
 12
43.89013719
 22
21.71405905
 13
0.0
 23
0.0
 14
7.0
 24
7.0
 15
7.0
 25
7.0
 16
0.0
 26
0.0
 36
1.0
 17
0.0
 27
0.0
 37
0.0
 40
107.41616205
 41
1.45595855
 42
50.0
 43
0.0
 44
0.0
 50
0.0
 51
0.0
 71
     0
 72
  2000
 73
     1
 74
     0
 75
     0
 76
     0
 77
     0
 78
     0
  0
ENDTAB
  0
TABLE
  2
LTYPE
  5
5
330
0
100
AcDbSymbolTable
 70
     3
  0
LTYPE
  5
14
330
5
100
AcDbSymbolTableRecord
100
AcDbLinetypeTableRecord
  2
BYBLOCK
 70
     0
  3

 72
    65
 73
     0
 40
0.0
  0
LTYPE
  5
15
330
5
100
AcDbSymbolTableRecord
100
AcDbLinetypeTableRecord
  2
BYLAYER
 70
     0
  3

 72
    65
 73
     0
 40
0.0
  0
LTYPE
  5
16
330
5
100
AcDbSymbolTableRecord
100
AcDbLinetypeTableRecord
  2
CONTINUOUS
 70
     0
  3
Solid line
 72
    65
 73
     0
 40
0.0
  0
LTYPE
  5
258
330
5
100
AcDbSymbolTableRecord
100
AcDbLinetypeTableRecord
  2
CENTER2
 70
     0
  3
___ _ ___ _ ___ _ ___ _ ___ _ ___ _ ___ _ ___ _
 72
    65
 73
     4
 40
1.125
 49
0.75
 74
     0
 49
-0.125
 74
     0
 49
0.125
 74
     0
 49
-0.125
 74
     0
  0
LTYPE
  5
25C
330
5
100
AcDbSymbolTableRecord
100
AcDbLinetypeTableRecord
  2
HIDDEN2
 70
     0
  3
_ _ _ _ _ _ _ _ _ _ _ _ _ _ _ _ _ _ _ _ _ _ _ _
 72
    65
 73
     2
 40
0.1875
 49
0.125
 74
     0
 49
-0.0625
 74
     0
  0
ENDTAB
  0
TABLE
  2
LAYER
  5
2
330
0
100
AcDbSymbolTable
 70
    10
  0
LAYER
  5
F
330
2
100
AcDbSymbolTableRecord
100
AcDbLayerTableRecord
  2
0
 70
     0
 62
     7
  6
CONTINUOUS
  0
LAYER
  5
1AA
330
2
100
AcDbSymbolTableRecord
100
AcDbLayerTableRecord
  2
240
 70
     0
 62
     4
  6
CONTINUOUS
  0
LAYER
  5
1AB
330
2
100
AcDbSymbolTableRecord
100
AcDbLayerTableRecord
  2
241
 70
     0
 62
   211
  6
CONTINUOUS
  0
LAYER
  5
1AD
330
2
100
AcDbSymbolTableRecord
100
AcDbLayerTableRecord
  2
243
 70
     0
 62
   211
  6
HIDDEN2
  0
LAYER
  5
1AF
330
2
100
AcDbSymbolTableRecord
100
AcDbLayerTableRecord
  2
245
 70
     0
 62
     2
  6
CENTER2
  0
LAYER
  5
21B
330
2
100
AcDbSymbolTableRecord
100
AcDbLayerTableRecord
  2
247
 70
     0
 62
    60
  6
CONTINUOUS
  0
LAYER
  5
21E
330
2
100
AcDbSymbolTableRecord
100
AcDbLayerTableRecord
  2
250
 70
     0
 62
     3
  6
CONTINUOUS
  0
LAYER
  5
21F
330
2
100
AcDbSymbolTableRecord
100
AcDbLayerTableRecord
  2
251
 70
     0
 62
    40
  6
CONTINUOUS
  0
LAYER
  5
5C4
330
2
100
AcDbSymbolTableRecord
100
AcDbLayerTableRecord
  2
DEFPOINTS
 70
     0
 62
     7
  6
CONTINUOUS
  0
ENDTAB
  0
TABLE
  2
STYLE
  5
3
330
0
100
AcDbSymbolTable
 70
     2
  0
STYLE
  5
10
330
3
100
AcDbSymbolTableRecord
100
AcDbTextStyleTableRecord
  2
STANDARD
 70
     0
 40
0.0
 41
1.0
 50
0.0
 71
     0
 42
3.0
  3
romans.shx
  4
BIGFONT.SHX
  0
STYLE
  5
339
330
3
100
AcDbSymbolTableRecord
100
AcDbTextStyleTableRecord
  2
YOKO
 70
     0
 40
0.0
 41
1.0
 50
0.0
 71
     0
 42
3.0
  3
romans.shx
  4
extfont.shx
  0
ENDTAB
  0
TABLE
  2
VIEW
  5
6
330
0
100
AcDbSymbolTable
 70
     0
  0
ENDTAB
  0
TABLE
  2
UCS
  5
7
330
0
100
AcDbSymbolTable
 70
     0
  0
ENDTAB
  0
TABLE
  2
APPID
  5
9
330
0
100
AcDbSymbolTable
 70
    12
  0
APPID
  5
11
330
9
100
AcDbSymbolTableRecord
100
AcDbRegAppTableRecord
  2
ACAD
 70
     0
  0
APPID
  5
1B1
330
9
100
AcDbSymbolTableRecord
100
AcDbRegAppTableRecord
  2
GLOBAL
 70
     0
  0
APPID
  5
2A4
330
9
100
AcDbSymbolTableRecord
100
AcDbRegAppTableRecord
  2
DETAIL
 70
     0
  0
APPID
  5
5FD
330
9
100
AcDbSymbolTableRecord
100
AcDbRegAppTableRecord
  2
GRPNAME
 70
     0
  0
APPID
  5
5FE
330
9
100
AcDbSymbolTableRecord
100
AcDbRegAppTableRecord
  2
GPARA
 70
     0
  0
APPID
  5
6C4
330
9
100
AcDbSymbolTableRecord
100
AcDbRegAppTableRecord
  2
DCO15
 70
     0
  0
APPID
  5
6C5
330
9
100
AcDbSymbolTableRecord
100
AcDbRegAppTableRecord
  2
ITEMNAME
 70
     0
  0
APPID
  5
6C6
330
9
100
AcDbSymbolTableRecord
100
AcDbRegAppTableRecord
  2
GRADE_0
 70
     0
  0
APPID
  5
816
330
9
100
AcDbSymbolTableRecord
100
AcDbRegAppTableRecord
  2
HATCH_TYPE
 70
     0
  0
APPID
  5
817
330
9
100
AcDbSymbolTableRecord
100
AcDbRegAppTableRecord
  2
HATCH_DISPLAY
 70
     0
  0
APPID
  5
818
330
9
100
AcDbSymbolTableRecord
100
AcDbRegAppTableRecord
  2
HATCH_DISTANCE
 70
     0
  0
APPID
  5
A16
330
9
100
AcDbSymbolTableRecord
100
AcDbRegAppTableRecord
  2
CONTENTBLOCKICON
 70
     0
  0
ENDTAB
  0
TABLE
  2
DIMSTYLE
  5
A
330
0
100
AcDbSymbolTable
 70
     1
  0
DIMSTYLE
105
725
102
{ACAD_REACTORS
330
823
330
824
102
}
330
A
100
AcDbSymbolTableRecord
100
AcDbDimStyleTableRecord
  2
BIGT
 70
     0
  3

  4

  5

  6
OPEN
  7
OPEN
 40
1.0
 41
2.23
 42
0.5
 43
2.5
 44
1.0
 45
0.0
 46
0.0
 47
0.0
 48
0.0
140
2.8
141
0.0
142
0.0
143
25.4
144
1.0
145
0.0
146
1.0
147
1.0
 71
     0
 72
     0
 73
     0
 74
     0
 75
     0
 76
     0
 77
     3
 78
     8
170
     0
171
     2
172
     1
173
     1
174
     1
175
     0
176
   256
177
   256
178
    40
270
     2
271
     3
272
     3
273
     2
274
     2
340
10
275
     0
280
     0
281
     0
282
     0
283
     1
284
     8
285
     0
286
     0
287
     3
288
     0
  0
ENDTAB
  0
TABLE
  2
BLOCK_RECORD
  5
1
330
0
100
AcDbSymbolTable
 70
     6
  0
BLOCK_RECORD
  5
1A
102
{ACAD_XDICTIONARY
360
A14
102
}
330
1
100
AcDbSymbolTableRecord
100
AcDbBlockTableRecord
  2
*MODEL_SPACE
  0
BLOCK_RECORD
  5
17
102
{ACAD_XDICTIONARY
360
A12
102
}
330
1
100
AcDbSymbolTableRecord
100
AcDbBlockTableRecord
  2
*PAPER_SPACE
  0
BLOCK_RECORD
  5
594
330
1
100
AcDbSymbolTableRecord
100
AcDbBlockTableRecord
  2
_OPEN
  0
BLOCK_RECORD
  5
6E3
330
1
100
AcDbSymbolTableRecord
100
AcDbBlockTableRecord
  2
矢印なし
  0
BLOCK_RECORD
  5
825
330
1
100
AcDbSymbolTableRecord
100
AcDbBlockTableRecord
  2
*D2
  0
BLOCK_RECORD
  5
831
330
1
100
AcDbSymbolTableRecord
100
AcDbBlockTableRecord
  2
*D3
  0
BLOCK_RECORD
  5
8F0
330
1
100
AcDbSymbolTableRecord
100
AcDbBlockTableRecord
  2
_DOT
  0
BLOCK_RECORD
  5
937
330
1
100
AcDbSymbolTableRecord
100
AcDbBlockTableRecord
  2
1
1001
CONTENTBLOCKICON
1071
        0
1004
2800000020000000200000000100080000000000000400000000000000000000000000000000000000000000000080000080000000808000800000008000800080800000C0C0C000C0DCC000F0CAA6000020400000206000002080000020A0000020C0000020E00000400000004020000040400000406000004080000040A0
1004
000040C0000040E00000600000006020000060400000606000006080000060A0000060C0000060E00000800000008020000080400000806000008080000080A0000080C0000080E00000A0000000A0200000A0400000A0600000A0800000A0A00000A0C00000A0E00000C0000000C0200000C0400000C0600000C0800000C0
1004
A00000C0C00000C0E00000E0000000E0200000E0400000E0600000E0800000E0A00000E0C00000E0E00040000000400020004000400040006000400080004000A0004000C0004000E00040200000402020004020400040206000402080004020A0004020C0004020E000404000004040200040404000404060004040800040
1004
40A0004040C0004040E00040600000406020004060400040606000406080004060A0004060C0004060E00040800000408020004080400040806000408080004080A0004080C0004080E00040A0000040A0200040A0400040A0600040A0800040A0A00040A0C00040A0E00040C0000040C0200040C0400040C0600040C08000
1004
40C0A00040C0C00040C0E00040E0000040E0200040E0400040E0600040E0800040E0A00040E0C00040E0E00080000000800020008000400080006000800080008000A0008000C0008000E00080200000802020008020400080206000802080008020A0008020C0008020E00080400000804020008040400080406000804080
1004
008040A0008040C0008040E00080600000806020008060400080606000806080008060A0008060C0008060E00080800000808020008080400080806000808080008080A0008080C0008080E00080A0000080A0200080A0400080A0600080A0800080A0A00080A0C00080A0E00080C0000080C0200080C0400080C0600080C0
1004
800080C0A00080C0C00080C0E00080E0000080E0200080E0400080E0600080E0800080E0A00080E0C00080E0E000C0000000C0002000C0004000C0006000C0008000C000A000C000C000C000E000C0200000C0202000C0204000C0206000C0208000C020A000C020C000C020E000C0400000C0402000C0404000C0406000C0
1004
408000C040A000C040C000C040E000C0600000C0602000C0604000C0606000C0608000C060A000C060C000C060E000C0800000C0802000C0804000C0806000C0808000C080A000C080C000C080E000C0A00000C0A02000C0A04000C0A06000C0A08000C0A0A000C0A0C000C0A0E000C0C00000C0C02000C0C04000C0C06000
1004
C0C08000C0C0A000F0FBFF00A4A0A000808080000000FF0000FF000000FFFF00FF000000FF00FF00FFFF0000FFFFFF000000000000000000000000000000000000000000000000000000000000000000000000000000000000FEFEFEFE00000000000000000000000000000000000000000000000000000000FE00E7FE0000
1004
0000000000000000000000000000000000000000000000000000FE00E700FE000000000000000000000000000000000000000000000000000000FE00E70000FEFE00000000000000000000000000000000000000000000000000FE003E3E3E0000FE000000000000000000000000000000000000000000000000FE003E3E3E
1004
0000FE000000000000000000000000000000000000000000000000FE003E3E3E0000FE000000000000000000000000000000000000000000000000FE003E3E3E3E00FE000000000000000000000000000000000000000000000000FE00E7003E0000FE000000000000000000000000000000000000000000000000FE00E700
1004
3E000000FE0000000000000000000000000000000000000000000000FE00E7003E000000FE0000000000000000000000000000000000000000000000E7E7E7003E000000FE0000000000000000000000000000000000000000000000FEFBE7FB3EFBFBFBFE0000000000000000000000000000000000000000000000E7E7E7
1004
003E000000FE0000000000000000000000000000000000000000000000FE00E7003E000000FE0000000000000000000000000000000000000000000000FE00E70000000000FE0000000000000000000000000000000000000000000000FE00E70000000000E7FE00000000000000000000000000000000000000000000FE00
1004
E7000000E7E700FE00000000000000000000000000000000000000000000FE00E700E7E700E7E7FE00000000000000000000000000000000000000000000FE00E7E700E7E7000000FE000000000000000000000000000000000000000000FE00E7E7E7E7E7000000FE000000000000000000000000000000000000000000FE
1004
00E7E700E7E7E70000FE000000000000000000000000000000000000000000FE00E7E70000E7E7E700FE000000000000000000000000000000000000000000E7E7E7000000E7E700E7FE000000000000000000000000000000000000000000FEFEE7FE000000E700E7E7FE0000000000000000000000000000000000000000
1004
00000000FEFE0000E7E7E700FE00000000000000000000000000000000000000000000000000FEFEFEE7E700FE00000000000000000000000000000000000000000000000000000000FEFE0000FE0000000000000000000000000000000000000000000000000000000000FEFEFE0000000000000000000000000000000000
1004
0000000000000000000000000000FE0000000000000000000000000000000000000000000000000000000000000000000000000000000000
  0
ENDTAB
  0
ENDSEC
  0
SECTION
  2
BLOCKS
  0
BLOCK
  5
1B
330
1A
100
AcDbEntity
  8
0
100
AcDbBlockBegin
  2
*MODEL_SPACE
 70
     0
 10
0.0
 20
0.0
 30
0.0
  3
*MODEL_SPACE
  1

  0
ENDBLK
  5
1C
330
1A
100
AcDbEntity
  8
0
100
AcDbBlockEnd
  0
BLOCK
  5
18
330
17
100
AcDbEntity
 67
     1
  8
0
100
AcDbBlockBegin
  2
*PAPER_SPACE
 70
     0
 10
0.0
 20
0.0
 30
0.0
  3
*PAPER_SPACE
  1

  0
ENDBLK
  5
19
330
17
100
AcDbEntity
 67
     1
  8
0
100
AcDbBlockEnd
  0
BLOCK
  5
598
330
594
100
AcDbEntity
  8
0
100
AcDbBlockBegin
  2
_OPEN
 70
     0
 10
0.0
 20
0.0
 30
0.0
  3
_OPEN
  1

  0
LINE
  5
595
330
594
100
AcDbEntity
  8
0
  6
BYBLOCK
 62
     0
100
AcDbLine
 10
-1.0
 20
0.16666667
 30
0.0
 11
0.0
 21
0.0
 31
0.0
  0
LINE
  5
596
330
594
100
AcDbEntity
  8
0
  6
BYBLOCK
 62
     0
100
AcDbLine
 10
-1.0
 20
-0.16666667
 30
0.0
 11
0.0
 21
0.0
 31
0.0
  0
LINE
  5
597
330
594
100
AcDbEntity
  8
0
  6
BYBLOCK
 62
     0
100
AcDbLine
 10
0.0
 20
0.0
 30
0.0
 11
-1.0
 21
0.0
 31
0.0
  0
ENDBLK
  5
599
330
594
100
AcDbEntity
  8
0
100
AcDbBlockEnd
  0
BLOCK
  5
6E4
330
6E3
100
AcDbEntity
  8
0
100
AcDbBlockBegin
  2
矢印なし
 70
     0
 10
0.0
 20
0.0
 30
0.0
  3
矢印なし
  1

  0
ENDBLK
  5
6E5
330
6E3
100
AcDbEntity
  8
0
100
AcDbBlockEnd
  0
BLOCK
  5
82F
330
825
100
AcDbEntity
  8
0
100
AcDbBlockBegin
  2
*D2
 70
     1
 10
0.0
 20
0.0
 30
0.0
  3
*D2
  1

  0
LINE
  5
92E
330
825
100
AcDbEntity
  8
250
  6
CONTINUOUS
100
AcDbLine
 10
34.69583773
 20
44.99974162
 30
0.0
 11
49.99958601
 21
44.99974162
 31
0.0
  0
LINE
  5
92F
330
825
100
AcDbEntity
  8
250
  6
CONTINUOUS
100
AcDbLine
 10
21.83508327
 20
0.0
 30
0.0
 11
49.99958601
 21
0.0
 31
0.0
  0
LINE
  5
930
330
825
100
AcDbEntity
  8
250
  6
CONTINUOUS
100
AcDbLine
 10
48.99958601
 20
42.76974162
 30
0.0
 11
48.99958601
 21
2.23
 31
0.0
  0
INSERT
  5
931
330
825
100
AcDbEntity
  8
250
  6
CONTINUOUS
100
AcDbBlockReference
  2
_OPEN
 10
48.99958601
 20
44.99974162
 30
0.0
 41
2.23
 42
2.23
 43
2.23
 50
90.0
  0
INSERT
  5
932
330
825
100
AcDbEntity
  8
250
  6
CONTINUOUS
100
AcDbBlockReference
  2
_OPEN
 10
48.99958601
 20
0.0
 30
0.0
 41
2.23
 42
2.23
 43
2.23
 50
270.0
  0
MTEXT
  5
933
330
825
100
AcDbEntity
  8
250
  6
CONTINUOUS
 62
    40
100
AcDbMText
 10
46.49958601
 20
22.49987081
 30
0.0
 40
3.0
 41
0.0
 71
     5
 72
     1
  1
\A1;45
 11
0.0
 21
1.0
 31
0.0
1001
ACAD
1000
MTEXTBEGIN
1070
    73
1070
     1
1070
    44
1040
1.0
1070
    74
1070
     0
1000
MTEXTEND
1000
MTEXTBEGIN
1070
    73
1070
     1
1070
    44
1040
1.0
1070
    74
1070
     0
1000
MTEXTEND
1000
MTEXTBEGIN
1070
    73
1070
     1
1070
    44
1040
1.0
1070
    74
1070
     0
1000
MTEXTEND
1000
MTEXTBEGIN
1070
    73
1070
     1
1070
    44
1040
1.0
1070
    74
1070
     0
1000
MTEXTEND
1000
MTEXTBEGIN
1070
    73
1070
     1
1070
    44
1040
1.0
1070
    74
1070
     0
1000
MTEXTEND
  0
POINT
  5
934
330
825
100
AcDbEntity
  8
DEFPOINTS
  6
CONTINUOUS
 62
     0
100
AcDbPoint
 10
34.19583773
 20
44.99974162
 30
0.0
  0
POINT
  5
935
330
825
100
AcDbEntity
  8
DEFPOINTS
  6
CONTINUOUS
 62
     0
100
AcDbPoint
 10
21.33508327
 20
0.0
 30
0.0
  0
POINT
  5
936
330
825
100
AcDbEntity
  8
DEFPOINTS
  6
CONTINUOUS
 62
     0
100
AcDbPoint
 10
48.99958601
 20
0.0
 30
0.0
  0
ENDBLK
  5
830
330
825
100
AcDbEntity
  8
0
100
AcDbBlockEnd
  0
BLOCK
  5
83B
330
831
100
AcDbEntity
  8
0
100
AcDbBlockBegin
  2
*D3
 70
     1
 10
0.0
 20
0.0
 30
0.0
  3
*D3
  1

  0
LINE
  5
DFB
330
831
100
AcDbEntity
  8
250
  6
CONTINUOUS
100
AcDbLine
 10
0.0
 20
32.0
 30
0.0
 11
0.0
 21
57.0
 31
0.0
  0
LINE
  5
DFC
330
831
100
AcDbEntity
  8
250
  6
CONTINUOUS
100
AcDbLine
 10
34.99958601
 20
44.69042001
 30
0.0
 11
34.99958601
 21
57.0
 31
0.0
  0
LINE
  5
DFD
330
831
100
AcDbEntity
  8
250
  6
CONTINUOUS
100
AcDbLine
 10
2.23
 20
56.0
 30
0.0
 11
32.76958601
 21
56.0
 31
0.0
  0
INSERT
  5
DFE
330
831
100
AcDbEntity
  8
250
  6
CONTINUOUS
100
AcDbBlockReference
  2
_OPEN
 10
0.0
 20
56.0
 30
0.0
 41
2.23
 42
2.23
 43
2.23
 50
180.0
  0
INSERT
  5
DFF
330
831
100
AcDbEntity
  8
250
  6
CONTINUOUS
100
AcDbBlockReference
  2
_OPEN
 10
34.99958601
 20
56.0
 30
0.0
 41
2.23
 42
2.23
 43
2.23
  0
MTEXT
  5
E00
330
831
100
AcDbEntity
  8
250
  6
CONTINUOUS
 62
    40
100
AcDbMText
 10
17.49979301
 20
58.5
 30
0.0
 40
3.0
 41
0.0
 71
     5
 72
     1
  1
\A1;35
1001
ACAD
1000
MTEXTBEGIN
1070
    73
1070
     1
1070
    44
1040
1.0
1070
    74
1070
     0
1000
MTEXTEND
1000
MTEXTBEGIN
1070
    73
1070
     1
1070
    44
1040
1.0
1070
    74
1070
     0
1000
MTEXTEND
  0
POINT
  5
E01
330
831
100
AcDbEntity
  8
DEFPOINTS
  6
CONTINUOUS
 62
     0
100
AcDbPoint
 10
0.0
 20
31.5
 30
0.0
  0
POINT
  5
E02
330
831
100
AcDbEntity
  8
DEFPOINTS
  6
CONTINUOUS
 62
     0
100
AcDbPoint
 10
34.99958601
 20
44.19042001
 30
0.0
  0
POINT
  5
E03
330
831
100
AcDbEntity
  8
DEFPOINTS
  6
CONTINUOUS
 62
     0
100
AcDbPoint
 10
34.99958601
 20
56.0
 30
0.0
  0
ENDBLK
  5
83C
330
831
100
AcDbEntity
  8
0
100
AcDbBlockEnd
  0
BLOCK
  5
902
330
8F0
100
AcDbEntity
  8
0
100
AcDbBlockBegin
  2
_DOT
 70
     0
 10
0.0
 20
0.0
 30
0.0
  3
_DOT
  1

  0
LINE
  5
903
330
8F0
100
AcDbEntity
  8
0
 62
     0
100
AcDbLine
 10
-1.0
 20
0.0
 30
0.0
 11
0.0
 21
0.0
 31
0.0
  0
LWPOLYLINE
  5
904
330
8F0
100
AcDbEntity
  8
0
 62
     0
100
AcDbPolyline
 90
        3
 70
     0
 43
0.5
 10
0.125
 20
0.0
 42
1.0
 10
-0.125
 20
0.0
 42
1.0
 10
0.125
 20
0.0
 42
1.0
  0
ENDBLK
  5
909
330
8F0
100
AcDbEntity
  8
0
100
AcDbBlockEnd
  0
BLOCK
  5
938
330
937
100
AcDbEntity
  8
0
100
AcDbBlockBegin
  2
1
 70
     0
 10
0.0
 20
0.0
 30
0.0
  3
1
  1

  0
ARC
  5
F4B
330
937
100
AcDbEntity
  8
241
100
AcDbCircle
 10
24.87265135
 20
34.87265135
 30
0.0
 40
20.0
100
AcDbArc
 50
188.57807464
 51
269.9547341
  0
LINE
  5
F4C
330
937
100
AcDbEntity
  8
243
100
AcDbLine
 10
3.7
 20
0.0
 30
0.0
 11
3.7
 21
31.5
 31
0.0
  0
ARC
  5
F4D
330
937
100
AcDbEntity
  8
241
100
AcDbCircle
 10
16.28892939
 20
28.20260938
 30
0.0
 40
2.0
100
AcDbArc
 50
69.81863984
 51
152.5
  0
LINE
  5
F4E
330
937
100
AcDbEntity
  8
240
100
AcDbLine
 10
26.67618151
 20
21.66249308
 30
0.0
 11
27.82782305
 21
31.04186074
 31
0.0
  0
LINE
  5
F4F
330
937
100
AcDbEntity
  8
241
100
AcDbLine
 10
21.0418587
 20
37.82782233
 30
0.0
 11
14.84080359
 21
25.91570629
 31
0.0
  0
LINE
  5
F50
330
937
100
AcDbEntity
  8
241
100
AcDbLine
 10
15.9157052
 20
24.84080468
 30
0.0
 11
27.82782305
 21
31.04186074
 31
0.0
  0
ARC
  5
F51
330
937
100
AcDbEntity
  8
241
100
AcDbCircle
 10
24.87265135
 20
34.87265135
 30
0.0
 40
23.29089653438086
100
AcDbArc
 50
189.76262378
 51
267.80265836
  0
LINE
  5
F52
330
937
100
AcDbEntity
  8
240
100
AcDbLine
 10
0.0
 20
31.5
 30
0.0
 11
0.0
 21
0.0
 31
0.0
  0
LINE
  5
F53
330
937
100
AcDbEntity
  8
240
100
AcDbLine
 10
7.29289322
 20
-31.20710678
 30
0.0
 11
18.03581296
 21
-20.46418704
 31
0.0
  0
LINE
  5
F54
330
937
100
AcDbEntity
  8
245
  6
CENTER2
 62
     2
100
AcDbLine
 10
-1.0
 20
0.0
 30
0.0
 11
21.33508327
 21
0.0
 31
0.0
  0
TEXT
  5
F55
330
937
100
AcDbEntity
  8
247
100
AcDbText
 10
11.52019237
 20
-23.30951871
 30
0.0
 40
2.5
  1
F63-SVQBR-45035-16
 50
90.0
 41
0.65
  7
YOKO
 11
11.52019237
 21
-23.30951871
 31
0.0
100
AcDbText
 73
     1
  0
LINE
  5
F56
102
{ACAD_REACTORS
330
F59
102
}
330
937
100
AcDbEntity
  8
247
100
AcDbLine
 10
4.51174204
 20
-21.46257635
 30
0.0
 11
4.51174204
 21
-20.86161322
 31
0.0
  0
LINE
  5
F57
102
{ACAD_REACTORS
330
F59
102
}
330
937
100
AcDbEntity
  8
247
100
AcDbLine
 10
4.8027479
 20
-21.46257635
 30
0.0
 11
4.8027479
 21
-20.94505438
 31
0.0
  0
LINE
  5
F58
330
937
100
AcDbEntity
  8
247
100
AcDbLine
 10
7.13077314
 20
-21.30987738
 30
0.0
 11
4.8027479
 21
-20.64232611
 31
0.0
  0
HATCH
  5
F59
330
937
100
AcDbEntity
  8
247
100
AcDbHatch
 10
0.0
 20
0.0
 30
0.0
210
0.0
220
0.0
230
1.0
  2
ANSI31
 70
     0
 71
     1
 91
        1
 92
       33
 93
       10
 72
     1
 10
4.511742039999999
 20
-20.86161322
 11
4.8027479
 21
-20.94505438
 72
     1
 10
4.511742039999999
 20
-21.46257634999999
 11
4.511742039999999
 21
-20.86161322
 72
     1
 10
4.8027479
 20
-21.46257634999999
 11
4.8027479
 21
-20.94505438
 72
     2
 10
6.039511809999999
 20
-21.46257634999999
 40
1.236763916015622
 50
180.0
 51
360.0
 73
     1
 72
     2
 10
6.039511809999999
 20
-21.46257634999999
 40
1.527769775390624
 50
180.0
 51
360.0
 73
     1
 72
     1
 10
7.56728192
 20
-21.46257634999999
 11
7.56728192
 21
-15.55519475999999
 72
     1
 10
7.276276069999999
 20
-21.46257634999999
 11
7.276276069999999
 21
-15.55519475999999
 72
     2
 10
6.039511809999999
 20
-15.55519475999999
 40
1.527769775390624
 50
0.0
 51
194.77079397
 73
     1
 72
     2
 10
6.039511809999999
 20
-15.55519475999999
 40
1.236763916015622
 50
0.0
 51
194.1274364999999
 73
     1
 72
     1
 10
4.84014536
 20
-15.85706609999999
 11
4.56222421
 21
-15.94470403999999
 97
       10
330
F97
330
F56
330
F57
330
F62
330
F61
330
F5B
330
F5A
330
F64
330
F63
330
F72
 75
     0
 76
     1
 52
90.0
 41
0.072
 77
     0
 78
     1
 53
134.999999999998
 43
18.90727472116106
 44
-109.2463365166332
 45
-0.16164461017925
 46
-0.1616446101792394
 79
     0
 98
        1
 10
18.90727472116106
 20
-109.2463365166332
  0
LINE
  5
F5A
102
{ACAD_REACTORS
330
F59
102
}
330
937
100
AcDbEntity
  8
247
100
AcDbLine
 10
7.27627607
 20
-21.46257635
 30
0.0
 11
7.27627607
 21
-15.55519476
 31
0.0
  0
LINE
  5
F5B
102
{ACAD_REACTORS
330
F59
102
}
330
937
100
AcDbEntity
  8
247
100
AcDbLine
 10
7.56728192
 20
-21.46257635
 30
0.0
 11
7.56728192
 21
-15.55519476
 31
0.0
  0
LINE
  5
F5C
330
937
100
AcDbEntity
  8
247
100
AcDbLine
 10
7.13077314
 20
-21.30987738
 30
0.0
 11
7.13077314
 21
-20.10226019
 31
0.0
  0
LINE
  5
F5D
330
937
100
AcDbEntity
  8
240
100
AcDbLine
 10
0.0
 20
-31.5
 30
0.0
 11
0.0
 21
0.0
 31
0.0
  0
LINE
  5
F5E
330
937
100
AcDbEntity
  8
243
100
AcDbLine
 10
3.7
 20
0.0
 30
0.0
 11
3.7
 21
-31.5
 31
0.0
  0
LINE
  5
F5F
330
937
100
AcDbEntity
  8
240
100
AcDbLine
 10
0.0
 20
-31.5
 30
0.0
 11
6.58578644
 21
-31.5
 31
0.0
  0
ARC
  5
F60
330
937
100
AcDbEntity
  8
240
100
AcDbCircle
 10
6.58578644
 20
-30.5
 30
0.0
 40
1.0
100
AcDbArc
 50
270.0
 51
315.0
  0
ARC
  5
F61
102
{ACAD_REACTORS
330
F59
102
}
330
937
100
AcDbEntity
  8
247
100
AcDbCircle
 10
6.03951181
 20
-21.46257635
 30
0.0
 40
1.527769775390624
100
AcDbArc
 50
180.0
 51
0.0
  0
ARC
  5
F62
102
{ACAD_REACTORS
330
F59
102
}
330
937
100
AcDbEntity
  8
247
100
AcDbCircle
 10
6.03951181
 20
-21.46257635
 30
0.0
 40
1.236763916015622
100
AcDbArc
 50
180.0
 51
0.0
  0
ARC
  5
F63
102
{ACAD_REACTORS
330
F59
102
}
330
937
100
AcDbEntity
  8
247
100
AcDbCircle
 10
6.03951181
 20
-15.55519476
 30
0.0
 40
1.236763916015622
100
AcDbArc
 50
0.0
 51
194.1274365
  0
ARC
  5
F64
102
{ACAD_REACTORS
330
F59
102
}
330
937
100
AcDbEntity
  8
247
100
AcDbCircle
 10
6.03951181
 20
-15.55519476
 30
0.0
 40
1.527769775390624
100
AcDbArc
 50
0.0
 51
194.77079397
  0
LINE
  5
F65
330
937
100
AcDbEntity
  8
247
100
AcDbLine
 10
7.13077314
 20
-21.17357893
 30
0.0
 11
6.30322203
 21
-20.34602782
 31
0.0
  0
HATCH
  5
F66
330
937
100
AcDbEntity
  8
247
100
AcDbHatch
 10
0.0
 20
0.0
 30
0.0
210
0.0
220
0.0
230
1.0
  2
ANSI31
 70
     0
 71
     1
 91
        1
 92
       33
 93
       15
 72
     1
 10
4.8839039
 20
-15.99583441
 11
4.605982759999999
 21
-16.08347235
 72
     2
 10
6.039511809999999
 20
-15.55519475999999
 40
1.236767349243164
 50
200.8721834
 51
222.54194894
 73
     1
 72
     2
 10
5.137402439999999
 20
-16.69682806
 40
0.3055560064315795
 50
91.71012137999998
 51
253.9983983499999
 73
     1
 72
     1
 10
6.420891209999999
 20
-17.38273749
 11
5.053170259999999
 21
-16.99054754999999
 72
     2
 10
6.5051124
 20
-17.089018
 40
0.3055557918548584
 50
254.00027306
 51
434.00027306
 73
     1
 72
     1
 10
6.589333589999999
 20
-16.79529851999999
 11
5.937657559999999
 21
-16.60843207
 72
     1
 10
5.937657559999999
 20
-16.85061467999999
 11
5.937657559999999
 21
-16.60843207
 72
     1
 10
5.937657559999999
 20
-16.85061467999999
 11
5.646651699999999
 21
-16.76717352
 72
     1
 10
5.646651699999999
 20
-16.76717352
 11
5.646651699999999
 21
-15.91952338
 72
     1
 10
7.130773139999999
 20
-16.34508977999999
 11
5.646651699999999
 21
-15.91952338
 72
     1
 10
6.96007856
 20
-16.51579535
 11
7.130773139999999
 21
-16.34508977999999
 72
     2
 10
6.185014739999999
 20
-17.05777289
 40
0.9457690429687499
 50
253.9997506999999
 51
394.96387329
 73
     1
 72
     2
 10
6.23473886
 20
-15.51149115
 40
2.4749560546875
 50
245.2051773699999
 51
262.79482596
 73
     1
 72
     2
 10
5.457500089999999
 20
-16.84916449
 40
0.9457594299316404
 50
143.4440121999999
 51
254.00018439
 73
     1
 72
     2
 10
6.039511809999999
 20
-15.55519475999999
 40
1.527770462036129
 50
200.2296450599999
 51
208.5716889199999
 73
     1
 97
       15
330
F71
330
F6B
330
F70
330
F7F
330
F88
330
F83
330
F6F
330
F6E
330
F6D
330
F81
330
F68
330
F82
330
F7E
330
F80
330
F6C
 75
     0
 76
     1
 52
90.0
 41
0.072
 77
     0
 78
     1
 53
134.999999999998
 43
18.90727472116106
 44
-109.2463365166332
 45
-0.16164461017925
 46
-0.1616446101792394
 79
     0
 98
        1
 10
18.90727472116106
 20
-109.2463365166332
  0
HATCH
  5
F67
330
937
100
AcDbEntity
  8
247
100
AcDbHatch
 10
0.0
 20
0.0
 30
0.0
210
0.0
220
0.0
230
1.0
  2
ANSI31
 70
     0
 71
     1
 91
        1
 92
        7
 72
     0
 73
     1
 93
        6
 10
4.51174204
 20
-17.81916937
 10
4.51174204
 20
-18.57599553999999
 10
4.831839689999999
 20
-18.66778632
 10
4.831839689999999
 20
-18.56182318
 10
7.130773140000001
 20
-19.22103583
 10
7.130773139999999
 20
-18.5701618
 97
        1
330
F84
 75
     0
 76
     1
 52
90.0
 41
0.072
 77
     0
 78
     1
 53
134.999999999998
 43
18.90727472116106
 44
-109.2463365166332
 45
-0.16164461017925
 46
-0.1616446101792394
 79
     0
 47
0.01343485
 98
        1
 10
5.752679595236627
 20
-18.49955660261352
  0
LINE
  5
F68
102
{ACAD_REACTORS
330
F66
102
}
330
937
100
AcDbEntity
  8
247
100
AcDbLine
 10
6.96007856
 20
-16.51579535
 30
0.0
 11
7.13077314
 21
-16.34508978
 31
0.0
  0
LINE
  5
F69
330
937
100
AcDbEntity
  8
247
100
AcDbLine
 10
7.07622829
 20
-19.8258772
 30
0.0
 11
6.67965213
 21
-19.42930104
 31
0.0
  0
LINE
  5
F6A
330
937
100
AcDbEntity
  8
247
100
AcDbLine
 10
7.13077314
 20
-19.22103583
 30
0.0
 11
7.13077314
 21
-18.5701618
 31
0.0
  0
ARC
  5
F6B
102
{ACAD_REACTORS
330
F66
102
}
330
937
100
AcDbEntity
  8
247
100
AcDbCircle
 10
6.03951181
 20
-15.55519476
 30
0.0
 40
1.236767349243164
100
AcDbArc
 50
200.8721834
 51
222.54194894
  0
ARC
  5
F6C
102
{ACAD_REACTORS
330
F66
102
}
330
937
100
AcDbEntity
  8
247
100
AcDbCircle
 10
6.03951181
 20
-15.55519476
 30
0.0
 40
1.527770462036129
100
AcDbArc
 50
200.22964506
 51
208.57168892
  0
LINE
  5
F6D
102
{ACAD_REACTORS
330
F66
102
}
330
937
100
AcDbEntity
  8
247
100
AcDbLine
 10
5.6466517
 20
-16.76717352
 30
0.0
 11
5.6466517
 21
-15.91952338
 31
0.0
  0
LINE
  5
F6E
102
{ACAD_REACTORS
330
F66
102
}
330
937
100
AcDbEntity
  8
247
100
AcDbLine
 10
5.93765756
 20
-16.85061468
 30
0.0
 11
5.6466517
 21
-16.76717352
 31
0.0
  0
LINE
  5
F6F
102
{ACAD_REACTORS
330
F66
102
}
330
937
100
AcDbEntity
  8
247
100
AcDbLine
 10
5.93765756
 20
-16.85061468
 30
0.0
 11
5.93765756
 21
-16.60843207
 31
0.0
  0
ARC
  5
F70
102
{ACAD_REACTORS
330
F66
102
}
330
937
100
AcDbEntity
  8
247
100
AcDbCircle
 10
5.13740244
 20
-16.69682806
 30
0.0
 40
0.3055560064315795
100
AcDbArc
 50
91.71012138
 51
253.99839835
  0
LINE
  5
F71
102
{ACAD_REACTORS
330
F66
102
}
330
937
100
AcDbEntity
  8
247
100
AcDbLine
 10
4.8839039
 20
-15.99583441
 30
0.0
 11
4.60598276
 21
-16.08347235
 31
0.0
  0
LINE
  5
F72
102
{ACAD_REACTORS
330
F59
102
}
330
937
100
AcDbEntity
  8
247
100
AcDbLine
 10
4.84014536
 20
-15.8570661
 30
0.0
 11
4.56222421
 21
-15.94470404
 31
0.0
  0
LWPOLYLINE
  5
F73
330
937
100
AcDbEntity
  8
247
100
AcDbPolyline
 90
        4
 70
     1
 43
0.0
 10
4.84014536
 20
-15.8570661
 10
4.56222421
 20
-15.94470404
 10
4.56222421
 20
-15.94470404
 10
4.84014536
 20
-15.8570661
  0
LWPOLYLINE
  5
F74
330
937
100
AcDbEntity
  8
247
100
AcDbPolyline
 90
        4
 70
     1
 43
0.0
 10
4.84014536
 20
-15.8570661
 10
4.56222421
 20
-15.94470404
 10
4.56222421
 20
-15.94470404
 10
4.84014536
 20
-15.8570661
1001
HATCH_DISTANCE
1040
1.0
1001
HATCH_DISPLAY
1070
     0
1001
HATCH_TYPE
1070
     7
  0
LWPOLYLINE
  5
F75
330
937
100
AcDbEntity
  8
247
100
AcDbPolyline
 90
        4
 70
     1
 43
0.0
 10
4.84014536
 20
-15.8570661
 10
4.56222421
 20
-15.94470404
 10
4.56222421
 20
-15.94470404
 10
4.84014536
 20
-15.8570661
  0
LWPOLYLINE
  5
F76
330
937
100
AcDbEntity
  8
247
100
AcDbPolyline
 90
        4
 70
     1
 43
0.0
 10
4.84014536
 20
-15.8570661
 10
4.56222421
 20
-15.94470404
 10
4.56222421
 20
-15.94470404
 10
4.84014536
 20
-15.8570661
1001
HATCH_DISTANCE
1040
1.0
1001
HATCH_DISPLAY
1070
     0
1001
HATCH_TYPE
1070
     7
  0
ARC
  5
F77
330
937
100
AcDbEntity
  8
247
100
AcDbCircle
 10
5.2392457
 20
-19.76848456
 30
0.0
 40
0.7275098419189452
100
AcDbArc
 50
17.66957755
 51
180.23615984
  0
LINE
  5
F78
330
937
100
AcDbEntity
  8
247
100
AcDbLine
 10
5.29986923
 20
-19.66596424
 30
0.0
 11
4.81289902
 21
-19.17899403
 31
0.0
  0
LINE
  5
F79
330
937
100
AcDbEntity
  8
247
100
AcDbLine
 10
5.0138787
 20
-19.70326293
 30
0.0
 11
4.6510159
 21
-19.34040013
 31
0.0
  0
LINE
  5
F7A
330
937
100
AcDbEntity
  8
247
100
AcDbLine
 10
4.84354944
 20
-19.85622289
 30
0.0
 11
4.54342706
 21
-19.55610051
 31
0.0
  0
LINE
  5
F7B
330
937
100
AcDbEntity
  8
247
100
AcDbLine
 10
4.83183969
 20
-18.66778632
 30
0.0
 11
4.51174204
 21
-18.57599554
 31
0.0
  0
LINE
  5
F7C
330
937
100
AcDbEntity
  8
247
100
AcDbLine
 10
4.51174204
 20
-18.57599554
 30
0.0
 11
4.51174204
 21
-17.81916937
 31
0.0
  0
LINE
  5
F7D
330
937
100
AcDbEntity
  8
247
100
AcDbLine
 10
4.83183969
 20
-18.66778632
 30
0.0
 11
4.83183969
 21
-18.56182318
 31
0.0
  0
ARC
  5
F7E
102
{ACAD_REACTORS
330
F66
102
}
330
937
100
AcDbEntity
  8
247
100
AcDbCircle
 10
6.23473886
 20
-15.51149115
 30
0.0
 40
2.4749560546875
100
AcDbArc
 50
245.20517737
 51
262.79482596
  0
LINE
  5
F7F
102
{ACAD_REACTORS
330
F66
102
}
330
937
100
AcDbEntity
  8
247
100
AcDbLine
 10
6.42089121
 20
-17.38273749
 30
0.0
 11
5.05317026
 21
-16.99054755
 31
0.0
  0
ARC
  5
F80
102
{ACAD_REACTORS
330
F66
102
}
330
937
100
AcDbEntity
  8
247
100
AcDbCircle
 10
5.45750009
 20
-16.84916449
 30
0.0
 40
0.9457594299316404
100
AcDbArc
 50
143.4440122
 51
254.00018439
  0
LINE
  5
F81
102
{ACAD_REACTORS
330
F66
102
}
330
937
100
AcDbEntity
  8
247
100
AcDbLine
 10
7.13077314
 20
-16.34508978
 30
0.0
 11
5.6466517
 21
-15.91952338
 31
0.0
  0
ARC
  5
F82
102
{ACAD_REACTORS
330
F66
102
}
330
937
100
AcDbEntity
  8
247
100
AcDbCircle
 10
6.18501474
 20
-17.05777289
 30
0.0
 40
0.9457690429687499
100
AcDbArc
 50
253.9997507
 51
34.96387329
  0
LINE
  5
F83
102
{ACAD_REACTORS
330
F66
102
}
330
937
100
AcDbEntity
  8
247
100
AcDbLine
 10
6.58933359
 20
-16.79529852
 30
0.0
 11
5.93765756
 21
-16.60843207
 31
0.0
  0
LWPOLYLINE
  5
F84
102
{ACAD_REACTORS
330
F67
102
}
330
937
100
AcDbEntity
  8
247
100
AcDbPolyline
 90
        6
 70
     1
 43
0.0
 10
4.51174204
 20
-18.57599554
 10
4.83183969
 20
-18.66778632
 10
4.83183969
 20
-18.56182318
 10
7.13077314
 20
-19.22103583
 10
7.13077314
 20
-18.5701618
 10
4.51174204
 20
-17.81916937
  0
LWPOLYLINE
  5
F85
330
937
100
AcDbEntity
  8
247
100
AcDbPolyline
 90
        6
 70
     1
 43
0.0
 10
4.51174204
 20
-18.57599554
 10
4.83183969
 20
-18.66778632
 10
4.83183969
 20
-18.56182318
 10
7.13077314
 20
-19.22103583
 10
7.13077314
 20
-18.5701618
 10
4.51174204
 20
-17.81916937
1001
HATCH_DISTANCE
1040
1.0
1001
HATCH_DISPLAY
1070
     0
1001
HATCH_TYPE
1070
     7
  0
LINE
  5
F86
330
937
100
AcDbEntity
  8
247
100
AcDbLine
 10
7.13077314
 20
-18.5701618
 30
0.0
 11
4.51174204
 21
-17.81916937
 31
0.0
  0
LINE
  5
F87
330
937
100
AcDbEntity
  8
247
100
AcDbLine
 10
7.13077314
 20
-19.22103583
 30
0.0
 11
4.83183969
 21
-18.56182318
 31
0.0
  0
ARC
  5
F88
102
{ACAD_REACTORS
330
F66
102
}
330
937
100
AcDbEntity
  8
247
100
AcDbCircle
 10
6.5051124
 20
-17.089018
 30
0.0
 40
0.3055557918548584
100
AcDbArc
 50
254.00027306
 51
74.00027306
  0
LINE
  5
F89
330
937
100
AcDbEntity
  8
247
100
AcDbLine
 10
4.51174204
 20
-20.71025458
 30
0.0
 11
4.51174204
 21
-19.77148317
 31
0.0
  0
LINE
  5
F8A
330
937
100
AcDbEntity
  8
247
100
AcDbLine
 10
5.50882924
 20
-20.84479191
 30
0.0
 11
4.51174204
 21
-19.84770471
 31
0.0
  0
LINE
  5
F8B
330
937
100
AcDbEntity
  8
247
100
AcDbLine
 10
5.96208866
 20
-20.97476211
 30
0.0
 11
4.94344731
 21
-19.95612076
 31
0.0
  0
LINE
  5
F8C
330
937
100
AcDbEntity
  8
247
100
AcDbLine
 10
6.28095887
 20
-20.00047544
 30
0.0
 11
5.32673838
 21
-19.04625495
 31
0.0
  0
LINE
  5
F8D
330
937
100
AcDbEntity
  8
247
100
AcDbLine
 10
6.07052039
 20
-20.11332618
 30
0.0
 11
5.02916211
 21
-19.0719679
 31
0.0
  0
ARC
  5
F8E
330
937
100
AcDbEntity
  8
247
100
AcDbCircle
 10
5.2101539
 20
-20.09314154
 30
0.0
 40
0.4364966011047363
100
AcDbArc
 50
351.66260169
 51
156.3381551
  0
LINE
  5
F8F
330
937
100
AcDbEntity
  8
247
100
AcDbLine
 10
4.81035405
 20
-19.91795774
 30
0.0
 11
5.64203742
 21
-20.15643377
 31
0.0
  0
LINE
  5
F90
330
937
100
AcDbEntity
  8
247
100
AcDbLine
 10
7.13077314
 20
-20.52700049
 30
0.0
 11
6.06300648
 21
-19.45923383
 31
0.0
  0
ARC
  5
F91
330
937
100
AcDbEntity
  8
247
100
AcDbCircle
 10
6.37416635
 20
-20.42691717
 30
0.0
 40
0.4365090894699097
100
AcDbArc
 50
351.66285421
 51
156.33819216
  0
ARC
  5
F92
330
937
100
AcDbEntity
  8
247
100
AcDbCircle
 10
6.40326914
 20
-20.10226019
 30
0.0
 40
0.727503662109375
100
AcDbArc
 50
0.0
 51
130.32984065
  0
LINE
  5
F93
330
937
100
AcDbEntity
  8
247
100
AcDbLine
 10
7.13077314
 20
-20.20371127
 30
0.0
 11
6.30807357
 21
-19.3810117
 31
0.0
  0
LINE
  5
F94
330
937
100
AcDbEntity
  8
247
100
AcDbLine
 10
7.13077314
 20
-20.85028971
 30
0.0
 11
6.75647475
 21
-20.47599132
 31
0.0
  0
LINE
  5
F95
330
937
100
AcDbEntity
  8
247
100
AcDbLine
 10
5.05556982
 20
-20.71482171
 30
0.0
 11
4.51174204
 21
-20.17099393
 31
0.0
  0
LINE
  5
F96
330
937
100
AcDbEntity
  8
247
100
AcDbLine
 10
6.41534807
 20
-21.10473231
 30
0.0
 11
5.39670244
 21
-20.08608667
 31
0.0
  0
LINE
  5
F97
102
{ACAD_REACTORS
330
F59
102
}
330
937
100
AcDbEntity
  8
247
100
AcDbLine
 10
4.51174204
 20
-20.86161322
 30
0.0
 11
4.8027479
 21
-20.94505438
 31
0.0
  0
LINE
  5
F98
330
937
100
AcDbEntity
  8
247
100
AcDbLine
 10
4.8027479
 20
-20.78528901
 30
0.0
 11
4.51174204
 21
-20.49428315
 31
0.0
  0
LINE
  5
F99
330
937
100
AcDbEntity
  8
247
100
AcDbLine
 10
4.51174204
 20
-20.71025458
 30
0.0
 11
4.8027479
 21
-20.79369574
 31
0.0
  0
LINE
  5
F9A
330
937
100
AcDbEntity
  8
247
100
AcDbLine
 10
4.8027479
 20
-20.79369574
 30
0.0
 11
4.8027479
 21
-20.64232611
 31
0.0
  0
LINE
  5
F9B
330
937
100
AcDbEntity
  8
247
100
AcDbLine
 10
5.97435439
 20
-20.2517299
 30
0.0
 11
6.80606243
 21
-20.49020985
 31
0.0
  0
LINE
  5
F9C
330
937
100
AcDbEntity
  8
247
100
AcDbLine
 10
6.86860749
 20
-21.2347025
 30
0.0
 11
5.6373312
 21
-20.00342621
 31
0.0
  0
LINE
  5
F9D
330
937
100
AcDbEntity
  8
243
100
AcDbLine
 10
3.7
 20
2.5
 30
0.0
 11
0.0
 21
2.5
 31
0.0
  0
LINE
  5
F9E
330
937
100
AcDbEntity
  8
243
100
AcDbLine
 10
3.7
 20
-2.5
 30
0.0
 11
0.0
 21
-2.5
 31
0.0
  0
ARC
  5
F9F
330
937
100
AcDbEntity
  8
240
100
AcDbCircle
 10
12.66203364
 20
7.99801429
 30
0.0
 40
10.0
100
AcDbArc
 50
334.32491936
 51
345.0
  0
LINE
  5
FA0
330
937
100
AcDbEntity
  8
240
100
AcDbLine
 10
18.32490088
 20
-19.844236
 30
0.0
 11
19.77610604
 21
-3.25688515
 31
0.0
  0
ARC
  5
FA1
330
937
100
AcDbEntity
  8
240
100
AcDbCircle
 10
17.32870618
 20
-19.75708026
 30
0.0
 40
1.0
100
AcDbArc
 50
315.0
 51
355.0
  0
ARC
  5
FA2
330
937
100
AcDbEntity
  8
240
100
AcDbCircle
 10
39.7
 20
-5.0
 30
0.0
 40
20.0
100
AcDbArc
 50
154.32491936
 51
175.0
  0
LINE
  5
FA3
330
937
100
AcDbEntity
  8
240
100
AcDbLine
 10
26.67618151
 20
21.66249308
 30
0.0
 11
22.32129191
 21
5.40982383
 31
0.0
  0
ARC
  5
FA4
330
937
100
AcDbEntity
  8
241
100
AcDbCircle
 10
14.21106063
 20
24.21106063
 30
0.0
 40
2.0
100
AcDbArc
 50
152.5
 51
332.5
  0
LINE
  5
FA5
330
937
100
AcDbEntity
  8
241
100
AcDbLine
 10
15.9850823
 20
23.28756341
 30
0.0
 11
17.12000061
 21
25.46772119
 31
0.0
  0
ELLIPSE
  5
FA6
330
937
100
AcDbEntity
  8
241
100
AcDbEllipse
 10
15.56205633
 20
25.56205743
 30
0.0
 11
-0.5891413777853966
 21
-0.5891413777853624
 31
0.0
210
0.0
220
0.0
230
1.0
 40
0.96018621
 41
5.029668201006523
 42
7.536702413352652
  0
LINE
  5
FA7
330
937
100
AcDbEntity
  8
241
100
AcDbLine
 10
14.51490773
 20
29.12610661
 30
0.0
 11
12.43703897
 21
25.13455786
 31
0.0
  0
LINE
  5
FA8
330
937
100
AcDbEntity
  8
240
100
AcDbLine
 10
6.01062479
 20
33.24910008
 30
0.0
 11
12.53131699
 21
36.2897488
 31
0.0
  0
SPLINE
  5
FA9
330
937
100
AcDbEntity
  8
241
100
AcDbSpline
210
0.0
220
0.0
230
1.0
 70
     8
 71
     3
 72
    12
 73
     8
 74
     0
 42
0.0000000001
 43
0.0000000001
 40
1.113723975583245
 40
1.113723975583245
 40
1.113723975583245
 40
1.113723975583245
 40
2.196313910069254
 40
2.196313910069254
 40
4.392627820138508
 40
4.392627820138508
 40
5.189311048542282
 40
5.189311048542282
 40
5.189311048542282
 40
5.189311048542282
 10
1.919036741559263
 20
30.92329219213242
 30
0.0
 10
2.103992189051663
 20
30.98825128080977
 30
0.0
 10
2.294360449165423
 20
31.04901490234592
 30
0.0
 10
2.874513480796736
 20
31.21530965736464
 30
0.0
 10
3.268156775300837
 20
31.30160327388719
 30
0.0
 10
3.760311751690665
 20
31.38295250775607
 30
0.0
 10
3.896999959923391
 20
31.40274909288237
 30
0.0
 10
4.037274433714003
 20
31.4201386731041
 30
0.0
  0
LINE
  5
FAA
330
937
100
AcDbEntity
  8
240
100
AcDbLine
 10
0.0
 20
31.5
 30
0.0
 11
3.84529946
 21
31.5
 31
0.0
  0
LINE
  5
FAB
330
937
100
AcDbEntity
  8
241
100
AcDbLine
 10
1.91903674
 20
30.92329219
 30
0.0
 11
0.0
 21
30.92329219
 31
0.0
  0
ARC
  5
FAC
330
937
100
AcDbEntity
  8
241
100
AcDbCircle
 10
3.79122142
 20
33.40494544
 30
0.0
 40
2.0
100
AcDbArc
 50
277.06680319
 51
330.00106314
  0
ARC
  5
FAD
330
937
100
AcDbEntity
  8
240
100
AcDbCircle
 10
3.84529946
 20
33.5
 30
0.0
 40
2.0
100
AcDbArc
 50
270.0
 51
330.0
  0
LINE
  5
FAE
330
937
100
AcDbEntity
  8
240
100
AcDbLine
 10
5.57735027
 20
32.5
 30
0.0
 11
6.00955554
 21
33.24860149
 31
0.0
  0
SPLINE
  5
FAF
330
937
100
AcDbEntity
  8
241
100
AcDbSpline
210
0.0
220
0.0
230
1.0
 70
    12
 71
     2
 72
     6
 73
     3
 74
     0
 42
0.0000000001
 43
0.0000000001
 40
1.4966275987031
 40
1.4966275987031
 40
1.4966275987031
 40
2.585965836229613
 40
2.585965836229613
 40
2.585965836229613
 10
5.523290785815843
 20
32.40497758235753
 30
0.0
 41
1.00245215964048
 10
5.763824929641486
 20
32.82161279366798
 30
0.0
 41
1.003230990629454
 10
6.010624786247718
 20
33.24910008462925
 30
0.0
 41
1.003844472027908
  0
SPLINE
  5
FB0
330
937
100
AcDbEntity
  8
241
100
AcDbSpline
210
0.0
220
0.0
230
1.0
 70
    28
 71
     2
 72
     6
 73
     3
 74
     0
 42
0.0000000001
 43
0.0000000001
 40
23.77337769881167
 40
23.77337769881167
 40
23.77337769881167
 40
24.13953813633057
 40
24.13953813633057
 40
24.13953813633057
 10
6.010624786247771
 20
33.24910008462907
 30
0.0
 41
1.181473123135176
 10
6.009555538868937
 20
33.24860148638824
 30
0.0
 41
1.181514886662577
 10
6.009555538868853
 20
33.24860148638796
 30
0.0
 41
1.181514886662575
  0
LINE
  5
FB1
330
937
100
AcDbEntity
  8
240
100
AcDbLine
 10
27.82782305
 20
31.04186074
 30
0.0
 11
28.18078611
 21
31.22560168
 31
0.0
  0
LINE
  5
FB2
330
937
100
AcDbEntity
  8
240
100
AcDbLine
 10
33.82959668
 20
44.90449938
 30
0.0
 11
21.56536715
 21
38.52014558
 31
0.0
  0
LINE
  5
FB3
330
937
100
AcDbEntity
  8
240
100
AcDbLine
 10
15.53880618
 20
37.15213244
 30
0.0
 11
21.0418587
 21
37.82782233
 31
0.0
  0
ARC
  5
FB4
330
937
100
AcDbEntity
  8
240
100
AcDbCircle
 10
16.75749961
 20
27.22667093
 30
0.0
 40
10.0
100
AcDbArc
 50
97.0
 51
115.0
  0
ARC
  5
FB5
330
937
100
AcDbEntity
  8
241
100
AcDbCircle
 10
16.28892939
 20
28.20260938
 30
0.0
 40
2.0
100
AcDbArc
 50
69.06120275
 51
69.81863984
  0
CIRCLE
  5
FB6
330
937
100
AcDbEntity
  8
241
100
AcDbCircle
 10
24.69587486
 20
34.69587445
 30
0.0
 40
2.5
  0
LINE
  5
FB7
330
937
100
AcDbEntity
  8
240
100
AcDbLine
 10
21.22515737
 20
38.17993581
 30
0.0
 11
21.0418587
 21
37.82782233
 31
0.0
  0
ARC
  5
FB8
330
937
100
AcDbEntity
  8
240
100
AcDbCircle
 10
21.93476604
 20
37.81053692
 30
0.0
 40
0.8
100
AcDbArc
 50
117.5
 51
152.5
  0
LINE
  5
FB9
330
937
100
AcDbEntity
  8
240
100
AcDbLine
 10
28.51970129
 20
31.56451686
 30
0.0
 11
34.90449828
 21
43.82959777
 31
0.0
  0
ELLIPSE
  5
FBA
330
937
100
AcDbEntity
  8
240
100
AcDbEllipse
 10
27.80827014
 20
31.93703283
 30
0.0
 11
0.568060617135351
 21
-0.568060617135382
 31
0.0
210
0.0
220
0.0
230
0.9999999999999998
 40
0.99581877
 41
5.978952268594852
 42
6.587418345764317
  0
ELLIPSE
  5
FBB
330
937
100
AcDbEntity
  8
240
100
AcDbEllipse
 10
34.18324554
 20
44.18324664
 30
0.0
 11
0.5891413777853966
 21
0.5891413777853635
 31
0.0
210
0.0
220
0.0
230
1.0
 40
0.96018621
 41
5.029668201006521
 42
7.536702413352648
  0
ENDBLK
  5
939
330
937
100
AcDbEntity
  8
0
100
AcDbBlockEnd
  0
ENDSEC
  0
SECTION
  2
ENTITIES
  0
INSERT
  5
6E6
330
1A
100
AcDbEntity
  8
245
100
AcDbBlockReference
  2
矢印なし
 10
175.62382697
 20
90.55123572
 30
0.0
  0
TEXT
  5
821
330
1A
100
AcDbEntity
  8
241
  6
CONTINUOUS
100
AcDbText
 10
0.0
 20
70.0
 30
0.0
 40
5.0
  1
F63-SVQBR-45035-16
  7
YOKO
 11
0.0
 21
70.0
 31
0.0
100
AcDbText
 73
     1
  0
DIMENSION
  5
823
330
1A
100
AcDbEntity
  8
250
  6
CONTINUOUS
100
AcDbDimension
  2
*D2
 10
48.99958601
 20
0.0
 30
0.0
 11
46.49958601
 21
22.49987081
 31
0.0
 70
    32
  3
BIGT
100
AcDbAlignedDimension
 13
34.19583773
 23
44.99974162
 33
0.0
 14
21.33508327
 24
0.0
 34
0.0
 50
270.0
100
AcDbRotatedDimension
1001
ACAD
1000
DSTYLE
1002
{
1070
    78
1070
     8
1070
   140
1040
3.0
1002
}
  0
DIMENSION
  5
824
330
1A
100
AcDbEntity
  8
250
  6
CONTINUOUS
100
AcDbDimension
  2
*D3
 10
34.99958601
 20
56.0
 30
0.0
 11
17.49979301
 21
58.5
 31
0.0
 70
    32
  3
BIGT
100
AcDbAlignedDimension
 13
0.0
 23
31.5
 33
0.0
 14
34.99958601
 24
44.19042001
 34
0.0
100
AcDbRotatedDimension
1001
ACAD
1000
DSTYLE
1002
{
1070
    78
1070
     8
1070
   140
1040
3.0
1002
}
  0
LEADER
  5
8F5
102
{ACAD_REACTORS
330
8FA
102
}
330
1A
100
AcDbEntity
  8
250
  6
CONTINUOUS
100
AcDbLeader
  3
BIGT
 76
     2
 10
33.44160841
 20
43.39942775
 30
0.0
 10
40.70334901
 20
55.97713143
 30
0.0
1001
ACAD
1000
DSTYLE
1002
{
1070
     6
1000
DOT
1070
    41
1040
2.0
1070
    42
1040
2.0
1070
    44
1040
2.0
1070
   140
1040
4.0
1070
   341
1005
8F0
1070
   343
1005
8F0
1002
}
  0
MTEXT
  5
8F6
102
{ACAD_REACTORS
330
8FA
102
}
330
1A
100
AcDbEntity
  8
251
  6
CONTINUOUS
100
AcDbMText
 10
40.31099358
 20
56.97713143
 30
0.0
 40
2.8
 41
0.0
 71
     7
 72
     1
  1
（VB1604）
  7
YOKO
1001
ITEMNAME
1000
LNSP3
1001
ACAD
1000
MTEXTBEGIN
1070
    73
1070
     1
1070
    44
1040
1.0
1070
    74
1070
     0
1000
MTEXTEND
1000
MTEXTBEGIN
1070
    73
1070
     1
1070
    44
1040
1.0
1070
    74
1070
     0
1000
MTEXTEND
1000
MTEXTBEGIN
1070
    73
1070
     1
1070
    44
1040
1.0
1070
    74
1070
     0
1000
MTEXTEND
1000
MTEXTBEGIN
1070
    73
1070
     1
1070
    44
1040
1.0
1070
    74
1070
     0
1000
MTEXTEND
1000
MTEXTBEGIN
1070
    73
1070
     1
1070
    44
1040
1.0
1070
    74
1070
     0
1000
MTEXTEND
  0
LINE
  5
8F8
102
{ACAD_REACTORS
330
8FA
102
}
330
1A
100
AcDbEntity
  8
250
  6
CONTINUOUS
100
AcDbLine
 10
40.70334901
 20
55.97713143
 30
0.0
 11
61.74302348
 21
55.97713143
 31
0.0
1001
ITEMNAME
1000
LNSP2
  0
INSERT
  5
FBC
330
1A
100
AcDbEntity
  8
245
100
AcDbBlockReference
  2
1
 10
0.0
 20
0.0
 30
0.0
  0
VIEWPORT
  5
22
330
17
100
AcDbEntity
 67
     1
  8
0
100
AcDbViewport
 10
261.51769912
 20
148.5
 30
0.0
 40
523.03539823
 41
297.0
 68
     1
 69
     1
1001
ACAD
1000
MVIEW
1002
{
1070
    16
1010
0.0
1020
0.0
1030
0.0
1010
0.0
1020
0.0
1030
1.0
1040
0.0
1040
297.0
1040
261.51769912
1040
148.5
1040
50.0
1040
0.0
1040
0.0
1070
     0
1070
   100
1070
     1
1070
     1
1070
     0
1070
     0
1070
     0
1070
     0
1040
0.0
1040
0.0
1040
0.0
1040
1.0
1040
1.0
1040
10.0
1040
10.0
1070
     0
1002
{
1002
}
1002
}
  0
ENDSEC
  0
SECTION
  2
OBJECTS
  0
DICTIONARY
  5
C
330
0
100
AcDbDictionary
  3
ACAD_GROUP
350
D
  3
ACAD_LAYOUT
350
565
  3
ACAD_MLINESTYLE
350
E
  3
ACAD_PLOTSETTINGS
350
566
  3
ACAD_PLOTSTYLENAME
350
563
  3
ACDBHEADERROUNDTRIPXREC
350
FBE
  3
GRADE_DWG
350
540
  0
DICTIONARY
  5
A14
330
1A
100
AcDbDictionary
280
     1
  3
ACAD_LAYOUTSELFREF
360
FE0
  0
DICTIONARY
  5
A12
330
17
100
AcDbDictionary
280
     1
  3
ACAD_LAYOUTSELFREF
360
FDF
  0
DICTIONARY
  5
D
102
{ACAD_REACTORS
330
C
102
}
330
C
100
AcDbDictionary
  3
*A1
350
6C7
  3
*A2
350
6C8
  3
*A3
350
6D4
  3
*A4
350
6D5
  3
DREC-1
350
5FC
  3
DREC-2
350
654
  3
DREC-3
350
673
  3
LNSP-1
350
8FA
  0
DICTIONARY
  5
565
102
{ACAD_REACTORS
330
C
102
}
330
C
100
AcDbDictionary
  0
DICTIONARY
  5
E
102
{ACAD_REACTORS
330
C
102
}
330
C
100
AcDbDictionary
  3
STANDARD
350
13
  0
DICTIONARY
  5
566
102
{ACAD_REACTORS
330
C
102
}
330
C
100
AcDbDictionary
  3
A3_0_5倍_
350
758
  3
A3_1倍_
350
757
  3
A3_1倍__2000_
350
707
  3
A3_2倍_
350
759
  3
A4_0_5倍_
350
755
  3
A4_1倍_
350
754
  3
A4_1倍__2000_
350
708
  3
A4_2倍_
350
756
  0
ACDBDICTIONARYWDFLT
  5
563
102
{ACAD_REACTORS
330
C
102
}
330
C
100
AcDbDictionary
281
     1
  3
Normal
350
564
100
AcDbDictionaryWithDefault
340
564
  0
DICTIONARY
  5
FBE
102
{ACAD_REACTORS
330
C
102
}
330
C
100
AcDbDictionary
  3
CEPSNTYPE
350
FC8
  3
DIMSTYLEDATA
350
FCC
  3
FINGERPRINTGUID
350
FC9
  3
HYPERLINKBASE
350
FC1
  3
INSUNITS
350
FC7
  3
LAYOUTDICT
350
FC3
  3
LWETCUNION
350
FC6
  3
PLOTSETDICT
350
FC4
  3
PLOTSTYLNAMDICT
350
FC5
  3
PSVPSCALE
350
FCB
  3
PUCSBASE
350
FCF
  3
PUCSORGBACK
350
FD5
  3
PUCSORGBOTTOM
350
FD1
  3
PUCSORGFRONT
350
FD4
  3
PUCSORGLEFT
350
FD2
  3
PUCSORGRIGHT
350
FD3
  3
PUCSORGTOP
350
FD0
  3
PUCSORTHOREF
350
FCD
  3
PUCSORTHOVIEW
350
FCE
  3
STYLESHEET
350
FC2
  3
TSTACKALIGN
350
FBF
  3
TSTACKSIZE
350
FC0
  3
UCSBASE
350
FD8
  3
UCSORGBACK
350
FDE
  3
UCSORGBOTTOM
350
FDA
  3
UCSORGFRONT
350
FDD
  3
UCSORGLEFT
350
FDB
  3
UCSORGRIGHT
350
FDC
  3
UCSORGTOP
350
FD9
  3
UCSORTHOREF
350
FD6
  3
UCSORTHOVIEW
350
FD7
  3
VERSIONGUID
350
FCA
  0
DICTIONARY
  5
540
102
{ACAD_REACTORS
330
C
102
}
330
C
100
AcDbDictionary
  3
VERSION
350
560
  0
XRECORD
  5
FE0
102
{ACAD_REACTORS
330
A14
102
}
330
A14
100
AcDbXrecord
340
1A
  0
XRECORD
  5
FDF
102
{ACAD_REACTORS
330
A12
102
}
330
A12
100
AcDbXrecord
340
17
  0
GROUP
  5
6C7
102
{ACAD_REACTORS
330
D
102
}
330
D
100
AcDbGroup
300

 70
     0
 71
     1
1001
GRPNAME
1000
DMA00
  0
GROUP
  5
6C8
102
{ACAD_REACTORS
330
D
102
}
330
D
100
AcDbGroup
300

 70
     0
 71
     1
1001
GRPNAME
1000
DMA00
  0
GROUP
  5
6D4
102
{ACAD_REACTORS
330
D
102
}
330
D
100
AcDbGroup
300

 70
     0
 71
     1
1001
GRPNAME
1000
DMA00
  0
GROUP
  5
6D5
102
{ACAD_REACTORS
330
D
102
}
330
D
100
AcDbGroup
300

 70
     0
 71
     1
1001
GRPNAME
1000
DMA00
  0
GROUP
  5
5FC
102
{ACAD_REACTORS
330
D
102
}
330
D
100
AcDbGroup
300

 70
     0
 71
     1
1001
GRPNAME
1000
DREC-
1001
GPARA
1000
xsiz
1000
44.182
1000
ysiz
1000
40.677
1000
angl
1000
0
1000
ctyp
1000
0
1000
csiz
1000
5
1000
lfnt
1000
cont
1000
hcnt
1000
hoff
1000
vcnt
1000
voff
1000
opnt
1000
4
1000
dxpt
1000
0
1000
dypt
1000
0
  0
GROUP
  5
654
102
{ACAD_REACTORS
330
D
102
}
330
D
100
AcDbGroup
300

 70
     0
 71
     1
1001
GRPNAME
1000
DREC-
1001
GPARA
1000
xsiz
1000
54.592
1000
ysiz
1000
53.036
1000
angl
1000
0
1000
ctyp
1000
0
1000
csiz
1000
5
1000
lfnt
1000
cont
1000
hcnt
1000
hoff
1000
vcnt
1000
voff
1000
opnt
1000
4
1000
dxpt
1000
0
1000
dypt
1000
0
  0
GROUP
  5
673
102
{ACAD_REACTORS
330
D
102
}
330
D
100
AcDbGroup
300

 70
     0
 71
     1
1001
GRPNAME
1000
DREC-
1001
GPARA
1000
xsiz
1000
30.363
1000
ysiz
1000
36.175
1000
angl
1000
0
1000
ctyp
1000
0
1000
csiz
1000
5
1000
lfnt
1000
cont
1000
hcnt
1000
hoff
1000
vcnt
1000
voff
1000
opnt
1000
4
1000
dxpt
1000
0
1000
dypt
1000
0
  0
GROUP
  5
8FA
102
{ACAD_REACTORS
330
D
102
}
330
D
100
AcDbGroup
300

 70
     0
 71
     1
340
8F5
340
8F6
340
8F8
1001
GRPNAME
1000
LNSP
  0
MLINESTYLE
  5
13
102
{ACAD_REACTORS
330
E
102
}
330
E
100
AcDbMlineStyle
  2
STANDARD
 70
     0
  3

 62
     0
 51
90.0
 52
90.0
 71
     2
 49
0.5
 62
   256
  6
BYLAYER
 49
-0.5
 62
   256
  6
BYLAYER
  0
PLOTSETTINGS
  5
758
102
{ACAD_REACTORS
330
566
102
}
330
566
100
AcDbPlotSettings
  1
A3(0.5倍)
  2
\\AWTECPC05\HP DeskJet 1120C
  4
A3
  6

 40
5.95841646
 41
13.49375153
 42
6.04309082
 43
3.67242432
 44
296.92599487
 45
419.94665527
 46
89.96
 47
127.14
 48
0.0
 49
0.0
140
0.0
141
0.0
142
1.0
143
2.0
 70
  1716
 72
     1
 73
     1
 74
     2
  7
big.ctb
 75
    17
147
0.5
148
0.0
149
0.0
  0
PLOTSETTINGS
  5
757
102
{ACAD_REACTORS
330
566
102
}
330
566
100
AcDbPlotSettings
  1
A3(1倍)
  2
\\AWTECPC05\HP DeskJet 1120C
  4
A3
  6

 40
5.95841646
 41
13.49375153
 42
6.04309082
 43
3.67242432
 44
296.92599487
 45
419.94665527
 46
37.46
 47
52.89
 48
0.0
 49
0.0
140
0.0
141
0.0
142
1.0
143
1.0
 70
  1716
 72
     1
 73
     1
 74
     2
  7
big.ctb
 75
    16
147
1.0
148
0.0
149
0.0
  0
PLOTSETTINGS
  5
707
102
{ACAD_REACTORS
330
566
102
}
330
566
100
AcDbPlotSettings
  1
A3(1倍)(2000)
  2
SII LS-1300 (D-SCAN)
  4
User258
  6

 40
3.17499995
 41
3.17499995
 42
3.17498779
 43
3.17498779
 44
419.98898315
 45
296.98950195
 46
58.32
 47
40.32
 48
0.0
 49
0.0
140
0.0
141
0.0
142
1.0
143
1.0
 70
  1716
 72
     1
 73
     0
 74
     2
  7
big.ctb
 75
    16
147
1.0
148
0.0
149
0.0
  0
PLOTSETTINGS
  5
759
102
{ACAD_REACTORS
330
566
102
}
330
566
100
AcDbPlotSettings
  1
A3(2倍)
  2
\\AWTECPC05\HP DeskJet 1120C
  4
A3
  6

 40
5.95841646
 41
13.49375153
 42
6.04309082
 43
3.67242432
 44
296.92599487
 45
419.94665527
 46
-67.54
 47
-95.61
 48
0.0
 49
0.0
140
0.0
141
0.0
142
1.0
143
0.5
 70
  1716
 72
     1
 73
     1
 74
     2
  7
big.ctb
 75
    27
147
2.0
148
0.0
149
0.0
  0
PLOTSETTINGS
  5
755
102
{ACAD_REACTORS
330
566
102
}
330
566
100
AcDbPlotSettings
  1
A4(0.5倍)
  2
\\AWTECPC05\HP DeskJet 1120C
  4
A4
  6

 40
4.18041658
 41
13.49374962
 42
4.18040466
 43
3.92642212
 44
209.97332764
 45
296.92599487
 46
48.31
 47
65.5
 48
0.0
 49
0.0
140
0.0
141
0.0
142
1.0
143
2.0
 70
  1716
 72
     1
 73
     1
 74
     2
  7
big.ctb
 75
    17
147
0.5
148
0.0
149
0.0
  0
PLOTSETTINGS
  5
754
102
{ACAD_REACTORS
330
566
102
}
330
566
100
AcDbPlotSettings
  1
A4(1倍)
  2
\\AWTECPC05\HP DeskJet 1120C
  4
A4
  6

 40
4.18041658
 41
13.49374962
 42
4.18040466
 43
3.92642212
 44
209.97332764
 45
296.92599487
 46
-4.19
 47
-8.75
 48
0.0
 49
0.0
140
0.0
141
0.0
142
1.0
143
1.0
 70
  1716
 72
     1
 73
     1
 74
     2
  7
big.ctb
 75
    16
147
1.0
148
0.0
149
0.0
  0
PLOTSETTINGS
  5
708
102
{ACAD_REACTORS
330
566
102
}
330
566
100
AcDbPlotSettings
  1
A4(1倍)(2000)
  2
SII LS-1300 (D-SCAN)
  4
User259
  6

 40
3.17499995
 41
3.17499995
 42
3.17498779
 43
3.17500305
 44
296.98950195
 45
209.99449158
 46
-3.18
 47
-3.18
 48
0.0
 49
0.0
140
0.0
141
0.0
142
1.0
143
1.0
 70
  1716
 72
     1
 73
     0
 74
     2
  7
big.ctb
 75
    16
147
1.0
148
0.0
149
0.0
  0
PLOTSETTINGS
  5
756
102
{ACAD_REACTORS
330
566
102
}
330
566
100
AcDbPlotSettings
  1
A4(2倍)
  2
\\AWTECPC05\HP DeskJet 1120C
  4
A4
  6

 40
4.18041658
 41
13.49374962
 42
4.18040466
 43
3.92642212
 44
209.97332764
 45
296.92599487
 46
-109.19
 47
-157.25
 48
0.0
 49
0.0
140
0.0
141
0.0
142
1.0
143
0.5
 70
  1716
 72
     1
 73
     1
 74
     2
  7
big.ctb
 75
    27
147
2.0
148
0.0
149
0.0
  0
ACDBPLACEHOLDER
  5
564
102
{ACAD_REACTORS
330
563
102
}
330
563
100
AcDbPlaceHolder
280
     0
  0
XRECORD
  5
FC8
102
{ACAD_REACTORS
330
FBE
102
}
330
FBE
100
AcDbXrecord
 90
        0
  0
XRECORD
  5
FCC
102
{ACAD_REACTORS
330
FBE
102
}
330
FBE
100
AcDbXrecord
1000
DSTYLE
1002
{
1070
    79
 70
     2
1070
   179
 70
     3
1070
   341
340
594
1070
   343
340
594
1070
   344
340
594
1070
   371
 70
    -1
1070
   372
 70
    -1
1002
}
  0
XRECORD
  5
FC9
102
{ACAD_REACTORS
330
FBE
102
}
330
FBE
100
AcDbXrecord
  1
{51294030-9CB4-11D3-8E18-00A0C925D94D}
  0
XRECORD
  5
FC1
102
{ACAD_REACTORS
330
FBE
102
}
330
FBE
100
AcDbXrecord
  1

  0
XRECORD
  5
FC7
102
{ACAD_REACTORS
330
FBE
102
}
330
FBE
100
AcDbXrecord
 90
        0
  0
XRECORD
  5
FC3
102
{ACAD_REACTORS
330
FBE
102
}
330
FBE
100
AcDbXrecord
340
565
  0
XRECORD
  5
FC6
102
{ACAD_REACTORS
330
FBE
102
}
330
FBE
100
AcDbXrecord
 90
    10781
  0
XRECORD
  5
FC4
102
{ACAD_REACTORS
330
FBE
102
}
330
FBE
100
AcDbXrecord
340
566
  0
XRECORD
  5
FC5
102
{ACAD_REACTORS
330
FBE
102
}
330
FBE
100
AcDbXrecord
340
563
  0
XRECORD
  5
FCB
102
{ACAD_REACTORS
330
FBE
102
}
330
FBE
100
AcDbXrecord
 40
0.0
  0
XRECORD
  5
FCF
102
{ACAD_REACTORS
330
FBE
102
}
330
FBE
100
AcDbXrecord
340
0
  0
XRECORD
  5
FD5
102
{ACAD_REACTORS
330
FBE
102
}
330
FBE
100
AcDbXrecord
 10
0.0
 20
0.0
 30
0.0
  0
XRECORD
  5
FD1
102
{ACAD_REACTORS
330
FBE
102
}
330
FBE
100
AcDbXrecord
 10
0.0
 20
0.0
 30
0.0
  0
XRECORD
  5
FD4
102
{ACAD_REACTORS
330
FBE
102
}
330
FBE
100
AcDbXrecord
 10
0.0
 20
0.0
 30
0.0
  0
XRECORD
  5
FD2
102
{ACAD_REACTORS
330
FBE
102
}
330
FBE
100
AcDbXrecord
 10
0.0
 20
0.0
 30
0.0
  0
XRECORD
  5
FD3
102
{ACAD_REACTORS
330
FBE
102
}
330
FBE
100
AcDbXrecord
 10
0.0
 20
0.0
 30
0.0
  0
XRECORD
  5
FD0
102
{ACAD_REACTORS
330
FBE
102
}
330
FBE
100
AcDbXrecord
 10
0.0
 20
0.0
 30
0.0
  0
XRECORD
  5
FCD
102
{ACAD_REACTORS
330
FBE
102
}
330
FBE
100
AcDbXrecord
340
0
  0
XRECORD
  5
FCE
102
{ACAD_REACTORS
330
FBE
102
}
330
FBE
100
AcDbXrecord
 70
     0
  0
XRECORD
  5
FC2
102
{ACAD_REACTORS
330
FBE
102
}
330
FBE
100
AcDbXrecord
  1
big.ctb
  0
XRECORD
  5
FBF
102
{ACAD_REACTORS
330
FBE
102
}
330
FBE
100
AcDbXrecord
 90
        1
  0
XRECORD
  5
FC0
102
{ACAD_REACTORS
330
FBE
102
}
330
FBE
100
AcDbXrecord
 90
       70
  0
XRECORD
  5
FD8
102
{ACAD_REACTORS
330
FBE
102
}
330
FBE
100
AcDbXrecord
340
0
  0
XRECORD
  5
FDE
102
{ACAD_REACTORS
330
FBE
102
}
330
FBE
100
AcDbXrecord
 10
0.0
 20
0.0
 30
0.0
  0
XRECORD
  5
FDA
102
{ACAD_REACTORS
330
FBE
102
}
330
FBE
100
AcDbXrecord
 10
0.0
 20
0.0
 30
0.0
  0
XRECORD
  5
FDD
102
{ACAD_REACTORS
330
FBE
102
}
330
FBE
100
AcDbXrecord
 10
0.0
 20
0.0
 30
0.0
  0
XRECORD
  5
FDB
102
{ACAD_REACTORS
330
FBE
102
}
330
FBE
100
AcDbXrecord
 10
0.0
 20
0.0
 30
0.0
  0
XRECORD
  5
FDC
102
{ACAD_REACTORS
330
FBE
102
}
330
FBE
100
AcDbXrecord
 10
0.0
 20
0.0
 30
0.0
  0
XRECORD
  5
FD9
102
{ACAD_REACTORS
330
FBE
102
}
330
FBE
100
AcDbXrecord
 10
0.0
 20
0.0
 30
0.0
  0
XRECORD
  5
FD6
102
{ACAD_REACTORS
330
FBE
102
}
330
FBE
100
AcDbXrecord
340
0
  0
XRECORD
  5
FD7
102
{ACAD_REACTORS
330
FBE
102
}
330
FBE
100
AcDbXrecord
 70
     0
  0
XRECORD
  5
FCA
102
{ACAD_REACTORS
330
FBE
102
}
330
FBE
100
AcDbXrecord
  1
{43316752-EA8B-4359-B924-46AF0DE22E20}
  0
XRECORD
  5
560
102
{ACAD_REACTORS
330
540
102
}
330
540
100
AcDbXrecord
  1
2.0.0
  0
ENDSEC
  0
EOF
