  0
SECTION
  2
HEADER
  9
$ACADVER
  1
AC1014
  9
$ACADMAINTVER
 70
     9
  9
$DWGCODEPAGE
  3
ANSI_932
  9
$INSBASE
 10
0.0
 20
0.0
 30
0.0
  9
$EXTMIN
 10
-1.01284692
 20
-31.58035255
 30
-0.00152582
  9
$EXTMAX
 10
87.86250365
 20
75.00847065
 30
0.00000003
  9
$LIMMIN
 10
0.0
 20
0.0
  9
$LIMMAX
 10
420.0
 20
297.0
  9
$ORTHOMODE
 70
     1
  9
$REGENMODE
 70
     1
  9
$FILLMODE
 70
     1
  9
$QTEXTMODE
 70
     0
  9
$MIRRTEXT
 70
     1
  9
$DRAGMODE
 70
     2
  9
$LTSCALE
 40
10.0
  9
$OSMODE
 70
   549
  9
$ATTMODE
 70
     1
  9
$TEXTSIZE
 40
3.0
  9
$TRACEWID
 40
1.0
  9
$TEXTSTYLE
  7
YOKO
  9
$CLAYER
  8
245
  9
$CELTYPE
  6
CONTINUOUS
  9
$CECOLOR
 62
   256
  9
$CELTSCALE
 40
1.0
  9
$DELOBJ
 70
     1
  9
$DISPSILH
 70
     0
  9
$DIMSCALE
 40
1.0
  9
$DIMASZ
 40
2.0
  9
$DIMEXO
 40
2.0
  9
$DIMDLI
 40
2.5
  9
$DIMRND
 40
0.0
  9
$DIMDLE
 40
0.0
  9
$DIMEXE
 40
2.0
  9
$DIMTP
 40
0.0
  9
$DIMTM
 40
0.0
  9
$DIMTXT
 40
4.0
  9
$DIMCEN
 40
0.0
  9
$DIMTSZ
 40
0.0
  9
$DIMTOL
 70
     0
  9
$DIMLIM
 70
     0
  9
$DIMTIH
 70
     0
  9
$DIMTOH
 70
     0
  9
$DIMSE1
 70
     0
  9
$DIMSE2
 70
     0
  9
$DIMTAD
 70
     3
  9
$DIMZIN
 70
     8
  9
$DIMBLK
  1

  9
$DIMASO
 70
     1
  9
$DIMSHO
 70
     1
  9
$DIMPOST
  1

  9
$DIMAPOST
  1

  9
$DIMALT
 70
     0
  9
$DIMALTD
 70
     2
  9
$DIMALTF
 40
25.4
  9
$DIMLFAC
 40
1.0
  9
$DIMTOFL
 70
     1
  9
$DIMTVP
 40
0.0
  9
$DIMTIX
 70
     1
  9
$DIMSOXD
 70
     0
  9
$DIMSAH
 70
     1
  9
$DIMBLK1
  1
OPEN
  9
$DIMBLK2
  1
OPEN
  9
$DIMSTYLE
  2
BIGT
  9
$DIMCLRD
 70
   256
  9
$DIMCLRE
 70
   256
  9
$DIMCLRT
 70
    40
  9
$DIMTFAC
 40
1.0
  9
$DIMGAP
 40
1.0
  9
$DIMJUST
 70
     0
  9
$DIMSD1
 70
     0
  9
$DIMSD2
 70
     0
  9
$DIMTOLJ
 70
     1
  9
$DIMTZIN
 70
     8
  9
$DIMALTZ
 70
     0
  9
$DIMALTTZ
 70
     0
  9
$DIMFIT
 70
     3
  9
$DIMUPT
 70
     0
  9
$DIMUNIT
 70
     2
  9
$DIMDEC
 70
     3
  9
$DIMTDEC
 70
     3
  9
$DIMALTU
 70
     2
  9
$DIMALTTD
 70
     2
  9
$DIMTXSTY
  7
STANDARD
  9
$DIMAUNIT
 70
     0
  9
$LUNITS
 70
     2
  9
$LUPREC
 70
     3
  9
$SKETCHINC
 40
1.0
  9
$FILLETRAD
 40
0.0
  9
$AUNITS
 70
     0
  9
$AUPREC
 70
     3
  9
$MENU
  1
.
  9
$ELEVATION
 40
0.0
  9
$PELEVATION
 40
0.0
  9
$THICKNESS
 40
0.0
  9
$LIMCHECK
 70
     0
  9
$BLIPMODE
 70
     0
  9
$CHAMFERA
 40
10.0
  9
$CHAMFERB
 40
10.0
  9
$CHAMFERC
 40
0.0
  9
$CHAMFERD
 40
0.0
  9
$SKPOLY
 70
     0
  9
$TDCREATE
 40
2455100.364140799
  9
$TDUPDATE
 40
2455387.482153680
  9
$TDINDWG
 40
0.0076756019
  9
$TDUSRTIMER
 40
0.0076756019
  9
$USRTIMER
 70
     1
  9
$ANGBASE
 50
0.0
  9
$ANGDIR
 70
     0
  9
$PDMODE
 70
     1
  9
$PDSIZE
 40
-5.0
  9
$PLINEWID
 40
0.0
  9
$COORDS
 70
     1
  9
$SPLFRAME
 70
     0
  9
$SPLINETYPE
 70
     6
  9
$SPLINESEGS
 70
     8
  9
$ATTDIA
 70
     0
  9
$ATTREQ
 70
     1
  9
$HANDLING
 70
-16383
  9
$HANDSEED
  5
C0F
  9
$SURFTAB1
 70
     6
  9
$SURFTAB2
 70
     6
  9
$SURFTYPE
 70
     6
  9
$SURFU
 70
     6
  9
$SURFV
 70
     6
  9
$UCSNAME
  2

  9
$UCSORG
 10
0.0
 20
0.0
 30
0.0
  9
$UCSXDIR
 10
1.0
 20
0.0
 30
0.0
  9
$UCSYDIR
 10
0.0
 20
1.0
 30
0.0
  9
$PUCSNAME
  2

  9
$PUCSORG
 10
0.0
 20
0.0
 30
0.0
  9
$PUCSXDIR
 10
1.0
 20
0.0
 30
0.0
  9
$PUCSYDIR
 10
0.0
 20
1.0
 30
0.0
  9
$USERI1
 70
     1
  9
$USERI2
 70
     0
  9
$USERI3
 70
     0
  9
$USERI4
 70
     0
  9
$USERI5
 70
     0
  9
$USERR1
 40
0.0
  9
$USERR2
 40
0.0
  9
$USERR3
 40
0.0
  9
$USERR4
 40
0.0
  9
$USERR5
 40
0.0
  9
$WORLDVIEW
 70
     1
  9
$SHADEDGE
 70
     3
  9
$SHADEDIF
 70
    70
  9
$TILEMODE
 70
     1
  9
$MAXACTVP
 70
    16
  9
$PINSBASE
 10
0.0
 20
0.0
 30
0.0
  9
$PLIMCHECK
 70
     0
  9
$PEXTMIN
 10
1.00000000E+20
 20
1.00000000E+20
 30
1.00000000E+20
  9
$PEXTMAX
 10
-1.00000000E+20
 20
-1.00000000E+20
 30
-1.00000000E+20
  9
$PLIMMIN
 10
0.0
 20
0.0
  9
$PLIMMAX
 10
420.0
 20
297.0
  9
$UNITMODE
 70
     0
  9
$VISRETAIN
 70
     0
  9
$PLINEGEN
 70
     0
  9
$PSLTSCALE
 70
     1
  9
$TREEDEPTH
 70
  3020
  9
$PICKSTYLE
 70
     0
  9
$CMLSTYLE
  2
STANDARD
  9
$CMLJUST
 70
     0
  9
$CMLSCALE
 40
1.0
  9
$PROXYGRAPHICS
 70
     1
  9
$MEASUREMENT
 70
     1
  0
ENDSEC
  0
SECTION
  2
CLASSES
  0
CLASS
  1
XRECORD
  2
AcDbXrecord
  3
AutoCAD 2000
 90
        0
280
     0
281
     0
  0
CLASS
  1
ACDBDICTIONARYWDFLT
  2
AcDbDictionaryWithDefault
  3
AutoCAD 2000
 90
        0
280
     0
281
     0
  0
CLASS
  1
ACDBPLACEHOLDER
  2
AcDbPlaceHolder
  3
AutoCAD 2000
 90
        0
280
     0
281
     0
  0
CLASS
  1
LAYOUT
  2
AcDbLayout
  3
AutoCAD 2000
 90
        0
280
     0
281
     0
  0
CLASS
  1
PLOTSETTINGS
  2
AcDbPlotSettings
  3
AutoCAD 2000
 90
        0
280
     0
281
     0
  0
CLASS
  1
LONG_TRANSACTION
  2
AcDbLongTransaction
  3
AutoCAD 2000
 90
        0
280
     0
281
     0
  0
CLASS
  1
LWPOLYLINE
  2
AcDbPolyline
  3
AutoCAD 2000
 90
        0
280
     0
281
     1
  0
CLASS
  1
HATCH
  2
AcDbHatch
  3
AutoCAD 2000
 90
        0
280
     0
281
     1
  0
CLASS
  1
XRECORD
  2
AcDbXrecord
  3
AutoCAD 2000
 90
        0
280
     0
281
     0
  0
CLASS
  1
LONG_TRANSACTION
  2
AcDbLongTransaction
  3
AutoCAD 2000
 90
        0
280
     0
281
     0
  0
CLASS
  1
LWPOLYLINE
  2
AcDbPolyline
  3
AutoCAD 2000
 90
        0
280
     0
281
     1
  0
CLASS
  1
HATCH
  2
AcDbHatch
  3
AutoCAD 2000
 90
        0
280
     0
281
     1
  0
CLASS
  1
XRECORD
  2
AcDbXrecord
  3
AutoCAD 2000
 90
        0
280
     0
281
     0
  0
CLASS
  1
LONG_TRANSACTION
  2
AcDbLongTransaction
  3
AutoCAD 2000
 90
        0
280
     0
281
     0
  0
CLASS
  1
LWPOLYLINE
  2
AcDbPolyline
  3
AutoCAD 2000
 90
        0
280
     0
281
     1
  0
CLASS
  1
HATCH
  2
AcDbHatch
  3
AutoCAD 2000
 90
        0
280
     0
281
     1
  0
CLASS
  1
XRECORD
  2
AcDbXrecord
  3
AutoCAD 2000
 90
        0
280
     0
281
     0
  0
ENDSEC
  0
SECTION
  2
TABLES
  0
TABLE
  2
VPORT
  5
8
330
0
100
AcDbSymbolTable
 70
     4
  0
VPORT
  5
BEA
330
8
100
AcDbSymbolTableRecord
100
AcDbViewportTableRecord
  2
*ACTIVE
 70
     0
 10
0.0
 20
0.0
 11
1.0
 21
1.0
 12
43.42482836
 22
21.71405905
 13
0.0
 23
0.0
 14
7.0
 24
7.0
 15
7.0
 25
7.0
 16
0.0
 26
0.0
 36
1.0
 17
0.0
 27
0.0
 37
0.0
 40
107.41616205
 41
1.45595855
 42
50.0
 43
0.0
 44
0.0
 50
0.0
 51
0.0
 71
     0
 72
  2000
 73
     1
 74
     0
 75
     0
 76
     0
 77
     0
 78
     0
  0
ENDTAB
  0
TABLE
  2
LTYPE
  5
5
330
0
100
AcDbSymbolTable
 70
     3
  0
LTYPE
  5
14
330
5
100
AcDbSymbolTableRecord
100
AcDbLinetypeTableRecord
  2
BYBLOCK
 70
     0
  3

 72
    65
 73
     0
 40
0.0
  0
LTYPE
  5
15
330
5
100
AcDbSymbolTableRecord
100
AcDbLinetypeTableRecord
  2
BYLAYER
 70
     0
  3

 72
    65
 73
     0
 40
0.0
  0
LTYPE
  5
16
330
5
100
AcDbSymbolTableRecord
100
AcDbLinetypeTableRecord
  2
CONTINUOUS
 70
     0
  3
Solid line
 72
    65
 73
     0
 40
0.0
  0
LTYPE
  5
258
330
5
100
AcDbSymbolTableRecord
100
AcDbLinetypeTableRecord
  2
CENTER2
 70
     0
  3
___ _ ___ _ ___ _ ___ _ ___ _ ___ _ ___ _ ___ _
 72
    65
 73
     4
 40
1.125
 49
0.75
 74
     0
 49
-0.125
 74
     0
 49
0.125
 74
     0
 49
-0.125
 74
     0
  0
LTYPE
  5
25C
330
5
100
AcDbSymbolTableRecord
100
AcDbLinetypeTableRecord
  2
HIDDEN2
 70
     0
  3
_ _ _ _ _ _ _ _ _ _ _ _ _ _ _ _ _ _ _ _ _ _ _ _
 72
    65
 73
     2
 40
0.1875
 49
0.125
 74
     0
 49
-0.0625
 74
     0
  0
ENDTAB
  0
TABLE
  2
LAYER
  5
2
330
0
100
AcDbSymbolTable
 70
    10
  0
LAYER
  5
F
330
2
100
AcDbSymbolTableRecord
100
AcDbLayerTableRecord
  2
0
 70
     0
 62
     7
  6
CONTINUOUS
  0
LAYER
  5
1AA
330
2
100
AcDbSymbolTableRecord
100
AcDbLayerTableRecord
  2
240
 70
     0
 62
     4
  6
CONTINUOUS
  0
LAYER
  5
1AB
330
2
100
AcDbSymbolTableRecord
100
AcDbLayerTableRecord
  2
241
 70
     0
 62
   211
  6
CONTINUOUS
  0
LAYER
  5
1AD
330
2
100
AcDbSymbolTableRecord
100
AcDbLayerTableRecord
  2
243
 70
     0
 62
   211
  6
HIDDEN2
  0
LAYER
  5
1AF
330
2
100
AcDbSymbolTableRecord
100
AcDbLayerTableRecord
  2
245
 70
     0
 62
     2
  6
CENTER2
  0
LAYER
  5
21B
330
2
100
AcDbSymbolTableRecord
100
AcDbLayerTableRecord
  2
247
 70
     0
 62
    60
  6
CONTINUOUS
  0
LAYER
  5
21E
330
2
100
AcDbSymbolTableRecord
100
AcDbLayerTableRecord
  2
250
 70
     0
 62
     3
  6
CONTINUOUS
  0
LAYER
  5
21F
330
2
100
AcDbSymbolTableRecord
100
AcDbLayerTableRecord
  2
251
 70
     0
 62
    40
  6
CONTINUOUS
  0
LAYER
  5
5C4
330
2
100
AcDbSymbolTableRecord
100
AcDbLayerTableRecord
  2
DEFPOINTS
 70
     0
 62
     7
  6
CONTINUOUS
  0
ENDTAB
  0
TABLE
  2
STYLE
  5
3
330
0
100
AcDbSymbolTable
 70
     2
  0
STYLE
  5
10
330
3
100
AcDbSymbolTableRecord
100
AcDbTextStyleTableRecord
  2
STANDARD
 70
     0
 40
0.0
 41
1.0
 50
0.0
 71
     0
 42
3.0
  3
romans.shx
  4
BIGFONT.SHX
  0
STYLE
  5
339
330
3
100
AcDbSymbolTableRecord
100
AcDbTextStyleTableRecord
  2
YOKO
 70
     0
 40
0.0
 41
1.0
 50
0.0
 71
     0
 42
3.0
  3
romans.shx
  4
extfont.shx
  0
ENDTAB
  0
TABLE
  2
VIEW
  5
6
330
0
100
AcDbSymbolTable
 70
     1
  0
VIEW
  5
BE8
330
6
100
AcDbSymbolTableRecord
100
AcDbViewTableRecord
  2
OLE1
 70
     0
 40
107.41616205
 10
43.42482836
 20
21.71405905
 41
156.39347947
 11
0.0
 21
0.0
 31
1.0
 12
0.0
 22
0.0
 32
0.0
 42
50.0
 43
0.0
 44
0.0
 50
0.0
 71
     0
  0
ENDTAB
  0
TABLE
  2
UCS
  5
7
330
0
100
AcDbSymbolTable
 70
     0
  0
ENDTAB
  0
TABLE
  2
APPID
  5
9
330
0
100
AcDbSymbolTable
 70
    12
  0
APPID
  5
11
330
9
100
AcDbSymbolTableRecord
100
AcDbRegAppTableRecord
  2
ACAD
 70
     0
  0
APPID
  5
1B1
330
9
100
AcDbSymbolTableRecord
100
AcDbRegAppTableRecord
  2
GLOBAL
 70
     0
  0
APPID
  5
2A4
330
9
100
AcDbSymbolTableRecord
100
AcDbRegAppTableRecord
  2
DETAIL
 70
     0
  0
APPID
  5
5FD
330
9
100
AcDbSymbolTableRecord
100
AcDbRegAppTableRecord
  2
GRPNAME
 70
     0
  0
APPID
  5
5FE
330
9
100
AcDbSymbolTableRecord
100
AcDbRegAppTableRecord
  2
GPARA
 70
     0
  0
APPID
  5
6C4
330
9
100
AcDbSymbolTableRecord
100
AcDbRegAppTableRecord
  2
DCO15
 70
     0
  0
APPID
  5
6C5
330
9
100
AcDbSymbolTableRecord
100
AcDbRegAppTableRecord
  2
ITEMNAME
 70
     0
  0
APPID
  5
6C6
330
9
100
AcDbSymbolTableRecord
100
AcDbRegAppTableRecord
  2
GRADE_0
 70
     0
  0
APPID
  5
824
330
9
100
AcDbSymbolTableRecord
100
AcDbRegAppTableRecord
  2
HATCH_TYPE
 70
     0
  0
APPID
  5
825
330
9
100
AcDbSymbolTableRecord
100
AcDbRegAppTableRecord
  2
HATCH_DISPLAY
 70
     0
  0
APPID
  5
826
330
9
100
AcDbSymbolTableRecord
100
AcDbRegAppTableRecord
  2
HATCH_DISTANCE
 70
     0
  0
APPID
  5
A59
330
9
100
AcDbSymbolTableRecord
100
AcDbRegAppTableRecord
  2
CONTENTBLOCKICON
 70
     0
  0
ENDTAB
  0
TABLE
  2
DIMSTYLE
  5
A
330
0
100
AcDbSymbolTable
 70
     1
  0
DIMSTYLE
105
725
102
{ACAD_REACTORS
330
831
330
832
102
}
330
A
100
AcDbSymbolTableRecord
100
AcDbDimStyleTableRecord
  2
BIGT
 70
     0
  3

  4

  5

  6
OPEN
  7
OPEN
 40
1.0
 41
2.23
 42
0.5
 43
2.5
 44
1.0
 45
0.0
 46
0.0
 47
0.0
 48
0.0
140
2.8
141
0.0
142
0.0
143
25.4
144
1.0
145
0.0
146
1.0
147
1.0
 71
     0
 72
     0
 73
     0
 74
     0
 75
     0
 76
     0
 77
     3
 78
     8
170
     0
171
     2
172
     1
173
     1
174
     1
175
     0
176
   256
177
   256
178
    40
270
     2
271
     3
272
     3
273
     2
274
     2
340
10
275
     0
280
     0
281
     0
282
     0
283
     1
284
     8
285
     0
286
     0
287
     3
288
     0
  0
ENDTAB
  0
TABLE
  2
BLOCK_RECORD
  5
1
330
0
100
AcDbSymbolTable
 70
     6
  0
BLOCK_RECORD
  5
1A
102
{ACAD_XDICTIONARY
360
A57
102
}
330
1
100
AcDbSymbolTableRecord
100
AcDbBlockTableRecord
  2
*MODEL_SPACE
  0
BLOCK_RECORD
  5
17
102
{ACAD_XDICTIONARY
360
A55
102
}
330
1
100
AcDbSymbolTableRecord
100
AcDbBlockTableRecord
  2
*PAPER_SPACE
  0
BLOCK_RECORD
  5
594
330
1
100
AcDbSymbolTableRecord
100
AcDbBlockTableRecord
  2
_OPEN
  0
BLOCK_RECORD
  5
6E3
330
1
100
AcDbSymbolTableRecord
100
AcDbBlockTableRecord
  2
矢印なし
  0
BLOCK_RECORD
  5
833
330
1
100
AcDbSymbolTableRecord
100
AcDbBlockTableRecord
  2
*D2
  0
BLOCK_RECORD
  5
83F
330
1
100
AcDbSymbolTableRecord
100
AcDbBlockTableRecord
  2
*D3
  0
BLOCK_RECORD
  5
915
330
1
100
AcDbSymbolTableRecord
100
AcDbBlockTableRecord
  2
_DOT
  0
BLOCK_RECORD
  5
96C
330
1
100
AcDbSymbolTableRecord
100
AcDbBlockTableRecord
  2
1
1001
CONTENTBLOCKICON
1071
        0
1004
2800000020000000200000000100080000000000000400000000000000000000000000000000000000000000000080000080000000808000800000008000800080800000C0C0C000C0DCC000F0CAA6000020400000206000002080000020A0000020C0000020E00000400000004020000040400000406000004080000040A0
1004
000040C0000040E00000600000006020000060400000606000006080000060A0000060C0000060E00000800000008020000080400000806000008080000080A0000080C0000080E00000A0000000A0200000A0400000A0600000A0800000A0A00000A0C00000A0E00000C0000000C0200000C0400000C0600000C0800000C0
1004
A00000C0C00000C0E00000E0000000E0200000E0400000E0600000E0800000E0A00000E0C00000E0E00040000000400020004000400040006000400080004000A0004000C0004000E00040200000402020004020400040206000402080004020A0004020C0004020E000404000004040200040404000404060004040800040
1004
40A0004040C0004040E00040600000406020004060400040606000406080004060A0004060C0004060E00040800000408020004080400040806000408080004080A0004080C0004080E00040A0000040A0200040A0400040A0600040A0800040A0A00040A0C00040A0E00040C0000040C0200040C0400040C0600040C08000
1004
40C0A00040C0C00040C0E00040E0000040E0200040E0400040E0600040E0800040E0A00040E0C00040E0E00080000000800020008000400080006000800080008000A0008000C0008000E00080200000802020008020400080206000802080008020A0008020C0008020E00080400000804020008040400080406000804080
1004
008040A0008040C0008040E00080600000806020008060400080606000806080008060A0008060C0008060E00080800000808020008080400080806000808080008080A0008080C0008080E00080A0000080A0200080A0400080A0600080A0800080A0A00080A0C00080A0E00080C0000080C0200080C0400080C0600080C0
1004
800080C0A00080C0C00080C0E00080E0000080E0200080E0400080E0600080E0800080E0A00080E0C00080E0E000C0000000C0002000C0004000C0006000C0008000C000A000C000C000C000E000C0200000C0202000C0204000C0206000C0208000C020A000C020C000C020E000C0400000C0402000C0404000C0406000C0
1004
408000C040A000C040C000C040E000C0600000C0602000C0604000C0606000C0608000C060A000C060C000C060E000C0800000C0802000C0804000C0806000C0808000C080A000C080C000C080E000C0A00000C0A02000C0A04000C0A06000C0A08000C0A0A000C0A0C000C0A0E000C0C00000C0C02000C0C04000C0C06000
1004
C0C08000C0C0A000F0FBFF00A4A0A000808080000000FF0000FF000000FFFF00FF000000FF00FF00FFFF0000FFFFFF000000000000000000000000000000000000000000000000000000000000000000000000000000000000FEFEFEFE00000000000000000000000000000000000000000000000000000000FE00E7FE0000
1004
0000000000000000000000000000000000000000000000000000FE00E700FE000000000000000000000000000000000000000000000000000000FE00E70000FEFE00000000000000000000000000000000000000000000000000FE003E3E3E3E00FE000000000000000000000000000000000000000000000000FE003E3E3E
1004
3E00FE000000000000000000000000000000000000000000000000FE003E3E3E3E00FE000000000000000000000000000000000000000000000000FE003E3E3E3E00FE000000000000000000000000000000000000000000000000FE00E7003E3E00FE000000000000000000000000000000000000000000000000FE00E700
1004
3E000000FE0000000000000000000000000000000000000000000000FE00E7003E3E0000FE0000000000000000000000000000000000000000000000E7E7E7003E3E0000FE0000000000000000000000000000000000000000000000FEFBE7FB3E3EFBFBFE0000000000000000000000000000000000000000000000E7E7E7
1004
003E3E0000FE0000000000000000000000000000000000000000000000FE00E7003E3E00E700FE00000000000000000000000000000000000000000000FE00E7000000E70000FE00000000000000000000000000000000000000000000FE00E70000E700000000FE000000000000000000000000000000000000000000FE00
1004
E700E70000000000E7FE0000000000000000000000000000000000000000FE00E7E700000000E7E7E700FE00000000000000000000000000000000000000FE00E7000000E7E7000000E7FE00000000000000000000000000000000000000FEE7E7000000E700E7E7E7E7FE00000000000000000000000000000000000000FE
1004
00E7000000E7E7E700E7E7FE00000000000000000000000000000000000000FE00E700000000E7E7E7E7E7FE00000000000000000000000000000000000000FEFEFE00000000E7E7E7E7E700FE0000000000000000000000000000000000000000FE0000000000E70000E700FE000000000000000000000000000000000000
1004
000000FE0000000000E700E7E7FE000000000000000000000000000000000000000000FE00000000E700E7E7E7FE00000000000000000000000000000000000000000000FE000000E700E7E700E70000000000000000000000000000000000000000000000FEFEE7FEFEFEFEFEFE0000000000000000000000000000000000
1004
0000000000000000000000000000000000000000000000000000000000000000000000000000000000000000000000000000000000000000
  0
ENDTAB
  0
ENDSEC
  0
SECTION
  2
BLOCKS
  0
BLOCK
  5
1B
330
1A
100
AcDbEntity
  8
0
100
AcDbBlockBegin
  2
*MODEL_SPACE
 70
     0
 10
0.0
 20
0.0
 30
0.0
  3
*MODEL_SPACE
  1

  0
ENDBLK
  5
1C
330
1A
100
AcDbEntity
  8
0
100
AcDbBlockEnd
  0
BLOCK
  5
18
330
17
100
AcDbEntity
 67
     1
  8
0
100
AcDbBlockBegin
  2
*PAPER_SPACE
 70
     0
 10
0.0
 20
0.0
 30
0.0
  3
*PAPER_SPACE
  1

  0
ENDBLK
  5
19
330
17
100
AcDbEntity
 67
     1
  8
0
100
AcDbBlockEnd
  0
BLOCK
  5
598
330
594
100
AcDbEntity
  8
0
100
AcDbBlockBegin
  2
_OPEN
 70
     0
 10
0.0
 20
0.0
 30
0.0
  3
_OPEN
  1

  0
LINE
  5
595
330
594
100
AcDbEntity
  8
0
  6
BYBLOCK
 62
     0
100
AcDbLine
 10
-1.0
 20
0.16666667
 30
0.0
 11
0.0
 21
0.0
 31
0.0
  0
LINE
  5
596
330
594
100
AcDbEntity
  8
0
  6
BYBLOCK
 62
     0
100
AcDbLine
 10
-1.0
 20
-0.16666667
 30
0.0
 11
0.0
 21
0.0
 31
0.0
  0
LINE
  5
597
330
594
100
AcDbEntity
  8
0
  6
BYBLOCK
 62
     0
100
AcDbLine
 10
0.0
 20
0.0
 30
0.0
 11
-1.0
 21
0.0
 31
0.0
  0
ENDBLK
  5
599
330
594
100
AcDbEntity
  8
0
100
AcDbBlockEnd
  0
BLOCK
  5
6E4
330
6E3
100
AcDbEntity
  8
0
100
AcDbBlockBegin
  2
矢印なし
 70
     0
 10
0.0
 20
0.0
 30
0.0
  3
矢印なし
  1

  0
ENDBLK
  5
6E5
330
6E3
100
AcDbEntity
  8
0
100
AcDbBlockEnd
  0
BLOCK
  5
83D
330
833
100
AcDbEntity
  8
0
100
AcDbBlockBegin
  2
*D2
 70
     1
 10
0.0
 20
0.0
 30
0.0
  3
*D2
  1

  0
LINE
  5
963
330
833
100
AcDbEntity
  8
250
  6
CONTINUOUS
100
AcDbLine
 10
34.7
 20
45.0
 30
0.0
 11
50.0
 21
45.0
 31
0.0
  0
LINE
  5
964
330
833
100
AcDbEntity
  8
250
  6
CONTINUOUS
100
AcDbLine
 10
21.83508327
 20
0.0
 30
0.0
 11
50.0
 21
0.0
 31
0.0
  0
LINE
  5
965
330
833
100
AcDbEntity
  8
250
  6
CONTINUOUS
100
AcDbLine
 10
49.0
 20
42.77
 30
0.0
 11
49.0
 21
2.23
 31
0.0
  0
INSERT
  5
966
330
833
100
AcDbEntity
  8
250
  6
CONTINUOUS
100
AcDbBlockReference
  2
_OPEN
 10
49.0
 20
45.0
 30
0.0
 41
2.23
 42
2.23
 43
2.23
 50
90.0
  0
INSERT
  5
967
330
833
100
AcDbEntity
  8
250
  6
CONTINUOUS
100
AcDbBlockReference
  2
_OPEN
 10
49.0
 20
0.0
 30
0.0
 41
2.23
 42
2.23
 43
2.23
 50
270.0
  0
MTEXT
  5
968
330
833
100
AcDbEntity
  8
250
  6
CONTINUOUS
 62
    40
100
AcDbMText
 10
46.5
 20
21.0
 30
0.0
 40
3.0
 41
0.0
 71
     5
 72
     1
  1
\A1;45
 11
0.0
 21
1.0
 31
0.0
1001
ACAD
1000
MTEXTBEGIN
1070
    73
1070
     1
1070
    44
1040
1.0
1070
    74
1070
     0
1000
MTEXTEND
1000
MTEXTBEGIN
1070
    73
1070
     1
1070
    44
1040
1.0
1070
    74
1070
     0
1000
MTEXTEND
1000
MTEXTBEGIN
1070
    73
1070
     1
1070
    44
1040
1.0
1070
    74
1070
     0
1000
MTEXTEND
  0
POINT
  5
969
330
833
100
AcDbEntity
  8
DEFPOINTS
  6
CONTINUOUS
 62
     0
100
AcDbPoint
 10
34.2
 20
45.0
 30
0.0
  0
POINT
  5
96A
330
833
100
AcDbEntity
  8
DEFPOINTS
  6
CONTINUOUS
 62
     0
100
AcDbPoint
 10
21.33508327
 20
0.0
 30
0.0
  0
POINT
  5
96B
330
833
100
AcDbEntity
  8
DEFPOINTS
  6
CONTINUOUS
 62
     0
100
AcDbPoint
 10
49.0
 20
0.0
 30
0.0
  0
ENDBLK
  5
83E
330
833
100
AcDbEntity
  8
0
100
AcDbBlockEnd
  0
BLOCK
  5
849
330
83F
100
AcDbEntity
  8
0
100
AcDbBlockBegin
  2
*D3
 70
     1
 10
0.0
 20
0.0
 30
0.0
  3
*D3
  1

  0
LINE
  5
AE0
330
83F
100
AcDbEntity
  8
250
  6
CONTINUOUS
100
AcDbLine
 10
0.0
 20
32.0
 30
0.0
 11
0.0
 21
57.0
 31
0.0
  0
LINE
  5
AE1
330
83F
100
AcDbEntity
  8
250
  6
CONTINUOUS
100
AcDbLine
 10
35.0
 20
44.7
 30
0.0
 11
35.0
 21
57.0
 31
0.0
  0
LINE
  5
AE2
330
83F
100
AcDbEntity
  8
250
  6
CONTINUOUS
100
AcDbLine
 10
2.23
 20
56.0
 30
0.0
 11
32.77
 21
56.0
 31
0.0
  0
INSERT
  5
AE3
330
83F
100
AcDbEntity
  8
250
  6
CONTINUOUS
100
AcDbBlockReference
  2
_OPEN
 10
0.0
 20
56.0
 30
0.0
 41
2.23
 42
2.23
 43
2.23
 50
180.0
  0
INSERT
  5
AE4
330
83F
100
AcDbEntity
  8
250
  6
CONTINUOUS
100
AcDbBlockReference
  2
_OPEN
 10
35.0
 20
56.0
 30
0.0
 41
2.23
 42
2.23
 43
2.23
  0
MTEXT
  5
AE5
330
83F
100
AcDbEntity
  8
250
  6
CONTINUOUS
 62
    40
100
AcDbMText
 10
17.5
 20
58.5
 30
0.0
 40
3.0
 41
0.0
 71
     5
 72
     1
  1
\A1;35
1001
ACAD
1000
MTEXTBEGIN
1070
    73
1070
     1
1070
    44
1040
1.0
1070
    74
1070
     0
1000
MTEXTEND
1000
MTEXTBEGIN
1070
    73
1070
     1
1070
    44
1040
1.0
1070
    74
1070
     0
1000
MTEXTEND
  0
POINT
  5
AE6
330
83F
100
AcDbEntity
  8
DEFPOINTS
  6
CONTINUOUS
 62
     0
100
AcDbPoint
 10
0.0
 20
31.5
 30
0.0
  0
POINT
  5
AE7
330
83F
100
AcDbEntity
  8
DEFPOINTS
  6
CONTINUOUS
 62
     0
100
AcDbPoint
 10
35.0
 20
44.2
 30
0.0
  0
POINT
  5
AE8
330
83F
100
AcDbEntity
  8
DEFPOINTS
  6
CONTINUOUS
 62
     0
100
AcDbPoint
 10
35.0
 20
56.0
 30
0.0
  0
ENDBLK
  5
84A
330
83F
100
AcDbEntity
  8
0
100
AcDbBlockEnd
  0
BLOCK
  5
927
330
915
100
AcDbEntity
  8
0
100
AcDbBlockBegin
  2
_DOT
 70
     0
 10
0.0
 20
0.0
 30
0.0
  3
_DOT
  1

  0
LINE
  5
928
330
915
100
AcDbEntity
  8
0
 62
     0
100
AcDbLine
 10
-1.0
 20
0.0
 30
0.0
 11
0.0
 21
0.0
 31
0.0
  0
LWPOLYLINE
  5
929
330
915
100
AcDbEntity
  8
0
 62
     0
100
AcDbPolyline
 90
        3
 70
     0
 43
0.5
 10
0.125
 20
0.0
 42
1.0
 10
-0.125
 20
0.0
 42
1.0
 10
0.125
 20
0.0
 42
1.0
  0
ENDBLK
  5
92E
330
915
100
AcDbEntity
  8
0
100
AcDbBlockEnd
  0
BLOCK
  5
96D
330
96C
100
AcDbEntity
  8
0
100
AcDbBlockBegin
  2
1
 70
     0
 10
0.0
 20
0.0
 30
0.0
  3
1
  1

  0
LINE
  5
AF3
330
96C
100
AcDbEntity
  8
243
100
AcDbLine
 10
3.7
 20
0.0
 30
0.0
 11
3.7
 21
31.5
 31
0.0
  0
LINE
  5
AF4
330
96C
100
AcDbEntity
  8
240
100
AcDbLine
 10
0.0
 20
24.94815816
 30
0.0
 11
0.0
 21
31.5
 31
0.0
  0
ELLIPSE
  5
AF5
330
96C
100
AcDbEntity
  8
241
100
AcDbEllipse
 10
20.87641329
 20
28.99098908
 30
0.0
 11
1.153994355908758
 21
3.787308236275725
 31
0.0
210
0.0
220
0.0
230
-1.0
 40
0.7577254
 41
4.712388980384688
 42
5.264058420103872
  0
LINE
  5
AF6
330
96C
100
AcDbEntity
  8
241
100
AcDbLine
 10
30.62130806
 20
28.19096962
 30
0.0
 11
29.1016035
 21
38.93077518
 31
0.0
  0
LINE
  5
AF7
330
96C
100
AcDbEntity
  8
240
100
AcDbLine
 10
31.10467759
 20
16.87993659
 30
0.0
 11
33.89510708
 21
41.83946255
 31
0.0
  0
LINE
  5
AF8
330
96C
100
AcDbEntity
  8
245
  6
CENTER2
 62
     2
100
AcDbLine
 10
-1.0
 20
0.0
 30
0.0
 11
21.33508327
 21
0.0
 31
0.0
  0
LINE
  5
AF9
330
96C
100
AcDbEntity
  8
241
100
AcDbLine
 10
21.58664649
 20
3.47976559
 30
0.0
 11
0.0
 21
24.94815816
 31
0.0
  0
LINE
  5
AFA
330
96C
100
AcDbEntity
  8
240
100
AcDbLine
 10
7.57670781
 20
-30.92329219
 30
0.0
 11
18.03581296
 21
-20.46418704
 31
0.0
  0
LINE
  5
AFB
330
96C
100
AcDbEntity
  8
243
100
AcDbLine
 10
3.7
 20
0.0
 30
0.0
 11
3.7
 21
-31.5
 31
0.0
  0
LINE
  5
AFC
330
96C
100
AcDbEntity
  8
240
100
AcDbLine
 10
0.0
 20
-31.5
 30
0.0
 11
0.0
 21
0.0
 31
0.0
  0
LINE
  5
AFD
102
{ACAD_REACTORS
330
B02
102
}
330
96C
100
AcDbEntity
  8
247
100
AcDbLine
 10
4.51215603
 20
-21.3241085
 30
0.0
 11
4.51215603
 21
-20.72314537
 31
0.0
  0
LINE
  5
AFE
102
{ACAD_REACTORS
330
B02
102
}
330
96C
100
AcDbEntity
  8
247
100
AcDbLine
 10
4.80316189
 20
-21.3241085
 30
0.0
 11
4.80316189
 21
-20.80658653
 31
0.0
  0
LINE
  5
AFF
102
{ACAD_REACTORS
330
B02
102
}
330
96C
100
AcDbEntity
  8
247
100
AcDbLine
 10
7.56769591
 20
-21.3241085
 30
0.0
 11
7.56769591
 21
-15.41672691
 31
0.0
  0
LINE
  5
B00
102
{ACAD_REACTORS
330
B02
102
}
330
96C
100
AcDbEntity
  8
247
100
AcDbLine
 10
7.27669006
 20
-21.3241085
 30
0.0
 11
7.27669006
 21
-15.41672691
 31
0.0
  0
TEXT
  5
B01
330
96C
100
AcDbEntity
  8
247
100
AcDbText
 10
11.52060636
 20
-23.17105087
 30
0.0
 40
2.5
  1
F63-DTJNR-45035-16
 50
90.0
 41
0.65
  7
YOKO
 11
11.52060636
 21
-23.17105087
 31
0.0
100
AcDbText
 73
     1
  0
HATCH
  5
B02
330
96C
100
AcDbEntity
  8
247
100
AcDbHatch
 10
0.0
 20
0.0
 30
0.0
210
0.0
220
0.0
230
1.0
  2
ANSI31
 70
     0
 71
     1
 91
        1
 92
       33
 93
       10
 72
     1
 10
4.512156029999999
 20
-20.72314537
 11
4.80316189
 21
-20.80658652999999
 72
     1
 10
4.512156029999999
 20
-21.32410849999999
 11
4.512156029999999
 21
-20.72314537
 72
     1
 10
4.80316189
 20
-21.32410849999999
 11
4.80316189
 21
-20.80658652999999
 72
     2
 10
6.039925799999999
 20
-21.32410849999999
 40
1.236763916015622
 50
180.0
 51
360.0
 73
     1
 72
     2
 10
6.039925799999999
 20
-21.32410849999999
 40
1.527769775390624
 50
180.0
 51
360.0
 73
     1
 72
     1
 10
7.56769591
 20
-21.32410849999999
 11
7.56769591
 21
-15.41672691
 72
     1
 10
7.276690059999999
 20
-21.32410849999999
 11
7.276690059999999
 21
-15.41672691
 72
     2
 10
6.039925799999999
 20
-15.41672691
 40
1.527769775390624
 50
0.0
 51
194.77079397
 73
     1
 72
     2
 10
6.039925799999999
 20
-15.41672691
 40
1.236763916015622
 50
0.0
 51
194.1274364999999
 73
     1
 72
     1
 10
4.84055935
 20
-15.71859824999999
 11
4.56263821
 21
-15.80623618999999
 97
       10
330
B35
330
AFD
330
AFE
330
B06
330
B07
330
AFF
330
B00
330
B0A
330
B09
330
B26
 75
     0
 76
     1
 52
90.0
 41
0.072
 77
     0
 78
     1
 53
134.999999999998
 43
18.90768871181004
 44
-109.1078686669793
 45
-0.16164461017925
 46
-0.1616446101792394
 79
     0
 98
        1
 10
18.90768871181004
 20
-109.1078686669793
  0
LINE
  5
B03
330
96C
100
AcDbEntity
  8
240
100
AcDbLine
 10
0.0
 20
-31.5
 30
0.0
 11
6.58578644
 21
-31.5
 31
0.0
  0
LINE
  5
B04
330
96C
100
AcDbEntity
  8
240
100
AcDbLine
 10
7.57670781
 20
-30.92329219
 30
0.0
 11
7.29289322
 21
-31.20710678
 31
0.0
  0
ARC
  5
B05
330
96C
100
AcDbEntity
  8
240
100
AcDbCircle
 10
6.58578644
 20
-30.5
 30
0.0
 40
1.0
100
AcDbArc
 50
270.0
 51
315.0
  0
ARC
  5
B06
102
{ACAD_REACTORS
330
B02
102
}
330
96C
100
AcDbEntity
  8
247
100
AcDbCircle
 10
6.0399258
 20
-21.3241085
 30
0.0
 40
1.236763916015622
100
AcDbArc
 50
180.0
 51
0.0
  0
ARC
  5
B07
102
{ACAD_REACTORS
330
B02
102
}
330
96C
100
AcDbEntity
  8
247
100
AcDbCircle
 10
6.0399258
 20
-21.3241085
 30
0.0
 40
1.527769775390624
100
AcDbArc
 50
180.0
 51
0.0
  0
LINE
  5
B08
330
96C
100
AcDbEntity
  8
240
100
AcDbLine
 10
0.0
 20
24.94815816
 30
0.0
 11
0.0
 21
0.0
 31
0.0
  0
ARC
  5
B09
102
{ACAD_REACTORS
330
B02
102
}
330
96C
100
AcDbEntity
  8
247
100
AcDbCircle
 10
6.0399258
 20
-15.41672691
 30
0.0
 40
1.236763916015622
100
AcDbArc
 50
0.0
 51
194.1274365
  0
ARC
  5
B0A
102
{ACAD_REACTORS
330
B02
102
}
330
96C
100
AcDbEntity
  8
247
100
AcDbCircle
 10
6.0399258
 20
-15.41672691
 30
0.0
 40
1.527769775390624
100
AcDbArc
 50
0.0
 51
194.77079397
  0
ARC
  5
B0B
102
{ACAD_REACTORS
330
B2F
102
}
330
96C
100
AcDbEntity
  8
247
100
AcDbCircle
 10
6.50552639
 20
-16.95055016
 30
0.0
 40
0.3055557918548584
100
AcDbArc
 50
254.00027306
 51
74.00027306
  0
LWPOLYLINE
  5
B0C
102
{ACAD_REACTORS
330
B30
102
}
330
96C
100
AcDbEntity
  8
247
100
AcDbPolyline
 90
        6
 70
     1
 43
0.0
 10
4.51215603
 20
-18.43752769
 10
4.83225368
 20
-18.52931847
 10
4.83225368
 20
-18.42335533
 10
7.13118713
 20
-19.08256798
 10
7.13118713
 20
-18.43169395
 10
4.51215603
 20
-17.68070152
  0
LWPOLYLINE
  5
B0D
330
96C
100
AcDbEntity
  8
247
100
AcDbPolyline
 90
        6
 70
     1
 43
0.0
 10
4.51215603
 20
-18.43752769
 10
4.83225368
 20
-18.52931847
 10
4.83225368
 20
-18.42335533
 10
7.13118713
 20
-19.08256798
 10
7.13118713
 20
-18.43169395
 10
4.51215603
 20
-17.68070152
1001
HATCH_DISTANCE
1040
1.0
1001
HATCH_DISPLAY
1070
     0
1001
HATCH_TYPE
1070
     7
  0
LINE
  5
B0E
330
96C
100
AcDbEntity
  8
247
100
AcDbLine
 10
7.13118713
 20
-19.08256798
 30
0.0
 11
4.83225368
 21
-18.42335533
 31
0.0
  0
LINE
  5
B0F
330
96C
100
AcDbEntity
  8
247
100
AcDbLine
 10
7.13118713
 20
-18.43169395
 30
0.0
 11
4.51215603
 21
-17.68070152
 31
0.0
  0
LINE
  5
B10
102
{ACAD_REACTORS
330
B2F
102
}
330
96C
100
AcDbEntity
  8
247
100
AcDbLine
 10
6.58974758
 20
-16.65683067
 30
0.0
 11
5.93807155
 21
-16.46996422
 31
0.0
  0
LINE
  5
B11
102
{ACAD_REACTORS
330
B2F
102
}
330
96C
100
AcDbEntity
  8
247
100
AcDbLine
 10
7.13118713
 20
-16.20662193
 30
0.0
 11
5.6470657
 21
-15.78105553
 31
0.0
  0
ARC
  5
B12
102
{ACAD_REACTORS
330
B2F
102
}
330
96C
100
AcDbEntity
  8
247
100
AcDbCircle
 10
6.18542873
 20
-16.91930504
 30
0.0
 40
0.9457690429687499
100
AcDbArc
 50
253.9997507
 51
34.96387329
  0
ARC
  5
B13
330
96C
100
AcDbEntity
  8
247
100
AcDbCircle
 10
6.40368313
 20
-19.96379234
 30
0.0
 40
0.727503662109375
100
AcDbArc
 50
0.0
 51
130.32984065
  0
LINE
  5
B14
330
96C
100
AcDbEntity
  8
247
100
AcDbLine
 10
4.84396343
 20
-19.71775504
 30
0.0
 11
4.54384105
 21
-19.41763266
 31
0.0
  0
LINE
  5
B15
330
96C
100
AcDbEntity
  8
247
100
AcDbLine
 10
5.01429269
 20
-19.56479508
 30
0.0
 11
4.65142989
 21
-19.20193228
 31
0.0
  0
LINE
  5
B16
330
96C
100
AcDbEntity
  8
247
100
AcDbLine
 10
5.30028322
 20
-19.52749639
 30
0.0
 11
4.81331301
 21
-19.04052618
 31
0.0
  0
ARC
  5
B17
330
96C
100
AcDbEntity
  8
247
100
AcDbCircle
 10
5.23965969
 20
-19.63001671
 30
0.0
 40
0.7275098419189452
100
AcDbArc
 50
17.66957755
 51
180.23615984
  0
LINE
  5
B18
330
96C
100
AcDbEntity
  8
247
100
AcDbLine
 10
6.07093438
 20
-19.97485833
 30
0.0
 11
5.0295761
 21
-18.93350005
 31
0.0
  0
LINE
  5
B19
330
96C
100
AcDbEntity
  8
247
100
AcDbLine
 10
6.28137286
 20
-19.86200759
 30
0.0
 11
5.32715237
 21
-18.9077871
 31
0.0
  0
LINE
  5
B1A
330
96C
100
AcDbEntity
  8
247
100
AcDbLine
 10
4.83225368
 20
-18.52931847
 30
0.0
 11
4.51215603
 21
-18.43752769
 31
0.0
  0
LINE
  5
B1B
330
96C
100
AcDbEntity
  8
247
100
AcDbLine
 10
4.83225368
 20
-18.52931847
 30
0.0
 11
4.83225368
 21
-18.42335533
 31
0.0
  0
LINE
  5
B1C
330
96C
100
AcDbEntity
  8
247
100
AcDbLine
 10
4.51215603
 20
-18.43752769
 30
0.0
 11
4.51215603
 21
-17.68070152
 31
0.0
  0
ARC
  5
B1D
102
{ACAD_REACTORS
330
B2F
102
}
330
96C
100
AcDbEntity
  8
247
100
AcDbCircle
 10
6.23515285
 20
-15.3730233
 30
0.0
 40
2.4749560546875
100
AcDbArc
 50
245.20517737
 51
262.79482596
  0
ARC
  5
B1E
102
{ACAD_REACTORS
330
B2F
102
}
330
96C
100
AcDbEntity
  8
247
100
AcDbCircle
 10
5.45791408
 20
-16.71069664
 30
0.0
 40
0.9457594299316404
100
AcDbArc
 50
143.4440122
 51
254.00018439
  0
LINE
  5
B1F
102
{ACAD_REACTORS
330
B2F
102
}
330
96C
100
AcDbEntity
  8
247
100
AcDbLine
 10
5.6470657
 20
-16.62870567
 30
0.0
 11
5.6470657
 21
-15.78105553
 31
0.0
  0
ARC
  5
B20
102
{ACAD_REACTORS
330
B2F
102
}
330
96C
100
AcDbEntity
  8
247
100
AcDbCircle
 10
5.13781643
 20
-16.55836021
 30
0.0
 40
0.3055560064315795
100
AcDbArc
 50
91.71012138
 51
253.99839835
  0
LINE
  5
B21
102
{ACAD_REACTORS
330
B2F
102
}
330
96C
100
AcDbEntity
  8
247
100
AcDbLine
 10
5.93807155
 20
-16.71214683
 30
0.0
 11
5.6470657
 21
-16.62870567
 31
0.0
  0
LINE
  5
B22
102
{ACAD_REACTORS
330
B2F
102
}
330
96C
100
AcDbEntity
  8
247
100
AcDbLine
 10
5.93807155
 20
-16.71214683
 30
0.0
 11
5.93807155
 21
-16.46996422
 31
0.0
  0
LINE
  5
B23
102
{ACAD_REACTORS
330
B2F
102
}
330
96C
100
AcDbEntity
  8
247
100
AcDbLine
 10
4.88431789
 20
-15.85736656
 30
0.0
 11
4.60639675
 21
-15.9450045
 31
0.0
  0
ARC
  5
B24
102
{ACAD_REACTORS
330
B2F
102
}
330
96C
100
AcDbEntity
  8
247
100
AcDbCircle
 10
6.0399258
 20
-15.41672691
 30
0.0
 40
1.236767349243164
100
AcDbArc
 50
200.8721834
 51
222.54194894
  0
ARC
  5
B25
102
{ACAD_REACTORS
330
B2F
102
}
330
96C
100
AcDbEntity
  8
247
100
AcDbCircle
 10
6.0399258
 20
-15.41672691
 30
0.0
 40
1.527770462036129
100
AcDbArc
 50
200.22964506
 51
208.57168892
  0
LINE
  5
B26
102
{ACAD_REACTORS
330
B02
102
}
330
96C
100
AcDbEntity
  8
247
100
AcDbLine
 10
4.84055935
 20
-15.71859825
 30
0.0
 11
4.56263821
 21
-15.80623619
 31
0.0
  0
LWPOLYLINE
  5
B27
330
96C
100
AcDbEntity
  8
247
100
AcDbPolyline
 90
        4
 70
     1
 43
0.0
 10
4.84055935
 20
-15.71859825
 10
4.56263821
 20
-15.80623619
 10
4.56263821
 20
-15.80623619
 10
4.84055935
 20
-15.71859825
  0
LWPOLYLINE
  5
B28
330
96C
100
AcDbEntity
  8
247
100
AcDbPolyline
 90
        4
 70
     1
 43
0.0
 10
4.84055935
 20
-15.71859825
 10
4.56263821
 20
-15.80623619
 10
4.56263821
 20
-15.80623619
 10
4.84055935
 20
-15.71859825
1001
HATCH_DISTANCE
1040
1.0
1001
HATCH_DISPLAY
1070
     0
1001
HATCH_TYPE
1070
     7
  0
LWPOLYLINE
  5
B29
330
96C
100
AcDbEntity
  8
247
100
AcDbPolyline
 90
        4
 70
     1
 43
0.0
 10
4.84055935
 20
-15.71859825
 10
4.56263821
 20
-15.80623619
 10
4.56263821
 20
-15.80623619
 10
4.84055935
 20
-15.71859825
  0
LWPOLYLINE
  5
B2A
330
96C
100
AcDbEntity
  8
247
100
AcDbPolyline
 90
        4
 70
     1
 43
0.0
 10
4.84055935
 20
-15.71859825
 10
4.56263821
 20
-15.80623619
 10
4.56263821
 20
-15.80623619
 10
4.84055935
 20
-15.71859825
1001
HATCH_DISTANCE
1040
1.0
1001
HATCH_DISPLAY
1070
     0
1001
HATCH_TYPE
1070
     7
  0
LINE
  5
B2B
102
{ACAD_REACTORS
330
B2F
102
}
330
96C
100
AcDbEntity
  8
247
100
AcDbLine
 10
6.4213052
 20
-17.24426964
 30
0.0
 11
5.05358425
 21
-16.8520797
 31
0.0
  0
LINE
  5
B2C
330
96C
100
AcDbEntity
  8
247
100
AcDbLine
 10
7.07664228
 20
-19.68740935
 30
0.0
 11
6.68006612
 21
-19.29083319
 31
0.0
  0
LINE
  5
B2D
102
{ACAD_REACTORS
330
B2F
102
}
330
96C
100
AcDbEntity
  8
247
100
AcDbLine
 10
6.96049255
 20
-16.3773275
 30
0.0
 11
7.13118713
 21
-16.20662193
 31
0.0
  0
LINE
  5
B2E
330
96C
100
AcDbEntity
  8
247
100
AcDbLine
 10
7.13118713
 20
-19.08256798
 30
0.0
 11
7.13118713
 21
-18.43169395
 31
0.0
  0
HATCH
  5
B2F
330
96C
100
AcDbEntity
  8
247
100
AcDbHatch
 10
0.0
 20
0.0
 30
0.0
210
0.0
220
0.0
230
1.0
  2
ANSI31
 70
     0
 71
     1
 91
        1
 92
       33
 93
       15
 72
     1
 10
4.88431789
 20
-15.85736656
 11
4.60639675
 21
-15.9450045
 72
     2
 10
6.039925799999998
 20
-15.41672691
 40
1.236767349243164
 50
200.8721834
 51
222.54194894
 73
     1
 72
     2
 10
5.137816429999999
 20
-16.55836021
 40
0.3055560064315795
 50
91.71012137999998
 51
253.9983983499999
 73
     1
 72
     1
 10
6.421305199999999
 20
-17.24426964
 11
5.05358425
 21
-16.8520797
 72
     2
 10
6.505526389999999
 20
-16.95055015999999
 40
0.3055557918548584
 50
254.00027306
 51
434.00027306
 73
     1
 72
     1
 10
6.58974758
 20
-16.65683067
 11
5.93807155
 21
-16.46996422
 72
     1
 10
5.93807155
 20
-16.71214682999999
 11
5.93807155
 21
-16.46996422
 72
     1
 10
5.93807155
 20
-16.71214682999999
 11
5.647065699999998
 21
-16.62870566999999
 72
     1
 10
5.647065699999998
 20
-16.62870566999999
 11
5.647065699999998
 21
-15.78105553
 72
     1
 10
7.131187129999998
 20
-16.20662193
 11
5.647065699999998
 21
-15.78105553
 72
     1
 10
6.960492549999998
 20
-16.3773275
 11
7.131187129999998
 21
-16.20662193
 72
     2
 10
6.185428729999999
 20
-16.91930504
 40
0.9457690429687499
 50
253.9997506999999
 51
394.96387329
 73
     1
 72
     2
 10
6.23515285
 20
-15.3730233
 40
2.4749560546875
 50
245.2051773699999
 51
262.79482596
 73
     1
 72
     2
 10
5.45791408
 20
-16.71069664
 40
0.9457594299316404
 50
143.4440121999999
 51
254.00018439
 73
     1
 72
     2
 10
6.039925799999998
 20
-15.41672691
 40
1.527770462036129
 50
200.2296450599999
 51
208.5716889199999
 73
     1
 97
       15
330
B23
330
B24
330
B20
330
B2B
330
B0B
330
B10
330
B22
330
B21
330
B1F
330
B11
330
B2D
330
B12
330
B1D
330
B1E
330
B25
 75
     0
 76
     1
 52
90.0
 41
0.072
 77
     0
 78
     1
 53
134.999999999998
 43
18.90768871181004
 44
-109.1078686669793
 45
-0.16164461017925
 46
-0.1616446101792394
 79
     0
 98
        1
 10
18.90768871181004
 20
-109.1078686669793
  0
HATCH
  5
B30
330
96C
100
AcDbEntity
  8
247
100
AcDbHatch
 10
0.0
 20
0.0
 30
0.0
210
0.0
220
0.0
230
1.0
  2
ANSI31
 70
     0
 71
     1
 91
        1
 92
        7
 72
     0
 73
     1
 93
        6
 10
4.512156029999998
 20
-17.68070151999999
 10
4.512156029999998
 20
-18.43752768999999
 10
4.832253679999999
 20
-18.52931846999998
 10
4.832253679999999
 20
-18.42335532999999
 10
7.131187129999998
 20
-19.08256798
 10
7.131187129999998
 20
-18.43169395
 97
        1
330
B0C
 75
     0
 76
     1
 52
90.0
 41
0.072
 77
     0
 78
     1
 53
134.999999999998
 43
18.90768871181004
 44
-109.1078686669793
 45
-0.16164461017925
 46
-0.1616446101792394
 79
     0
 47
0.01343485
 98
        1
 10
5.753093585885607
 20
-18.36108875295956
  0
LINE
  5
B31
330
96C
100
AcDbEntity
  8
247
100
AcDbLine
 10
7.13118713
 20
-21.03511108
 30
0.0
 11
6.30363602
 21
-20.20755997
 31
0.0
  0
LINE
  5
B32
330
96C
100
AcDbEntity
  8
247
100
AcDbLine
 10
7.13118713
 20
-21.17140953
 30
0.0
 11
4.80316189
 21
-20.50385826
 31
0.0
  0
LINE
  5
B33
330
96C
100
AcDbEntity
  8
247
100
AcDbLine
 10
5.97476838
 20
-20.11326205
 30
0.0
 11
6.80647642
 21
-20.351742
 31
0.0
  0
LINE
  5
B34
330
96C
100
AcDbEntity
  8
247
100
AcDbLine
 10
5.05598381
 20
-20.57635387
 30
0.0
 11
4.51215603
 21
-20.03252608
 31
0.0
  0
LINE
  5
B35
102
{ACAD_REACTORS
330
B02
102
}
330
96C
100
AcDbEntity
  8
247
100
AcDbLine
 10
4.51215603
 20
-20.72314537
 30
0.0
 11
4.80316189
 21
-20.80658653
 31
0.0
  0
LINE
  5
B36
330
96C
100
AcDbEntity
  8
247
100
AcDbLine
 10
4.80316189
 20
-20.64682116
 30
0.0
 11
4.51215603
 21
-20.3558153
 31
0.0
  0
LINE
  5
B37
330
96C
100
AcDbEntity
  8
247
100
AcDbLine
 10
4.80316189
 20
-20.65522789
 30
0.0
 11
4.80316189
 21
-20.50385826
 31
0.0
  0
LINE
  5
B38
330
96C
100
AcDbEntity
  8
247
100
AcDbLine
 10
4.51215603
 20
-20.57178673
 30
0.0
 11
4.80316189
 21
-20.65522789
 31
0.0
  0
LINE
  5
B39
330
96C
100
AcDbEntity
  8
247
100
AcDbLine
 10
7.13118713
 20
-20.71182186
 30
0.0
 11
6.75688874
 21
-20.33752347
 31
0.0
  0
LINE
  5
B3A
330
96C
100
AcDbEntity
  8
247
100
AcDbLine
 10
6.86902148
 20
-21.09623465
 30
0.0
 11
5.63774519
 21
-19.86495836
 31
0.0
  0
LINE
  5
B3B
330
96C
100
AcDbEntity
  8
247
100
AcDbLine
 10
7.13118713
 20
-20.38853264
 30
0.0
 11
6.06342047
 21
-19.32076598
 31
0.0
  0
ARC
  5
B3C
330
96C
100
AcDbEntity
  8
247
100
AcDbCircle
 10
6.37458034
 20
-20.28844932
 30
0.0
 40
0.4365090894699097
100
AcDbArc
 50
351.66285421
 51
156.33819216
  0
LINE
  5
B3D
330
96C
100
AcDbEntity
  8
247
100
AcDbLine
 10
7.13118713
 20
-20.06524342
 30
0.0
 11
6.30848756
 21
-19.24254385
 31
0.0
  0
ARC
  5
B3E
330
96C
100
AcDbEntity
  8
247
100
AcDbCircle
 10
5.21056789
 20
-19.95467369
 30
0.0
 40
0.4364966011047363
100
AcDbArc
 50
351.66260169
 51
156.3381551
  0
LINE
  5
B3F
330
96C
100
AcDbEntity
  8
247
100
AcDbLine
 10
5.96250265
 20
-20.83629426
 30
0.0
 11
4.9438613
 21
-19.81765291
 31
0.0
  0
LINE
  5
B40
330
96C
100
AcDbEntity
  8
247
100
AcDbLine
 10
6.41576206
 20
-20.96626446
 30
0.0
 11
5.39711643
 21
-19.94761882
 31
0.0
  0
LINE
  5
B41
330
96C
100
AcDbEntity
  8
247
100
AcDbLine
 10
4.51215603
 20
-20.57178673
 30
0.0
 11
4.51215603
 21
-19.63301533
 31
0.0
  0
LINE
  5
B42
330
96C
100
AcDbEntity
  8
247
100
AcDbLine
 10
4.81076804
 20
-19.77948989
 30
0.0
 11
5.64245141
 21
-20.01796592
 31
0.0
  0
LINE
  5
B43
330
96C
100
AcDbEntity
  8
247
100
AcDbLine
 10
5.50924323
 20
-20.70632406
 30
0.0
 11
4.51215603
 21
-19.70923686
 31
0.0
  0
LINE
  5
B44
330
96C
100
AcDbEntity
  8
247
100
AcDbLine
 10
7.13118713
 20
-21.17140953
 30
0.0
 11
7.13118713
 21
-19.96379234
 31
0.0
  0
LINE
  5
B45
330
96C
100
AcDbEntity
  8
243
100
AcDbLine
 10
3.7
 20
-2.5
 30
0.0
 11
0.0
 21
-2.5
 31
0.0
  0
LINE
  5
B46
330
96C
100
AcDbEntity
  8
243
100
AcDbLine
 10
3.7
 20
2.5
 30
0.0
 11
0.0
 21
2.5
 31
0.0
  0
ARC
  5
B47
330
96C
100
AcDbEntity
  8
240
100
AcDbCircle
 10
39.7
 20
-5.0
 30
0.0
 40
20.0
100
AcDbArc
 50
128.2734116
 51
154.9133584
  0
LINE
  5
B48
330
96C
100
AcDbEntity
  8
240
100
AcDbLine
 10
18.32490088
 20
-19.844236
 30
0.0
 11
19.77610604
 21
-3.25688515
 31
0.0
  0
ARC
  5
B49
330
96C
100
AcDbEntity
  8
240
100
AcDbCircle
 10
17.32870618
 20
-19.75708026
 30
0.0
 40
1.0
100
AcDbArc
 50
315.0
 51
355.0
  0
ARC
  5
B4A
330
96C
100
AcDbEntity
  8
240
100
AcDbCircle
 10
39.7
 20
-5.0
 30
0.0
 40
20.0
100
AcDbArc
 50
154.9133584
 51
175.0
  0
LINE
  5
B4B
330
96C
100
AcDbEntity
  8
240
100
AcDbLine
 10
31.10467759
 20
16.87993659
 30
0.0
 11
27.31170429
 21
10.70127795
 31
0.0
  0
LINE
  5
B4C
330
96C
100
AcDbEntity
  8
241
100
AcDbLine
 10
29.31261288
 20
22.36904061
 30
0.0
 11
27.43996065
 21
16.22316029
 31
0.0
  0
LINE
  5
B4D
330
96C
100
AcDbEntity
  8
241
100
AcDbLine
 10
25.56788541
 20
15.22549589
 30
0.0
 11
16.00208656
 21
18.14019868
 31
0.0
  0
ARC
  5
B4E
330
96C
100
AcDbEntity
  8
241
100
AcDbCircle
 10
26.00509082
 20
16.66036571
 30
0.0
 40
1.5
100
AcDbArc
 50
253.054
 51
343.054
  0
CIRCLE
  5
B4F
330
96C
100
AcDbEntity
  8
241
100
AcDbCircle
 10
23.55395363
 20
25.77035619
 30
0.0
 40
4.25
  0
LINE
  5
B50
330
96C
100
AcDbEntity
  8
241
100
AcDbLine
 10
15.00442215
 20
20.01227392
 30
0.0
 11
16.87707437
 21
26.15815424
 31
0.0
  0
ARC
  5
B51
330
96C
100
AcDbEntity
  8
241
100
AcDbCircle
 10
16.43929197
 20
19.5750685
 30
0.0
 40
1.5
100
AcDbArc
 50
163.054
 51
253.054
  0
LINE
  5
B52
330
96C
100
AcDbEntity
  8
241
100
AcDbLine
 10
16.87707437
 20
26.15815424
 30
0.0
 11
18.00667363
 21
29.86539991
 31
0.0
  0
LINE
  5
B53
330
96C
100
AcDbEntity
  8
241
100
AcDbLine
 10
21.86644977
 20
24.19375731
 30
0.0
 11
24.07557638
 21
23.52063553
 31
0.0
  0
LINE
  5
B54
330
96C
100
AcDbEntity
  8
241
100
AcDbLine
 10
24.07557638
 20
23.52063553
 30
0.0
 11
25.76308025
 21
25.09723441
 31
0.0
  0
LINE
  5
B55
330
96C
100
AcDbEntity
  8
241
100
AcDbLine
 10
25.2414575
 20
27.34695507
 30
0.0
 11
23.03233088
 21
28.02007685
 31
0.0
  0
LINE
  5
B56
330
96C
100
AcDbEntity
  8
241
100
AcDbLine
 10
21.34482701
 20
26.44347796
 30
0.0
 11
21.86644977
 21
24.19375731
 31
0.0
  0
LINE
  5
B57
330
96C
100
AcDbEntity
  8
241
100
AcDbLine
 10
23.03233088
 20
28.02007685
 30
0.0
 11
21.34482701
 21
26.44347796
 31
0.0
  0
LINE
  5
B58
330
96C
100
AcDbEntity
  8
241
100
AcDbLine
 10
25.76308025
 20
25.09723441
 30
0.0
 11
25.2414575
 21
27.34695507
 31
0.0
  0
LINE
  5
B59
330
96C
100
AcDbEntity
  8
241
100
AcDbLine
 10
30.44221214
 20
26.07628629
 30
0.0
 11
29.31261288
 21
22.36904061
 31
0.0
  0
ELLIPSE
  5
B5A
330
96C
100
AcDbEntity
  8
241
100
AcDbEllipse
 10
27.57247248
 20
26.95069712
 30
0.0
 11
1.153994355908807
 21
3.787308236275886
 31
0.0
210
0.0
220
0.0
230
-1.0
 40
0.7577254
 41
1.019126887075714
 42
1.570796326794896
  0
ARC
  5
B5B
330
96C
100
AcDbEntity
  8
240
100
AcDbCircle
 10
14.92020143
 20
38.6822929
 30
0.0
 40
5.0
100
AcDbArc
 50
110.0
 51
150.0
  0
ARC
  5
B5C
330
96C
100
AcDbEntity
  8
240
100
AcDbCircle
 10
3.84529946
 20
33.5
 30
0.0
 40
2.0
100
AcDbArc
 50
270.0
 51
330.0
  0
LINE
  5
B5D
330
96C
100
AcDbEntity
  8
240
100
AcDbLine
 10
0.0
 20
31.5
 30
0.0
 11
3.84529946
 21
31.5
 31
0.0
  0
LINE
  5
B5E
330
96C
100
AcDbEntity
  8
240
100
AcDbLine
 10
5.57735027
 20
32.5
 30
0.0
 11
10.59007441
 21
41.1822929
 31
0.0
  0
LINE
  5
B5F
330
96C
100
AcDbEntity
  8
240
100
AcDbLine
 10
19.88829522
 20
44.25105321
 30
0.0
 11
34.15813124
 21
44.99890363
 31
0.0
  0
ARC
  5
B60
330
96C
100
AcDbEntity
  8
241
100
AcDbCircle
 10
27.78027268
 20
39.64076452
 30
0.0
 40
1.499999999999999
100
AcDbArc
 50
14.46451579
 51
131.64348421
  0
LINE
  5
B61
330
96C
100
AcDbEntity
  8
241
100
AcDbLine
 10
19.57376138
 20
43.63374578
 30
0.0
 11
23.83981767
 21
37.06459517
 31
0.0
  0
LINE
  5
B62
330
96C
100
AcDbEntity
  8
241
100
AcDbLine
 10
26.28753818
 20
39.78822203
 30
0.0
 11
19.03721707
 21
31.72064684
 31
0.0
  0
ARC
  5
B63
330
96C
100
AcDbEntity
  8
241
100
AcDbCircle
 10
27.78027268
 20
39.64076452
 30
0.0
 40
1.500000000000003
100
AcDbArc
 50
131.64348421
 51
174.35842659
  0
LINE
  5
B64
330
96C
100
AcDbEntity
  8
240
100
AcDbLine
 10
14.3599804
 20
43.72752572
 30
0.0
 11
19.53738522
 21
43.99901833
 31
0.0
  0
LINE
  5
B65
330
96C
100
AcDbEntity
  8
240
100
AcDbLine
 10
13.21010072
 20
43.38075601
 30
0.0
 11
13.29568742
 21
43.41190702
 31
0.0
  0
SPLINE
  5
B66
330
96C
100
AcDbEntity
  8
240
100
AcDbSpline
210
0.0
220
0.0
230
1.0
 70
    12
 71
     2
 72
     6
 73
     3
 74
     0
 42
0.0000000001
 43
0.0000000001
 40
13.20452168225049
 40
13.20452168225049
 40
13.20452168225049
 40
16.35514476567081
 40
16.35514476567081
 40
16.35514476567081
 10
14.35998039741827
 20
43.72752571937467
 30
0.0
 41
1.050118158192438
 10
13.70657118862043
 20
43.56145648164561
 30
0.0
 41
1.053494515418269
 10
13.29568741579265
 20
43.41190701859455
 30
0.0
 41
1.05562881410193
  0
ARC
  5
B67
330
96C
100
AcDbEntity
  8
240
100
AcDbCircle
 10
19.90922961
 20
43.8516014
 30
0.0
 40
0.4
100
AcDbArc
 50
93.0
 51
158.37425348
  0
ARC
  5
B68
330
96C
100
AcDbEntity
  8
241
100
AcDbCircle
 10
19.90922961
 20
43.8516014
 30
0.0
 40
0.4
100
AcDbArc
 50
158.37425348
 51
213.0
  0
LINE
  5
B69
330
96C
100
AcDbEntity
  8
240
100
AcDbLine
 10
34.91280522
 20
43.8368076
 30
0.0
 11
33.89510708
 21
41.83946255
 31
0.0
  0
LINE
  5
B6A
330
96C
100
AcDbEntity
  8
241
100
AcDbLine
 10
33.89510708
 20
41.83946255
 30
0.0
 11
29.82135413
 21
33.8442722
 31
0.0
  0
ARC
  5
B6B
330
96C
100
AcDbEntity
  8
241
100
AcDbCircle
 10
27.78027268
 20
39.64076452
 30
0.0
 40
1.499999999999999
100
AcDbArc
 50
331.74955581
 51
14.46451579
  0
ARC
  5
B6C
330
96C
100
AcDbEntity
  8
240
100
AcDbCircle
 10
34.2
 20
44.2
 30
0.0
 40
0.8
100
AcDbArc
 50
333.0
 51
93.0
  0
ENDBLK
  5
96E
330
96C
100
AcDbEntity
  8
0
100
AcDbBlockEnd
  0
ENDSEC
  0
SECTION
  2
ENTITIES
  0
INSERT
  5
6E6
330
1A
100
AcDbEntity
  8
245
100
AcDbBlockReference
  2
矢印なし
 10
175.62382697
 20
90.55123572
 30
0.0
  0
TEXT
  5
82F
330
1A
100
AcDbEntity
  8
241
  6
CONTINUOUS
100
AcDbText
 10
0.0
 20
70.0
 30
0.0
 40
5.0
  1
F63-DTJNR-45035-16
  7
YOKO
 11
0.0
 21
70.0
 31
0.0
100
AcDbText
 73
     1
  0
DIMENSION
  5
831
330
1A
100
AcDbEntity
  8
250
  6
CONTINUOUS
100
AcDbDimension
  2
*D2
 10
49.0
 20
0.0
 30
0.0
 11
49.0
 21
21.0
 31
0.0
 70
   160
  3
BIGT
100
AcDbAlignedDimension
 13
34.2
 23
45.0
 33
0.0
 14
21.33508327
 24
0.0
 34
0.0
 50
270.0
100
AcDbRotatedDimension
1001
ACAD
1000
DSTYLE
1002
{
1070
    78
1070
     8
1070
   140
1040
3.0
1002
}
  0
DIMENSION
  5
832
330
1A
100
AcDbEntity
  8
250
  6
CONTINUOUS
100
AcDbDimension
  2
*D3
 10
35.0
 20
56.0
 30
0.0
 11
17.5
 21
58.5
 31
0.0
 70
    32
  3
BIGT
100
AcDbAlignedDimension
 13
0.0
 23
31.5
 33
0.0
 14
35.0
 24
44.2
 34
0.0
100
AcDbRotatedDimension
1001
ACAD
1000
DSTYLE
1002
{
1070
    78
1070
     8
1070
   140
1040
3.0
1002
}
  0
LEADER
  5
94E
102
{ACAD_REACTORS
330
953
102
}
330
1A
100
AcDbEntity
  8
250
  6
CONTINUOUS
100
AcDbLeader
  3
BIGT
 76
     2
 10
33.80065449
 20
43.85846783
 30
0.0
 10
40.85515778
 20
56.06282961
 30
0.0
1001
ACAD
1000
DSTYLE
1002
{
1070
     6
1000
DOT
1070
    41
1040
2.0
1070
    42
1040
2.0
1070
    44
1040
2.0
1070
   140
1040
4.0
1070
   341
1005
915
1070
   343
1005
915
1002
}
  0
MTEXT
  5
94F
102
{ACAD_REACTORS
330
953
102
}
330
1A
100
AcDbEntity
  8
251
  6
CONTINUOUS
100
AcDbMText
 10
40.65915177
 20
57.06282961
 30
0.0
 40
2.8
 41
0.0
 71
     7
 72
     1
  1
（TN1604）
  7
YOKO
1001
ITEMNAME
1000
LNSP3
1001
ACAD
1000
MTEXTBEGIN
1070
    73
1070
     1
1070
    44
1040
1.0
1070
    74
1070
     0
1000
MTEXTEND
1000
MTEXTBEGIN
1070
    73
1070
     1
1070
    44
1040
1.0
1070
    74
1070
     0
1000
MTEXTEND
1000
MTEXTBEGIN
1070
    73
1070
     1
1070
    44
1040
1.0
1070
    74
1070
     0
1000
MTEXTEND
  0
LINE
  5
951
102
{ACAD_REACTORS
330
953
102
}
330
1A
100
AcDbEntity
  8
250
  6
CONTINUOUS
100
AcDbLine
 10
40.85515778
 20
56.06282961
 30
0.0
 11
61.56901227
 21
56.06282961
 31
0.0
1001
ITEMNAME
1000
LNSP2
  0
INSERT
  5
B6D
330
1A
100
AcDbEntity
  8
245
  6
CONTINUOUS
100
AcDbBlockReference
  2
1
 10
0.0
 20
0.0
 30
0.0
  0
VIEWPORT
  5
22
330
17
100
AcDbEntity
 67
     1
  8
0
100
AcDbViewport
 10
261.51769912
 20
148.5
 30
0.0
 40
523.03539823
 41
297.0
 68
     1
 69
     1
1001
ACAD
1000
MVIEW
1002
{
1070
    16
1010
0.0
1020
0.0
1030
0.0
1010
0.0
1020
0.0
1030
1.0
1040
0.0
1040
297.0
1040
261.51769912
1040
148.5
1040
50.0
1040
0.0
1040
0.0
1070
     0
1070
   100
1070
     1
1070
     1
1070
     0
1070
     0
1070
     0
1070
     0
1040
0.0
1040
0.0
1040
0.0
1040
1.0
1040
1.0
1040
10.0
1040
10.0
1070
     0
1002
{
1002
}
1002
}
  0
ENDSEC
  0
SECTION
  2
OBJECTS
  0
DICTIONARY
  5
C
330
0
100
AcDbDictionary
  3
ACAD_GROUP
350
D
  3
ACAD_LAYOUT
350
565
  3
ACAD_MLINESTYLE
350
E
  3
ACAD_PLOTSETTINGS
350
566
  3
ACAD_PLOTSTYLENAME
350
563
  3
ACDBHEADERROUNDTRIPXREC
350
BEB
  3
GRADE_DWG
350
540
  0
DICTIONARY
  5
A57
330
1A
100
AcDbDictionary
280
     1
  3
ACAD_LAYOUTSELFREF
360
C0D
  0
DICTIONARY
  5
A55
330
17
100
AcDbDictionary
280
     1
  3
ACAD_LAYOUTSELFREF
360
C0C
  0
DICTIONARY
  5
D
102
{ACAD_REACTORS
330
C
102
}
330
C
100
AcDbDictionary
  3
*A1
350
6C7
  3
*A2
350
6C8
  3
*A3
350
6D4
  3
*A4
350
6D5
  3
DREC-1
350
5FC
  3
DREC-2
350
654
  3
DREC-3
350
673
  3
LNSP-1
350
91F
  3
LNSP-2
350
953
  0
DICTIONARY
  5
565
102
{ACAD_REACTORS
330
C
102
}
330
C
100
AcDbDictionary
  0
DICTIONARY
  5
E
102
{ACAD_REACTORS
330
C
102
}
330
C
100
AcDbDictionary
  3
STANDARD
350
13
  0
DICTIONARY
  5
566
102
{ACAD_REACTORS
330
C
102
}
330
C
100
AcDbDictionary
  3
A3_0_5倍_
350
758
  3
A3_1倍_
350
757
  3
A3_1倍__2000_
350
707
  3
A3_2倍_
350
759
  3
A4_0_5倍_
350
755
  3
A4_1倍_
350
754
  3
A4_1倍__2000_
350
708
  3
A4_2倍_
350
756
  0
ACDBDICTIONARYWDFLT
  5
563
102
{ACAD_REACTORS
330
C
102
}
330
C
100
AcDbDictionary
281
     1
  3
Normal
350
564
100
AcDbDictionaryWithDefault
340
564
  0
DICTIONARY
  5
BEB
102
{ACAD_REACTORS
330
C
102
}
330
C
100
AcDbDictionary
  3
CEPSNTYPE
350
BF5
  3
DIMSTYLEDATA
350
BF9
  3
FINGERPRINTGUID
350
BF6
  3
HYPERLINKBASE
350
BEE
  3
INSUNITS
350
BF4
  3
LAYOUTDICT
350
BF0
  3
LWETCUNION
350
BF3
  3
PLOTSETDICT
350
BF1
  3
PLOTSTYLNAMDICT
350
BF2
  3
PSVPSCALE
350
BF8
  3
PUCSBASE
350
BFC
  3
PUCSORGBACK
350
C02
  3
PUCSORGBOTTOM
350
BFE
  3
PUCSORGFRONT
350
C01
  3
PUCSORGLEFT
350
BFF
  3
PUCSORGRIGHT
350
C00
  3
PUCSORGTOP
350
BFD
  3
PUCSORTHOREF
350
BFA
  3
PUCSORTHOVIEW
350
BFB
  3
STYLESHEET
350
BEF
  3
TSTACKALIGN
350
BEC
  3
TSTACKSIZE
350
BED
  3
UCSBASE
350
C05
  3
UCSORGBACK
350
C0B
  3
UCSORGBOTTOM
350
C07
  3
UCSORGFRONT
350
C0A
  3
UCSORGLEFT
350
C08
  3
UCSORGRIGHT
350
C09
  3
UCSORGTOP
350
C06
  3
UCSORTHOREF
350
C03
  3
UCSORTHOVIEW
350
C04
  3
VERSIONGUID
350
BF7
  0
DICTIONARY
  5
540
102
{ACAD_REACTORS
330
C
102
}
330
C
100
AcDbDictionary
  3
VERSION
350
560
  0
XRECORD
  5
C0D
102
{ACAD_REACTORS
330
A57
102
}
330
A57
100
AcDbXrecord
340
1A
  0
XRECORD
  5
C0C
102
{ACAD_REACTORS
330
A55
102
}
330
A55
100
AcDbXrecord
340
17
  0
GROUP
  5
6C7
102
{ACAD_REACTORS
330
D
102
}
330
D
100
AcDbGroup
300

 70
     0
 71
     1
1001
GRPNAME
1000
DMA00
  0
GROUP
  5
6C8
102
{ACAD_REACTORS
330
D
102
}
330
D
100
AcDbGroup
300

 70
     0
 71
     1
1001
GRPNAME
1000
DMA00
  0
GROUP
  5
6D4
102
{ACAD_REACTORS
330
D
102
}
330
D
100
AcDbGroup
300

 70
     0
 71
     1
1001
GRPNAME
1000
DMA00
  0
GROUP
  5
6D5
102
{ACAD_REACTORS
330
D
102
}
330
D
100
AcDbGroup
300

 70
     0
 71
     1
1001
GRPNAME
1000
DMA00
  0
GROUP
  5
5FC
102
{ACAD_REACTORS
330
D
102
}
330
D
100
AcDbGroup
300

 70
     0
 71
     1
1001
GRPNAME
1000
DREC-
1001
GPARA
1000
xsiz
1000
44.182
1000
ysiz
1000
40.677
1000
angl
1000
0
1000
ctyp
1000
0
1000
csiz
1000
5
1000
lfnt
1000
cont
1000
hcnt
1000
hoff
1000
vcnt
1000
voff
1000
opnt
1000
4
1000
dxpt
1000
0
1000
dypt
1000
0
  0
GROUP
  5
654
102
{ACAD_REACTORS
330
D
102
}
330
D
100
AcDbGroup
300

 70
     0
 71
     1
1001
GRPNAME
1000
DREC-
1001
GPARA
1000
xsiz
1000
54.592
1000
ysiz
1000
53.036
1000
angl
1000
0
1000
ctyp
1000
0
1000
csiz
1000
5
1000
lfnt
1000
cont
1000
hcnt
1000
hoff
1000
vcnt
1000
voff
1000
opnt
1000
4
1000
dxpt
1000
0
1000
dypt
1000
0
  0
GROUP
  5
673
102
{ACAD_REACTORS
330
D
102
}
330
D
100
AcDbGroup
300

 70
     0
 71
     1
1001
GRPNAME
1000
DREC-
1001
GPARA
1000
xsiz
1000
30.363
1000
ysiz
1000
36.175
1000
angl
1000
0
1000
ctyp
1000
0
1000
csiz
1000
5
1000
lfnt
1000
cont
1000
hcnt
1000
hoff
1000
vcnt
1000
voff
1000
opnt
1000
4
1000
dxpt
1000
0
1000
dypt
1000
0
  0
GROUP
  5
91F
102
{ACAD_REACTORS
330
D
102
}
330
D
100
AcDbGroup
300

 70
     0
 71
     1
1001
GRPNAME
1000
LNSP
  0
GROUP
  5
953
102
{ACAD_REACTORS
330
D
102
}
330
D
100
AcDbGroup
300

 70
     0
 71
     1
340
94E
340
94F
340
951
1001
GRPNAME
1000
LNSP
  0
MLINESTYLE
  5
13
102
{ACAD_REACTORS
330
E
102
}
330
E
100
AcDbMlineStyle
  2
STANDARD
 70
     0
  3

 62
     0
 51
90.0
 52
90.0
 71
     2
 49
0.5
 62
   256
  6
BYLAYER
 49
-0.5
 62
   256
  6
BYLAYER
  0
PLOTSETTINGS
  5
758
102
{ACAD_REACTORS
330
566
102
}
330
566
100
AcDbPlotSettings
  1
A3(0.5倍)
  2
\\AWTECPC05\HP DeskJet 1120C
  4
A3
  6

 40
5.95841646
 41
13.49375153
 42
6.04309082
 43
3.67242432
 44
296.92599487
 45
419.94665527
 46
89.96
 47
127.14
 48
0.0
 49
0.0
140
0.0
141
0.0
142
1.0
143
2.0
 70
  1716
 72
     1
 73
     1
 74
     2
  7
big.ctb
 75
    17
147
0.5
148
0.0
149
0.0
  0
PLOTSETTINGS
  5
757
102
{ACAD_REACTORS
330
566
102
}
330
566
100
AcDbPlotSettings
  1
A3(1倍)
  2
\\AWTECPC05\HP DeskJet 1120C
  4
A3
  6

 40
5.95841646
 41
13.49375153
 42
6.04309082
 43
3.67242432
 44
296.92599487
 45
419.94665527
 46
37.46
 47
52.89
 48
0.0
 49
0.0
140
0.0
141
0.0
142
1.0
143
1.0
 70
  1716
 72
     1
 73
     1
 74
     2
  7
big.ctb
 75
    16
147
1.0
148
0.0
149
0.0
  0
PLOTSETTINGS
  5
707
102
{ACAD_REACTORS
330
566
102
}
330
566
100
AcDbPlotSettings
  1
A3(1倍)(2000)
  2
SII LS-1300 (D-SCAN)
  4
User258
  6

 40
3.17499995
 41
3.17499995
 42
3.17498779
 43
3.17498779
 44
419.98898315
 45
296.98950195
 46
58.32
 47
40.32
 48
0.0
 49
0.0
140
0.0
141
0.0
142
1.0
143
1.0
 70
  1716
 72
     1
 73
     0
 74
     2
  7
big.ctb
 75
    16
147
1.0
148
0.0
149
0.0
  0
PLOTSETTINGS
  5
759
102
{ACAD_REACTORS
330
566
102
}
330
566
100
AcDbPlotSettings
  1
A3(2倍)
  2
\\AWTECPC05\HP DeskJet 1120C
  4
A3
  6

 40
5.95841646
 41
13.49375153
 42
6.04309082
 43
3.67242432
 44
296.92599487
 45
419.94665527
 46
-67.54
 47
-95.61
 48
0.0
 49
0.0
140
0.0
141
0.0
142
1.0
143
0.5
 70
  1716
 72
     1
 73
     1
 74
     2
  7
big.ctb
 75
    27
147
2.0
148
0.0
149
0.0
  0
PLOTSETTINGS
  5
755
102
{ACAD_REACTORS
330
566
102
}
330
566
100
AcDbPlotSettings
  1
A4(0.5倍)
  2
\\AWTECPC05\HP DeskJet 1120C
  4
A4
  6

 40
4.18041658
 41
13.49374962
 42
4.18040466
 43
3.92642212
 44
209.97332764
 45
296.92599487
 46
48.31
 47
65.5
 48
0.0
 49
0.0
140
0.0
141
0.0
142
1.0
143
2.0
 70
  1716
 72
     1
 73
     1
 74
     2
  7
big.ctb
 75
    17
147
0.5
148
0.0
149
0.0
  0
PLOTSETTINGS
  5
754
102
{ACAD_REACTORS
330
566
102
}
330
566
100
AcDbPlotSettings
  1
A4(1倍)
  2
\\AWTECPC05\HP DeskJet 1120C
  4
A4
  6

 40
4.18041658
 41
13.49374962
 42
4.18040466
 43
3.92642212
 44
209.97332764
 45
296.92599487
 46
-4.19
 47
-8.75
 48
0.0
 49
0.0
140
0.0
141
0.0
142
1.0
143
1.0
 70
  1716
 72
     1
 73
     1
 74
     2
  7
big.ctb
 75
    16
147
1.0
148
0.0
149
0.0
  0
PLOTSETTINGS
  5
708
102
{ACAD_REACTORS
330
566
102
}
330
566
100
AcDbPlotSettings
  1
A4(1倍)(2000)
  2
SII LS-1300 (D-SCAN)
  4
User259
  6

 40
3.17499995
 41
3.17499995
 42
3.17498779
 43
3.17500305
 44
296.98950195
 45
209.99449158
 46
-3.18
 47
-3.18
 48
0.0
 49
0.0
140
0.0
141
0.0
142
1.0
143
1.0
 70
  1716
 72
     1
 73
     0
 74
     2
  7
big.ctb
 75
    16
147
1.0
148
0.0
149
0.0
  0
PLOTSETTINGS
  5
756
102
{ACAD_REACTORS
330
566
102
}
330
566
100
AcDbPlotSettings
  1
A4(2倍)
  2
\\AWTECPC05\HP DeskJet 1120C
  4
A4
  6

 40
4.18041658
 41
13.49374962
 42
4.18040466
 43
3.92642212
 44
209.97332764
 45
296.92599487
 46
-109.19
 47
-157.25
 48
0.0
 49
0.0
140
0.0
141
0.0
142
1.0
143
0.5
 70
  1716
 72
     1
 73
     1
 74
     2
  7
big.ctb
 75
    27
147
2.0
148
0.0
149
0.0
  0
ACDBPLACEHOLDER
  5
564
102
{ACAD_REACTORS
330
563
102
}
330
563
100
AcDbPlaceHolder
280
     0
  0
XRECORD
  5
BF5
102
{ACAD_REACTORS
330
BEB
102
}
330
BEB
100
AcDbXrecord
 90
        0
  0
XRECORD
  5
BF9
102
{ACAD_REACTORS
330
BEB
102
}
330
BEB
100
AcDbXrecord
1000
DSTYLE
1002
{
1070
    79
 70
     2
1070
   179
 70
     3
1070
   341
340
594
1070
   343
340
594
1070
   344
340
594
1070
   371
 70
    -1
1070
   372
 70
    -1
1002
}
  0
XRECORD
  5
BF6
102
{ACAD_REACTORS
330
BEB
102
}
330
BEB
100
AcDbXrecord
  1
{51294030-9CB4-11D3-8E18-00A0C925D94D}
  0
XRECORD
  5
BEE
102
{ACAD_REACTORS
330
BEB
102
}
330
BEB
100
AcDbXrecord
  1

  0
XRECORD
  5
BF4
102
{ACAD_REACTORS
330
BEB
102
}
330
BEB
100
AcDbXrecord
 90
        0
  0
XRECORD
  5
BF0
102
{ACAD_REACTORS
330
BEB
102
}
330
BEB
100
AcDbXrecord
340
565
  0
XRECORD
  5
BF3
102
{ACAD_REACTORS
330
BEB
102
}
330
BEB
100
AcDbXrecord
 90
    10783
  0
XRECORD
  5
BF1
102
{ACAD_REACTORS
330
BEB
102
}
330
BEB
100
AcDbXrecord
340
566
  0
XRECORD
  5
BF2
102
{ACAD_REACTORS
330
BEB
102
}
330
BEB
100
AcDbXrecord
340
563
  0
XRECORD
  5
BF8
102
{ACAD_REACTORS
330
BEB
102
}
330
BEB
100
AcDbXrecord
 40
0.0
  0
XRECORD
  5
BFC
102
{ACAD_REACTORS
330
BEB
102
}
330
BEB
100
AcDbXrecord
340
0
  0
XRECORD
  5
C02
102
{ACAD_REACTORS
330
BEB
102
}
330
BEB
100
AcDbXrecord
 10
0.0
 20
0.0
 30
0.0
  0
XRECORD
  5
BFE
102
{ACAD_REACTORS
330
BEB
102
}
330
BEB
100
AcDbXrecord
 10
0.0
 20
0.0
 30
0.0
  0
XRECORD
  5
C01
102
{ACAD_REACTORS
330
BEB
102
}
330
BEB
100
AcDbXrecord
 10
0.0
 20
0.0
 30
0.0
  0
XRECORD
  5
BFF
102
{ACAD_REACTORS
330
BEB
102
}
330
BEB
100
AcDbXrecord
 10
0.0
 20
0.0
 30
0.0
  0
XRECORD
  5
C00
102
{ACAD_REACTORS
330
BEB
102
}
330
BEB
100
AcDbXrecord
 10
0.0
 20
0.0
 30
0.0
  0
XRECORD
  5
BFD
102
{ACAD_REACTORS
330
BEB
102
}
330
BEB
100
AcDbXrecord
 10
0.0
 20
0.0
 30
0.0
  0
XRECORD
  5
BFA
102
{ACAD_REACTORS
330
BEB
102
}
330
BEB
100
AcDbXrecord
340
0
  0
XRECORD
  5
BFB
102
{ACAD_REACTORS
330
BEB
102
}
330
BEB
100
AcDbXrecord
 70
     0
  0
XRECORD
  5
BEF
102
{ACAD_REACTORS
330
BEB
102
}
330
BEB
100
AcDbXrecord
  1
big.ctb
  0
XRECORD
  5
BEC
102
{ACAD_REACTORS
330
BEB
102
}
330
BEB
100
AcDbXrecord
 90
        1
  0
XRECORD
  5
BED
102
{ACAD_REACTORS
330
BEB
102
}
330
BEB
100
AcDbXrecord
 90
       70
  0
XRECORD
  5
C05
102
{ACAD_REACTORS
330
BEB
102
}
330
BEB
100
AcDbXrecord
340
0
  0
XRECORD
  5
C0B
102
{ACAD_REACTORS
330
BEB
102
}
330
BEB
100
AcDbXrecord
 10
0.0
 20
0.0
 30
0.0
  0
XRECORD
  5
C07
102
{ACAD_REACTORS
330
BEB
102
}
330
BEB
100
AcDbXrecord
 10
0.0
 20
0.0
 30
0.0
  0
XRECORD
  5
C0A
102
{ACAD_REACTORS
330
BEB
102
}
330
BEB
100
AcDbXrecord
 10
0.0
 20
0.0
 30
0.0
  0
XRECORD
  5
C08
102
{ACAD_REACTORS
330
BEB
102
}
330
BEB
100
AcDbXrecord
 10
0.0
 20
0.0
 30
0.0
  0
XRECORD
  5
C09
102
{ACAD_REACTORS
330
BEB
102
}
330
BEB
100
AcDbXrecord
 10
0.0
 20
0.0
 30
0.0
  0
XRECORD
  5
C06
102
{ACAD_REACTORS
330
BEB
102
}
330
BEB
100
AcDbXrecord
 10
0.0
 20
0.0
 30
0.0
  0
XRECORD
  5
C03
102
{ACAD_REACTORS
330
BEB
102
}
330
BEB
100
AcDbXrecord
340
0
  0
XRECORD
  5
C04
102
{ACAD_REACTORS
330
BEB
102
}
330
BEB
100
AcDbXrecord
 70
     0
  0
XRECORD
  5
BF7
102
{ACAD_REACTORS
330
BEB
102
}
330
BEB
100
AcDbXrecord
  1
{A3DE0662-F6AE-4E83-A9EA-6BB26039891E}
  0
XRECORD
  5
560
102
{ACAD_REACTORS
330
540
102
}
330
540
100
AcDbXrecord
  1
2.0.0
  0
ENDSEC
  0
EOF
