  0
SECTION
  2
HEADER
  9
$ACADVER
  1
AC1014
  9
$ACADMAINTVER
 70
     9
  9
$DWGCODEPAGE
  3
ANSI_932
  9
$INSBASE
 10
0.0
 20
0.0
 30
0.0
  9
$EXTMIN
 10
-1.01284692
 20
-57.0108024
 30
0.0
  9
$EXTMAX
 10
88.11946165
 20
50.5082708
 30
0.0
  9
$LIMMIN
 10
0.0
 20
0.0
  9
$LIMMAX
 10
420.0
 20
297.0
  9
$ORTHOMODE
 70
     1
  9
$REGENMODE
 70
     1
  9
$FILLMODE
 70
     1
  9
$QTEXTMODE
 70
     0
  9
$MIRRTEXT
 70
     1
  9
$DRAGMODE
 70
     2
  9
$LTSCALE
 40
10.0
  9
$OSMODE
 70
   549
  9
$ATTMODE
 70
     1
  9
$TEXTSIZE
 40
3.0
  9
$TRACEWID
 40
1.0
  9
$TEXTSTYLE
  7
YOKO
  9
$CLAYER
  8
245
  9
$CELTYPE
  6
BYLAYER
  9
$CECOLOR
 62
   256
  9
$CELTSCALE
 40
1.0
  9
$DELOBJ
 70
     1
  9
$DISPSILH
 70
     0
  9
$DIMSCALE
 40
1.0
  9
$DIMASZ
 40
2.0
  9
$DIMEXO
 40
2.0
  9
$DIMDLI
 40
2.5
  9
$DIMRND
 40
0.0
  9
$DIMDLE
 40
0.0
  9
$DIMEXE
 40
2.0
  9
$DIMTP
 40
0.0
  9
$DIMTM
 40
0.0
  9
$DIMTXT
 40
4.0
  9
$DIMCEN
 40
0.0
  9
$DIMTSZ
 40
0.0
  9
$DIMTOL
 70
     0
  9
$DIMLIM
 70
     0
  9
$DIMTIH
 70
     0
  9
$DIMTOH
 70
     0
  9
$DIMSE1
 70
     0
  9
$DIMSE2
 70
     0
  9
$DIMTAD
 70
     3
  9
$DIMZIN
 70
     8
  9
$DIMBLK
  1

  9
$DIMASO
 70
     1
  9
$DIMSHO
 70
     1
  9
$DIMPOST
  1

  9
$DIMAPOST
  1

  9
$DIMALT
 70
     0
  9
$DIMALTD
 70
     2
  9
$DIMALTF
 40
25.4
  9
$DIMLFAC
 40
1.0
  9
$DIMTOFL
 70
     1
  9
$DIMTVP
 40
0.0
  9
$DIMTIX
 70
     1
  9
$DIMSOXD
 70
     0
  9
$DIMSAH
 70
     1
  9
$DIMBLK1
  1
OPEN
  9
$DIMBLK2
  1
OPEN
  9
$DIMSTYLE
  2
BIGT
  9
$DIMCLRD
 70
   256
  9
$DIMCLRE
 70
   256
  9
$DIMCLRT
 70
    40
  9
$DIMTFAC
 40
1.0
  9
$DIMGAP
 40
1.0
  9
$DIMJUST
 70
     0
  9
$DIMSD1
 70
     0
  9
$DIMSD2
 70
     0
  9
$DIMTOLJ
 70
     1
  9
$DIMTZIN
 70
     8
  9
$DIMALTZ
 70
     0
  9
$DIMALTTZ
 70
     0
  9
$DIMFIT
 70
     3
  9
$DIMUPT
 70
     0
  9
$DIMUNIT
 70
     2
  9
$DIMDEC
 70
     3
  9
$DIMTDEC
 70
     3
  9
$DIMALTU
 70
     2
  9
$DIMALTTD
 70
     2
  9
$DIMTXSTY
  7
STANDARD
  9
$DIMAUNIT
 70
     0
  9
$LUNITS
 70
     2
  9
$LUPREC
 70
     3
  9
$SKETCHINC
 40
1.0
  9
$FILLETRAD
 40
0.0
  9
$AUNITS
 70
     0
  9
$AUPREC
 70
     3
  9
$MENU
  1
.
  9
$ELEVATION
 40
0.0
  9
$PELEVATION
 40
0.0
  9
$THICKNESS
 40
0.0
  9
$LIMCHECK
 70
     0
  9
$BLIPMODE
 70
     0
  9
$CHAMFERA
 40
10.0
  9
$CHAMFERB
 40
10.0
  9
$CHAMFERC
 40
0.0
  9
$CHAMFERD
 40
0.0
  9
$SKPOLY
 70
     0
  9
$TDCREATE
 40
2455100.381614398
  9
$TDUPDATE
 40
2455387.475822662
  9
$TDINDWG
 40
0.0036894213
  9
$TDUSRTIMER
 40
0.0036894213
  9
$USRTIMER
 70
     1
  9
$ANGBASE
 50
0.0
  9
$ANGDIR
 70
     0
  9
$PDMODE
 70
     1
  9
$PDSIZE
 40
-5.0
  9
$PLINEWID
 40
0.0
  9
$COORDS
 70
     1
  9
$SPLFRAME
 70
     0
  9
$SPLINETYPE
 70
     6
  9
$SPLINESEGS
 70
     8
  9
$ATTDIA
 70
     0
  9
$ATTREQ
 70
     1
  9
$HANDLING
 70
-16383
  9
$HANDSEED
  5
BAB
  9
$SURFTAB1
 70
     6
  9
$SURFTAB2
 70
     6
  9
$SURFTYPE
 70
     6
  9
$SURFU
 70
     6
  9
$SURFV
 70
     6
  9
$UCSNAME
  2

  9
$UCSORG
 10
0.0
 20
0.0
 30
0.0
  9
$UCSXDIR
 10
1.0
 20
0.0
 30
0.0
  9
$UCSYDIR
 10
0.0
 20
1.0
 30
0.0
  9
$PUCSNAME
  2

  9
$PUCSORG
 10
0.0
 20
0.0
 30
0.0
  9
$PUCSXDIR
 10
1.0
 20
0.0
 30
0.0
  9
$PUCSYDIR
 10
0.0
 20
1.0
 30
0.0
  9
$USERI1
 70
     1
  9
$USERI2
 70
     0
  9
$USERI3
 70
     0
  9
$USERI4
 70
     0
  9
$USERI5
 70
     0
  9
$USERR1
 40
0.0
  9
$USERR2
 40
0.0
  9
$USERR3
 40
0.0
  9
$USERR4
 40
0.0
  9
$USERR5
 40
0.0
  9
$WORLDVIEW
 70
     1
  9
$SHADEDGE
 70
     3
  9
$SHADEDIF
 70
    70
  9
$TILEMODE
 70
     1
  9
$MAXACTVP
 70
    16
  9
$PINSBASE
 10
0.0
 20
0.0
 30
0.0
  9
$PLIMCHECK
 70
     0
  9
$PEXTMIN
 10
1.00000000E+20
 20
1.00000000E+20
 30
1.00000000E+20
  9
$PEXTMAX
 10
-1.00000000E+20
 20
-1.00000000E+20
 30
-1.00000000E+20
  9
$PLIMMIN
 10
0.0
 20
0.0
  9
$PLIMMAX
 10
420.0
 20
297.0
  9
$UNITMODE
 70
     0
  9
$VISRETAIN
 70
     0
  9
$PLINEGEN
 70
     0
  9
$PSLTSCALE
 70
     1
  9
$TREEDEPTH
 70
  3020
  9
$PICKSTYLE
 70
     0
  9
$CMLSTYLE
  2
STANDARD
  9
$CMLJUST
 70
     0
  9
$CMLSCALE
 40
1.0
  9
$PROXYGRAPHICS
 70
     1
  9
$MEASUREMENT
 70
     1
  0
ENDSEC
  0
SECTION
  2
CLASSES
  0
CLASS
  1
XRECORD
  2
AcDbXrecord
  3
AutoCAD 2000
 90
        0
280
     0
281
     0
  0
CLASS
  1
ACDBDICTIONARYWDFLT
  2
AcDbDictionaryWithDefault
  3
AutoCAD 2000
 90
        0
280
     0
281
     0
  0
CLASS
  1
ACDBPLACEHOLDER
  2
AcDbPlaceHolder
  3
AutoCAD 2000
 90
        0
280
     0
281
     0
  0
CLASS
  1
LAYOUT
  2
AcDbLayout
  3
AutoCAD 2000
 90
        0
280
     0
281
     0
  0
CLASS
  1
PLOTSETTINGS
  2
AcDbPlotSettings
  3
AutoCAD 2000
 90
        0
280
     0
281
     0
  0
CLASS
  1
LONG_TRANSACTION
  2
AcDbLongTransaction
  3
AutoCAD 2000
 90
        0
280
     0
281
     0
  0
CLASS
  1
LWPOLYLINE
  2
AcDbPolyline
  3
AutoCAD 2000
 90
        0
280
     0
281
     1
  0
CLASS
  1
HATCH
  2
AcDbHatch
  3
AutoCAD 2000
 90
        0
280
     0
281
     1
  0
CLASS
  1
XRECORD
  2
AcDbXrecord
  3
AutoCAD 2000
 90
        0
280
     0
281
     0
  0
CLASS
  1
LONG_TRANSACTION
  2
AcDbLongTransaction
  3
AutoCAD 2000
 90
        0
280
     0
281
     0
  0
CLASS
  1
LWPOLYLINE
  2
AcDbPolyline
  3
AutoCAD 2000
 90
        0
280
     0
281
     1
  0
CLASS
  1
HATCH
  2
AcDbHatch
  3
AutoCAD 2000
 90
        0
280
     0
281
     1
  0
CLASS
  1
XRECORD
  2
AcDbXrecord
  3
AutoCAD 2000
 90
        0
280
     0
281
     0
  0
ENDSEC
  0
SECTION
  2
TABLES
  0
TABLE
  2
VPORT
  5
8
330
0
100
AcDbSymbolTable
 70
     3
  0
VPORT
  5
B86
330
8
100
AcDbSymbolTableRecord
100
AcDbViewportTableRecord
  2
*ACTIVE
 70
     0
 10
0.0
 20
0.0
 11
1.0
 21
1.0
 12
43.55330737
 22
-3.2512658
 13
0.0
 23
0.0
 14
7.0
 24
7.0
 15
7.0
 25
7.0
 16
0.0
 26
0.0
 36
1.0
 17
0.0
 27
0.0
 37
0.0
 40
108.35363263
 41
1.45595855
 42
50.0
 43
0.0
 44
0.0
 50
0.0
 51
0.0
 71
     0
 72
  2000
 73
     1
 74
     0
 75
     0
 76
     0
 77
     0
 78
     0
  0
ENDTAB
  0
TABLE
  2
LTYPE
  5
5
330
0
100
AcDbSymbolTable
 70
     3
  0
LTYPE
  5
14
330
5
100
AcDbSymbolTableRecord
100
AcDbLinetypeTableRecord
  2
BYBLOCK
 70
     0
  3

 72
    65
 73
     0
 40
0.0
  0
LTYPE
  5
15
330
5
100
AcDbSymbolTableRecord
100
AcDbLinetypeTableRecord
  2
BYLAYER
 70
     0
  3

 72
    65
 73
     0
 40
0.0
  0
LTYPE
  5
16
330
5
100
AcDbSymbolTableRecord
100
AcDbLinetypeTableRecord
  2
CONTINUOUS
 70
     0
  3
Solid line
 72
    65
 73
     0
 40
0.0
  0
LTYPE
  5
258
330
5
100
AcDbSymbolTableRecord
100
AcDbLinetypeTableRecord
  2
CENTER2
 70
     0
  3
___ _ ___ _ ___ _ ___ _ ___ _ ___ _ ___ _ ___ _
 72
    65
 73
     4
 40
1.125
 49
0.75
 74
     0
 49
-0.125
 74
     0
 49
0.125
 74
     0
 49
-0.125
 74
     0
  0
LTYPE
  5
25C
330
5
100
AcDbSymbolTableRecord
100
AcDbLinetypeTableRecord
  2
HIDDEN2
 70
     0
  3
_ _ _ _ _ _ _ _ _ _ _ _ _ _ _ _ _ _ _ _ _ _ _ _
 72
    65
 73
     2
 40
0.1875
 49
0.125
 74
     0
 49
-0.0625
 74
     0
  0
ENDTAB
  0
TABLE
  2
LAYER
  5
2
330
0
100
AcDbSymbolTable
 70
    10
  0
LAYER
  5
F
330
2
100
AcDbSymbolTableRecord
100
AcDbLayerTableRecord
  2
0
 70
     0
 62
     7
  6
CONTINUOUS
  0
LAYER
  5
1AA
330
2
100
AcDbSymbolTableRecord
100
AcDbLayerTableRecord
  2
240
 70
     0
 62
     4
  6
CONTINUOUS
  0
LAYER
  5
1AB
330
2
100
AcDbSymbolTableRecord
100
AcDbLayerTableRecord
  2
241
 70
     0
 62
   211
  6
CONTINUOUS
  0
LAYER
  5
1AD
330
2
100
AcDbSymbolTableRecord
100
AcDbLayerTableRecord
  2
243
 70
     0
 62
   211
  6
HIDDEN2
  0
LAYER
  5
1AF
330
2
100
AcDbSymbolTableRecord
100
AcDbLayerTableRecord
  2
245
 70
     0
 62
     2
  6
CENTER2
  0
LAYER
  5
21B
330
2
100
AcDbSymbolTableRecord
100
AcDbLayerTableRecord
  2
247
 70
     0
 62
    60
  6
CONTINUOUS
  0
LAYER
  5
21E
330
2
100
AcDbSymbolTableRecord
100
AcDbLayerTableRecord
  2
250
 70
     0
 62
     3
  6
CONTINUOUS
  0
LAYER
  5
21F
330
2
100
AcDbSymbolTableRecord
100
AcDbLayerTableRecord
  2
251
 70
     0
 62
    40
  6
CONTINUOUS
  0
LAYER
  5
5C4
330
2
100
AcDbSymbolTableRecord
100
AcDbLayerTableRecord
  2
DEFPOINTS
 70
     0
 62
     7
  6
CONTINUOUS
  0
ENDTAB
  0
TABLE
  2
STYLE
  5
3
330
0
100
AcDbSymbolTable
 70
     2
  0
STYLE
  5
10
330
3
100
AcDbSymbolTableRecord
100
AcDbTextStyleTableRecord
  2
STANDARD
 70
     0
 40
0.0
 41
1.0
 50
0.0
 71
     0
 42
3.0
  3
romans.shx
  4
BIGFONT.SHX
  0
STYLE
  5
339
330
3
100
AcDbSymbolTableRecord
100
AcDbTextStyleTableRecord
  2
YOKO
 70
     0
 40
0.0
 41
1.0
 50
0.0
 71
     0
 42
3.0
  3
romans.shx
  4
extfont.shx
  0
ENDTAB
  0
TABLE
  2
VIEW
  5
6
330
0
100
AcDbSymbolTable
 70
     0
  0
ENDTAB
  0
TABLE
  2
UCS
  5
7
330
0
100
AcDbSymbolTable
 70
     0
  0
ENDTAB
  0
TABLE
  2
APPID
  5
9
330
0
100
AcDbSymbolTable
 70
    12
  0
APPID
  5
11
330
9
100
AcDbSymbolTableRecord
100
AcDbRegAppTableRecord
  2
ACAD
 70
     0
  0
APPID
  5
1B1
330
9
100
AcDbSymbolTableRecord
100
AcDbRegAppTableRecord
  2
GLOBAL
 70
     0
  0
APPID
  5
2A4
330
9
100
AcDbSymbolTableRecord
100
AcDbRegAppTableRecord
  2
DETAIL
 70
     0
  0
APPID
  5
5FD
330
9
100
AcDbSymbolTableRecord
100
AcDbRegAppTableRecord
  2
GRPNAME
 70
     0
  0
APPID
  5
5FE
330
9
100
AcDbSymbolTableRecord
100
AcDbRegAppTableRecord
  2
GPARA
 70
     0
  0
APPID
  5
6C4
330
9
100
AcDbSymbolTableRecord
100
AcDbRegAppTableRecord
  2
DCO15
 70
     0
  0
APPID
  5
6C5
330
9
100
AcDbSymbolTableRecord
100
AcDbRegAppTableRecord
  2
ITEMNAME
 70
     0
  0
APPID
  5
6C6
330
9
100
AcDbSymbolTableRecord
100
AcDbRegAppTableRecord
  2
GRADE_0
 70
     0
  0
APPID
  5
824
330
9
100
AcDbSymbolTableRecord
100
AcDbRegAppTableRecord
  2
HATCH_TYPE
 70
     0
  0
APPID
  5
825
330
9
100
AcDbSymbolTableRecord
100
AcDbRegAppTableRecord
  2
HATCH_DISPLAY
 70
     0
  0
APPID
  5
826
330
9
100
AcDbSymbolTableRecord
100
AcDbRegAppTableRecord
  2
HATCH_DISTANCE
 70
     0
  0
APPID
  5
A49
330
9
100
AcDbSymbolTableRecord
100
AcDbRegAppTableRecord
  2
CONTENTBLOCKICON
 70
     0
  0
ENDTAB
  0
TABLE
  2
DIMSTYLE
  5
A
330
0
100
AcDbSymbolTable
 70
     1
  0
DIMSTYLE
105
725
102
{ACAD_REACTORS
330
831
330
832
102
}
330
A
100
AcDbSymbolTableRecord
100
AcDbDimStyleTableRecord
  2
BIGT
 70
     0
  3

  4

  5

  6
OPEN
  7
OPEN
 40
1.0
 41
2.23
 42
0.5
 43
2.5
 44
1.0
 45
0.0
 46
0.0
 47
0.0
 48
0.0
140
2.8
141
0.0
142
0.0
143
25.4
144
1.0
145
0.0
146
1.0
147
1.0
 71
     0
 72
     0
 73
     0
 74
     0
 75
     0
 76
     0
 77
     3
 78
     8
170
     0
171
     2
172
     1
173
     1
174
     1
175
     0
176
   256
177
   256
178
    40
270
     2
271
     3
272
     3
273
     2
274
     2
340
10
275
     0
280
     0
281
     0
282
     0
283
     1
284
     8
285
     0
286
     0
287
     3
288
     0
  0
ENDTAB
  0
TABLE
  2
BLOCK_RECORD
  5
1
330
0
100
AcDbSymbolTable
 70
     6
  0
BLOCK_RECORD
  5
1A
102
{ACAD_XDICTIONARY
360
A47
102
}
330
1
100
AcDbSymbolTableRecord
100
AcDbBlockTableRecord
  2
*MODEL_SPACE
  0
BLOCK_RECORD
  5
17
102
{ACAD_XDICTIONARY
360
A45
102
}
330
1
100
AcDbSymbolTableRecord
100
AcDbBlockTableRecord
  2
*PAPER_SPACE
  0
BLOCK_RECORD
  5
594
330
1
100
AcDbSymbolTableRecord
100
AcDbBlockTableRecord
  2
_OPEN
  0
BLOCK_RECORD
  5
6E3
330
1
100
AcDbSymbolTableRecord
100
AcDbBlockTableRecord
  2
矢印なし
  0
BLOCK_RECORD
  5
833
330
1
100
AcDbSymbolTableRecord
100
AcDbBlockTableRecord
  2
*D2
  0
BLOCK_RECORD
  5
83F
330
1
100
AcDbSymbolTableRecord
100
AcDbBlockTableRecord
  2
*D3
  0
BLOCK_RECORD
  5
914
330
1
100
AcDbSymbolTableRecord
100
AcDbBlockTableRecord
  2
_DOT
  0
BLOCK_RECORD
  5
95C
330
1
100
AcDbSymbolTableRecord
100
AcDbBlockTableRecord
  2
1
1001
CONTENTBLOCKICON
1071
        0
1004
2800000020000000200000000100080000000000000400000000000000000000000000000000000000000000000080000080000000808000800000008000800080800000C0C0C000C0DCC000F0CAA6000020400000206000002080000020A0000020C0000020E00000400000004020000040400000406000004080000040A0
1004
000040C0000040E00000600000006020000060400000606000006080000060A0000060C0000060E00000800000008020000080400000806000008080000080A0000080C0000080E00000A0000000A0200000A0400000A0600000A0800000A0A00000A0C00000A0E00000C0000000C0200000C0400000C0600000C0800000C0
1004
A00000C0C00000C0E00000E0000000E0200000E0400000E0600000E0800000E0A00000E0C00000E0E00040000000400020004000400040006000400080004000A0004000C0004000E00040200000402020004020400040206000402080004020A0004020C0004020E000404000004040200040404000404060004040800040
1004
40A0004040C0004040E00040600000406020004060400040606000406080004060A0004060C0004060E00040800000408020004080400040806000408080004080A0004080C0004080E00040A0000040A0200040A0400040A0600040A0800040A0A00040A0C00040A0E00040C0000040C0200040C0400040C0600040C08000
1004
40C0A00040C0C00040C0E00040E0000040E0200040E0400040E0600040E0800040E0A00040E0C00040E0E00080000000800020008000400080006000800080008000A0008000C0008000E00080200000802020008020400080206000802080008020A0008020C0008020E00080400000804020008040400080406000804080
1004
008040A0008040C0008040E00080600000806020008060400080606000806080008060A0008060C0008060E00080800000808020008080400080806000808080008080A0008080C0008080E00080A0000080A0200080A0400080A0600080A0800080A0A00080A0C00080A0E00080C0000080C0200080C0400080C0600080C0
1004
800080C0A00080C0C00080C0E00080E0000080E0200080E0400080E0600080E0800080E0A00080E0C00080E0E000C0000000C0002000C0004000C0006000C0008000C000A000C000C000C000E000C0200000C0202000C0204000C0206000C0208000C020A000C020C000C020E000C0400000C0402000C0404000C0406000C0
1004
408000C040A000C040C000C040E000C0600000C0602000C0604000C0606000C0608000C060A000C060C000C060E000C0800000C0802000C0804000C0806000C0808000C080A000C080C000C080E000C0A00000C0A02000C0A04000C0A06000C0A08000C0A0A000C0A0C000C0A0E000C0C00000C0C02000C0C04000C0C06000
1004
C0C08000C0C0A000F0FBFF00A4A0A000808080000000FF0000FF000000FFFF00FF000000FF00FF00FFFF0000FFFFFF0000000000000000000000000000000000000000000000000000000000000000000000000000000000000000000000000000000000000000000000000000000000000000000000000000000000000000
1004
00FEFEFEFEFEFEFEFEFEFEFE000000000000000000000000000000000000FEFEFE000000E70000000000FE00000000000000000000000000000000000000FE0000000000E7E7E7E70000FE0000000000000000000000000000000000E7FE0000000000E7E70000E700FE00000000000000000000000000000000FEFE00E700
1004
000000E700000000E7FE0000000000000000000000000000FEFEFE00000000E70000E7E7E7000000E7FE0000000000000000000000000000FEE70000000000E700E7E7E7E7E700E7FE000000000000000000000000000000FEE7000000000000E700E7E7E7E7E7FE00000000000000000000000000000000FEE70000000000
1004
00E700E7E7E700E70000000000000000000000000000000000FEE700000000000000E7E70000E7FE0000000000000000000000000000000000FEE7000000000000000000E7E7FE000000000000000000000000000000000000FEE70000000000000000000000E7000000000000000000000000000000000000FEE700000000
1004
000000000000FE00000000000000000000000000000000000000FE3E3E3E3E000000000000FE0000000000000000000000000000000000000000FE3E3E3E3E000000000000FE0000000000000000000000000000000000000000E73E3E3E3E0000000000FE0000000000000000000000000000000000000000FBFE3E3EFBFB
1004
FBFBFBFBFBFB000000000000000000000000000000000000000000E7E7003E3E00000000FE00000000000000000000000000000000000000000000FEE7003E3E000000FE0000000000000000000000000000000000000000000000FEE7003E3E000000FE0000000000000000000000000000000000000000000000FEE7003E
1004
3E0000FE000000000000000000000000000000000000000000000000FEE7003E3E0000FE000000000000000000000000000000000000000000000000FEE7003E3E00FE00000000000000000000000000000000000000000000000000FEE7003E3EFE0000000000000000000000000000000000000000000000000000FEE700
1004
0000FE0000000000000000000000000000000000000000000000000000FEE70000FE000000000000000000000000000000000000000000000000000000FEE70000FE000000000000000000000000000000000000000000000000000000FEE7FEFE00000000000000000000000000000000000000000000000000000000FEFE
1004
FE00000000000000000000000000000000000000000000000000000000000000000000000000000000000000000000000000000000000000
  0
ENDTAB
  0
ENDSEC
  0
SECTION
  2
BLOCKS
  0
BLOCK
  5
1B
330
1A
100
AcDbEntity
  8
0
100
AcDbBlockBegin
  2
*MODEL_SPACE
 70
     0
 10
0.0
 20
0.0
 30
0.0
  3
*MODEL_SPACE
  1

  0
ENDBLK
  5
1C
330
1A
100
AcDbEntity
  8
0
100
AcDbBlockEnd
  0
BLOCK
  5
18
330
17
100
AcDbEntity
 67
     1
  8
0
100
AcDbBlockBegin
  2
*PAPER_SPACE
 70
     0
 10
0.0
 20
0.0
 30
0.0
  3
*PAPER_SPACE
  1

  0
ENDBLK
  5
19
330
17
100
AcDbEntity
 67
     1
  8
0
100
AcDbBlockEnd
  0
BLOCK
  5
598
330
594
100
AcDbEntity
  8
0
100
AcDbBlockBegin
  2
_OPEN
 70
     0
 10
0.0
 20
0.0
 30
0.0
  3
_OPEN
  1

  0
LINE
  5
595
330
594
100
AcDbEntity
  8
0
  6
BYBLOCK
 62
     0
100
AcDbLine
 10
-1.0
 20
0.16666667
 30
0.0
 11
0.0
 21
0.0
 31
0.0
  0
LINE
  5
596
330
594
100
AcDbEntity
  8
0
  6
BYBLOCK
 62
     0
100
AcDbLine
 10
-1.0
 20
-0.16666667
 30
0.0
 11
0.0
 21
0.0
 31
0.0
  0
LINE
  5
597
330
594
100
AcDbEntity
  8
0
  6
BYBLOCK
 62
     0
100
AcDbLine
 10
0.0
 20
0.0
 30
0.0
 11
-1.0
 21
0.0
 31
0.0
  0
ENDBLK
  5
599
330
594
100
AcDbEntity
  8
0
100
AcDbBlockEnd
  0
BLOCK
  5
6E4
330
6E3
100
AcDbEntity
  8
0
100
AcDbBlockBegin
  2
矢印なし
 70
     0
 10
0.0
 20
0.0
 30
0.0
  3
矢印なし
  1

  0
ENDBLK
  5
6E5
330
6E3
100
AcDbEntity
  8
0
100
AcDbBlockEnd
  0
BLOCK
  5
83D
330
833
100
AcDbEntity
  8
0
100
AcDbBlockBegin
  2
*D2
 70
     1
 10
0.0
 20
0.0
 30
0.0
  3
*D2
  1

  0
LINE
  5
953
330
833
100
AcDbEntity
  8
250
  6
CONTINUOUS
100
AcDbLine
 10
54.7
 20
-45.0
 30
0.0
 11
71.00729545
 21
-45.0
 31
0.0
  0
LINE
  5
954
330
833
100
AcDbEntity
  8
250
  6
CONTINUOUS
100
AcDbLine
 10
28.62985823
 20
0.0
 30
0.0
 11
71.00729545
 21
0.0
 31
0.0
  0
LINE
  5
955
330
833
100
AcDbEntity
  8
250
  6
CONTINUOUS
100
AcDbLine
 10
70.00729545
 20
-42.77
 30
0.0
 11
70.00729545
 21
-2.23
 31
0.0
  0
INSERT
  5
956
330
833
100
AcDbEntity
  8
250
  6
CONTINUOUS
100
AcDbBlockReference
  2
_OPEN
 10
70.00729545
 20
-45.0
 30
0.0
 41
2.23
 42
2.23
 43
2.23
 50
270.0
  0
INSERT
  5
957
330
833
100
AcDbEntity
  8
250
  6
CONTINUOUS
100
AcDbBlockReference
  2
_OPEN
 10
70.00729545
 20
0.0
 30
0.0
 41
2.23
 42
2.23
 43
2.23
 50
90.0
  0
MTEXT
  5
958
330
833
100
AcDbEntity
  8
250
  6
CONTINUOUS
 62
    40
100
AcDbMText
 10
67.50729545
 20
-22.5
 30
0.0
 40
3.0
 41
0.0
 71
     5
 72
     1
  1
\A1;45
 11
0.0
 21
1.0
 31
0.0
1001
ACAD
1000
MTEXTBEGIN
1070
    73
1070
     1
1070
    44
1040
1.0
1070
    74
1070
     0
1000
MTEXTEND
1000
MTEXTBEGIN
1070
    73
1070
     1
1070
    44
1040
1.0
1070
    74
1070
     0
1000
MTEXTEND
  0
POINT
  5
959
330
833
100
AcDbEntity
  8
DEFPOINTS
  6
CONTINUOUS
 62
     0
100
AcDbPoint
 10
54.2
 20
-45.0
 30
0.0
  0
POINT
  5
95A
330
833
100
AcDbEntity
  8
DEFPOINTS
  6
CONTINUOUS
 62
     0
100
AcDbPoint
 10
28.12985823
 20
0.0
 30
0.0
  0
POINT
  5
95B
330
833
100
AcDbEntity
  8
DEFPOINTS
  6
CONTINUOUS
 62
     0
100
AcDbPoint
 10
70.00729545
 20
0.0
 30
0.0
  0
ENDBLK
  5
83E
330
833
100
AcDbEntity
  8
0
100
AcDbBlockEnd
  0
BLOCK
  5
849
330
83F
100
AcDbEntity
  8
0
100
AcDbBlockBegin
  2
*D3
 70
     1
 10
0.0
 20
0.0
 30
0.0
  3
*D3
  1

  0
LINE
  5
ADD
330
83F
100
AcDbEntity
  8
250
  6
CONTINUOUS
100
AcDbLine
 10
0.0
 20
-32.0
 30
0.0
 11
0.0
 21
-57.0
 31
0.0
  0
LINE
  5
ADE
330
83F
100
AcDbEntity
  8
250
  6
CONTINUOUS
100
AcDbLine
 10
55.0
 20
-44.7
 30
0.0
 11
55.0
 21
-57.0
 31
0.0
  0
LINE
  5
ADF
330
83F
100
AcDbEntity
  8
250
  6
CONTINUOUS
100
AcDbLine
 10
2.23
 20
-56.0
 30
0.0
 11
52.77
 21
-56.0
 31
0.0
  0
INSERT
  5
AE0
330
83F
100
AcDbEntity
  8
250
  6
CONTINUOUS
100
AcDbBlockReference
  2
_OPEN
 10
0.0
 20
-56.0
 30
0.0
 41
2.23
 42
2.23
 43
2.23
 50
180.0
  0
INSERT
  5
AE1
330
83F
100
AcDbEntity
  8
250
  6
CONTINUOUS
100
AcDbBlockReference
  2
_OPEN
 10
55.0
 20
-56.0
 30
0.0
 41
2.23
 42
2.23
 43
2.23
  0
MTEXT
  5
AE2
330
83F
100
AcDbEntity
  8
250
  6
CONTINUOUS
 62
    40
100
AcDbMText
 10
27.5
 20
-53.5
 30
0.0
 40
3.0
 41
0.0
 71
     5
 72
     1
  1
\A1;55
1001
ACAD
1000
MTEXTBEGIN
1070
    73
1070
     1
1070
    44
1040
1.0
1070
    74
1070
     0
1000
MTEXTEND
  0
POINT
  5
AE3
330
83F
100
AcDbEntity
  8
DEFPOINTS
  6
CONTINUOUS
 62
     0
100
AcDbPoint
 10
0.0
 20
-31.5
 30
0.0
  0
POINT
  5
AE4
330
83F
100
AcDbEntity
  8
DEFPOINTS
  6
CONTINUOUS
 62
     0
100
AcDbPoint
 10
55.0
 20
-44.2
 30
0.0
  0
POINT
  5
AE5
330
83F
100
AcDbEntity
  8
DEFPOINTS
  6
CONTINUOUS
 62
     0
100
AcDbPoint
 10
55.0
 20
-56.0
 30
0.0
  0
ENDBLK
  5
84A
330
83F
100
AcDbEntity
  8
0
100
AcDbBlockEnd
  0
BLOCK
  5
927
330
914
100
AcDbEntity
  8
0
100
AcDbBlockBegin
  2
_DOT
 70
     0
 10
0.0
 20
0.0
 30
0.0
  3
_DOT
  1

  0
LINE
  5
928
330
914
100
AcDbEntity
  8
0
 62
     0
100
AcDbLine
 10
-1.0
 20
0.0
 30
0.0
 11
0.0
 21
0.0
 31
0.0
  0
LWPOLYLINE
  5
929
330
914
100
AcDbEntity
  8
0
 62
     0
100
AcDbPolyline
 90
        3
 70
     0
 43
0.5
 10
0.125
 20
0.0
 42
1.0
 10
-0.125
 20
0.0
 42
1.0
 10
0.125
 20
0.0
 42
1.0
  0
ENDBLK
  5
92E
330
914
100
AcDbEntity
  8
0
100
AcDbBlockEnd
  0
BLOCK
  5
95D
330
95C
100
AcDbEntity
  8
0
100
AcDbBlockBegin
  2
1
 70
     0
 10
0.0
 20
0.0
 30
0.0
  3
1
  1

  0
ELLIPSE
  5
AE7
330
95C
100
AcDbEntity
  8
240
  6
CONTINUOUS
100
AcDbEllipse
 10
26.84526995
 20
0.0
 30
0.0
 11
-19.56272938303835
 21
31.49287720231708
 31
-0.0000000000000001
210
0.0
220
0.0
230
-0.9999999999999996
 40
0.03424062
 41
0.1614086677877895
 42
0.2129135573168803
  0
LINE
  5
AE8
330
95C
100
AcDbEntity
  8
240
  6
CONTINUOUS
100
AcDbLine
 10
7.95214018
 20
30.92329219
 30
0.0
 11
43.23649707
 21
-25.9713016
 31
0.0
  0
LINE
  5
AE9
330
95C
100
AcDbEntity
  8
240
  6
CONTINUOUS
100
AcDbLine
 10
0.0
 20
31.5
 30
0.0
 11
0.0
 21
0.0
 31
0.0
  0
LINE
  5
AEA
330
95C
100
AcDbEntity
  8
243
100
AcDbLine
 10
3.7
 20
31.5
 30
0.0
 11
3.7
 21
0.0
 31
0.0
  0
TEXT
  5
AEB
330
95C
100
AcDbEntity
  8
247
100
AcDbText
 10
11.52060636
 20
-9.25977799
 30
0.0
 40
2.5
  1
F63-DDJNL-45055-15
 50
90.0
 41
0.65
  7
YOKO
 11
11.52060636
 21
-9.25977799
 31
0.0
100
AcDbText
 73
     1
  0
LINE
  5
AEC
330
95C
100
AcDbEntity
  8
245
  6
CENTER2
 62
     2
100
AcDbLine
 10
-1.0
 20
0.0
 30
0.0
 11
28.12985823
 21
0.0
 31
0.0
  0
LINE
  5
AED
330
95C
100
AcDbEntity
  8
240
  6
CONTINUOUS
100
AcDbLine
 10
5.0
 20
-31.5
 30
0.0
 11
19.92992796
 21
-40.11979793
 31
0.0
  0
LINE
  5
AEE
330
95C
100
AcDbEntity
  8
243
100
AcDbLine
 10
3.7
 20
0.0
 30
0.0
 11
3.7
 21
-31.5
 31
0.0
  0
LINE
  5
AEF
330
95C
100
AcDbEntity
  8
240
  6
CONTINUOUS
100
AcDbLine
 10
0.0
 20
-31.5
 30
0.0
 11
0.0
 21
0.0
 31
0.0
  0
LINE
  5
AF0
330
95C
100
AcDbEntity
  8
240
  6
CONTINUOUS
100
AcDbLine
 10
0.0
 20
-31.5
 30
0.0
 11
5.0
 21
-31.5
 31
0.0
  0
LINE
  5
AF1
330
95C
100
AcDbEntity
  8
247
100
AcDbLine
 10
4.51215603
 20
-4.52625482
 30
0.0
 11
4.51215603
 21
-3.76942865
 31
0.0
  0
LINE
  5
AF2
330
95C
100
AcDbEntity
  8
247
100
AcDbLine
 10
7.13118713
 20
-4.52042108
 30
0.0
 11
4.51215603
 21
-3.76942865
 31
0.0
  0
LWPOLYLINE
  5
AF3
330
95C
100
AcDbEntity
  8
247
100
AcDbPolyline
 90
        6
 70
     1
 43
0.0
 10
4.51215603
 20
-4.52625482
 10
4.83225368
 20
-4.61804559
 10
4.83225368
 20
-4.51208246
 10
7.13118713
 20
-5.17129511
 10
7.13118713
 20
-4.52042108
 10
4.51215603
 20
-3.76942865
1001
HATCH_DISTANCE
1040
1.0
1001
HATCH_DISPLAY
1070
     0
1001
HATCH_TYPE
1070
     7
  0
LWPOLYLINE
  5
AF4
102
{ACAD_REACTORS
330
AF5
102
}
330
95C
100
AcDbEntity
  8
247
100
AcDbPolyline
 90
        6
 70
     1
 43
0.0
 10
4.51215603
 20
-4.52625482
 10
4.83225368
 20
-4.61804559
 10
4.83225368
 20
-4.51208246
 10
7.13118713
 20
-5.17129511
 10
7.13118713
 20
-4.52042108
 10
4.51215603
 20
-3.76942865
  0
HATCH
  5
AF5
330
95C
100
AcDbEntity
  8
247
100
AcDbHatch
 10
0.0
 20
0.0
 30
0.0
210
0.0
220
0.0
230
1.0
  2
ANSI31
 70
     0
 71
     1
 91
        1
 92
        7
 72
     0
 73
     1
 93
        6
 10
4.512156029999999
 20
-3.76942865
 10
4.512156029999999
 20
-4.52625482
 10
4.83225368
 20
-4.61804559
 10
4.832253679999999
 20
-4.512082460000001
 10
7.131187129999999
 20
-5.171295109999999
 10
7.131187129999999
 20
-4.52042108
 97
        1
330
AF4
 75
     0
 76
     1
 52
90.0
 41
0.072
 77
     0
 78
     1
 53
134.999999999998
 43
18.90768871181071
 44
-95.19659579496487
 45
-0.16164461017925
 46
-0.1616446101792394
 79
     0
 47
0.01343485
 98
        1
 10
5.753093585886261
 20
-4.449815880945094
  0
LINE
  5
AF6
102
{ACAD_REACTORS
330
AF8
102
}
330
95C
100
AcDbEntity
  8
247
100
AcDbLine
 10
7.27669006
 20
-7.41283563
 30
0.0
 11
7.27669006
 21
-1.50545404
 31
0.0
  0
LINE
  5
AF7
102
{ACAD_REACTORS
330
AF8
102
}
330
95C
100
AcDbEntity
  8
247
100
AcDbLine
 10
7.56769591
 20
-7.41283563
 30
0.0
 11
7.56769591
 21
-1.50545404
 31
0.0
  0
HATCH
  5
AF8
330
95C
100
AcDbEntity
  8
247
100
AcDbHatch
 10
0.0
 20
0.0
 30
0.0
210
0.0
220
0.0
230
1.0
  2
ANSI31
 70
     0
 71
     1
 91
        1
 92
       33
 93
       10
 72
     1
 10
4.512156029999999
 20
-6.8118725
 11
4.80316189
 21
-6.89531366
 72
     1
 10
4.512156029999999
 20
-7.41283563
 11
4.512156029999999
 21
-6.8118725
 72
     1
 10
4.80316189
 20
-7.41283563
 11
4.80316189
 21
-6.89531366
 72
     2
 10
6.039925799999999
 20
-7.41283563
 40
1.236763916015622
 50
180.0
 51
360.0
 73
     1
 72
     2
 10
6.039925799999999
 20
-7.41283563
 40
1.527769775390624
 50
180.0
 51
360.0
 73
     1
 72
     1
 10
7.56769591
 20
-7.41283563
 11
7.56769591
 21
-1.50545404
 72
     1
 10
7.276690059999999
 20
-7.41283563
 11
7.276690059999999
 21
-1.50545404
 72
     2
 10
6.039925799999999
 20
-1.50545404
 40
1.527769775390624
 50
0.0
 51
194.77079397
 73
     1
 72
     2
 10
6.039925799999999
 20
-1.50545404
 40
1.236763916015622
 50
0.0
 51
194.1274364999999
 73
     1
 72
     1
 10
4.84055935
 20
-1.807325379999999
 11
4.56263821
 21
-1.89496332
 97
       10
330
B0F
330
B12
330
B11
330
B1B
330
B1C
330
AF7
330
AF6
330
B33
330
B34
330
B22
 75
     0
 76
     1
 52
90.0
 41
0.072
 77
     0
 78
     1
 53
134.999999999998
 43
18.90768871181071
 44
-95.19659579496487
 45
-0.16164461017925
 46
-0.1616446101792394
 79
     0
 98
        1
 10
18.90768871181071
 20
-95.19659579496487
  0
ARC
  5
AF9
330
95C
100
AcDbEntity
  8
247
100
AcDbCircle
 10
6.37458034
 20
-6.37717645
 30
0.0
 40
0.4365090894699097
100
AcDbArc
 50
351.66285421
 51
156.33819216
  0
LINE
  5
AFA
330
95C
100
AcDbEntity
  8
247
100
AcDbLine
 10
7.13118713
 20
-6.47725977
 30
0.0
 11
6.06342047
 21
-5.40949311
 31
0.0
  0
LINE
  5
AFB
330
95C
100
AcDbEntity
  8
247
100
AcDbLine
 10
5.97476838
 20
-6.20198918
 30
0.0
 11
6.80647642
 21
-6.44046913
 31
0.0
  0
ARC
  5
AFC
330
95C
100
AcDbEntity
  8
247
100
AcDbCircle
 10
6.40368313
 20
-6.05251947
 30
0.0
 40
0.727503662109375
100
AcDbArc
 50
0.0
 51
130.32984065
  0
LINE
  5
AFD
330
95C
100
AcDbEntity
  8
247
100
AcDbLine
 10
7.13118713
 20
-6.80054899
 30
0.0
 11
6.75688874
 21
-6.4262506
 31
0.0
  0
LINE
  5
AFE
330
95C
100
AcDbEntity
  8
247
100
AcDbLine
 10
7.07664228
 20
-5.77613647
 30
0.0
 11
6.68006612
 21
-5.37956032
 31
0.0
  0
LINE
  5
AFF
330
95C
100
AcDbEntity
  8
247
100
AcDbLine
 10
7.13118713
 20
-6.15397055
 30
0.0
 11
6.30848756
 21
-5.33127098
 31
0.0
  0
LINE
  5
B00
330
95C
100
AcDbEntity
  8
247
100
AcDbLine
 10
7.13118713
 20
-7.26013666
 30
0.0
 11
7.13118713
 21
-6.05251947
 31
0.0
  0
LINE
  5
B01
330
95C
100
AcDbEntity
  8
247
100
AcDbLine
 10
7.13118713
 20
-7.12383821
 30
0.0
 11
6.30363602
 21
-6.2962871
 31
0.0
  0
LINE
  5
B02
330
95C
100
AcDbEntity
  8
247
100
AcDbLine
 10
7.13118713
 20
-5.17129511
 30
0.0
 11
7.13118713
 21
-4.52042108
 31
0.0
  0
LINE
  5
B03
330
95C
100
AcDbEntity
  8
247
100
AcDbLine
 10
4.83225368
 20
-4.61804559
 30
0.0
 11
4.83225368
 21
-4.51208246
 31
0.0
  0
LINE
  5
B04
330
95C
100
AcDbEntity
  8
247
100
AcDbLine
 10
4.83225368
 20
-4.61804559
 30
0.0
 11
4.51215603
 21
-4.52625482
 31
0.0
  0
LINE
  5
B05
330
95C
100
AcDbEntity
  8
247
100
AcDbLine
 10
4.80316189
 20
-6.74395502
 30
0.0
 11
4.80316189
 21
-6.59258539
 31
0.0
  0
LINE
  5
B06
330
95C
100
AcDbEntity
  8
247
100
AcDbLine
 10
4.81076804
 20
-5.86821702
 30
0.0
 11
5.64245141
 21
-6.10669305
 31
0.0
  0
ARC
  5
B07
330
95C
100
AcDbEntity
  8
247
100
AcDbCircle
 10
5.21056789
 20
-6.04340082
 30
0.0
 40
0.4364966011047363
100
AcDbArc
 50
351.66260169
 51
156.3381551
  0
LINE
  5
B08
330
95C
100
AcDbEntity
  8
247
100
AcDbLine
 10
5.30028322
 20
-5.61622352
 30
0.0
 11
4.81331301
 21
-5.12925331
 31
0.0
  0
LINE
  5
B09
330
95C
100
AcDbEntity
  8
247
100
AcDbLine
 10
5.01429269
 20
-5.65352221
 30
0.0
 11
4.65142989
 21
-5.29065941
 31
0.0
  0
LINE
  5
B0A
330
95C
100
AcDbEntity
  8
247
100
AcDbLine
 10
4.51215603
 20
-6.66051386
 30
0.0
 11
4.51215603
 21
-5.72174245
 31
0.0
  0
LINE
  5
B0B
330
95C
100
AcDbEntity
  8
247
100
AcDbLine
 10
5.05598381
 20
-6.66508099
 30
0.0
 11
4.51215603
 21
-6.12125321
 31
0.0
  0
LINE
  5
B0C
330
95C
100
AcDbEntity
  8
247
100
AcDbLine
 10
5.50924323
 20
-6.79505119
 30
0.0
 11
4.51215603
 21
-5.79796399
 31
0.0
  0
LINE
  5
B0D
330
95C
100
AcDbEntity
  8
247
100
AcDbLine
 10
4.80316189
 20
-6.73554829
 30
0.0
 11
4.51215603
 21
-6.44454243
 31
0.0
  0
LINE
  5
B0E
330
95C
100
AcDbEntity
  8
247
100
AcDbLine
 10
4.51215603
 20
-6.66051386
 30
0.0
 11
4.80316189
 21
-6.74395502
 31
0.0
  0
LINE
  5
B0F
102
{ACAD_REACTORS
330
AF8
102
}
330
95C
100
AcDbEntity
  8
247
100
AcDbLine
 10
4.51215603
 20
-6.8118725
 30
0.0
 11
4.80316189
 21
-6.89531366
 31
0.0
  0
LINE
  5
B10
330
95C
100
AcDbEntity
  8
247
100
AcDbLine
 10
4.84396343
 20
-5.80648217
 30
0.0
 11
4.54384105
 21
-5.50635979
 31
0.0
  0
LINE
  5
B11
102
{ACAD_REACTORS
330
AF8
102
}
330
95C
100
AcDbEntity
  8
247
100
AcDbLine
 10
4.80316189
 20
-7.41283563
 30
0.0
 11
4.80316189
 21
-6.89531366
 31
0.0
  0
LINE
  5
B12
102
{ACAD_REACTORS
330
AF8
102
}
330
95C
100
AcDbEntity
  8
247
100
AcDbLine
 10
4.51215603
 20
-7.41283563
 30
0.0
 11
4.51215603
 21
-6.8118725
 31
0.0
  0
LINE
  5
B13
330
95C
100
AcDbEntity
  8
247
100
AcDbLine
 10
5.96250265
 20
-6.92502139
 30
0.0
 11
4.9438613
 21
-5.90638004
 31
0.0
  0
LINE
  5
B14
330
95C
100
AcDbEntity
  8
247
100
AcDbLine
 10
6.07093438
 20
-6.06358546
 30
0.0
 11
5.0295761
 21
-5.02222718
 31
0.0
  0
LINE
  5
B15
330
95C
100
AcDbEntity
  8
247
100
AcDbLine
 10
6.28137286
 20
-5.95073472
 30
0.0
 11
5.32715237
 21
-4.99651423
 31
0.0
  0
LINE
  5
B16
330
95C
100
AcDbEntity
  8
247
100
AcDbLine
 10
7.13118713
 20
-5.17129511
 30
0.0
 11
4.83225368
 21
-4.51208246
 31
0.0
  0
ARC
  5
B17
330
95C
100
AcDbEntity
  8
247
100
AcDbCircle
 10
5.23965969
 20
-5.71874384
 30
0.0
 40
0.7275098419189452
100
AcDbArc
 50
17.66957755
 51
180.23615984
  0
LINE
  5
B18
330
95C
100
AcDbEntity
  8
247
100
AcDbLine
 10
6.41576206
 20
-7.05499158
 30
0.0
 11
5.39711643
 21
-6.03634595
 31
0.0
  0
LINE
  5
B19
330
95C
100
AcDbEntity
  8
247
100
AcDbLine
 10
6.86902148
 20
-7.18496178
 30
0.0
 11
5.63774519
 21
-5.95368549
 31
0.0
  0
LINE
  5
B1A
330
95C
100
AcDbEntity
  8
247
100
AcDbLine
 10
7.13118713
 20
-7.26013666
 30
0.0
 11
4.80316189
 21
-6.59258539
 31
0.0
  0
ARC
  5
B1B
102
{ACAD_REACTORS
330
AF8
102
}
330
95C
100
AcDbEntity
  8
247
100
AcDbCircle
 10
6.0399258
 20
-7.41283563
 30
0.0
 40
1.236763916015622
100
AcDbArc
 50
180.0
 51
0.0
  0
ARC
  5
B1C
102
{ACAD_REACTORS
330
AF8
102
}
330
95C
100
AcDbEntity
  8
247
100
AcDbCircle
 10
6.0399258
 20
-7.41283563
 30
0.0
 40
1.527769775390624
100
AcDbArc
 50
180.0
 51
0.0
  0
LINE
  5
B1D
330
95C
100
AcDbEntity
  8
243
100
AcDbLine
 10
3.7
 20
-2.5
 30
0.0
 11
0.0
 21
-2.5
 31
0.0
  0
LINE
  5
B1E
330
95C
100
AcDbEntity
  8
243
100
AcDbLine
 10
3.7
 20
2.5
 30
0.0
 11
0.0
 21
2.5
 31
0.0
  0
LINE
  5
B1F
102
{ACAD_REACTORS
330
B35
102
}
330
95C
100
AcDbEntity
  8
247
100
AcDbLine
 10
6.96049255
 20
-2.46605463
 30
0.0
 11
7.13118713
 21
-2.29534906
 31
0.0
  0
ARC
  5
B20
102
{ACAD_REACTORS
330
B35
102
}
330
95C
100
AcDbEntity
  8
247
100
AcDbCircle
 10
6.0399258
 20
-1.50545404
 30
0.0
 40
1.236767349243164
100
AcDbArc
 50
200.8721834
 51
222.54194894
  0
LWPOLYLINE
  5
B21
330
95C
100
AcDbEntity
  8
247
100
AcDbPolyline
 90
        4
 70
     1
 43
0.0
 10
4.84055935
 20
-1.80732538
 10
4.56263821
 20
-1.89496332
 10
4.56263821
 20
-1.89496332
 10
4.84055935
 20
-1.80732538
  0
LINE
  5
B22
102
{ACAD_REACTORS
330
AF8
102
}
330
95C
100
AcDbEntity
  8
247
100
AcDbLine
 10
4.84055935
 20
-1.80732538
 30
0.0
 11
4.56263821
 21
-1.89496332
 31
0.0
  0
ARC
  5
B23
102
{ACAD_REACTORS
330
B35
102
}
330
95C
100
AcDbEntity
  8
247
100
AcDbCircle
 10
6.0399258
 20
-1.50545404
 30
0.0
 40
1.52777046203613
100
AcDbArc
 50
200.22964506
 51
208.57168892
  0
LINE
  5
B24
102
{ACAD_REACTORS
330
B35
102
}
330
95C
100
AcDbEntity
  8
247
100
AcDbLine
 10
4.88431789
 20
-1.94609369
 30
0.0
 11
4.60639675
 21
-2.03373163
 31
0.0
  0
LWPOLYLINE
  5
B25
330
95C
100
AcDbEntity
  8
247
100
AcDbPolyline
 90
        4
 70
     1
 43
0.0
 10
4.84055935
 20
-1.80732538
 10
4.56263821
 20
-1.89496332
 10
4.56263821
 20
-1.89496332
 10
4.84055935
 20
-1.80732538
1001
HATCH_DISTANCE
1040
1.0
1001
HATCH_DISPLAY
1070
     0
1001
HATCH_TYPE
1070
     7
  0
LWPOLYLINE
  5
B26
330
95C
100
AcDbEntity
  8
247
100
AcDbPolyline
 90
        4
 70
     1
 43
0.0
 10
4.84055935
 20
-1.80732538
 10
4.56263821
 20
-1.89496332
 10
4.56263821
 20
-1.89496332
 10
4.84055935
 20
-1.80732538
  0
LWPOLYLINE
  5
B27
330
95C
100
AcDbEntity
  8
247
100
AcDbPolyline
 90
        4
 70
     1
 43
0.0
 10
4.84055935
 20
-1.80732538
 10
4.56263821
 20
-1.89496332
 10
4.56263821
 20
-1.89496332
 10
4.84055935
 20
-1.80732538
1001
HATCH_DISTANCE
1040
1.0
1001
HATCH_DISPLAY
1070
     0
1001
HATCH_TYPE
1070
     7
  0
LINE
  5
B28
102
{ACAD_REACTORS
330
B35
102
}
330
95C
100
AcDbEntity
  8
247
100
AcDbLine
 10
7.13118713
 20
-2.29534906
 30
0.0
 11
5.6470657
 21
-1.86978265
 31
0.0
  0
ARC
  5
B29
102
{ACAD_REACTORS
330
B35
102
}
330
95C
100
AcDbEntity
  8
247
100
AcDbCircle
 10
6.50552639
 20
-3.03927728
 30
0.0
 40
0.3055557918548584
100
AcDbArc
 50
254.00027306
 51
74.00027306
  0
LINE
  5
B2A
102
{ACAD_REACTORS
330
B35
102
}
330
95C
100
AcDbEntity
  8
247
100
AcDbLine
 10
6.4213052
 20
-3.33299677
 30
0.0
 11
5.05358425
 21
-2.94080682
 31
0.0
  0
ARC
  5
B2B
102
{ACAD_REACTORS
330
B35
102
}
330
95C
100
AcDbEntity
  8
247
100
AcDbCircle
 10
6.23515285
 20
-1.46175043
 30
0.0
 40
2.4749560546875
100
AcDbArc
 50
245.20517737
 51
262.79482596
  0
LINE
  5
B2C
102
{ACAD_REACTORS
330
B35
102
}
330
95C
100
AcDbEntity
  8
247
100
AcDbLine
 10
5.93807155
 20
-2.80087396
 30
0.0
 11
5.6470657
 21
-2.7174328
 31
0.0
  0
LINE
  5
B2D
102
{ACAD_REACTORS
330
B35
102
}
330
95C
100
AcDbEntity
  8
247
100
AcDbLine
 10
6.58974758
 20
-2.7455578
 30
0.0
 11
5.93807155
 21
-2.55869135
 31
0.0
  0
ARC
  5
B2E
102
{ACAD_REACTORS
330
B35
102
}
330
95C
100
AcDbEntity
  8
247
100
AcDbCircle
 10
6.18542873
 20
-3.00803217
 30
0.0
 40
0.9457690429687499
100
AcDbArc
 50
253.9997507
 51
34.96387329
  0
LINE
  5
B2F
102
{ACAD_REACTORS
330
B35
102
}
330
95C
100
AcDbEntity
  8
247
100
AcDbLine
 10
5.93807155
 20
-2.80087396
 30
0.0
 11
5.93807155
 21
-2.55869135
 31
0.0
  0
ARC
  5
B30
102
{ACAD_REACTORS
330
B35
102
}
330
95C
100
AcDbEntity
  8
247
100
AcDbCircle
 10
5.13781643
 20
-2.64708734
 30
0.0
 40
0.3055560064315795
100
AcDbArc
 50
91.71012138
 51
253.99839835
  0
LINE
  5
B31
102
{ACAD_REACTORS
330
B35
102
}
330
95C
100
AcDbEntity
  8
247
100
AcDbLine
 10
5.6470657
 20
-2.7174328
 30
0.0
 11
5.6470657
 21
-1.86978265
 31
0.0
  0
ARC
  5
B32
102
{ACAD_REACTORS
330
B35
102
}
330
95C
100
AcDbEntity
  8
247
100
AcDbCircle
 10
5.45791408
 20
-2.79942377
 30
0.0
 40
0.9457594299316404
100
AcDbArc
 50
143.4440122
 51
254.00018439
  0
ARC
  5
B33
102
{ACAD_REACTORS
330
AF8
102
}
330
95C
100
AcDbEntity
  8
247
100
AcDbCircle
 10
6.0399258
 20
-1.50545404
 30
0.0
 40
1.527769775390624
100
AcDbArc
 50
0.0
 51
194.77079397
  0
ARC
  5
B34
102
{ACAD_REACTORS
330
AF8
102
}
330
95C
100
AcDbEntity
  8
247
100
AcDbCircle
 10
6.0399258
 20
-1.50545404
 30
0.0
 40
1.236763916015622
100
AcDbArc
 50
0.0
 51
194.1274365
  0
HATCH
  5
B35
330
95C
100
AcDbEntity
  8
247
100
AcDbHatch
 10
0.0
 20
0.0
 30
0.0
210
0.0
220
0.0
230
1.0
  2
ANSI31
 70
     0
 71
     1
 91
        1
 92
       33
 93
       15
 72
     1
 10
4.88431789
 20
-1.94609369
 11
4.60639675
 21
-2.03373163
 72
     2
 10
6.039925799999999
 20
-1.50545404
 40
1.236767349243164
 50
200.8721834
 51
222.54194894
 73
     1
 72
     2
 10
5.137816429999999
 20
-2.64708734
 40
0.3055560064315795
 50
91.71012137999998
 51
253.9983983499999
 73
     1
 72
     1
 10
6.421305199999999
 20
-3.332996769999999
 11
5.05358425
 21
-2.94080682
 72
     2
 10
6.505526389999999
 20
-3.039277279999999
 40
0.3055557918548584
 50
254.00027306
 51
434.00027306
 73
     1
 72
     1
 10
6.58974758
 20
-2.745557799999999
 11
5.93807155
 21
-2.55869135
 72
     1
 10
5.93807155
 20
-2.80087396
 11
5.93807155
 21
-2.55869135
 72
     1
 10
5.93807155
 20
-2.80087396
 11
5.647065699999999
 21
-2.717432799999999
 72
     1
 10
5.647065699999999
 20
-2.717432799999999
 11
5.647065699999999
 21
-1.86978265
 72
     1
 10
7.131187129999999
 20
-2.295349059999999
 11
5.647065699999999
 21
-1.86978265
 72
     1
 10
6.960492549999999
 20
-2.466054629999999
 11
7.131187129999999
 21
-2.295349059999999
 72
     2
 10
6.185428729999999
 20
-3.008032169999999
 40
0.9457690429687499
 50
253.9997506999999
 51
394.96387329
 73
     1
 72
     2
 10
6.23515285
 20
-1.461750429999999
 40
2.4749560546875
 50
245.2051773699999
 51
262.79482596
 73
     1
 72
     2
 10
5.45791408
 20
-2.79942377
 40
0.9457594299316404
 50
143.4440121999999
 51
254.00018439
 73
     1
 72
     2
 10
6.039925799999999
 20
-1.50545404
 40
1.52777046203613
 50
200.2296450599999
 51
208.5716889199999
 73
     1
 97
       15
330
B24
330
B20
330
B30
330
B2A
330
B29
330
B2D
330
B2F
330
B2C
330
B31
330
B28
330
B1F
330
B2E
330
B2B
330
B32
330
B23
 75
     0
 76
     1
 52
90.0
 41
0.072
 77
     0
 78
     1
 53
134.999999999998
 43
18.90768871181071
 44
-95.19659579496487
 45
-0.16164461017925
 46
-0.1616446101792394
 79
     0
 98
        1
 10
18.90768871181071
 20
-95.19659579496487
  0
LINE
  5
B36
330
95C
100
AcDbEntity
  8
241
100
AcDbLine
 10
44.28121306
 20
-34.12607744
 30
0.0
 11
45.06124375
 21
-36.31855981
 31
0.0
  0
LINE
  5
B37
330
95C
100
AcDbEntity
  8
241
100
AcDbLine
 10
47.14524443
 20
-32.04412341
 30
0.0
 11
43.59116466
 21
-31.85786199
 31
0.0
  0
LINE
  5
B38
330
95C
100
AcDbEntity
  8
240
  6
CONTINUOUS
100
AcDbLine
 10
44.39776117
 20
-27.08774812
 30
0.0
 11
47.48753983
 21
-32.1413021
 31
0.0
  0
LINE
  5
B39
330
95C
100
AcDbEntity
  8
240
  6
CONTINUOUS
100
AcDbLine
 10
40.78458713
 20
-44.29802588
 30
0.0
 11
54.15813124
 21
-44.99890363
 31
0.0
  0
ARC
  5
B3A
330
95C
100
AcDbEntity
  8
241
100
AcDbCircle
 10
43.83815224
 20
-37.90097794
 30
0.0
 40
1.999999999999999
100
AcDbArc
 50
268.80032672
 51
355.55367328
  0
LINE
  5
B3B
330
95C
100
AcDbEntity
  8
241
100
AcDbLine
 10
36.42811082
 20
-20.04131634
 30
0.0
 11
33.54811338
 21
-16.86255831
 31
0.0
  0
LINE
  5
B3C
330
95C
100
AcDbEntity
  8
241
100
AcDbLine
 10
31.42936738
 20
-16.75808177
 30
0.0
 11
24.01862555
 21
-23.47231335
 31
0.0
  0
CIRCLE
  5
B3D
330
95C
100
AcDbEntity
  8
241
100
AcDbCircle
 10
32.75967014
 20
-25.67325393
 30
0.0
 40
4.25
  0
LINE
  5
B3E
330
95C
100
AcDbEntity
  8
241
100
AcDbLine
 10
26.79414645
 20
-28.76981738
 30
0.0
 11
30.92176868
 21
-33.32562431
 31
0.0
  0
LINE
  5
B3F
330
95C
100
AcDbEntity
  8
240
  6
CONTINUOUS
100
AcDbLine
 10
21.13583274
 20
-40.61930004
 30
0.0
 11
30.84195931
 21
-43.22004882
 31
0.0
  0
LINE
  5
B40
330
95C
100
AcDbEntity
  8
241
  6
CONTINUOUS
100
AcDbLine
 10
24.10585738
 20
-25.80265486
 30
0.0
 11
13.76385672
 21
-36.55981503
 31
0.0
  0
ARC
  5
B41
330
95C
100
AcDbEntity
  8
240
  6
CONTINUOUS
100
AcDbCircle
 10
22.42992796
 20
-35.78967091
 30
0.0
 40
5.0
100
AcDbArc
 50
240.0
 51
255.0
  0
ARC
  5
B42
330
95C
100
AcDbEntity
  8
241
100
AcDbCircle
 10
25.02576029
 20
-24.58392462
 30
0.0
 40
1.5
100
AcDbArc
 50
132.177
 51
222.177
  0
LINE
  5
B43
330
95C
100
AcDbEntity
  8
241
100
AcDbLine
 10
23.91414901
 20
-25.59105935
 30
0.0
 11
26.79414645
 21
-28.76981738
 31
0.0
  0
LINE
  5
B44
330
95C
100
AcDbEntity
  8
241
100
AcDbLine
 10
42.19057878
 20
-27.36271935
 30
0.0
 11
44.28121306
 21
-34.12607744
 31
0.0
  0
LINE
  5
B45
330
95C
100
AcDbEntity
  8
241
100
AcDbLine
 10
33.51310892
 20
-35.22462352
 30
0.0
 11
40.03797562
 21
-37.97050753
 31
0.0
  0
LINE
  5
B46
330
95C
100
AcDbEntity
  8
241
100
AcDbLine
 10
40.14801741
 20
-43.92305766
 30
0.0
 11
35.14061017
 21
-35.90953095
 31
0.0
  0
LINE
  5
B47
330
95C
100
AcDbEntity
  8
240
  6
CONTINUOUS
100
AcDbLine
 10
32.8697109
 20
-43.66362162
 30
0.0
 11
40.24705371
 21
-44.05074995
 31
0.0
  0
SPLINE
  5
B48
330
95C
100
AcDbEntity
  8
240
  6
CONTINUOUS
100
AcDbSpline
210
0.0
220
0.0
230
1.0
 70
    12
 71
     2
 72
     6
 73
     3
 74
     0
 42
0.0000000001
 43
0.0000000001
 40
13.84951917718781
 40
13.84951917718781
 40
13.84951917718781
 40
18.16598789087714
 40
18.16598789087714
 40
18.16598789087714
 10
32.86971089748391
 20
-43.66362161586486
 30
0.0
 41
1.053721564349185
 10
31.60441631683507
 20
-43.42434855695434
 30
0.0
 41
1.058857647782383
 10
30.84195931133598
 20
-43.22004881806893
 30
0.0
 41
1.061976860315053
  0
ELLIPSE
  5
B49
330
95C
100
AcDbEntity
  8
241
100
AcDbEllipse
 10
33.14499123
 20
-31.31135483
 30
0.0
 11
3.410190523635391
 21
-3.763951432848978
 31
0.0
210
0.0
220
0.0
230
1.0
 40
0.59066186
 41
4.712388980384688
 42
5.380673877756676
  0
SPLINE
  5
B4A
330
95C
100
AcDbEntity
  8
241
100
AcDbSpline
210
0.0
220
0.0
230
1.0
 70
     8
 71
     3
 72
    19
 73
    15
 74
     0
 42
0.0000000001
 43
0.0000000001
 40
-0.0565864198345793
 40
-0.0565864198345793
 40
-0.0565864198345793
 40
-0.0565864198345793
 40
0.0
 40
0.0
 40
0.0
 40
0.4621772209985248
 40
0.4621772209985248
 40
0.9243544419970495
 40
0.9243544419970495
 40
1.386531662995573
 40
1.386531662995573
 40
1.848708883994099
 40
1.848708883994099
 40
2.075001284306946
 40
2.075001284306946
 40
2.075001284306946
 40
2.075001284306946
 10
43.79627879746609
 20
-39.9005395456994
 30
0.0
 10
43.77737040910655
 20
-39.90014357929436
 30
0.0
 10
43.75849006018539
 20
-39.89947980839484
 30
0.0
 10
43.73965081044119
 20
-39.89855083456649
 30
0.0
 10
43.58577869557787
 20
-39.89096331544759
 30
0.0
 10
43.43095391540169
 20
-39.865197847437
 30
0.0
 10
43.13350933523724
 20
-39.77912827781334
 30
0.0
 10
42.99090081199621
 20
-39.71882690770485
 30
0.0
 10
42.72974014629095
 20
-39.57245272161731
 30
0.0
 10
42.61077113906
 20
-39.48615051693282
 30
0.0
 10
42.40371583270217
 20
-39.30155947288707
 30
0.0
 10
42.31559981339827
 20
-39.20338424677963
 30
0.0
 10
42.20765099260254
 20
-39.06068675771908
 30
0.0
 10
42.17404322076709
 20
-39.01189853159142
 30
0.0
 10
42.14308077850835
 20
-38.96245462694237
 30
0.0
  0
ARC
  5
B4B
330
95C
100
AcDbEntity
  8
241
100
AcDbCircle
 10
40.82645589
 20
-43.49912225
 30
0.0
 40
0.8
100
AcDbArc
 50
212.0
 51
223.59328151
  0
ARC
  5
B4C
330
95C
100
AcDbEntity
  8
240
  6
CONTINUOUS
100
AcDbCircle
 10
40.82645589
 20
-43.49912225
 30
0.0
 40
0.8
100
AcDbArc
 50
223.59328151
 51
267.0
  0
LINE
  5
B4D
330
95C
100
AcDbEntity
  8
241
100
AcDbLine
 10
40.03797562
 20
-37.97050753
 30
0.0
 11
42.14308078
 21
-38.96245463
 31
0.0
  0
LINE
  5
B4E
330
95C
100
AcDbEntity
  8
241
100
AcDbLine
 10
40.55573306
 20
-24.59712326
 30
0.0
 11
36.42811082
 21
-20.04131634
 31
0.0
  0
LINE
  5
B4F
330
95C
100
AcDbEntity
  8
241
100
AcDbLine
 10
31.04823263
 20
-27.22383929
 30
0.0
 11
30.56110507
 21
-24.96639824
 31
0.0
  0
LINE
  5
B50
330
95C
100
AcDbEntity
  8
241
100
AcDbLine
 10
34.47110766
 20
-24.12266857
 30
0.0
 11
34.95823521
 21
-26.38010961
 31
0.0
  0
LINE
  5
B51
330
95C
100
AcDbEntity
  8
241
100
AcDbLine
 10
33.2467977
 20
-27.93069497
 30
0.0
 11
31.04823263
 21
-27.22383929
 31
0.0
  0
LINE
  5
B52
330
95C
100
AcDbEntity
  8
241
100
AcDbLine
 10
34.95823521
 20
-26.38010961
 30
0.0
 11
33.2467977
 21
-27.93069497
 31
0.0
  0
LINE
  5
B53
330
95C
100
AcDbEntity
  8
241
100
AcDbLine
 10
32.27254258
 20
-23.41581288
 30
0.0
 11
34.47110766
 21
-24.12266857
 31
0.0
  0
LINE
  5
B54
330
95C
100
AcDbEntity
  8
241
100
AcDbLine
 10
30.56110507
 20
-24.96639824
 30
0.0
 11
32.27254258
 21
-23.41581288
 31
0.0
  0
ELLIPSE
  5
B55
330
95C
100
AcDbEntity
  8
241
100
AcDbEllipse
 10
38.33251051
 20
-26.61139273
 30
0.0
 11
3.410190523635579
 21
-3.763951432849187
 31
0.0
210
0.0
220
0.0
230
1.0
 40
0.59066186
 41
0.9025114294229034
 42
1.570796326794896
  0
LINE
  5
B56
330
95C
100
AcDbEntity
  8
240
  6
CONTINUOUS
100
AcDbLine
 10
43.23649707
 20
-25.9713016
 30
0.0
 11
44.39776117
 21
-27.08774812
 31
0.0
  0
ARC
  5
B57
330
95C
100
AcDbEntity
  8
241
100
AcDbCircle
 10
32.43650211
 20
-17.86969305
 30
0.0
 40
1.5
100
AcDbArc
 50
42.177
 51
132.177
  0
LINE
  5
B58
330
95C
100
AcDbEntity
  8
241
  6
CONTINUOUS
100
AcDbLine
 10
35.67137983
 20
-13.77285701
 30
0.0
 11
33.04904331
 21
-16.50046214
 31
0.0
  0
ARC
  5
B59
330
95C
100
AcDbEntity
  8
241
100
AcDbCircle
 10
47.10337567
 20
-32.84302704
 30
0.0
 40
0.8
100
AcDbArc
 50
61.30119532
 51
87.0
  0
LINE
  5
B5A
330
95C
100
AcDbEntity
  8
240
  6
CONTINUOUS
100
AcDbLine
 10
47.78181415
 20
-32.41909163
 30
0.0
 11
54.87843848
 21
-43.77606459
 31
0.0
  0
ARC
  5
B5B
330
95C
100
AcDbEntity
  8
240
  6
CONTINUOUS
100
AcDbCircle
 10
47.10337567
 20
-32.84302704
 30
0.0
 40
0.8
100
AcDbArc
 50
32.0
 51
61.30119532
  0
SPLINE
  5
B5C
330
95C
100
AcDbEntity
  8
241
100
AcDbSpline
210
0.0
220
0.0
230
1.0
 70
     8
 71
     3
 72
    18
 73
    14
 74
     0
 42
0.0000000001
 43
0.0000000001
 40
8.989072812039331
 40
8.989072812039331
 40
8.989072812039331
 40
8.989072812039331
 40
9.215365212352192
 40
9.215365212352192
 40
9.677542433350719
 40
9.677542433350719
 40
10.13971965434924
 40
10.13971965434924
 40
10.60189687534776
 40
10.60189687534776
 40
11.06407409634629
 40
11.06407409634629
 40
11.12066051618086
 40
11.12066051618086
 40
11.12066051618086
 40
11.12066051618086
 10
45.06124374723007
 20
-36.31855980526386
 30
0.0
 10
45.10740164285248
 20
-36.35423642518901
 30
0.0
 10
45.1526467883059
 20
-36.39248103460431
 30
0.0
 10
45.28403180518881
 20
-36.51394501541364
 30
0.0
 10
45.37306173688422
 20
-36.61129222462645
 30
0.0
 10
45.53638678883982
 20
-36.83550346617454
 30
0.0
 10
45.61056592308699
 20
-36.96238589702005
 30
0.0
 10
45.73053652979933
 20
-37.23668017182264
 30
0.0
 10
45.77651526620167
 20
-37.38452942591877
 30
0.0
 10
45.83290413013699
 20
-37.68899871026204
 30
0.0
 10
45.84331264884439
 20
-37.84560724973781
 30
0.0
 10
45.83479615589715
 20
-38.01831861434529
 30
0.0
 10
45.83359922229513
 20
-38.03717267271863
 30
0.0
 10
45.83213302481637
 20
-38.05602828739177
 30
0.0
  0
ARC
  5
B5D
330
95C
100
AcDbEntity
  8
240
  6
CONTINUOUS
100
AcDbCircle
 10
54.2
 20
-44.2
 30
0.0
 40
0.8
100
AcDbArc
 50
267.0
 51
32.0
  0
LINE
  5
B5E
330
95C
100
AcDbEntity
  8
240
  6
CONTINUOUS
100
AcDbLine
 10
0.0
 20
31.5
 30
0.0
 11
6.98743274
 21
31.5
 31
0.0
  0
ARC
  5
B5F
330
95C
100
AcDbEntity
  8
240
  6
CONTINUOUS
100
AcDbCircle
 10
6.98743274
 20
30.5
 30
0.0
 40
1.0
100
AcDbArc
 50
43.7234339
 51
90.0
  0
ENDBLK
  5
95E
330
95C
100
AcDbEntity
  8
0
100
AcDbBlockEnd
  0
ENDSEC
  0
SECTION
  2
ENTITIES
  0
INSERT
  5
6E6
330
1A
100
AcDbEntity
  8
245
100
AcDbBlockReference
  2
矢印なし
 10
175.62382697
 20
90.55123572
 30
0.0
  0
TEXT
  5
830
330
1A
100
AcDbEntity
  8
241
  6
CONTINUOUS
100
AcDbText
 10
0.0
 20
45.5
 30
0.0
 40
5.0
  1
F63-DDJNL-45055-15
  7
YOKO
 11
0.0
 21
45.5
 31
0.0
100
AcDbText
 73
     1
  0
DIMENSION
  5
831
330
1A
100
AcDbEntity
  8
250
  6
CONTINUOUS
100
AcDbDimension
  2
*D2
 10
70.00729545
 20
0.0
 30
0.0
 11
70.00729545
 21
-22.5
 31
0.0
 70
   160
  3
BIGT
100
AcDbAlignedDimension
 13
54.2
 23
-45.0
 33
0.0
 14
28.12985823
 24
0.0
 34
0.0
 50
90.0
100
AcDbRotatedDimension
1001
ACAD
1000
DSTYLE
1002
{
1070
    78
1070
     8
1070
   140
1040
3.0
1002
}
  0
DIMENSION
  5
832
330
1A
100
AcDbEntity
  8
250
  6
CONTINUOUS
100
AcDbDimension
  2
*D3
 10
55.0
 20
-56.0
 30
0.0
 11
27.5
 21
-53.5
 31
0.0
 70
    32
  3
BIGT
100
AcDbAlignedDimension
 13
0.0
 23
-31.5
 33
0.0
 14
55.0
 24
-44.2
 34
0.0
100
AcDbRotatedDimension
1001
ACAD
1000
DSTYLE
1002
{
1070
    78
1070
     8
1070
   140
1040
3.0
1002
}
  0
LEADER
  5
919
102
{ACAD_REACTORS
330
91E
102
}
330
1A
100
AcDbEntity
  8
250
  6
CONTINUOUS
100
AcDbLeader
  3
BIGT
 76
     2
 10
52.44453942
 20
-43.81136141
 30
0.0
 10
59.4764257
 20
-56.0
 30
0.0
1001
ACAD
1000
DSTYLE
1002
{
1070
     6
1000
DOT
1070
    41
1040
2.0
1070
    42
1040
2.0
1070
    44
1040
2.0
1070
   140
1040
4.0
1070
   341
1005
914
1070
   343
1005
914
1002
}
  0
MTEXT
  5
91A
102
{ACAD_REACTORS
330
91E
102
}
330
1A
100
AcDbEntity
  8
251
  6
CONTINUOUS
100
AcDbMText
 10
59.20228173
 20
-55.0
 30
0.0
 40
2.8
 41
0.0
 71
     7
 72
     1
  1
（DN1504）
  7
YOKO
1001
ITEMNAME
1000
LNSP3
1001
ACAD
1000
MTEXTBEGIN
1070
    73
1070
     1
1070
    44
1040
1.0
1070
    74
1070
     0
1000
MTEXTEND
1000
MTEXTBEGIN
1070
    73
1070
     1
1070
    44
1040
1.0
1070
    74
1070
     0
1000
MTEXTEND
  0
LINE
  5
91C
102
{ACAD_REACTORS
330
91E
102
}
330
1A
100
AcDbEntity
  8
250
  6
CONTINUOUS
100
AcDbLine
 10
59.4764257
 20
-56.0
 30
0.0
 11
81.32842108
 21
-56.0
 31
0.0
1001
ITEMNAME
1000
LNSP2
  0
INSERT
  5
B60
330
1A
100
AcDbEntity
  8
245
100
AcDbBlockReference
  2
1
 10
0.0
 20
0.0
 30
0.0
  0
VIEWPORT
  5
22
330
17
100
AcDbEntity
 67
     1
  8
0
100
AcDbViewport
 10
261.51769912
 20
148.5
 30
0.0
 40
523.03539823
 41
297.0
 68
     1
 69
     1
1001
ACAD
1000
MVIEW
1002
{
1070
    16
1010
0.0
1020
0.0
1030
0.0
1010
0.0
1020
0.0
1030
1.0
1040
0.0
1040
297.0
1040
261.51769912
1040
148.5
1040
50.0
1040
0.0
1040
0.0
1070
     0
1070
   100
1070
     1
1070
     1
1070
     0
1070
     0
1070
     0
1070
     0
1040
0.0
1040
0.0
1040
0.0
1040
1.0
1040
1.0
1040
10.0
1040
10.0
1070
     0
1002
{
1002
}
1002
}
  0
ENDSEC
  0
SECTION
  2
OBJECTS
  0
DICTIONARY
  5
C
330
0
100
AcDbDictionary
  3
ACAD_GROUP
350
D
  3
ACAD_LAYOUT
350
565
  3
ACAD_MLINESTYLE
350
E
  3
ACAD_PLOTSETTINGS
350
566
  3
ACAD_PLOTSTYLENAME
350
563
  3
ACDBHEADERROUNDTRIPXREC
350
B87
  3
GRADE_DWG
350
540
  0
DICTIONARY
  5
A47
330
1A
100
AcDbDictionary
280
     1
  3
ACAD_LAYOUTSELFREF
360
BA9
  0
DICTIONARY
  5
A45
330
17
100
AcDbDictionary
280
     1
  3
ACAD_LAYOUTSELFREF
360
BA8
  0
DICTIONARY
  5
D
102
{ACAD_REACTORS
330
C
102
}
330
C
100
AcDbDictionary
  3
*A1
350
6C7
  3
*A2
350
6C8
  3
*A3
350
6D4
  3
*A4
350
6D5
  3
DREC-1
350
5FC
  3
DREC-2
350
654
  3
DREC-3
350
673
  3
LNSP-1
350
91E
  0
DICTIONARY
  5
565
102
{ACAD_REACTORS
330
C
102
}
330
C
100
AcDbDictionary
  0
DICTIONARY
  5
E
102
{ACAD_REACTORS
330
C
102
}
330
C
100
AcDbDictionary
  3
STANDARD
350
13
  0
DICTIONARY
  5
566
102
{ACAD_REACTORS
330
C
102
}
330
C
100
AcDbDictionary
  3
A3_0_5倍_
350
758
  3
A3_1倍_
350
757
  3
A3_1倍__2000_
350
707
  3
A3_2倍_
350
759
  3
A4_0_5倍_
350
755
  3
A4_1倍_
350
754
  3
A4_1倍__2000_
350
708
  3
A4_2倍_
350
756
  0
ACDBDICTIONARYWDFLT
  5
563
102
{ACAD_REACTORS
330
C
102
}
330
C
100
AcDbDictionary
281
     1
  3
Normal
350
564
100
AcDbDictionaryWithDefault
340
564
  0
DICTIONARY
  5
B87
102
{ACAD_REACTORS
330
C
102
}
330
C
100
AcDbDictionary
  3
CEPSNTYPE
350
B91
  3
DIMSTYLEDATA
350
B95
  3
FINGERPRINTGUID
350
B92
  3
HYPERLINKBASE
350
B8A
  3
INSUNITS
350
B90
  3
LAYOUTDICT
350
B8C
  3
LWETCUNION
350
B8F
  3
PLOTSETDICT
350
B8D
  3
PLOTSTYLNAMDICT
350
B8E
  3
PSVPSCALE
350
B94
  3
PUCSBASE
350
B98
  3
PUCSORGBACK
350
B9E
  3
PUCSORGBOTTOM
350
B9A
  3
PUCSORGFRONT
350
B9D
  3
PUCSORGLEFT
350
B9B
  3
PUCSORGRIGHT
350
B9C
  3
PUCSORGTOP
350
B99
  3
PUCSORTHOREF
350
B96
  3
PUCSORTHOVIEW
350
B97
  3
STYLESHEET
350
B8B
  3
TSTACKALIGN
350
B88
  3
TSTACKSIZE
350
B89
  3
UCSBASE
350
BA1
  3
UCSORGBACK
350
BA7
  3
UCSORGBOTTOM
350
BA3
  3
UCSORGFRONT
350
BA6
  3
UCSORGLEFT
350
BA4
  3
UCSORGRIGHT
350
BA5
  3
UCSORGTOP
350
BA2
  3
UCSORTHOREF
350
B9F
  3
UCSORTHOVIEW
350
BA0
  3
VERSIONGUID
350
B93
  0
DICTIONARY
  5
540
102
{ACAD_REACTORS
330
C
102
}
330
C
100
AcDbDictionary
  3
VERSION
350
560
  0
XRECORD
  5
BA9
102
{ACAD_REACTORS
330
A47
102
}
330
A47
100
AcDbXrecord
340
1A
  0
XRECORD
  5
BA8
102
{ACAD_REACTORS
330
A45
102
}
330
A45
100
AcDbXrecord
340
17
  0
GROUP
  5
6C7
102
{ACAD_REACTORS
330
D
102
}
330
D
100
AcDbGroup
300

 70
     0
 71
     1
1001
GRPNAME
1000
DMA00
  0
GROUP
  5
6C8
102
{ACAD_REACTORS
330
D
102
}
330
D
100
AcDbGroup
300

 70
     0
 71
     1
1001
GRPNAME
1000
DMA00
  0
GROUP
  5
6D4
102
{ACAD_REACTORS
330
D
102
}
330
D
100
AcDbGroup
300

 70
     0
 71
     1
1001
GRPNAME
1000
DMA00
  0
GROUP
  5
6D5
102
{ACAD_REACTORS
330
D
102
}
330
D
100
AcDbGroup
300

 70
     0
 71
     1
1001
GRPNAME
1000
DMA00
  0
GROUP
  5
5FC
102
{ACAD_REACTORS
330
D
102
}
330
D
100
AcDbGroup
300

 70
     0
 71
     1
1001
GRPNAME
1000
DREC-
1001
GPARA
1000
xsiz
1000
44.182
1000
ysiz
1000
40.677
1000
angl
1000
0
1000
ctyp
1000
0
1000
csiz
1000
5
1000
lfnt
1000
cont
1000
hcnt
1000
hoff
1000
vcnt
1000
voff
1000
opnt
1000
4
1000
dxpt
1000
0
1000
dypt
1000
0
  0
GROUP
  5
654
102
{ACAD_REACTORS
330
D
102
}
330
D
100
AcDbGroup
300

 70
     0
 71
     1
1001
GRPNAME
1000
DREC-
1001
GPARA
1000
xsiz
1000
54.592
1000
ysiz
1000
53.036
1000
angl
1000
0
1000
ctyp
1000
0
1000
csiz
1000
5
1000
lfnt
1000
cont
1000
hcnt
1000
hoff
1000
vcnt
1000
voff
1000
opnt
1000
4
1000
dxpt
1000
0
1000
dypt
1000
0
  0
GROUP
  5
673
102
{ACAD_REACTORS
330
D
102
}
330
D
100
AcDbGroup
300

 70
     0
 71
     1
1001
GRPNAME
1000
DREC-
1001
GPARA
1000
xsiz
1000
30.363
1000
ysiz
1000
36.175
1000
angl
1000
0
1000
ctyp
1000
0
1000
csiz
1000
5
1000
lfnt
1000
cont
1000
hcnt
1000
hoff
1000
vcnt
1000
voff
1000
opnt
1000
4
1000
dxpt
1000
0
1000
dypt
1000
0
  0
GROUP
  5
91E
102
{ACAD_REACTORS
330
D
102
}
330
D
100
AcDbGroup
300

 70
     0
 71
     1
340
919
340
91A
340
91C
1001
GRPNAME
1000
LNSP
  0
MLINESTYLE
  5
13
102
{ACAD_REACTORS
330
E
102
}
330
E
100
AcDbMlineStyle
  2
STANDARD
 70
     0
  3

 62
     0
 51
90.0
 52
90.0
 71
     2
 49
0.5
 62
   256
  6
BYLAYER
 49
-0.5
 62
   256
  6
BYLAYER
  0
PLOTSETTINGS
  5
758
102
{ACAD_REACTORS
330
566
102
}
330
566
100
AcDbPlotSettings
  1
A3(0.5倍)
  2
\\AWTECPC05\HP DeskJet 1120C
  4
A3
  6

 40
5.95841646
 41
13.49375153
 42
6.04309082
 43
3.67242432
 44
296.92599487
 45
419.94665527
 46
89.96
 47
127.14
 48
0.0
 49
0.0
140
0.0
141
0.0
142
1.0
143
2.0
 70
  1716
 72
     1
 73
     1
 74
     2
  7
big.ctb
 75
    17
147
0.5
148
0.0
149
0.0
  0
PLOTSETTINGS
  5
757
102
{ACAD_REACTORS
330
566
102
}
330
566
100
AcDbPlotSettings
  1
A3(1倍)
  2
\\AWTECPC05\HP DeskJet 1120C
  4
A3
  6

 40
5.95841646
 41
13.49375153
 42
6.04309082
 43
3.67242432
 44
296.92599487
 45
419.94665527
 46
37.46
 47
52.89
 48
0.0
 49
0.0
140
0.0
141
0.0
142
1.0
143
1.0
 70
  1716
 72
     1
 73
     1
 74
     2
  7
big.ctb
 75
    16
147
1.0
148
0.0
149
0.0
  0
PLOTSETTINGS
  5
707
102
{ACAD_REACTORS
330
566
102
}
330
566
100
AcDbPlotSettings
  1
A3(1倍)(2000)
  2
SII LS-1300 (D-SCAN)
  4
User258
  6

 40
3.17499995
 41
3.17499995
 42
3.17498779
 43
3.17498779
 44
419.98898315
 45
296.98950195
 46
58.32
 47
40.32
 48
0.0
 49
0.0
140
0.0
141
0.0
142
1.0
143
1.0
 70
  1716
 72
     1
 73
     0
 74
     2
  7
big.ctb
 75
    16
147
1.0
148
0.0
149
0.0
  0
PLOTSETTINGS
  5
759
102
{ACAD_REACTORS
330
566
102
}
330
566
100
AcDbPlotSettings
  1
A3(2倍)
  2
\\AWTECPC05\HP DeskJet 1120C
  4
A3
  6

 40
5.95841646
 41
13.49375153
 42
6.04309082
 43
3.67242432
 44
296.92599487
 45
419.94665527
 46
-67.54
 47
-95.61
 48
0.0
 49
0.0
140
0.0
141
0.0
142
1.0
143
0.5
 70
  1716
 72
     1
 73
     1
 74
     2
  7
big.ctb
 75
    27
147
2.0
148
0.0
149
0.0
  0
PLOTSETTINGS
  5
755
102
{ACAD_REACTORS
330
566
102
}
330
566
100
AcDbPlotSettings
  1
A4(0.5倍)
  2
\\AWTECPC05\HP DeskJet 1120C
  4
A4
  6

 40
4.18041658
 41
13.49374962
 42
4.18040466
 43
3.92642212
 44
209.97332764
 45
296.92599487
 46
48.31
 47
65.5
 48
0.0
 49
0.0
140
0.0
141
0.0
142
1.0
143
2.0
 70
  1716
 72
     1
 73
     1
 74
     2
  7
big.ctb
 75
    17
147
0.5
148
0.0
149
0.0
  0
PLOTSETTINGS
  5
754
102
{ACAD_REACTORS
330
566
102
}
330
566
100
AcDbPlotSettings
  1
A4(1倍)
  2
\\AWTECPC05\HP DeskJet 1120C
  4
A4
  6

 40
4.18041658
 41
13.49374962
 42
4.18040466
 43
3.92642212
 44
209.97332764
 45
296.92599487
 46
-4.19
 47
-8.75
 48
0.0
 49
0.0
140
0.0
141
0.0
142
1.0
143
1.0
 70
  1716
 72
     1
 73
     1
 74
     2
  7
big.ctb
 75
    16
147
1.0
148
0.0
149
0.0
  0
PLOTSETTINGS
  5
708
102
{ACAD_REACTORS
330
566
102
}
330
566
100
AcDbPlotSettings
  1
A4(1倍)(2000)
  2
SII LS-1300 (D-SCAN)
  4
User259
  6

 40
3.17499995
 41
3.17499995
 42
3.17498779
 43
3.17500305
 44
296.98950195
 45
209.99449158
 46
-3.18
 47
-3.18
 48
0.0
 49
0.0
140
0.0
141
0.0
142
1.0
143
1.0
 70
  1716
 72
     1
 73
     0
 74
     2
  7
big.ctb
 75
    16
147
1.0
148
0.0
149
0.0
  0
PLOTSETTINGS
  5
756
102
{ACAD_REACTORS
330
566
102
}
330
566
100
AcDbPlotSettings
  1
A4(2倍)
  2
\\AWTECPC05\HP DeskJet 1120C
  4
A4
  6

 40
4.18041658
 41
13.49374962
 42
4.18040466
 43
3.92642212
 44
209.97332764
 45
296.92599487
 46
-109.19
 47
-157.25
 48
0.0
 49
0.0
140
0.0
141
0.0
142
1.0
143
0.5
 70
  1716
 72
     1
 73
     1
 74
     2
  7
big.ctb
 75
    27
147
2.0
148
0.0
149
0.0
  0
ACDBPLACEHOLDER
  5
564
102
{ACAD_REACTORS
330
563
102
}
330
563
100
AcDbPlaceHolder
280
     0
  0
XRECORD
  5
B91
102
{ACAD_REACTORS
330
B87
102
}
330
B87
100
AcDbXrecord
 90
        0
  0
XRECORD
  5
B95
102
{ACAD_REACTORS
330
B87
102
}
330
B87
100
AcDbXrecord
1000
DSTYLE
1002
{
1070
    79
 70
     2
1070
   179
 70
     3
1070
   341
340
594
1070
   343
340
594
1070
   344
340
594
1070
   371
 70
    -1
1070
   372
 70
    -1
1002
}
  0
XRECORD
  5
B92
102
{ACAD_REACTORS
330
B87
102
}
330
B87
100
AcDbXrecord
  1
{51294030-9CB4-11D3-8E18-00A0C925D94D}
  0
XRECORD
  5
B8A
102
{ACAD_REACTORS
330
B87
102
}
330
B87
100
AcDbXrecord
  1

  0
XRECORD
  5
B90
102
{ACAD_REACTORS
330
B87
102
}
330
B87
100
AcDbXrecord
 90
        0
  0
XRECORD
  5
B8C
102
{ACAD_REACTORS
330
B87
102
}
330
B87
100
AcDbXrecord
340
565
  0
XRECORD
  5
B8F
102
{ACAD_REACTORS
330
B87
102
}
330
B87
100
AcDbXrecord
 90
    10781
  0
XRECORD
  5
B8D
102
{ACAD_REACTORS
330
B87
102
}
330
B87
100
AcDbXrecord
340
566
  0
XRECORD
  5
B8E
102
{ACAD_REACTORS
330
B87
102
}
330
B87
100
AcDbXrecord
340
563
  0
XRECORD
  5
B94
102
{ACAD_REACTORS
330
B87
102
}
330
B87
100
AcDbXrecord
 40
0.0
  0
XRECORD
  5
B98
102
{ACAD_REACTORS
330
B87
102
}
330
B87
100
AcDbXrecord
340
0
  0
XRECORD
  5
B9E
102
{ACAD_REACTORS
330
B87
102
}
330
B87
100
AcDbXrecord
 10
0.0
 20
0.0
 30
0.0
  0
XRECORD
  5
B9A
102
{ACAD_REACTORS
330
B87
102
}
330
B87
100
AcDbXrecord
 10
0.0
 20
0.0
 30
0.0
  0
XRECORD
  5
B9D
102
{ACAD_REACTORS
330
B87
102
}
330
B87
100
AcDbXrecord
 10
0.0
 20
0.0
 30
0.0
  0
XRECORD
  5
B9B
102
{ACAD_REACTORS
330
B87
102
}
330
B87
100
AcDbXrecord
 10
0.0
 20
0.0
 30
0.0
  0
XRECORD
  5
B9C
102
{ACAD_REACTORS
330
B87
102
}
330
B87
100
AcDbXrecord
 10
0.0
 20
0.0
 30
0.0
  0
XRECORD
  5
B99
102
{ACAD_REACTORS
330
B87
102
}
330
B87
100
AcDbXrecord
 10
0.0
 20
0.0
 30
0.0
  0
XRECORD
  5
B96
102
{ACAD_REACTORS
330
B87
102
}
330
B87
100
AcDbXrecord
340
0
  0
XRECORD
  5
B97
102
{ACAD_REACTORS
330
B87
102
}
330
B87
100
AcDbXrecord
 70
     0
  0
XRECORD
  5
B8B
102
{ACAD_REACTORS
330
B87
102
}
330
B87
100
AcDbXrecord
  1
big.ctb
  0
XRECORD
  5
B88
102
{ACAD_REACTORS
330
B87
102
}
330
B87
100
AcDbXrecord
 90
        1
  0
XRECORD
  5
B89
102
{ACAD_REACTORS
330
B87
102
}
330
B87
100
AcDbXrecord
 90
       70
  0
XRECORD
  5
BA1
102
{ACAD_REACTORS
330
B87
102
}
330
B87
100
AcDbXrecord
340
0
  0
XRECORD
  5
BA7
102
{ACAD_REACTORS
330
B87
102
}
330
B87
100
AcDbXrecord
 10
0.0
 20
0.0
 30
0.0
  0
XRECORD
  5
BA3
102
{ACAD_REACTORS
330
B87
102
}
330
B87
100
AcDbXrecord
 10
0.0
 20
0.0
 30
0.0
  0
XRECORD
  5
BA6
102
{ACAD_REACTORS
330
B87
102
}
330
B87
100
AcDbXrecord
 10
0.0
 20
0.0
 30
0.0
  0
XRECORD
  5
BA4
102
{ACAD_REACTORS
330
B87
102
}
330
B87
100
AcDbXrecord
 10
0.0
 20
0.0
 30
0.0
  0
XRECORD
  5
BA5
102
{ACAD_REACTORS
330
B87
102
}
330
B87
100
AcDbXrecord
 10
0.0
 20
0.0
 30
0.0
  0
XRECORD
  5
BA2
102
{ACAD_REACTORS
330
B87
102
}
330
B87
100
AcDbXrecord
 10
0.0
 20
0.0
 30
0.0
  0
XRECORD
  5
B9F
102
{ACAD_REACTORS
330
B87
102
}
330
B87
100
AcDbXrecord
340
0
  0
XRECORD
  5
BA0
102
{ACAD_REACTORS
330
B87
102
}
330
B87
100
AcDbXrecord
 70
     0
  0
XRECORD
  5
B93
102
{ACAD_REACTORS
330
B87
102
}
330
B87
100
AcDbXrecord
  1
{DB08395C-B997-48BB-8F3B-DEB1802BBD5C}
  0
XRECORD
  5
560
102
{ACAD_REACTORS
330
540
102
}
330
540
100
AcDbXrecord
  1
2.0.0
  0
ENDSEC
  0
EOF
