  0
SECTION
  2
HEADER
  9
$ACADVER
  1
AC1014
  9
$ACADMAINTVER
 70
     9
  9
$DWGCODEPAGE
  3
ANSI_932
  9
$INSBASE
 10
0.0
 20
0.0
 30
0.0
  9
$EXTMIN
 10
-1.01284692
 20
-57.0108024
 30
-0.00152582
  9
$EXTMAX
 10
88.34429991
 20
50.5082708
 30
0.00000003
  9
$LIMMIN
 10
0.0
 20
0.0
  9
$LIMMAX
 10
420.0
 20
297.0
  9
$ORTHOMODE
 70
     1
  9
$REGENMODE
 70
     1
  9
$FILLMODE
 70
     1
  9
$QTEXTMODE
 70
     0
  9
$MIRRTEXT
 70
     1
  9
$DRAGMODE
 70
     2
  9
$LTSCALE
 40
10.0
  9
$OSMODE
 70
   549
  9
$ATTMODE
 70
     1
  9
$TEXTSIZE
 40
3.0
  9
$TRACEWID
 40
1.0
  9
$TEXTSTYLE
  7
YOKO
  9
$CLAYER
  8
245
  9
$CELTYPE
  6
BYLAYER
  9
$CECOLOR
 62
   256
  9
$CELTSCALE
 40
1.0
  9
$DELOBJ
 70
     1
  9
$DISPSILH
 70
     0
  9
$DIMSCALE
 40
1.0
  9
$DIMASZ
 40
2.0
  9
$DIMEXO
 40
2.0
  9
$DIMDLI
 40
2.5
  9
$DIMRND
 40
0.0
  9
$DIMDLE
 40
0.0
  9
$DIMEXE
 40
2.0
  9
$DIMTP
 40
0.0
  9
$DIMTM
 40
0.0
  9
$DIMTXT
 40
4.0
  9
$DIMCEN
 40
0.0
  9
$DIMTSZ
 40
0.0
  9
$DIMTOL
 70
     0
  9
$DIMLIM
 70
     0
  9
$DIMTIH
 70
     0
  9
$DIMTOH
 70
     0
  9
$DIMSE1
 70
     0
  9
$DIMSE2
 70
     0
  9
$DIMTAD
 70
     3
  9
$DIMZIN
 70
     8
  9
$DIMBLK
  1

  9
$DIMASO
 70
     1
  9
$DIMSHO
 70
     1
  9
$DIMPOST
  1

  9
$DIMAPOST
  1

  9
$DIMALT
 70
     0
  9
$DIMALTD
 70
     2
  9
$DIMALTF
 40
25.4
  9
$DIMLFAC
 40
1.0
  9
$DIMTOFL
 70
     1
  9
$DIMTVP
 40
0.0
  9
$DIMTIX
 70
     1
  9
$DIMSOXD
 70
     0
  9
$DIMSAH
 70
     1
  9
$DIMBLK1
  1
OPEN
  9
$DIMBLK2
  1
OPEN
  9
$DIMSTYLE
  2
BIGT
  9
$DIMCLRD
 70
   256
  9
$DIMCLRE
 70
   256
  9
$DIMCLRT
 70
    40
  9
$DIMTFAC
 40
1.0
  9
$DIMGAP
 40
1.0
  9
$DIMJUST
 70
     0
  9
$DIMSD1
 70
     0
  9
$DIMSD2
 70
     0
  9
$DIMTOLJ
 70
     1
  9
$DIMTZIN
 70
     8
  9
$DIMALTZ
 70
     0
  9
$DIMALTTZ
 70
     0
  9
$DIMFIT
 70
     3
  9
$DIMUPT
 70
     0
  9
$DIMUNIT
 70
     2
  9
$DIMDEC
 70
     3
  9
$DIMTDEC
 70
     3
  9
$DIMALTU
 70
     2
  9
$DIMALTTD
 70
     2
  9
$DIMTXSTY
  7
STANDARD
  9
$DIMAUNIT
 70
     0
  9
$LUNITS
 70
     2
  9
$LUPREC
 70
     3
  9
$SKETCHINC
 40
1.0
  9
$FILLETRAD
 40
0.0
  9
$AUNITS
 70
     0
  9
$AUPREC
 70
     3
  9
$MENU
  1
.
  9
$ELEVATION
 40
0.0
  9
$PELEVATION
 40
0.0
  9
$THICKNESS
 40
0.0
  9
$LIMCHECK
 70
     0
  9
$BLIPMODE
 70
     0
  9
$CHAMFERA
 40
10.0
  9
$CHAMFERB
 40
10.0
  9
$CHAMFERC
 40
0.0
  9
$CHAMFERD
 40
0.0
  9
$SKPOLY
 70
     0
  9
$TDCREATE
 40
2455100.360906573
  9
$TDUPDATE
 40
2455387.467713935
  9
$TDINDWG
 40
0.0035225000
  9
$TDUSRTIMER
 40
0.0035225000
  9
$USRTIMER
 70
     1
  9
$ANGBASE
 50
0.0
  9
$ANGDIR
 70
     0
  9
$PDMODE
 70
     1
  9
$PDSIZE
 40
-5.0
  9
$PLINEWID
 40
0.0
  9
$COORDS
 70
     1
  9
$SPLFRAME
 70
     0
  9
$SPLINETYPE
 70
     6
  9
$SPLINESEGS
 70
     8
  9
$ATTDIA
 70
     0
  9
$ATTREQ
 70
     1
  9
$HANDLING
 70
-16383
  9
$HANDSEED
  5
BBC
  9
$SURFTAB1
 70
     6
  9
$SURFTAB2
 70
     6
  9
$SURFTYPE
 70
     6
  9
$SURFU
 70
     6
  9
$SURFV
 70
     6
  9
$UCSNAME
  2

  9
$UCSORG
 10
0.0
 20
0.0
 30
0.0
  9
$UCSXDIR
 10
1.0
 20
0.0
 30
0.0
  9
$UCSYDIR
 10
0.0
 20
1.0
 30
0.0
  9
$PUCSNAME
  2

  9
$PUCSORG
 10
0.0
 20
0.0
 30
0.0
  9
$PUCSXDIR
 10
1.0
 20
0.0
 30
0.0
  9
$PUCSYDIR
 10
0.0
 20
1.0
 30
0.0
  9
$USERI1
 70
     1
  9
$USERI2
 70
     0
  9
$USERI3
 70
     0
  9
$USERI4
 70
     0
  9
$USERI5
 70
     0
  9
$USERR1
 40
0.0
  9
$USERR2
 40
0.0
  9
$USERR3
 40
0.0
  9
$USERR4
 40
0.0
  9
$USERR5
 40
0.0
  9
$WORLDVIEW
 70
     1
  9
$SHADEDGE
 70
     3
  9
$SHADEDIF
 70
    70
  9
$TILEMODE
 70
     1
  9
$MAXACTVP
 70
    16
  9
$PINSBASE
 10
0.0
 20
0.0
 30
0.0
  9
$PLIMCHECK
 70
     0
  9
$PEXTMIN
 10
1.00000000E+20
 20
1.00000000E+20
 30
1.00000000E+20
  9
$PEXTMAX
 10
-1.00000000E+20
 20
-1.00000000E+20
 30
-1.00000000E+20
  9
$PLIMMIN
 10
0.0
 20
0.0
  9
$PLIMMAX
 10
420.0
 20
297.0
  9
$UNITMODE
 70
     0
  9
$VISRETAIN
 70
     0
  9
$PLINEGEN
 70
     0
  9
$PSLTSCALE
 70
     1
  9
$TREEDEPTH
 70
  3020
  9
$PICKSTYLE
 70
     0
  9
$CMLSTYLE
  2
STANDARD
  9
$CMLJUST
 70
     0
  9
$CMLSCALE
 40
1.0
  9
$PROXYGRAPHICS
 70
     1
  9
$MEASUREMENT
 70
     1
  0
ENDSEC
  0
SECTION
  2
CLASSES
  0
CLASS
  1
XRECORD
  2
AcDbXrecord
  3
AutoCAD 2000
 90
        0
280
     0
281
     0
  0
CLASS
  1
ACDBDICTIONARYWDFLT
  2
AcDbDictionaryWithDefault
  3
AutoCAD 2000
 90
        0
280
     0
281
     0
  0
CLASS
  1
ACDBPLACEHOLDER
  2
AcDbPlaceHolder
  3
AutoCAD 2000
 90
        0
280
     0
281
     0
  0
CLASS
  1
LAYOUT
  2
AcDbLayout
  3
AutoCAD 2000
 90
        0
280
     0
281
     0
  0
CLASS
  1
PLOTSETTINGS
  2
AcDbPlotSettings
  3
AutoCAD 2000
 90
        0
280
     0
281
     0
  0
CLASS
  1
LONG_TRANSACTION
  2
AcDbLongTransaction
  3
AutoCAD 2000
 90
        0
280
     0
281
     0
  0
CLASS
  1
LWPOLYLINE
  2
AcDbPolyline
  3
AutoCAD 2000
 90
        0
280
     0
281
     1
  0
CLASS
  1
HATCH
  2
AcDbHatch
  3
AutoCAD 2000
 90
        0
280
     0
281
     1
  0
CLASS
  1
XRECORD
  2
AcDbXrecord
  3
AutoCAD 2000
 90
        0
280
     0
281
     0
  0
CLASS
  1
LONG_TRANSACTION
  2
AcDbLongTransaction
  3
AutoCAD 2000
 90
        0
280
     0
281
     0
  0
CLASS
  1
LWPOLYLINE
  2
AcDbPolyline
  3
AutoCAD 2000
 90
        0
280
     0
281
     1
  0
CLASS
  1
HATCH
  2
AcDbHatch
  3
AutoCAD 2000
 90
        0
280
     0
281
     1
  0
CLASS
  1
XRECORD
  2
AcDbXrecord
  3
AutoCAD 2000
 90
        0
280
     0
281
     0
  0
ENDSEC
  0
SECTION
  2
TABLES
  0
TABLE
  2
VPORT
  5
8
330
0
100
AcDbSymbolTable
 70
     3
  0
VPORT
  5
B97
330
8
100
AcDbSymbolTableRecord
100
AcDbViewportTableRecord
  2
*ACTIVE
 70
     0
 10
0.0
 20
0.0
 11
1.0
 21
1.0
 12
43.6657265
 22
-3.2512658
 13
0.0
 23
0.0
 14
7.0
 24
7.0
 15
7.0
 25
7.0
 16
0.0
 26
0.0
 36
1.0
 17
0.0
 27
0.0
 37
0.0
 40
108.35363263
 41
1.45595855
 42
50.0
 43
0.0
 44
0.0
 50
0.0
 51
0.0
 71
     0
 72
  2000
 73
     1
 74
     0
 75
     0
 76
     0
 77
     0
 78
     0
  0
ENDTAB
  0
TABLE
  2
LTYPE
  5
5
330
0
100
AcDbSymbolTable
 70
     3
  0
LTYPE
  5
14
330
5
100
AcDbSymbolTableRecord
100
AcDbLinetypeTableRecord
  2
BYBLOCK
 70
     0
  3

 72
    65
 73
     0
 40
0.0
  0
LTYPE
  5
15
330
5
100
AcDbSymbolTableRecord
100
AcDbLinetypeTableRecord
  2
BYLAYER
 70
     0
  3

 72
    65
 73
     0
 40
0.0
  0
LTYPE
  5
16
330
5
100
AcDbSymbolTableRecord
100
AcDbLinetypeTableRecord
  2
CONTINUOUS
 70
     0
  3
Solid line
 72
    65
 73
     0
 40
0.0
  0
LTYPE
  5
258
330
5
100
AcDbSymbolTableRecord
100
AcDbLinetypeTableRecord
  2
CENTER2
 70
     0
  3
___ _ ___ _ ___ _ ___ _ ___ _ ___ _ ___ _ ___ _
 72
    65
 73
     4
 40
1.125
 49
0.75
 74
     0
 49
-0.125
 74
     0
 49
0.125
 74
     0
 49
-0.125
 74
     0
  0
LTYPE
  5
25C
330
5
100
AcDbSymbolTableRecord
100
AcDbLinetypeTableRecord
  2
HIDDEN2
 70
     0
  3
_ _ _ _ _ _ _ _ _ _ _ _ _ _ _ _ _ _ _ _ _ _ _ _
 72
    65
 73
     2
 40
0.1875
 49
0.125
 74
     0
 49
-0.0625
 74
     0
  0
ENDTAB
  0
TABLE
  2
LAYER
  5
2
330
0
100
AcDbSymbolTable
 70
    10
  0
LAYER
  5
F
330
2
100
AcDbSymbolTableRecord
100
AcDbLayerTableRecord
  2
0
 70
     0
 62
     7
  6
CONTINUOUS
  0
LAYER
  5
1AA
330
2
100
AcDbSymbolTableRecord
100
AcDbLayerTableRecord
  2
240
 70
     0
 62
     4
  6
CONTINUOUS
  0
LAYER
  5
1AB
330
2
100
AcDbSymbolTableRecord
100
AcDbLayerTableRecord
  2
241
 70
     0
 62
   211
  6
CONTINUOUS
  0
LAYER
  5
1AD
330
2
100
AcDbSymbolTableRecord
100
AcDbLayerTableRecord
  2
243
 70
     0
 62
   211
  6
HIDDEN2
  0
LAYER
  5
1AF
330
2
100
AcDbSymbolTableRecord
100
AcDbLayerTableRecord
  2
245
 70
     0
 62
     2
  6
CENTER2
  0
LAYER
  5
21B
330
2
100
AcDbSymbolTableRecord
100
AcDbLayerTableRecord
  2
247
 70
     0
 62
    60
  6
CONTINUOUS
  0
LAYER
  5
21E
330
2
100
AcDbSymbolTableRecord
100
AcDbLayerTableRecord
  2
250
 70
     0
 62
     3
  6
CONTINUOUS
  0
LAYER
  5
21F
330
2
100
AcDbSymbolTableRecord
100
AcDbLayerTableRecord
  2
251
 70
     0
 62
    40
  6
CONTINUOUS
  0
LAYER
  5
5C4
330
2
100
AcDbSymbolTableRecord
100
AcDbLayerTableRecord
  2
DEFPOINTS
 70
     0
 62
     7
  6
CONTINUOUS
  0
ENDTAB
  0
TABLE
  2
STYLE
  5
3
330
0
100
AcDbSymbolTable
 70
     2
  0
STYLE
  5
10
330
3
100
AcDbSymbolTableRecord
100
AcDbTextStyleTableRecord
  2
STANDARD
 70
     0
 40
0.0
 41
1.0
 50
0.0
 71
     0
 42
3.0
  3
romans.shx
  4
BIGFONT.SHX
  0
STYLE
  5
339
330
3
100
AcDbSymbolTableRecord
100
AcDbTextStyleTableRecord
  2
YOKO
 70
     0
 40
0.0
 41
1.0
 50
0.0
 71
     0
 42
3.0
  3
romans.shx
  4
extfont.shx
  0
ENDTAB
  0
TABLE
  2
VIEW
  5
6
330
0
100
AcDbSymbolTable
 70
     0
  0
ENDTAB
  0
TABLE
  2
UCS
  5
7
330
0
100
AcDbSymbolTable
 70
     0
  0
ENDTAB
  0
TABLE
  2
APPID
  5
9
330
0
100
AcDbSymbolTable
 70
    12
  0
APPID
  5
11
330
9
100
AcDbSymbolTableRecord
100
AcDbRegAppTableRecord
  2
ACAD
 70
     0
  0
APPID
  5
1B1
330
9
100
AcDbSymbolTableRecord
100
AcDbRegAppTableRecord
  2
GLOBAL
 70
     0
  0
APPID
  5
2A4
330
9
100
AcDbSymbolTableRecord
100
AcDbRegAppTableRecord
  2
DETAIL
 70
     0
  0
APPID
  5
5FD
330
9
100
AcDbSymbolTableRecord
100
AcDbRegAppTableRecord
  2
GRPNAME
 70
     0
  0
APPID
  5
5FE
330
9
100
AcDbSymbolTableRecord
100
AcDbRegAppTableRecord
  2
GPARA
 70
     0
  0
APPID
  5
6C4
330
9
100
AcDbSymbolTableRecord
100
AcDbRegAppTableRecord
  2
DCO15
 70
     0
  0
APPID
  5
6C5
330
9
100
AcDbSymbolTableRecord
100
AcDbRegAppTableRecord
  2
ITEMNAME
 70
     0
  0
APPID
  5
6C6
330
9
100
AcDbSymbolTableRecord
100
AcDbRegAppTableRecord
  2
GRADE_0
 70
     0
  0
APPID
  5
82A
330
9
100
AcDbSymbolTableRecord
100
AcDbRegAppTableRecord
  2
HATCH_TYPE
 70
     0
  0
APPID
  5
82B
330
9
100
AcDbSymbolTableRecord
100
AcDbRegAppTableRecord
  2
HATCH_DISPLAY
 70
     0
  0
APPID
  5
82C
330
9
100
AcDbSymbolTableRecord
100
AcDbRegAppTableRecord
  2
HATCH_DISTANCE
 70
     0
  0
APPID
  5
A51
330
9
100
AcDbSymbolTableRecord
100
AcDbRegAppTableRecord
  2
CONTENTBLOCKICON
 70
     0
  0
ENDTAB
  0
TABLE
  2
DIMSTYLE
  5
A
330
0
100
AcDbSymbolTable
 70
     1
  0
DIMSTYLE
105
725
102
{ACAD_REACTORS
330
837
330
838
102
}
330
A
100
AcDbSymbolTableRecord
100
AcDbDimStyleTableRecord
  2
BIGT
 70
     0
  3

  4

  5

  6
OPEN
  7
OPEN
 40
1.0
 41
2.23
 42
0.5
 43
2.5
 44
1.0
 45
0.0
 46
0.0
 47
0.0
 48
0.0
140
2.8
141
0.0
142
0.0
143
25.4
144
1.0
145
0.0
146
1.0
147
1.0
 71
     0
 72
     0
 73
     0
 74
     0
 75
     0
 76
     0
 77
     3
 78
     8
170
     0
171
     2
172
     1
173
     1
174
     1
175
     0
176
   256
177
   256
178
    40
270
     2
271
     3
272
     3
273
     2
274
     2
340
10
275
     0
280
     0
281
     0
282
     0
283
     1
284
     8
285
     0
286
     0
287
     3
288
     0
  0
ENDTAB
  0
TABLE
  2
BLOCK_RECORD
  5
1
330
0
100
AcDbSymbolTable
 70
     6
  0
BLOCK_RECORD
  5
1A
102
{ACAD_XDICTIONARY
360
A4F
102
}
330
1
100
AcDbSymbolTableRecord
100
AcDbBlockTableRecord
  2
*MODEL_SPACE
  0
BLOCK_RECORD
  5
17
102
{ACAD_XDICTIONARY
360
A4D
102
}
330
1
100
AcDbSymbolTableRecord
100
AcDbBlockTableRecord
  2
*PAPER_SPACE
  0
BLOCK_RECORD
  5
594
330
1
100
AcDbSymbolTableRecord
100
AcDbBlockTableRecord
  2
_OPEN
  0
BLOCK_RECORD
  5
6E3
330
1
100
AcDbSymbolTableRecord
100
AcDbBlockTableRecord
  2
矢印なし
  0
BLOCK_RECORD
  5
839
330
1
100
AcDbSymbolTableRecord
100
AcDbBlockTableRecord
  2
*D2
  0
BLOCK_RECORD
  5
845
330
1
100
AcDbSymbolTableRecord
100
AcDbBlockTableRecord
  2
*D3
  0
BLOCK_RECORD
  5
917
330
1
100
AcDbSymbolTableRecord
100
AcDbBlockTableRecord
  2
_DOT
  0
BLOCK_RECORD
  5
95E
330
1
100
AcDbSymbolTableRecord
100
AcDbBlockTableRecord
  2
1
1001
CONTENTBLOCKICON
1071
        0
1004
2800000020000000200000000100080000000000000400000000000000000000000000000000000000000000000080000080000000808000800000008000800080800000C0C0C000C0DCC000F0CAA6000020400000206000002080000020A0000020C0000020E00000400000004020000040400000406000004080000040A0
1004
000040C0000040E00000600000006020000060400000606000006080000060A0000060C0000060E00000800000008020000080400000806000008080000080A0000080C0000080E00000A0000000A0200000A0400000A0600000A0800000A0A00000A0C00000A0E00000C0000000C0200000C0400000C0600000C0800000C0
1004
A00000C0C00000C0E00000E0000000E0200000E0400000E0600000E0800000E0A00000E0C00000E0E00040000000400020004000400040006000400080004000A0004000C0004000E00040200000402020004020400040206000402080004020A0004020C0004020E000404000004040200040404000404060004040800040
1004
40A0004040C0004040E00040600000406020004060400040606000406080004060A0004060C0004060E00040800000408020004080400040806000408080004080A0004080C0004080E00040A0000040A0200040A0400040A0600040A0800040A0A00040A0C00040A0E00040C0000040C0200040C0400040C0600040C08000
1004
40C0A00040C0C00040C0E00040E0000040E0200040E0400040E0600040E0800040E0A00040E0C00040E0E00080000000800020008000400080006000800080008000A0008000C0008000E00080200000802020008020400080206000802080008020A0008020C0008020E00080400000804020008040400080406000804080
1004
008040A0008040C0008040E00080600000806020008060400080606000806080008060A0008060C0008060E00080800000808020008080400080806000808080008080A0008080C0008080E00080A0000080A0200080A0400080A0600080A0800080A0A00080A0C00080A0E00080C0000080C0200080C0400080C0600080C0
1004
800080C0A00080C0C00080C0E00080E0000080E0200080E0400080E0600080E0800080E0A00080E0C00080E0E000C0000000C0002000C0004000C0006000C0008000C000A000C000C000C000E000C0200000C0202000C0204000C0206000C0208000C020A000C020C000C020E000C0400000C0402000C0404000C0406000C0
1004
408000C040A000C040C000C040E000C0600000C0602000C0604000C0606000C0608000C060A000C060C000C060E000C0800000C0802000C0804000C0806000C0808000C080A000C080C000C080E000C0A00000C0A02000C0A04000C0A06000C0A08000C0A0A000C0A0C000C0A0E000C0C00000C0C02000C0C04000C0C06000
1004
C0C08000C0C0A000F0FBFF00A4A0A000808080000000FF0000FF000000FFFF00FF000000FF00FF00FFFF0000FFFFFF0000000000000000000000000000000000000000000000000000000000000000000000000000000000000000000000000000000000FEFEFE0000000000000000000000000000000000000000000000FE
1004
FEE7E7FEFE0000FE00000000000000000000000000000000000000000000FE0000E70000000000FE000000000000000000000000000000000000000000FE000000E700E7E70000FE000000000000000000000000000000000000000000FE0000E7E7E70000E700FE000000000000000000000000000000000000FEFEFE0000
1004
E7E7000000E7E700FE000000000000000000000000000000000000FE00E700E70000000000E7E7E7FE000000000000000000000000000000000000FE00E700E7E7E7E70000E70000FE000000000000000000000000000000000000FE00E7E700E700E7E7E7E700FE00000000000000000000000000000000000000FE00E7E7
1004
00E7E7E700E70000FE00000000000000000000000000000000000000FEE7E700E700E7E7E7000000FE00000000000000000000000000000000000000FE00E70000E700E700000000FE00000000000000000000000000000000000000FE00E7E70000E700000000FE0000000000000000000000000000000000000000FE00E7
1004
00E7000000000000FE0000000000000000000000000000000000000000FE00E70000E700000000FE000000000000000000000000000000000000000000FE00E7000000E7000000FE000000000000000000000000000000000000000000E7E73E3E3E0000E700FE00000000000000000000000000000000000000000000FEFB
1004
3E3EFBFBFBFBFE0000000000000000000000000000000000000000000000E7E73E3E3E000000FE0000000000000000000000000000000000000000000000FE003E3E3E000000FE0000000000000000000000000000000000000000000000FE00E7003E000000FE0000000000000000000000000000000000000000000000FE
1004
00E7003E0000FE000000000000000000000000000000000000000000000000FE00E7003E0000FE000000000000000000000000000000000000000000000000FE00E7003E0000FE000000000000000000000000000000000000000000000000FE00E7003E0000FE000000000000000000000000000000000000000000000000
1004
FE00E7003E0000FE000000000000000000000000000000000000000000000000FE00E7003E00FE00000000000000000000000000000000000000000000000000FE00E700FEFE0000000000000000000000000000000000000000000000000000FE00E7FE000000000000000000000000000000000000000000000000000000
1004
00FEFEFEFE000000000000000000000000000000000000000000000000000000000000000000000000000000000000000000000000000000
  0
ENDTAB
  0
ENDSEC
  0
SECTION
  2
BLOCKS
  0
BLOCK
  5
1B
330
1A
100
AcDbEntity
  8
0
100
AcDbBlockBegin
  2
*MODEL_SPACE
 70
     0
 10
0.0
 20
0.0
 30
0.0
  3
*MODEL_SPACE
  1

  0
ENDBLK
  5
1C
330
1A
100
AcDbEntity
  8
0
100
AcDbBlockEnd
  0
BLOCK
  5
18
330
17
100
AcDbEntity
 67
     1
  8
0
100
AcDbBlockBegin
  2
*PAPER_SPACE
 70
     0
 10
0.0
 20
0.0
 30
0.0
  3
*PAPER_SPACE
  1

  0
ENDBLK
  5
19
330
17
100
AcDbEntity
 67
     1
  8
0
100
AcDbBlockEnd
  0
BLOCK
  5
598
330
594
100
AcDbEntity
  8
0
100
AcDbBlockBegin
  2
_OPEN
 70
     0
 10
0.0
 20
0.0
 30
0.0
  3
_OPEN
  1

  0
LINE
  5
595
330
594
100
AcDbEntity
  8
0
  6
BYBLOCK
 62
     0
100
AcDbLine
 10
-1.0
 20
0.16666667
 30
0.0
 11
0.0
 21
0.0
 31
0.0
  0
LINE
  5
596
330
594
100
AcDbEntity
  8
0
  6
BYBLOCK
 62
     0
100
AcDbLine
 10
-1.0
 20
-0.16666667
 30
0.0
 11
0.0
 21
0.0
 31
0.0
  0
LINE
  5
597
330
594
100
AcDbEntity
  8
0
  6
BYBLOCK
 62
     0
100
AcDbLine
 10
0.0
 20
0.0
 30
0.0
 11
-1.0
 21
0.0
 31
0.0
  0
ENDBLK
  5
599
330
594
100
AcDbEntity
  8
0
100
AcDbBlockEnd
  0
BLOCK
  5
6E4
330
6E3
100
AcDbEntity
  8
0
100
AcDbBlockBegin
  2
矢印なし
 70
     0
 10
0.0
 20
0.0
 30
0.0
  3
矢印なし
  1

  0
ENDBLK
  5
6E5
330
6E3
100
AcDbEntity
  8
0
100
AcDbBlockEnd
  0
BLOCK
  5
843
330
839
100
AcDbEntity
  8
0
100
AcDbBlockBegin
  2
*D2
 70
     1
 10
0.0
 20
0.0
 30
0.0
  3
*D2
  1

  0
LINE
  5
955
330
839
100
AcDbEntity
  8
250
  6
CONTINUOUS
100
AcDbLine
 10
34.3
 20
-45.0
 30
0.0
 11
50.0
 21
-45.0
 31
0.0
  0
LINE
  5
956
330
839
100
AcDbEntity
  8
250
  6
CONTINUOUS
100
AcDbLine
 10
21.83508327
 20
0.0
 30
0.0
 11
50.0
 21
0.0
 31
0.0
  0
LINE
  5
957
330
839
100
AcDbEntity
  8
250
  6
CONTINUOUS
100
AcDbLine
 10
49.0
 20
-42.77
 30
0.0
 11
49.0
 21
-2.23
 31
0.0
  0
INSERT
  5
958
330
839
100
AcDbEntity
  8
250
  6
CONTINUOUS
100
AcDbBlockReference
  2
_OPEN
 10
49.0
 20
-45.0
 30
0.0
 41
2.23
 42
2.23
 43
2.23
 50
270.0
  0
INSERT
  5
959
330
839
100
AcDbEntity
  8
250
  6
CONTINUOUS
100
AcDbBlockReference
  2
_OPEN
 10
49.0
 20
0.0
 30
0.0
 41
2.23
 42
2.23
 43
2.23
 50
90.0
  0
MTEXT
  5
95A
330
839
100
AcDbEntity
  8
250
  6
CONTINUOUS
 62
    40
100
AcDbMText
 10
46.5
 20
-22.5
 30
0.0
 40
3.0
 41
0.0
 71
     5
 72
     1
  1
\A1;45
 11
0.0
 21
1.0
 31
0.0
1001
ACAD
1000
MTEXTBEGIN
1070
    73
1070
     1
1070
    44
1040
1.0
1070
    74
1070
     0
1000
MTEXTEND
1000
MTEXTBEGIN
1070
    73
1070
     1
1070
    44
1040
1.0
1070
    74
1070
     0
1000
MTEXTEND
  0
POINT
  5
95B
330
839
100
AcDbEntity
  8
DEFPOINTS
  6
CONTINUOUS
 62
     0
100
AcDbPoint
 10
33.8
 20
-45.0
 30
0.0
  0
POINT
  5
95C
330
839
100
AcDbEntity
  8
DEFPOINTS
  6
CONTINUOUS
 62
     0
100
AcDbPoint
 10
21.33508327
 20
0.0
 30
0.0
  0
POINT
  5
95D
330
839
100
AcDbEntity
  8
DEFPOINTS
  6
CONTINUOUS
 62
     0
100
AcDbPoint
 10
49.0
 20
0.0
 30
0.0
  0
ENDBLK
  5
844
330
839
100
AcDbEntity
  8
0
100
AcDbBlockEnd
  0
BLOCK
  5
84F
330
845
100
AcDbEntity
  8
0
100
AcDbBlockBegin
  2
*D3
 70
     1
 10
0.0
 20
0.0
 30
0.0
  3
*D3
  1

  0
LINE
  5
AE5
330
845
100
AcDbEntity
  8
250
  6
CONTINUOUS
100
AcDbLine
 10
0.0
 20
-32.0
 30
0.0
 11
0.0
 21
-57.0
 31
0.0
  0
LINE
  5
AE6
330
845
100
AcDbEntity
  8
250
  6
CONTINUOUS
100
AcDbLine
 10
35.0
 20
-44.3
 30
0.0
 11
35.0
 21
-57.0
 31
0.0
  0
LINE
  5
AE7
330
845
100
AcDbEntity
  8
250
  6
CONTINUOUS
100
AcDbLine
 10
2.23
 20
-56.0
 30
0.0
 11
32.77
 21
-56.0
 31
0.0
  0
INSERT
  5
AE8
330
845
100
AcDbEntity
  8
250
  6
CONTINUOUS
100
AcDbBlockReference
  2
_OPEN
 10
0.0
 20
-56.0
 30
0.0
 41
2.23
 42
2.23
 43
2.23
 50
180.0
  0
INSERT
  5
AE9
330
845
100
AcDbEntity
  8
250
  6
CONTINUOUS
100
AcDbBlockReference
  2
_OPEN
 10
35.0
 20
-56.0
 30
0.0
 41
2.23
 42
2.23
 43
2.23
  0
MTEXT
  5
AEA
330
845
100
AcDbEntity
  8
250
  6
CONTINUOUS
 62
    40
100
AcDbMText
 10
17.5
 20
-53.5
 30
0.0
 40
3.0
 41
0.0
 71
     5
 72
     1
  1
\A1;35
1001
ACAD
1000
MTEXTBEGIN
1070
    73
1070
     1
1070
    44
1040
1.0
1070
    74
1070
     0
1000
MTEXTEND
  0
POINT
  5
AEB
330
845
100
AcDbEntity
  8
DEFPOINTS
  6
CONTINUOUS
 62
     0
100
AcDbPoint
 10
0.0
 20
-31.5
 30
0.0
  0
POINT
  5
AEC
330
845
100
AcDbEntity
  8
DEFPOINTS
  6
CONTINUOUS
 62
     0
100
AcDbPoint
 10
35.0
 20
-43.8
 30
0.0
  0
POINT
  5
AED
330
845
100
AcDbEntity
  8
DEFPOINTS
  6
CONTINUOUS
 62
     0
100
AcDbPoint
 10
35.0
 20
-56.0
 30
0.0
  0
ENDBLK
  5
850
330
845
100
AcDbEntity
  8
0
100
AcDbBlockEnd
  0
BLOCK
  5
929
330
917
100
AcDbEntity
  8
0
100
AcDbBlockBegin
  2
_DOT
 70
     0
 10
0.0
 20
0.0
 30
0.0
  3
_DOT
  1

  0
LINE
  5
92A
330
917
100
AcDbEntity
  8
0
 62
     0
100
AcDbLine
 10
-1.0
 20
0.0
 30
0.0
 11
0.0
 21
0.0
 31
0.0
  0
LWPOLYLINE
  5
92B
330
917
100
AcDbEntity
  8
0
 62
     0
100
AcDbPolyline
 90
        3
 70
     0
 43
0.5
 10
0.125
 20
0.0
 42
1.0
 10
-0.125
 20
0.0
 42
1.0
 10
0.125
 20
0.0
 42
1.0
  0
ENDBLK
  5
930
330
917
100
AcDbEntity
  8
0
100
AcDbBlockEnd
  0
BLOCK
  5
95F
330
95E
100
AcDbEntity
  8
0
100
AcDbBlockBegin
  2
1
 70
     0
 10
0.0
 20
0.0
 30
0.0
  3
1
  1

  0
LINE
  5
AF2
330
95E
100
AcDbEntity
  8
243
100
AcDbLine
 10
3.7
 20
0.0
 30
0.0
 11
3.7
 21
31.5
 31
0.0
  0
LINE
  5
AF3
330
95E
100
AcDbEntity
  8
240
100
AcDbLine
 10
0.0
 20
31.5
 30
0.0
 11
0.0
 21
0.0
 31
0.0
  0
LINE
  5
AF4
330
95E
100
AcDbEntity
  8
240
100
AcDbLine
 10
18.32490088
 20
19.844236
 30
0.0
 11
19.77610604
 21
3.25688515
 31
0.0
  0
TEXT
  5
AF5
330
95E
100
AcDbEntity
  8
247
100
AcDbText
 10
11.52060636
 20
-4.25977799
 30
0.0
 40
2.5
  1
F63-DCLNL-45035-16
 50
90.0
 41
0.65
  7
YOKO
 11
11.52060636
 21
-4.25977799
 31
0.0
100
AcDbText
 73
     1
  0
LINE
  5
AF6
330
95E
100
AcDbEntity
  8
245
  6
CENTER2
 62
     2
100
AcDbLine
 10
-1.0
 20
0.0
 30
0.0
 11
21.33508327
 21
0.0
 31
0.0
  0
LINE
  5
AF7
330
95E
100
AcDbEntity
  8
241
100
AcDbLine
 10
14.54856554
 20
-14.46193356
 30
0.0
 11
6.8935088
 21
-20.896225
 31
0.0
  0
LINE
  5
AF8
330
95E
100
AcDbEntity
  8
241
100
AcDbLine
 10
11.36607693
 20
-28.5486236
 30
0.0
 11
14.18708268
 21
-31.90485316
 31
0.0
  0
CIRCLE
  5
AF9
330
95E
100
AcDbEntity
  8
241
100
AcDbCircle
 10
15.86847032
 20
-23.80312467
 30
0.0
 40
4.25
  0
LINE
  5
AFA
330
95E
100
AcDbEntity
  8
241
  6
CONTINUOUS
100
AcDbLine
 10
20.62964799
 20
-1.02674657
 30
0.0
 11
0.0
 21
-21.65639457
 31
0.0
  0
SPLINE
  5
AFB
330
95E
100
AcDbEntity
  8
240
100
AcDbSpline
210
0.0
220
0.0
230
1.0
 70
     8
 71
     3
 72
    10
 73
     6
 74
     0
 42
0.0000000001
 43
0.0000000001
 40
-6.180927547583362
 40
-6.180927547583362
 40
-6.180927547583362
 40
-6.180927547583362
 40
-4.883571756387951
 40
-4.883571756387951
 40
-3.61356937802468
 40
-3.61356937802468
 40
-3.61356937802468
 40
-3.61356937802468
 10
12.54458361602758
 20
-43.00140622144666
 30
0.0
 10
12.40526191427389
 20
-42.95130535340234
 30
0.0
 10
12.29041189636012
 20
-42.90157841711375
 30
0.0
 10
12.09840459000565
 20
-42.80419193008818
 30
0.0
 10
12.02068090235826
 20
-42.75652708526327
 30
0.0
 10
11.95715316790402
 20
-42.70974184531685
 30
0.0
  0
LINE
  5
AFC
330
95E
100
AcDbEntity
  8
243
100
AcDbLine
 10
3.7
 20
0.0
 30
0.0
 11
3.7
 21
-31.5
 31
0.0
  0
LINE
  5
AFD
330
95E
100
AcDbEntity
  8
240
100
AcDbLine
 10
0.0
 20
-31.5
 30
0.0
 11
0.0
 21
0.0
 31
0.0
  0
ARC
  5
AFE
330
95E
100
AcDbEntity
  8
240
100
AcDbCircle
 10
3.84529946
 20
-33.5
 30
0.0
 40
2.0
100
AcDbArc
 50
30.0
 51
90.0
  0
LINE
  5
AFF
330
95E
100
AcDbEntity
  8
240
100
AcDbLine
 10
5.57735027
 20
-32.5
 30
0.0
 11
10.59007441
 21
-41.1822929
 31
0.0
  0
ARC
  5
B00
330
95E
100
AcDbEntity
  8
240
100
AcDbCircle
 10
14.92020143
 20
-38.6822929
 30
0.0
 40
5.0
100
AcDbArc
 50
210.0
 51
233.65758338
  0
LINE
  5
B01
330
95E
100
AcDbEntity
  8
240
100
AcDbLine
 10
0.0
 20
-31.5
 30
0.0
 11
3.84529946
 21
-31.5
 31
0.0
  0
LINE
  5
B02
330
95E
100
AcDbEntity
  8
241
100
AcDbLine
 10
6.71039401
 20
-23.00962723
 30
0.0
 11
11.36607693
 21
-28.5486236
 31
0.0
  0
ARC
  5
B03
330
95E
100
AcDbEntity
  8
241
100
AcDbCircle
 10
7.85865252
 20
-22.04448351
 30
0.0
 40
1.5
100
AcDbArc
 50
130.048
 51
220.048
  0
LINE
  5
B04
330
95E
100
AcDbEntity
  8
243
100
AcDbLine
 10
3.7
 20
-2.5
 30
0.0
 11
0.0
 21
-2.5
 31
0.0
  0
LINE
  5
B05
330
95E
100
AcDbEntity
  8
243
100
AcDbLine
 10
3.7
 20
2.5
 30
0.0
 11
0.0
 21
2.5
 31
0.0
  0
ARC
  5
B06
102
{ACAD_REACTORS
330
B0A
102
}
330
95E
100
AcDbEntity
  8
247
100
AcDbCircle
 10
6.18542873
 20
1.99196783
 30
0.0
 40
0.9457690429687499
100
AcDbArc
 50
253.9997507
 51
34.96387329
  0
ARC
  5
B07
102
{ACAD_REACTORS
330
B0A
102
}
330
95E
100
AcDbEntity
  8
247
100
AcDbCircle
 10
5.45791408
 20
2.20057623
 30
0.0
 40
0.9457594299316404
100
AcDbArc
 50
143.4440122
 51
254.00018439
  0
ARC
  5
B08
102
{ACAD_REACTORS
330
B0A
102
}
330
95E
100
AcDbEntity
  8
247
100
AcDbCircle
 10
5.13781643
 20
2.35291266
 30
0.0
 40
0.3055560064315795
100
AcDbArc
 50
91.71012138
 51
253.99839835
  0
LINE
  5
B09
102
{ACAD_REACTORS
330
B0A
102
}
330
95E
100
AcDbEntity
  8
247
100
AcDbLine
 10
5.6470657
 20
2.2825672
 30
0.0
 11
5.6470657
 21
3.13021735
 31
0.0
  0
HATCH
  5
B0A
330
95E
100
AcDbEntity
  8
247
100
AcDbHatch
 10
0.0
 20
0.0
 30
0.0
210
0.0
220
0.0
230
1.0
  2
ANSI31
 70
     0
 71
     1
 91
        1
 92
       33
 93
       15
 72
     1
 10
4.88431789
 20
3.053906309999999
 11
4.60639675
 21
2.966268369999999
 72
     2
 10
6.039925799999999
 20
3.494545959999999
 40
1.236767349243164
 50
200.8721834
 51
222.54194894
 73
     1
 72
     2
 10
5.137816429999999
 20
2.352912659999999
 40
0.3055560064315795
 50
91.71012137999998
 51
253.9983983499999
 73
     1
 72
     1
 10
6.421305199999999
 20
1.667003229999999
 11
5.05358425
 21
2.059193179999999
 72
     2
 10
6.505526389999999
 20
1.960722719999999
 40
0.3055557918548584
 50
254.00027306
 51
434.00027306
 73
     1
 72
     1
 10
6.58974758
 20
2.2544422
 11
5.93807155
 21
2.441308649999999
 72
     1
 10
5.93807155
 20
2.199126039999999
 11
5.93807155
 21
2.441308649999999
 72
     1
 10
5.93807155
 20
2.199126039999999
 11
5.647065699999999
 21
2.2825672
 72
     1
 10
5.647065699999999
 20
2.2825672
 11
5.647065699999999
 21
3.13021735
 72
     1
 10
7.131187129999999
 20
2.70465094
 11
5.647065699999999
 21
3.13021735
 72
     1
 10
6.960492549999999
 20
2.53394537
 11
7.131187129999999
 21
2.70465094
 72
     2
 10
6.185428729999999
 20
1.99196783
 40
0.9457690429687499
 50
253.9997506999999
 51
394.96387329
 73
     1
 72
     2
 10
6.23515285
 20
3.53824957
 40
2.4749560546875
 50
245.2051773699999
 51
262.79482596
 73
     1
 72
     2
 10
5.45791408
 20
2.200576229999999
 40
0.9457594299316404
 50
143.4440121999999
 51
254.00018439
 73
     1
 72
     2
 10
6.039925799999999
 20
3.494545959999999
 40
1.52777046203613
 50
200.2296450599999
 51
208.5716889199999
 73
     1
 97
       15
330
B41
330
B3F
330
B08
330
B37
330
B38
330
B39
330
B3B
330
B3A
330
B09
330
B48
330
B47
330
B06
330
B12
330
B07
330
B40
 75
     0
 76
     1
 52
90.0
 41
0.072
 77
     0
 78
     1
 53
134.999999999998
 43
18.90768871181004
 44
-90.19659579496435
 45
-0.16164461017925
 46
-0.1616446101792394
 79
     0
 98
        1
 10
18.90768871181004
 20
-90.19659579496435
  0
LINE
  5
B0B
102
{ACAD_REACTORS
330
B0F
102
}
330
95E
100
AcDbEntity
  8
247
100
AcDbLine
 10
7.56769591
 20
-2.41283563
 30
0.0
 11
7.56769591
 21
3.49454596
 31
0.0
  0
LINE
  5
B0C
102
{ACAD_REACTORS
330
B0F
102
}
330
95E
100
AcDbEntity
  8
247
100
AcDbLine
 10
7.27669006
 20
-2.41283563
 30
0.0
 11
7.27669006
 21
3.49454596
 31
0.0
  0
ARC
  5
B0D
102
{ACAD_REACTORS
330
B0F
102
}
330
95E
100
AcDbEntity
  8
247
100
AcDbCircle
 10
6.0399258
 20
3.49454596
 30
0.0
 40
1.236763916015622
100
AcDbArc
 50
0.0
 51
194.1274365
  0
ARC
  5
B0E
102
{ACAD_REACTORS
330
B0F
102
}
330
95E
100
AcDbEntity
  8
247
100
AcDbCircle
 10
6.0399258
 20
3.49454596
 30
0.0
 40
1.527769775390624
100
AcDbArc
 50
0.0
 51
194.77079397
  0
HATCH
  5
B0F
330
95E
100
AcDbEntity
  8
247
100
AcDbHatch
 10
0.0
 20
0.0
 30
0.0
210
0.0
220
0.0
230
1.0
  2
ANSI31
 70
     0
 71
     1
 91
        1
 92
       33
 93
       10
 72
     1
 10
4.512156029999999
 20
-1.811872499999999
 11
4.80316189
 21
-1.89531366
 72
     1
 10
4.512156029999999
 20
-2.41283563
 11
4.512156029999999
 21
-1.811872499999999
 72
     1
 10
4.80316189
 20
-2.41283563
 11
4.80316189
 21
-1.89531366
 72
     2
 10
6.039925799999999
 20
-2.41283563
 40
1.236763916015622
 50
180.0
 51
360.0
 73
     1
 72
     2
 10
6.039925799999999
 20
-2.41283563
 40
1.527769775390624
 50
180.0
 51
360.0
 73
     1
 72
     1
 10
7.56769591
 20
-2.41283563
 11
7.56769591
 21
3.494545959999999
 72
     1
 10
7.276690059999999
 20
-2.41283563
 11
7.276690059999999
 21
3.494545959999999
 72
     2
 10
6.039925799999999
 20
3.494545959999999
 40
1.527769775390624
 50
0.0
 51
194.77079397
 73
     1
 72
     2
 10
6.039925799999999
 20
3.494545959999999
 40
1.236763916015622
 50
0.0
 51
194.1274364999999
 73
     1
 72
     1
 10
4.84055935
 20
3.19267462
 11
4.56263821
 21
3.105036679999999
 97
       10
330
B26
330
B24
330
B22
330
B3D
330
B3E
330
B0B
330
B0C
330
B0E
330
B0D
330
B42
 75
     0
 76
     1
 52
90.0
 41
0.072
 77
     0
 78
     1
 53
134.999999999998
 43
18.90768871181004
 44
-90.19659579496435
 45
-0.16164461017925
 46
-0.1616446101792394
 79
     0
 98
        1
 10
18.90768871181004
 20
-90.19659579496435
  0
LINE
  5
B10
330
95E
100
AcDbEntity
  8
247
100
AcDbLine
 10
7.13118713
 20
-0.17129511
 30
0.0
 11
4.83225368
 21
0.48791754
 31
0.0
  0
LINE
  5
B11
330
95E
100
AcDbEntity
  8
247
100
AcDbLine
 10
5.30028322
 20
-0.61622352
 30
0.0
 11
4.81331301
 21
-0.12925331
 31
0.0
  0
ARC
  5
B12
102
{ACAD_REACTORS
330
B0A
102
}
330
95E
100
AcDbEntity
  8
247
100
AcDbCircle
 10
6.23515285
 20
3.53824957
 30
0.0
 40
2.4749560546875
100
AcDbArc
 50
245.20517737
 51
262.79482596
  0
LWPOLYLINE
  5
B13
102
{ACAD_REACTORS
330
B3C
102
}
330
95E
100
AcDbEntity
  8
247
100
AcDbPolyline
 90
        6
 70
     1
 43
0.0
 10
4.51215603
 20
0.47374518
 10
4.83225368
 20
0.38195441
 10
4.83225368
 20
0.48791754
 10
7.13118713
 20
-0.17129511
 10
7.13118713
 20
0.47957892
 10
4.51215603
 20
1.23057135
  0
LWPOLYLINE
  5
B14
330
95E
100
AcDbEntity
  8
247
100
AcDbPolyline
 90
        6
 70
     1
 43
0.0
 10
4.51215603
 20
0.47374518
 10
4.83225368
 20
0.38195441
 10
4.83225368
 20
0.48791754
 10
7.13118713
 20
-0.17129511
 10
7.13118713
 20
0.47957892
 10
4.51215603
 20
1.23057135
1001
HATCH_DISTANCE
1040
1.0
1001
HATCH_DISPLAY
1070
     0
1001
HATCH_TYPE
1070
     7
  0
LINE
  5
B15
330
95E
100
AcDbEntity
  8
247
100
AcDbLine
 10
7.13118713
 20
0.47957892
 30
0.0
 11
4.51215603
 21
1.23057135
 31
0.0
  0
ARC
  5
B16
330
95E
100
AcDbEntity
  8
247
100
AcDbCircle
 10
5.23965969
 20
-0.71874384
 30
0.0
 40
0.7275098419189452
100
AcDbArc
 50
17.66957755
 51
180.23615984
  0
LINE
  5
B17
330
95E
100
AcDbEntity
  8
247
100
AcDbLine
 10
7.13118713
 20
-2.26013666
 30
0.0
 11
4.80316189
 21
-1.59258539
 31
0.0
  0
LINE
  5
B18
330
95E
100
AcDbEntity
  8
247
100
AcDbLine
 10
6.07093438
 20
-1.06358546
 30
0.0
 11
5.0295761
 21
-0.02222718
 31
0.0
  0
ARC
  5
B19
330
95E
100
AcDbEntity
  8
247
100
AcDbCircle
 10
5.21056789
 20
-1.04340082
 30
0.0
 40
0.4364966011047363
100
AcDbArc
 50
351.66260169
 51
156.3381551
  0
LINE
  5
B1A
330
95E
100
AcDbEntity
  8
247
100
AcDbLine
 10
4.81076804
 20
-0.86821702
 30
0.0
 11
5.64245141
 21
-1.10669305
 31
0.0
  0
LINE
  5
B1B
330
95E
100
AcDbEntity
  8
247
100
AcDbLine
 10
5.50924323
 20
-1.79505119
 30
0.0
 11
4.51215603
 21
-0.79796399
 31
0.0
  0
LINE
  5
B1C
330
95E
100
AcDbEntity
  8
247
100
AcDbLine
 10
5.96250265
 20
-1.92502139
 30
0.0
 11
4.9438613
 21
-0.90638004
 31
0.0
  0
LINE
  5
B1D
330
95E
100
AcDbEntity
  8
247
100
AcDbLine
 10
4.83225368
 20
0.38195441
 30
0.0
 11
4.83225368
 21
0.48791754
 31
0.0
  0
LINE
  5
B1E
330
95E
100
AcDbEntity
  8
247
100
AcDbLine
 10
4.51215603
 20
0.47374518
 30
0.0
 11
4.51215603
 21
1.23057135
 31
0.0
  0
LINE
  5
B1F
330
95E
100
AcDbEntity
  8
247
100
AcDbLine
 10
5.01429269
 20
-0.65352221
 30
0.0
 11
4.65142989
 21
-0.29065941
 31
0.0
  0
LINE
  5
B20
330
95E
100
AcDbEntity
  8
247
100
AcDbLine
 10
4.84396343
 20
-0.80648217
 30
0.0
 11
4.54384105
 21
-0.50635979
 31
0.0
  0
LINE
  5
B21
330
95E
100
AcDbEntity
  8
247
100
AcDbLine
 10
4.83225368
 20
0.38195441
 30
0.0
 11
4.51215603
 21
0.47374518
 31
0.0
  0
LINE
  5
B22
102
{ACAD_REACTORS
330
B0F
102
}
330
95E
100
AcDbEntity
  8
247
100
AcDbLine
 10
4.80316189
 20
-2.41283563
 30
0.0
 11
4.80316189
 21
-1.89531366
 31
0.0
  0
LINE
  5
B23
330
95E
100
AcDbEntity
  8
247
100
AcDbLine
 10
4.80316189
 20
-1.74395502
 30
0.0
 11
4.80316189
 21
-1.59258539
 31
0.0
  0
LINE
  5
B24
102
{ACAD_REACTORS
330
B0F
102
}
330
95E
100
AcDbEntity
  8
247
100
AcDbLine
 10
4.51215603
 20
-2.41283563
 30
0.0
 11
4.51215603
 21
-1.8118725
 31
0.0
  0
LINE
  5
B25
330
95E
100
AcDbEntity
  8
247
100
AcDbLine
 10
5.05598381
 20
-1.66508099
 30
0.0
 11
4.51215603
 21
-1.12125321
 31
0.0
  0
LINE
  5
B26
102
{ACAD_REACTORS
330
B0F
102
}
330
95E
100
AcDbEntity
  8
247
100
AcDbLine
 10
4.51215603
 20
-1.8118725
 30
0.0
 11
4.80316189
 21
-1.89531366
 31
0.0
  0
LINE
  5
B27
330
95E
100
AcDbEntity
  8
247
100
AcDbLine
 10
4.80316189
 20
-1.73554829
 30
0.0
 11
4.51215603
 21
-1.44454243
 31
0.0
  0
LINE
  5
B28
330
95E
100
AcDbEntity
  8
247
100
AcDbLine
 10
4.51215603
 20
-1.66051386
 30
0.0
 11
4.80316189
 21
-1.74395502
 31
0.0
  0
LINE
  5
B29
330
95E
100
AcDbEntity
  8
247
100
AcDbLine
 10
4.51215603
 20
-1.66051386
 30
0.0
 11
4.51215603
 21
-0.72174245
 31
0.0
  0
LINE
  5
B2A
330
95E
100
AcDbEntity
  8
247
100
AcDbLine
 10
6.28137286
 20
-0.95073472
 30
0.0
 11
5.32715237
 21
0.00348577
 31
0.0
  0
LINE
  5
B2B
330
95E
100
AcDbEntity
  8
247
100
AcDbLine
 10
7.07664228
 20
-0.77613647
 30
0.0
 11
6.68006612
 21
-0.37956032
 31
0.0
  0
LINE
  5
B2C
330
95E
100
AcDbEntity
  8
247
100
AcDbLine
 10
7.13118713
 20
-0.17129511
 30
0.0
 11
7.13118713
 21
0.47957892
 31
0.0
  0
LINE
  5
B2D
330
95E
100
AcDbEntity
  8
247
100
AcDbLine
 10
5.97476838
 20
-1.20198918
 30
0.0
 11
6.80647642
 21
-1.44046913
 31
0.0
  0
LINE
  5
B2E
330
95E
100
AcDbEntity
  8
247
100
AcDbLine
 10
7.13118713
 20
-2.12383821
 30
0.0
 11
6.30363602
 21
-1.2962871
 31
0.0
  0
LINE
  5
B2F
330
95E
100
AcDbEntity
  8
247
100
AcDbLine
 10
7.13118713
 20
-1.80054899
 30
0.0
 11
6.75688874
 21
-1.4262506
 31
0.0
  0
LINE
  5
B30
330
95E
100
AcDbEntity
  8
247
100
AcDbLine
 10
6.41576206
 20
-2.05499158
 30
0.0
 11
5.39711643
 21
-1.03634595
 31
0.0
  0
LINE
  5
B31
330
95E
100
AcDbEntity
  8
247
100
AcDbLine
 10
7.13118713
 20
-2.26013666
 30
0.0
 11
7.13118713
 21
-1.05251947
 31
0.0
  0
ARC
  5
B32
330
95E
100
AcDbEntity
  8
247
100
AcDbCircle
 10
6.40368313
 20
-1.05251947
 30
0.0
 40
0.727503662109375
100
AcDbArc
 50
0.0
 51
130.32984065
  0
LINE
  5
B33
330
95E
100
AcDbEntity
  8
247
100
AcDbLine
 10
7.13118713
 20
-1.15397055
 30
0.0
 11
6.30848756
 21
-0.33127098
 31
0.0
  0
LINE
  5
B34
330
95E
100
AcDbEntity
  8
247
100
AcDbLine
 10
7.13118713
 20
-1.47725977
 30
0.0
 11
6.06342047
 21
-0.40949311
 31
0.0
  0
ARC
  5
B35
330
95E
100
AcDbEntity
  8
247
100
AcDbCircle
 10
6.37458034
 20
-1.37717645
 30
0.0
 40
0.4365090894699097
100
AcDbArc
 50
351.66285421
 51
156.33819216
  0
LINE
  5
B36
330
95E
100
AcDbEntity
  8
247
100
AcDbLine
 10
6.86902148
 20
-2.18496178
 30
0.0
 11
5.63774519
 21
-0.95368549
 31
0.0
  0
LINE
  5
B37
102
{ACAD_REACTORS
330
B0A
102
}
330
95E
100
AcDbEntity
  8
247
100
AcDbLine
 10
6.4213052
 20
1.66700323
 30
0.0
 11
5.05358425
 21
2.05919318
 31
0.0
  0
ARC
  5
B38
102
{ACAD_REACTORS
330
B0A
102
}
330
95E
100
AcDbEntity
  8
247
100
AcDbCircle
 10
6.50552639
 20
1.96072272
 30
0.0
 40
0.3055557918548584
100
AcDbArc
 50
254.00027306
 51
74.00027306
  0
LINE
  5
B39
102
{ACAD_REACTORS
330
B0A
102
}
330
95E
100
AcDbEntity
  8
247
100
AcDbLine
 10
6.58974758
 20
2.2544422
 30
0.0
 11
5.93807155
 21
2.44130865
 31
0.0
  0
LINE
  5
B3A
102
{ACAD_REACTORS
330
B0A
102
}
330
95E
100
AcDbEntity
  8
247
100
AcDbLine
 10
5.93807155
 20
2.19912604
 30
0.0
 11
5.6470657
 21
2.2825672
 31
0.0
  0
LINE
  5
B3B
102
{ACAD_REACTORS
330
B0A
102
}
330
95E
100
AcDbEntity
  8
247
100
AcDbLine
 10
5.93807155
 20
2.19912604
 30
0.0
 11
5.93807155
 21
2.44130865
 31
0.0
  0
HATCH
  5
B3C
330
95E
100
AcDbEntity
  8
247
100
AcDbHatch
 10
0.0
 20
0.0
 30
0.0
210
0.0
220
0.0
230
1.0
  2
ANSI31
 70
     0
 71
     1
 91
        1
 92
        7
 72
     0
 73
     1
 93
        6
 10
4.512156029999998
 20
1.230571349999999
 10
4.512156029999999
 20
0.4737451800000004
 10
4.832253679999999
 20
0.3819544100000003
 10
4.83225368
 20
0.4879175399999998
 10
7.131187129999999
 20
-0.1712951100000003
 10
7.131187129999999
 20
0.4795789199999998
 97
        1
330
B13
 75
     0
 76
     1
 52
90.0
 41
0.072
 77
     0
 78
     1
 53
134.999999999998
 43
18.90768871181004
 44
-90.19659579496435
 45
-0.16164461017925
 46
-0.1616446101792394
 79
     0
 47
0.01343485
 98
        1
 10
5.753093585885607
 20
0.550184119055416
  0
ARC
  5
B3D
102
{ACAD_REACTORS
330
B0F
102
}
330
95E
100
AcDbEntity
  8
247
100
AcDbCircle
 10
6.0399258
 20
-2.41283563
 30
0.0
 40
1.236763916015622
100
AcDbArc
 50
180.0
 51
0.0
  0
ARC
  5
B3E
102
{ACAD_REACTORS
330
B0F
102
}
330
95E
100
AcDbEntity
  8
247
100
AcDbCircle
 10
6.0399258
 20
-2.41283563
 30
0.0
 40
1.527769775390624
100
AcDbArc
 50
180.0
 51
0.0
  0
ARC
  5
B3F
102
{ACAD_REACTORS
330
B0A
102
}
330
95E
100
AcDbEntity
  8
247
100
AcDbCircle
 10
6.0399258
 20
3.49454596
 30
0.0
 40
1.236767349243164
100
AcDbArc
 50
200.8721834
 51
222.54194894
  0
ARC
  5
B40
102
{ACAD_REACTORS
330
B0A
102
}
330
95E
100
AcDbEntity
  8
247
100
AcDbCircle
 10
6.0399258
 20
3.49454596
 30
0.0
 40
1.52777046203613
100
AcDbArc
 50
200.22964506
 51
208.57168892
  0
LINE
  5
B41
102
{ACAD_REACTORS
330
B0A
102
}
330
95E
100
AcDbEntity
  8
247
100
AcDbLine
 10
4.88431789
 20
3.05390631
 30
0.0
 11
4.60639675
 21
2.96626837
 31
0.0
  0
LINE
  5
B42
102
{ACAD_REACTORS
330
B0F
102
}
330
95E
100
AcDbEntity
  8
247
100
AcDbLine
 10
4.84055935
 20
3.19267462
 30
0.0
 11
4.56263821
 21
3.10503668
 31
0.0
  0
LWPOLYLINE
  5
B43
330
95E
100
AcDbEntity
  8
247
100
AcDbPolyline
 90
        4
 70
     1
 43
0.0
 10
4.84055935
 20
3.19267462
 10
4.56263821
 20
3.10503668
 10
4.56263821
 20
3.10503668
 10
4.84055935
 20
3.19267462
  0
LWPOLYLINE
  5
B44
330
95E
100
AcDbEntity
  8
247
100
AcDbPolyline
 90
        4
 70
     1
 43
0.0
 10
4.84055935
 20
3.19267462
 10
4.56263821
 20
3.10503668
 10
4.56263821
 20
3.10503668
 10
4.84055935
 20
3.19267462
1001
HATCH_DISTANCE
1040
1.0
1001
HATCH_DISPLAY
1070
     0
1001
HATCH_TYPE
1070
     7
  0
LWPOLYLINE
  5
B45
330
95E
100
AcDbEntity
  8
247
100
AcDbPolyline
 90
        4
 70
     1
 43
0.0
 10
4.84055935
 20
3.19267462
 10
4.56263821
 20
3.10503668
 10
4.56263821
 20
3.10503668
 10
4.84055935
 20
3.19267462
  0
LWPOLYLINE
  5
B46
330
95E
100
AcDbEntity
  8
247
100
AcDbPolyline
 90
        4
 70
     1
 43
0.0
 10
4.84055935
 20
3.19267462
 10
4.56263821
 20
3.10503668
 10
4.56263821
 20
3.10503668
 10
4.84055935
 20
3.19267462
1001
HATCH_DISTANCE
1040
1.0
1001
HATCH_DISPLAY
1070
     0
1001
HATCH_TYPE
1070
     7
  0
LINE
  5
B47
102
{ACAD_REACTORS
330
B0A
102
}
330
95E
100
AcDbEntity
  8
247
100
AcDbLine
 10
6.96049255
 20
2.53394537
 30
0.0
 11
7.13118713
 21
2.70465094
 31
0.0
  0
LINE
  5
B48
102
{ACAD_REACTORS
330
B0A
102
}
330
95E
100
AcDbEntity
  8
247
100
AcDbLine
 10
7.13118713
 20
2.70465094
 30
0.0
 11
5.6470657
 21
3.13021735
 31
0.0
  0
LINE
  5
B49
330
95E
100
AcDbEntity
  8
240
100
AcDbLine
 10
29.37437731
 20
-12.12838335
 30
0.0
 11
32.9656512
 21
-22.11189024
 31
0.0
  0
LINE
  5
B4A
330
95E
100
AcDbEntity
  8
241
100
AcDbLine
 10
21.31765069
 20
-20.18404473
 30
0.0
 11
16.66196777
 21
-14.64504836
 31
0.0
  0
ARC
  5
B4B
330
95E
100
AcDbEntity
  8
241
100
AcDbCircle
 10
26.16333663
 20
-36.05121545
 30
0.0
 40
2.5
100
AcDbArc
 50
257.77014853
 51
2.32585147
  0
LINE
  5
B4C
330
95E
100
AcDbEntity
  8
241
100
AcDbLine
 10
32.72310841
 20
-29.10020556
 30
0.0
 11
26.25288093
 21
-28.534134
 31
0.0
  0
ARC
  5
B4D
330
95E
100
AcDbEntity
  8
241
100
AcDbCircle
 10
26.16333663
 20
-36.05121545
 30
0.0
 40
2.499999999999999
100
AcDbArc
 50
2.32585147
 51
32.52988456
  0
LINE
  5
B4E
330
95E
100
AcDbEntity
  8
240
100
AcDbLine
 10
20.52541495
 20
-43.8432081
 30
0.0
 11
33.69541311
 21
-44.99543364
 31
0.0
  0
LINE
  5
B4F
330
95E
100
AcDbEntity
  8
241
100
AcDbLine
 10
27.02541436
 20
-31.40763663
 30
0.0
 11
27.93870609
 21
-33.47044664
 31
0.0
  0
ELLIPSE
  5
B50
330
95E
100
AcDbEntity
  8
241
100
AcDbEllipse
 10
16.48359971
 20
-29.97456572
 30
0.0
 11
3.268007583299721
 21
-3.888040153063497
 31
0.0
210
0.0
220
0.0
230
1.0
 40
0.59066186
 41
4.712388980384688
 42
5.380673877756676
  0
LINE
  5
B51
330
95E
100
AcDbEntity
  8
241
100
AcDbLine
 10
16.70608728
 20
-33.89880855
 30
0.0
 11
21.44068403
 21
-36.10176023
 31
0.0
  0
ARC
  5
B52
330
95E
100
AcDbEntity
  8
240
100
AcDbCircle
 10
20.66486413
 20
-42.24929658
 30
0.0
 40
1.6
100
AcDbArc
 50
237.70422076
 51
265.0
  0
LINE
  5
B53
330
95E
100
AcDbEntity
  8
241
100
AcDbLine
 10
19.07095262
 20
-42.38874577
 30
0.0
 11
18.39701259
 21
-34.68557603
 31
0.0
  0
LINE
  5
B54
330
95E
100
AcDbEntity
  8
240
100
AcDbLine
 10
12.54458362
 20
-43.00140622
 30
0.0
 11
19.81000001
 21
-43.60177849
 31
0.0
  0
ARC
  5
B55
330
95E
100
AcDbEntity
  8
241
100
AcDbCircle
 10
20.66486413
 20
-42.24929658
 30
0.0
 40
1.6
100
AcDbArc
 50
185.0
 51
237.70422076
  0
ARC
  5
B56
330
95E
100
AcDbEntity
  8
241
100
AcDbCircle
 10
26.16333663
 20
-36.05121545
 30
0.0
 40
2.5
100
AcDbArc
 50
227.56611544
 51
257.77014853
  0
LINE
  5
B57
330
95E
100
AcDbEntity
  8
241
100
AcDbLine
 10
23.31566181
 20
-37.35624783
 30
0.0
 11
24.47649216
 21
-37.89635928
 31
0.0
  0
LINE
  5
B58
330
95E
100
AcDbEntity
  8
241
100
AcDbLine
 10
21.44068403
 20
-36.10176023
 30
0.0
 11
23.31566181
 21
-37.35624783
 31
0.0
  0
LINE
  5
B59
330
95E
100
AcDbEntity
  8
241
100
AcDbLine
 10
27.93870609
 20
-33.47044664
 30
0.0
 11
28.27111434
 21
-34.70686687
 31
0.0
  0
SPLINE
  5
B5A
330
95E
100
AcDbEntity
  8
241
100
AcDbSpline
210
0.0
220
0.0
230
1.0
 70
     8
 71
     3
 72
    10
 73
     6
 74
     0
 42
0.0000000001
 43
0.0000000001
 40
0.0748239711148265
 40
0.0748239711148265
 40
0.0748239711148265
 40
0.0748239711148265
 40
0.0948476205291068
 40
0.0948476205291068
 40
0.0960354357143375
 40
0.0960354357143375
 40
0.0960354357143375
 40
0.0960354357143375
 10
25.63906010137421
 20
-38.49529884921764
 30
0.0
 10
25.63737774986975
 20
-38.49514247188873
 30
0.0
 10
25.63570632707257
 20
-38.49489054799384
 30
0.0
 10
25.63394836552092
 20
-38.49452190607996
 30
0.0
 10
25.63384996444586
 20
-38.49450092465409
 30
0.0
 10
25.63375160602173
 20
-38.49447960516318
 30
0.0
  0
LINE
  5
B5B
330
95E
100
AcDbEntity
  8
241
100
AcDbLine
 10
18.03925842
 20
-24.59116804
 30
0.0
 11
16.2713988
 21
-26.077104
 31
0.0
  0
LINE
  5
B5C
330
95E
100
AcDbEntity
  8
241
100
AcDbLine
 10
14.10061069
 20
-25.28906063
 30
0.0
 11
13.69768222
 21
-23.0150813
 31
0.0
  0
LINE
  5
B5D
330
95E
100
AcDbEntity
  8
241
100
AcDbLine
 10
16.2713988
 20
-26.077104
 30
0.0
 11
14.10061069
 21
-25.28906063
 31
0.0
  0
LINE
  5
B5E
330
95E
100
AcDbEntity
  8
241
100
AcDbLine
 10
15.46554185
 20
-21.52914535
 30
0.0
 11
17.63632995
 21
-22.31718872
 31
0.0
  0
LINE
  5
B5F
330
95E
100
AcDbEntity
  8
241
100
AcDbLine
 10
13.69768222
 20
-23.0150813
 30
0.0
 11
15.46554185
 21
-21.52914535
 31
0.0
  0
LINE
  5
B60
330
95E
100
AcDbEntity
  8
241
100
AcDbLine
 10
17.63632995
 20
-22.31718872
 30
0.0
 11
18.03925842
 21
-24.59116804
 31
0.0
  0
ELLIPSE
  5
B61
330
95E
100
AcDbEntity
  8
241
100
AcDbEllipse
 10
21.84213942
 20
-25.47056172
 30
0.0
 11
3.268007583299904
 21
-3.888040153063717
 31
0.0
210
0.0
220
0.0
230
1.0
 40
0.59066186
 41
0.9025114294229039
 42
1.570796326794896
  0
LINE
  5
B62
330
95E
100
AcDbEntity
  8
241
100
AcDbLine
 10
25.66963312
 20
-26.36469505
 30
0.0
 11
27.02541436
 21
-31.40763663
 31
0.0
  0
LINE
  5
B63
330
95E
100
AcDbEntity
  8
241
100
AcDbLine
 10
21.31765069
 20
-20.18404473
 30
0.0
 11
24.13865644
 21
-23.54027429
 31
0.0
  0
LINE
  5
B64
330
95E
100
AcDbEntity
  8
240
100
AcDbLine
 10
33.81395516
 20
-30.1910523
 30
0.0
 11
34.99543364
 21
-43.69541311
 31
0.0
  0
ARC
  5
B65
330
95E
100
AcDbEntity
  8
240
100
AcDbCircle
 10
33.8
 20
-43.8
 30
0.0
 40
1.199999999999999
100
AcDbArc
 50
265.0
 51
5.0
  0
SPLINE
  5
B66
330
95E
100
AcDbEntity
  8
241
100
AcDbSpline
210
0.0
220
0.0
230
1.0
 70
     8
 71
     3
 72
    10
 73
     6
 74
     0
 42
0.0000000001
 43
0.0000000001
 40
-0.0011877720231319
 40
-0.0011877720231319
 40
-0.0011877720231319
 40
-0.0011877720231319
 40
0.0
 40
0.0
 40
0.0200229904154141
 40
0.0200229904154141
 40
0.0200229904154141
 40
0.0200229904154141
 10
28.66127709070017
 20
-35.94975890963013
 30
0.0
 10
28.66128117503254
 20
-35.94985946912629
 30
0.0
 10
28.66128491900548
 20
-35.94996001258103
 30
0.0
 10
28.66134570169709
 20
-35.95175518668782
 30
0.0
 10
28.66130638949353
 20
-35.95344503100617
 30
0.0
 10
28.66117107591145
 20
-35.95512920241449
 30
0.0
  0
LINE
  5
B67
330
95E
100
AcDbEntity
  8
240
100
AcDbLine
 10
32.9656512
 20
-22.11189024
 30
0.0
 11
33.58289778
 21
-29.58151146
 31
0.0
  0
ARC
  5
B68
330
95E
100
AcDbEntity
  8
241
100
AcDbCircle
 10
32.61852152
 20
-30.2956392
 30
0.0
 40
1.199999999999999
100
AcDbArc
 50
36.52022082
 51
85.0
  0
ARC
  5
B69
330
95E
100
AcDbEntity
  8
240
100
AcDbCircle
 10
32.61852152
 20
-30.2956392
 30
0.0
 40
1.199999999999999
100
AcDbArc
 50
5.0
 51
36.52022082
  0
ARC
  5
B6A
330
95E
100
AcDbEntity
  8
240
100
AcDbCircle
 10
39.7
 20
5.0
 30
0.0
 40
20.0
100
AcDbArc
 50
197.53794388
 51
238.9168737
  0
ARC
  5
B6B
330
95E
100
AcDbEntity
  8
241
100
AcDbCircle
 10
15.51370926
 20
-15.61019207
 30
0.0
 40
1.5
100
AcDbArc
 50
40.048
 51
130.048
  0
ARC
  5
B6C
330
95E
100
AcDbEntity
  8
240
100
AcDbCircle
 10
39.7
 20
5.0
 30
0.0
 40
20.0
100
AcDbArc
 50
185.0
 51
197.53794388
  0
LINE
  5
B6D
330
95E
100
AcDbEntity
  8
240
100
AcDbLine
 10
18.03581296
 20
20.46418704
 30
0.0
 11
7.29289322
 21
31.20710678
 31
0.0
  0
LINE
  5
B6E
330
95E
100
AcDbEntity
  8
240
100
AcDbLine
 10
0.0
 20
31.5
 30
0.0
 11
6.58578644
 21
31.5
 31
0.0
  0
ARC
  5
B6F
330
95E
100
AcDbEntity
  8
240
100
AcDbCircle
 10
6.58578644
 20
30.5
 30
0.0
 40
1.0
100
AcDbArc
 50
45.0
 51
90.0
  0
ARC
  5
B70
330
95E
100
AcDbEntity
  8
240
100
AcDbCircle
 10
17.32870618
 20
19.75708026
 30
0.0
 40
1.0
100
AcDbArc
 50
5.0
 51
45.0
  0
ENDBLK
  5
960
330
95E
100
AcDbEntity
  8
0
100
AcDbBlockEnd
  0
ENDSEC
  0
SECTION
  2
ENTITIES
  0
INSERT
  5
6E6
330
1A
100
AcDbEntity
  8
245
100
AcDbBlockReference
  2
矢印なし
 10
175.62382697
 20
90.55123572
 30
0.0
  0
TEXT
  5
835
330
1A
100
AcDbEntity
  8
241
  6
CONTINUOUS
100
AcDbText
 10
0.0
 20
45.5
 30
0.0
 40
5.0
  1
F63-DCLNL-45035-16
  7
YOKO
 11
0.0
 21
45.5
 31
0.0
100
AcDbText
 73
     1
  0
DIMENSION
  5
837
330
1A
100
AcDbEntity
  8
250
  6
CONTINUOUS
100
AcDbDimension
  2
*D2
 10
49.0
 20
0.0
 30
0.0
 11
46.5
 21
-22.5
 31
0.0
 70
    32
  3
BIGT
100
AcDbAlignedDimension
 13
33.8
 23
-45.0
 33
0.0
 14
21.33508327
 24
0.0
 34
0.0
 50
90.0
100
AcDbRotatedDimension
1001
ACAD
1000
DSTYLE
1002
{
1070
    78
1070
     8
1070
   140
1040
3.0
1002
}
  0
DIMENSION
  5
838
330
1A
100
AcDbEntity
  8
250
  6
CONTINUOUS
100
AcDbDimension
  2
*D3
 10
35.0
 20
-56.0
 30
0.0
 11
17.5
 21
-53.5
 31
0.0
 70
    32
  3
BIGT
100
AcDbAlignedDimension
 13
0.0
 23
-31.5
 33
0.0
 14
35.0
 24
-43.8
 34
0.0
100
AcDbRotatedDimension
1001
ACAD
1000
DSTYLE
1002
{
1070
    78
1070
     8
1070
   140
1040
3.0
1002
}
  0
LEADER
  5
91C
102
{ACAD_REACTORS
330
921
102
}
330
1A
100
AcDbEntity
  8
250
  6
CONTINUOUS
100
AcDbLeader
  3
BIGT
 76
     2
 10
33.80244186
 20
-43.57658333
 30
0.0
 10
40.93649211
 20
-55.99299812
 30
0.0
1001
ACAD
1000
DSTYLE
1002
{
1070
     6
1000
DOT
1070
    41
1040
2.0
1070
    42
1040
2.0
1070
    44
1040
2.0
1070
   140
1040
4.0
1070
   341
1005
917
1070
   343
1005
917
1002
}
  0
MTEXT
  5
91D
102
{ACAD_REACTORS
330
921
102
}
330
1A
100
AcDbEntity
  8
251
  6
CONTINUOUS
100
AcDbMText
 10
40.8230566
 20
-54.99299812
 30
0.0
 40
2.8
 41
0.0
 71
     7
 72
     1
  1
（CN1606）
  7
YOKO
1001
ITEMNAME
1000
LNSP3
1001
ACAD
1000
MTEXTBEGIN
1070
    73
1070
     1
1070
    44
1040
1.0
1070
    74
1070
     0
1000
MTEXTEND
1000
MTEXTBEGIN
1070
    73
1070
     1
1070
    44
1040
1.0
1070
    74
1070
     0
1000
MTEXTEND
  0
LINE
  5
91F
102
{ACAD_REACTORS
330
921
102
}
330
1A
100
AcDbEntity
  8
250
  6
CONTINUOUS
100
AcDbLine
 10
40.93649211
 20
-55.99299812
 30
0.0
 11
63.09397819
 21
-55.99299812
 31
0.0
1001
ITEMNAME
1000
LNSP2
  0
INSERT
  5
B71
330
1A
100
AcDbEntity
  8
245
100
AcDbBlockReference
  2
1
 10
0.0
 20
0.0
 30
0.0
  0
VIEWPORT
  5
22
330
17
100
AcDbEntity
 67
     1
  8
0
100
AcDbViewport
 10
261.51769912
 20
148.5
 30
0.0
 40
523.03539823
 41
297.0
 68
     1
 69
     1
1001
ACAD
1000
MVIEW
1002
{
1070
    16
1010
0.0
1020
0.0
1030
0.0
1010
0.0
1020
0.0
1030
1.0
1040
0.0
1040
297.0
1040
261.51769912
1040
148.5
1040
50.0
1040
0.0
1040
0.0
1070
     0
1070
   100
1070
     1
1070
     1
1070
     0
1070
     0
1070
     0
1070
     0
1040
0.0
1040
0.0
1040
0.0
1040
1.0
1040
1.0
1040
10.0
1040
10.0
1070
     0
1002
{
1002
}
1002
}
  0
ENDSEC
  0
SECTION
  2
OBJECTS
  0
DICTIONARY
  5
C
330
0
100
AcDbDictionary
  3
ACAD_GROUP
350
D
  3
ACAD_LAYOUT
350
565
  3
ACAD_MLINESTYLE
350
E
  3
ACAD_PLOTSETTINGS
350
566
  3
ACAD_PLOTSTYLENAME
350
563
  3
ACDBHEADERROUNDTRIPXREC
350
B98
  3
GRADE_DWG
350
540
  0
DICTIONARY
  5
A4F
330
1A
100
AcDbDictionary
280
     1
  3
ACAD_LAYOUTSELFREF
360
BBA
  0
DICTIONARY
  5
A4D
330
17
100
AcDbDictionary
280
     1
  3
ACAD_LAYOUTSELFREF
360
BB9
  0
DICTIONARY
  5
D
102
{ACAD_REACTORS
330
C
102
}
330
C
100
AcDbDictionary
  3
*A1
350
6C7
  3
*A2
350
6C8
  3
*A3
350
6D4
  3
*A4
350
6D5
  3
DREC-1
350
5FC
  3
DREC-2
350
654
  3
DREC-3
350
673
  3
LNSP-1
350
921
  0
DICTIONARY
  5
565
102
{ACAD_REACTORS
330
C
102
}
330
C
100
AcDbDictionary
  0
DICTIONARY
  5
E
102
{ACAD_REACTORS
330
C
102
}
330
C
100
AcDbDictionary
  3
STANDARD
350
13
  0
DICTIONARY
  5
566
102
{ACAD_REACTORS
330
C
102
}
330
C
100
AcDbDictionary
  3
A3_0_5倍_
350
758
  3
A3_1倍_
350
757
  3
A3_1倍__2000_
350
707
  3
A3_2倍_
350
759
  3
A4_0_5倍_
350
755
  3
A4_1倍_
350
754
  3
A4_1倍__2000_
350
708
  3
A4_2倍_
350
756
  0
ACDBDICTIONARYWDFLT
  5
563
102
{ACAD_REACTORS
330
C
102
}
330
C
100
AcDbDictionary
281
     1
  3
Normal
350
564
100
AcDbDictionaryWithDefault
340
564
  0
DICTIONARY
  5
B98
102
{ACAD_REACTORS
330
C
102
}
330
C
100
AcDbDictionary
  3
CEPSNTYPE
350
BA2
  3
DIMSTYLEDATA
350
BA6
  3
FINGERPRINTGUID
350
BA3
  3
HYPERLINKBASE
350
B9B
  3
INSUNITS
350
BA1
  3
LAYOUTDICT
350
B9D
  3
LWETCUNION
350
BA0
  3
PLOTSETDICT
350
B9E
  3
PLOTSTYLNAMDICT
350
B9F
  3
PSVPSCALE
350
BA5
  3
PUCSBASE
350
BA9
  3
PUCSORGBACK
350
BAF
  3
PUCSORGBOTTOM
350
BAB
  3
PUCSORGFRONT
350
BAE
  3
PUCSORGLEFT
350
BAC
  3
PUCSORGRIGHT
350
BAD
  3
PUCSORGTOP
350
BAA
  3
PUCSORTHOREF
350
BA7
  3
PUCSORTHOVIEW
350
BA8
  3
STYLESHEET
350
B9C
  3
TSTACKALIGN
350
B99
  3
TSTACKSIZE
350
B9A
  3
UCSBASE
350
BB2
  3
UCSORGBACK
350
BB8
  3
UCSORGBOTTOM
350
BB4
  3
UCSORGFRONT
350
BB7
  3
UCSORGLEFT
350
BB5
  3
UCSORGRIGHT
350
BB6
  3
UCSORGTOP
350
BB3
  3
UCSORTHOREF
350
BB0
  3
UCSORTHOVIEW
350
BB1
  3
VERSIONGUID
350
BA4
  0
DICTIONARY
  5
540
102
{ACAD_REACTORS
330
C
102
}
330
C
100
AcDbDictionary
  3
VERSION
350
560
  0
XRECORD
  5
BBA
102
{ACAD_REACTORS
330
A4F
102
}
330
A4F
100
AcDbXrecord
340
1A
  0
XRECORD
  5
BB9
102
{ACAD_REACTORS
330
A4D
102
}
330
A4D
100
AcDbXrecord
340
17
  0
GROUP
  5
6C7
102
{ACAD_REACTORS
330
D
102
}
330
D
100
AcDbGroup
300

 70
     0
 71
     1
1001
GRPNAME
1000
DMA00
  0
GROUP
  5
6C8
102
{ACAD_REACTORS
330
D
102
}
330
D
100
AcDbGroup
300

 70
     0
 71
     1
1001
GRPNAME
1000
DMA00
  0
GROUP
  5
6D4
102
{ACAD_REACTORS
330
D
102
}
330
D
100
AcDbGroup
300

 70
     0
 71
     1
1001
GRPNAME
1000
DMA00
  0
GROUP
  5
6D5
102
{ACAD_REACTORS
330
D
102
}
330
D
100
AcDbGroup
300

 70
     0
 71
     1
1001
GRPNAME
1000
DMA00
  0
GROUP
  5
5FC
102
{ACAD_REACTORS
330
D
102
}
330
D
100
AcDbGroup
300

 70
     0
 71
     1
1001
GRPNAME
1000
DREC-
1001
GPARA
1000
xsiz
1000
44.182
1000
ysiz
1000
40.677
1000
angl
1000
0
1000
ctyp
1000
0
1000
csiz
1000
5
1000
lfnt
1000
cont
1000
hcnt
1000
hoff
1000
vcnt
1000
voff
1000
opnt
1000
4
1000
dxpt
1000
0
1000
dypt
1000
0
  0
GROUP
  5
654
102
{ACAD_REACTORS
330
D
102
}
330
D
100
AcDbGroup
300

 70
     0
 71
     1
1001
GRPNAME
1000
DREC-
1001
GPARA
1000
xsiz
1000
54.592
1000
ysiz
1000
53.036
1000
angl
1000
0
1000
ctyp
1000
0
1000
csiz
1000
5
1000
lfnt
1000
cont
1000
hcnt
1000
hoff
1000
vcnt
1000
voff
1000
opnt
1000
4
1000
dxpt
1000
0
1000
dypt
1000
0
  0
GROUP
  5
673
102
{ACAD_REACTORS
330
D
102
}
330
D
100
AcDbGroup
300

 70
     0
 71
     1
1001
GRPNAME
1000
DREC-
1001
GPARA
1000
xsiz
1000
30.363
1000
ysiz
1000
36.175
1000
angl
1000
0
1000
ctyp
1000
0
1000
csiz
1000
5
1000
lfnt
1000
cont
1000
hcnt
1000
hoff
1000
vcnt
1000
voff
1000
opnt
1000
4
1000
dxpt
1000
0
1000
dypt
1000
0
  0
GROUP
  5
921
102
{ACAD_REACTORS
330
D
102
}
330
D
100
AcDbGroup
300

 70
     0
 71
     1
340
91C
340
91D
340
91F
1001
GRPNAME
1000
LNSP
  0
MLINESTYLE
  5
13
102
{ACAD_REACTORS
330
E
102
}
330
E
100
AcDbMlineStyle
  2
STANDARD
 70
     0
  3

 62
     0
 51
90.0
 52
90.0
 71
     2
 49
0.5
 62
   256
  6
BYLAYER
 49
-0.5
 62
   256
  6
BYLAYER
  0
PLOTSETTINGS
  5
758
102
{ACAD_REACTORS
330
566
102
}
330
566
100
AcDbPlotSettings
  1
A3(0.5倍)
  2
\\AWTECPC05\HP DeskJet 1120C
  4
A3
  6

 40
5.95841646
 41
13.49375153
 42
6.04309082
 43
3.67242432
 44
296.92599487
 45
419.94665527
 46
89.96
 47
127.14
 48
0.0
 49
0.0
140
0.0
141
0.0
142
1.0
143
2.0
 70
  1716
 72
     1
 73
     1
 74
     2
  7
big.ctb
 75
    17
147
0.5
148
0.0
149
0.0
  0
PLOTSETTINGS
  5
757
102
{ACAD_REACTORS
330
566
102
}
330
566
100
AcDbPlotSettings
  1
A3(1倍)
  2
\\AWTECPC05\HP DeskJet 1120C
  4
A3
  6

 40
5.95841646
 41
13.49375153
 42
6.04309082
 43
3.67242432
 44
296.92599487
 45
419.94665527
 46
37.46
 47
52.89
 48
0.0
 49
0.0
140
0.0
141
0.0
142
1.0
143
1.0
 70
  1716
 72
     1
 73
     1
 74
     2
  7
big.ctb
 75
    16
147
1.0
148
0.0
149
0.0
  0
PLOTSETTINGS
  5
707
102
{ACAD_REACTORS
330
566
102
}
330
566
100
AcDbPlotSettings
  1
A3(1倍)(2000)
  2
SII LS-1300 (D-SCAN)
  4
User258
  6

 40
3.17499995
 41
3.17499995
 42
3.17498779
 43
3.17498779
 44
419.98898315
 45
296.98950195
 46
58.32
 47
40.32
 48
0.0
 49
0.0
140
0.0
141
0.0
142
1.0
143
1.0
 70
  1716
 72
     1
 73
     0
 74
     2
  7
big.ctb
 75
    16
147
1.0
148
0.0
149
0.0
  0
PLOTSETTINGS
  5
759
102
{ACAD_REACTORS
330
566
102
}
330
566
100
AcDbPlotSettings
  1
A3(2倍)
  2
\\AWTECPC05\HP DeskJet 1120C
  4
A3
  6

 40
5.95841646
 41
13.49375153
 42
6.04309082
 43
3.67242432
 44
296.92599487
 45
419.94665527
 46
-67.54
 47
-95.61
 48
0.0
 49
0.0
140
0.0
141
0.0
142
1.0
143
0.5
 70
  1716
 72
     1
 73
     1
 74
     2
  7
big.ctb
 75
    27
147
2.0
148
0.0
149
0.0
  0
PLOTSETTINGS
  5
755
102
{ACAD_REACTORS
330
566
102
}
330
566
100
AcDbPlotSettings
  1
A4(0.5倍)
  2
\\AWTECPC05\HP DeskJet 1120C
  4
A4
  6

 40
4.18041658
 41
13.49374962
 42
4.18040466
 43
3.92642212
 44
209.97332764
 45
296.92599487
 46
48.31
 47
65.5
 48
0.0
 49
0.0
140
0.0
141
0.0
142
1.0
143
2.0
 70
  1716
 72
     1
 73
     1
 74
     2
  7
big.ctb
 75
    17
147
0.5
148
0.0
149
0.0
  0
PLOTSETTINGS
  5
754
102
{ACAD_REACTORS
330
566
102
}
330
566
100
AcDbPlotSettings
  1
A4(1倍)
  2
\\AWTECPC05\HP DeskJet 1120C
  4
A4
  6

 40
4.18041658
 41
13.49374962
 42
4.18040466
 43
3.92642212
 44
209.97332764
 45
296.92599487
 46
-4.19
 47
-8.75
 48
0.0
 49
0.0
140
0.0
141
0.0
142
1.0
143
1.0
 70
  1716
 72
     1
 73
     1
 74
     2
  7
big.ctb
 75
    16
147
1.0
148
0.0
149
0.0
  0
PLOTSETTINGS
  5
708
102
{ACAD_REACTORS
330
566
102
}
330
566
100
AcDbPlotSettings
  1
A4(1倍)(2000)
  2
SII LS-1300 (D-SCAN)
  4
User259
  6

 40
3.17499995
 41
3.17499995
 42
3.17498779
 43
3.17500305
 44
296.98950195
 45
209.99449158
 46
-3.18
 47
-3.18
 48
0.0
 49
0.0
140
0.0
141
0.0
142
1.0
143
1.0
 70
  1716
 72
     1
 73
     0
 74
     2
  7
big.ctb
 75
    16
147
1.0
148
0.0
149
0.0
  0
PLOTSETTINGS
  5
756
102
{ACAD_REACTORS
330
566
102
}
330
566
100
AcDbPlotSettings
  1
A4(2倍)
  2
\\AWTECPC05\HP DeskJet 1120C
  4
A4
  6

 40
4.18041658
 41
13.49374962
 42
4.18040466
 43
3.92642212
 44
209.97332764
 45
296.92599487
 46
-109.19
 47
-157.25
 48
0.0
 49
0.0
140
0.0
141
0.0
142
1.0
143
0.5
 70
  1716
 72
     1
 73
     1
 74
     2
  7
big.ctb
 75
    27
147
2.0
148
0.0
149
0.0
  0
ACDBPLACEHOLDER
  5
564
102
{ACAD_REACTORS
330
563
102
}
330
563
100
AcDbPlaceHolder
280
     0
  0
XRECORD
  5
BA2
102
{ACAD_REACTORS
330
B98
102
}
330
B98
100
AcDbXrecord
 90
        0
  0
XRECORD
  5
BA6
102
{ACAD_REACTORS
330
B98
102
}
330
B98
100
AcDbXrecord
1000
DSTYLE
1002
{
1070
    79
 70
     2
1070
   179
 70
     3
1070
   341
340
594
1070
   343
340
594
1070
   344
340
594
1070
   371
 70
    -1
1070
   372
 70
    -1
1002
}
  0
XRECORD
  5
BA3
102
{ACAD_REACTORS
330
B98
102
}
330
B98
100
AcDbXrecord
  1
{51294030-9CB4-11D3-8E18-00A0C925D94D}
  0
XRECORD
  5
B9B
102
{ACAD_REACTORS
330
B98
102
}
330
B98
100
AcDbXrecord
  1

  0
XRECORD
  5
BA1
102
{ACAD_REACTORS
330
B98
102
}
330
B98
100
AcDbXrecord
 90
        0
  0
XRECORD
  5
B9D
102
{ACAD_REACTORS
330
B98
102
}
330
B98
100
AcDbXrecord
340
565
  0
XRECORD
  5
BA0
102
{ACAD_REACTORS
330
B98
102
}
330
B98
100
AcDbXrecord
 90
    10781
  0
XRECORD
  5
B9E
102
{ACAD_REACTORS
330
B98
102
}
330
B98
100
AcDbXrecord
340
566
  0
XRECORD
  5
B9F
102
{ACAD_REACTORS
330
B98
102
}
330
B98
100
AcDbXrecord
340
563
  0
XRECORD
  5
BA5
102
{ACAD_REACTORS
330
B98
102
}
330
B98
100
AcDbXrecord
 40
0.0
  0
XRECORD
  5
BA9
102
{ACAD_REACTORS
330
B98
102
}
330
B98
100
AcDbXrecord
340
0
  0
XRECORD
  5
BAF
102
{ACAD_REACTORS
330
B98
102
}
330
B98
100
AcDbXrecord
 10
0.0
 20
0.0
 30
0.0
  0
XRECORD
  5
BAB
102
{ACAD_REACTORS
330
B98
102
}
330
B98
100
AcDbXrecord
 10
0.0
 20
0.0
 30
0.0
  0
XRECORD
  5
BAE
102
{ACAD_REACTORS
330
B98
102
}
330
B98
100
AcDbXrecord
 10
0.0
 20
0.0
 30
0.0
  0
XRECORD
  5
BAC
102
{ACAD_REACTORS
330
B98
102
}
330
B98
100
AcDbXrecord
 10
0.0
 20
0.0
 30
0.0
  0
XRECORD
  5
BAD
102
{ACAD_REACTORS
330
B98
102
}
330
B98
100
AcDbXrecord
 10
0.0
 20
0.0
 30
0.0
  0
XRECORD
  5
BAA
102
{ACAD_REACTORS
330
B98
102
}
330
B98
100
AcDbXrecord
 10
0.0
 20
0.0
 30
0.0
  0
XRECORD
  5
BA7
102
{ACAD_REACTORS
330
B98
102
}
330
B98
100
AcDbXrecord
340
0
  0
XRECORD
  5
BA8
102
{ACAD_REACTORS
330
B98
102
}
330
B98
100
AcDbXrecord
 70
     0
  0
XRECORD
  5
B9C
102
{ACAD_REACTORS
330
B98
102
}
330
B98
100
AcDbXrecord
  1
big.ctb
  0
XRECORD
  5
B99
102
{ACAD_REACTORS
330
B98
102
}
330
B98
100
AcDbXrecord
 90
        1
  0
XRECORD
  5
B9A
102
{ACAD_REACTORS
330
B98
102
}
330
B98
100
AcDbXrecord
 90
       70
  0
XRECORD
  5
BB2
102
{ACAD_REACTORS
330
B98
102
}
330
B98
100
AcDbXrecord
340
0
  0
XRECORD
  5
BB8
102
{ACAD_REACTORS
330
B98
102
}
330
B98
100
AcDbXrecord
 10
0.0
 20
0.0
 30
0.0
  0
XRECORD
  5
BB4
102
{ACAD_REACTORS
330
B98
102
}
330
B98
100
AcDbXrecord
 10
0.0
 20
0.0
 30
0.0
  0
XRECORD
  5
BB7
102
{ACAD_REACTORS
330
B98
102
}
330
B98
100
AcDbXrecord
 10
0.0
 20
0.0
 30
0.0
  0
XRECORD
  5
BB5
102
{ACAD_REACTORS
330
B98
102
}
330
B98
100
AcDbXrecord
 10
0.0
 20
0.0
 30
0.0
  0
XRECORD
  5
BB6
102
{ACAD_REACTORS
330
B98
102
}
330
B98
100
AcDbXrecord
 10
0.0
 20
0.0
 30
0.0
  0
XRECORD
  5
BB3
102
{ACAD_REACTORS
330
B98
102
}
330
B98
100
AcDbXrecord
 10
0.0
 20
0.0
 30
0.0
  0
XRECORD
  5
BB0
102
{ACAD_REACTORS
330
B98
102
}
330
B98
100
AcDbXrecord
340
0
  0
XRECORD
  5
BB1
102
{ACAD_REACTORS
330
B98
102
}
330
B98
100
AcDbXrecord
 70
     0
  0
XRECORD
  5
BA4
102
{ACAD_REACTORS
330
B98
102
}
330
B98
100
AcDbXrecord
  1
{C7DFC393-5D59-41BB-8F27-CAF14D561747}
  0
XRECORD
  5
560
102
{ACAD_REACTORS
330
540
102
}
330
540
100
AcDbXrecord
  1
2.0.0
  0
ENDSEC
  0
EOF
