  0
SECTION
  2
HEADER
  9
$ACADVER
  1
AC1015
  9
$ACADMAINTVER
 70
    20
  9
$DWGCODEPAGE
  3
ANSI_932
  9
$INSBASE
 10
0.0
 20
0.0
 30
0.0
  9
$EXTMIN
 10
-43.13956647713474
 20
-32.00738469046485
 30
-0.0015258207003583
  9
$EXTMAX
 10
103.009693486496
 20
68.0074161696333
 30
0.0000000349246037
  9
$LIMMIN
 10
0.0
 20
0.0
  9
$LIMMAX
 10
297.0
 20
210.0
  9
$ORTHOMODE
 70
     0
  9
$REGENMODE
 70
     1
  9
$FILLMODE
 70
     1
  9
$QTEXTMODE
 70
     0
  9
$MIRRTEXT
 70
     1
  9
$LTSCALE
 40
10.0
  9
$ATTMODE
 70
     1
  9
$TEXTSIZE
 40
3.0
  9
$TRACEWID
 40
1.0
  9
$TEXTSTYLE
  7
YOKO
  9
$CLAYER
  8
245
  9
$CELTYPE
  6
BYLAYER
  9
$CECOLOR
 62
   256
  9
$CELTSCALE
 40
1.0
  9
$DISPSILH
 70
     0
  9
$DIMSCALE
 40
1.0
  9
$DIMASZ
 40
2.0
  9
$DIMEXO
 40
0.5
  9
$DIMDLI
 40
2.5
  9
$DIMRND
 40
0.0
  9
$DIMDLE
 40
0.0
  9
$DIMEXE
 40
1.0
  9
$DIMTP
 40
0.0
  9
$DIMTM
 40
0.0
  9
$DIMTXT
 40
2.799999999999999
  9
$DIMCEN
 40
0.0
  9
$DIMTSZ
 40
0.0
  9
$DIMTOL
 70
     0
  9
$DIMLIM
 70
     0
  9
$DIMTIH
 70
     0
  9
$DIMTOH
 70
     0
  9
$DIMSE1
 70
     0
  9
$DIMSE2
 70
     0
  9
$DIMTAD
 70
     3
  9
$DIMZIN
 70
     8
  9
$DIMBLK
  1

  9
$DIMASO
 70
     1
  9
$DIMSHO
 70
     1
  9
$DIMPOST
  1

  9
$DIMAPOST
  1

  9
$DIMALT
 70
     0
  9
$DIMALTD
 70
     2
  9
$DIMALTF
 40
25.4
  9
$DIMLFAC
 40
1.0
  9
$DIMTOFL
 70
     1
  9
$DIMTVP
 40
0.0
  9
$DIMTIX
 70
     1
  9
$DIMSOXD
 70
     0
  9
$DIMSAH
 70
     1
  9
$DIMBLK1
  1
Open
  9
$DIMBLK2
  1
Open
  9
$DIMSTYLE
  2
BIGT
  9
$DIMCLRD
 70
   256
  9
$DIMCLRE
 70
   256
  9
$DIMCLRT
 70
    40
  9
$DIMTFAC
 40
1.0
  9
$DIMGAP
 40
1.0
  9
$DIMJUST
 70
     0
  9
$DIMSD1
 70
     0
  9
$DIMSD2
 70
     0
  9
$DIMTOLJ
 70
     1
  9
$DIMTZIN
 70
     8
  9
$DIMALTZ
 70
     0
  9
$DIMALTTZ
 70
     0
  9
$DIMUPT
 70
     0
  9
$DIMDEC
 70
     3
  9
$DIMTDEC
 70
     3
  9
$DIMALTU
 70
     2
  9
$DIMALTTD
 70
     2
  9
$DIMTXSTY
  7
STANDARD
  9
$DIMAUNIT
 70
     0
  9
$DIMADEC
 70
     3
  9
$DIMALTRND
 40
0.0
  9
$DIMAZIN
 70
     2
  9
$DIMDSEP
 70
    46
  9
$DIMATFIT
 70
     2
  9
$DIMFRAC
 70
     0
  9
$DIMLDRBLK
  1
Open
  9
$DIMLUNIT
 70
     2
  9
$DIMLWD
 70
    -1
  9
$DIMLWE
 70
    -1
  9
$DIMTMOVE
 70
     0
  9
$LUNITS
 70
     2
  9
$LUPREC
 70
     3
  9
$SKETCHINC
 40
1.0
  9
$FILLETRAD
 40
3.0
  9
$AUNITS
 70
     0
  9
$AUPREC
 70
     3
  9
$MENU
  1
.
  9
$ELEVATION
 40
0.0
  9
$PELEVATION
 40
0.0
  9
$THICKNESS
 40
0.0
  9
$LIMCHECK
 70
     0
  9
$CHAMFERA
 40
10.0
  9
$CHAMFERB
 40
10.0
  9
$CHAMFERC
 40
0.0
  9
$CHAMFERD
 40
0.0
  9
$SKPOLY
 70
     0
  9
$TDCREATE
 40
2456997.695100903
  9
$TDUCREATE
 40
2456997.320100902
  9
$TDUPDATE
 40
2456997.706185799
  9
$TDUUPDATE
 40
2456997.331185799
  9
$TDINDWG
 40
0.0106313426
  9
$TDUSRTIMER
 40
0.0106270023
  9
$USRTIMER
 70
     1
  9
$ANGBASE
 50
0.0
  9
$ANGDIR
 70
     0
  9
$PDMODE
 70
     0
  9
$PDSIZE
 40
-5.0
  9
$PLINEWID
 40
0.0
  9
$SPLFRAME
 70
     0
  9
$SPLINETYPE
 70
     6
  9
$SPLINESEGS
 70
     8
  9
$HANDSEED
  5
EE5
  9
$SURFTAB1
 70
     6
  9
$SURFTAB2
 70
     6
  9
$SURFTYPE
 70
     6
  9
$SURFU
 70
     6
  9
$SURFV
 70
     6
  9
$UCSBASE
  2

  9
$UCSNAME
  2

  9
$UCSORG
 10
0.0
 20
0.0
 30
0.0
  9
$UCSXDIR
 10
1.0
 20
0.0
 30
0.0
  9
$UCSYDIR
 10
0.0
 20
1.0
 30
0.0
  9
$UCSORTHOREF
  2

  9
$UCSORTHOVIEW
 70
     0
  9
$UCSORGTOP
 10
0.0
 20
0.0
 30
0.0
  9
$UCSORGBOTTOM
 10
0.0
 20
0.0
 30
0.0
  9
$UCSORGLEFT
 10
0.0
 20
0.0
 30
0.0
  9
$UCSORGRIGHT
 10
0.0
 20
0.0
 30
0.0
  9
$UCSORGFRONT
 10
0.0
 20
0.0
 30
0.0
  9
$UCSORGBACK
 10
0.0
 20
0.0
 30
0.0
  9
$PUCSBASE
  2

  9
$PUCSNAME
  2

  9
$PUCSORG
 10
0.0
 20
0.0
 30
0.0
  9
$PUCSXDIR
 10
1.0
 20
0.0
 30
0.0
  9
$PUCSYDIR
 10
0.0
 20
1.0
 30
0.0
  9
$PUCSORTHOREF
  2

  9
$PUCSORTHOVIEW
 70
     0
  9
$PUCSORGTOP
 10
0.0
 20
0.0
 30
0.0
  9
$PUCSORGBOTTOM
 10
0.0
 20
0.0
 30
0.0
  9
$PUCSORGLEFT
 10
0.0
 20
0.0
 30
0.0
  9
$PUCSORGRIGHT
 10
0.0
 20
0.0
 30
0.0
  9
$PUCSORGFRONT
 10
0.0
 20
0.0
 30
0.0
  9
$PUCSORGBACK
 10
0.0
 20
0.0
 30
0.0
  9
$USERI1
 70
     1
  9
$USERI2
 70
     0
  9
$USERI3
 70
     0
  9
$USERI4
 70
     0
  9
$USERI5
 70
     0
  9
$USERR1
 40
0.0
  9
$USERR2
 40
0.0
  9
$USERR3
 40
0.0
  9
$USERR4
 40
0.0
  9
$USERR5
 40
0.0
  9
$WORLDVIEW
 70
     1
  9
$SHADEDGE
 70
     3
  9
$SHADEDIF
 70
    70
  9
$TILEMODE
 70
     1
  9
$MAXACTVP
 70
    16
  9
$PINSBASE
 10
0.0
 20
0.0
 30
0.0
  9
$PLIMCHECK
 70
     0
  9
$PEXTMIN
 10
1.000000000000000E+20
 20
1.000000000000000E+20
 30
1.000000000000000E+20
  9
$PEXTMAX
 10
-1.000000000000000E+20
 20
-1.000000000000000E+20
 30
-1.000000000000000E+20
  9
$PLIMMIN
 10
0.0
 20
0.0
  9
$PLIMMAX
 10
420.0
 20
297.0
  9
$UNITMODE
 70
     0
  9
$VISRETAIN
 70
     0
  9
$PLINEGEN
 70
     0
  9
$PSLTSCALE
 70
     1
  9
$TREEDEPTH
 70
  3020
  9
$CMLSTYLE
  2
STANDARD
  9
$CMLJUST
 70
     0
  9
$CMLSCALE
 40
1.0
  9
$PROXYGRAPHICS
 70
     1
  9
$MEASUREMENT
 70
     1
  9
$CELWEIGHT
370
    -1
  9
$ENDCAPS
280
     0
  9
$JOINSTYLE
280
     0
  9
$LWDISPLAY
290
     0
  9
$INSUNITS
 70
     0
  9
$HYPERLINKBASE
  1

  9
$STYLESHEET
  1
BIG.CTB
  9
$XEDIT
290
     1
  9
$CEPSNTYPE
380
     0
  9
$PSTYLEMODE
290
     1
  9
$FINGERPRINTGUID
  2
{3110A7A0-7C04-4105-8CCE-923EC8CF0041}
  9
$VERSIONGUID
  2
{4726BAB8-D3BD-4F80-BCCD-867E362973D8}
  9
$EXTNAMES
290
     1
  9
$PSVPSCALE
 40
0.0
  9
$OLESTARTUP
290
     0
  0
ENDSEC
  0
SECTION
  2
CLASSES
  0
CLASS
  1
ACDBDICTIONARYWDFLT
  2
AcDbDictionaryWithDefault
  3
ObjectDBX Classes
 90
        0
280
     0
281
     0
  0
CLASS
  1
ACDBPLACEHOLDER
  2
AcDbPlaceHolder
  3
ObjectDBX Classes
 90
        0
280
     0
281
     0
  0
CLASS
  1
LAYOUT
  2
AcDbLayout
  3
ObjectDBX Classes
 90
        0
280
     0
281
     0
  0
CLASS
  1
PLOTSETTINGS
  2
AcDbPlotSettings
  3
ObjectDBX Classes
 90
        0
280
     0
281
     0
  0
CLASS
  1
MATERIAL
  2
AcDbMaterial
  3
ObjectDBX Classes
 90
     1024
280
     0
281
     0
  0
CLASS
  1
VISUALSTYLE
  2
AcDbVisualStyle
  3
ObjectDBX Classes
 90
     4095
280
     0
281
     0
  0
CLASS
  1
TABLESTYLE
  2
AcDbTableStyle
  3
ObjectDBX Classes
 90
     4095
280
     0
281
     0
  0
CLASS
  1
SORTENTSTABLE
  2
AcDbSortentsTable
  3
ObjectDBX Classes
 90
        0
280
     0
281
     0
  0
CLASS
  1
DICTIONARYVAR
  2
AcDbDictionaryVar
  3
ObjectDBX Classes
 90
        0
280
     0
281
     0
  0
ENDSEC
  0
SECTION
  2
TABLES
  0
TABLE
  2
VPORT
  5
8
330
0
100
AcDbSymbolTable
 70
     1
  0
VPORT
  5
77A
330
8
100
AcDbSymbolTableRecord
100
AcDbViewportTableRecord
  2
*Active
 70
     0
 10
0.0
 20
0.0
 11
1.0
 21
1.0
 12
29.93506350468067
 22
18.00001573958423
 13
0.0
 23
0.0
 14
7.0
 24
7.0
 15
7.0
 25
7.0
 16
0.0
 26
0.0
 36
1.0
 17
0.0
 27
0.0
 37
0.0
 40
100.6130947834886
 41
1.755489021956087
 42
50.0
 43
0.0
 44
0.0
 50
0.0
 51
0.0
 71
     0
 72
 20000
 73
     1
 74
     0
 75
     0
 76
     0
 77
     0
 78
     0
281
     0
 65
     1
110
0.0
120
0.0
130
0.0
111
1.0
121
0.0
131
0.0
112
0.0
122
1.0
132
0.0
 79
     0
146
0.0
  0
ENDTAB
  0
TABLE
  2
LTYPE
  5
5
330
0
100
AcDbSymbolTable
 70
     4
  0
LTYPE
  5
14
330
5
100
AcDbSymbolTableRecord
100
AcDbLinetypeTableRecord
  2
BYBLOCK
 70
     0
  3

 72
    65
 73
     0
 40
0.0
  0
LTYPE
  5
15
330
5
100
AcDbSymbolTableRecord
100
AcDbLinetypeTableRecord
  2
BYLAYER
 70
     0
  3

 72
    65
 73
     0
 40
0.0
  0
LTYPE
  5
16
330
5
100
AcDbSymbolTableRecord
100
AcDbLinetypeTableRecord
  2
CONTINUOUS
 70
     0
  3
Solid line
 72
    65
 73
     0
 40
0.0
  0
LTYPE
  5
258
330
5
100
AcDbSymbolTableRecord
100
AcDbLinetypeTableRecord
  2
CENTER2
 70
     0
  3
___ _ ___ _ ___ _ ___ _ ___ _ ___ _ ___ _ ___ _
 72
    65
 73
     4
 40
1.125
 49
0.75
 74
     0
 49
-0.125
 74
     0
 49
0.125
 74
     0
 49
-0.125
 74
     0
  0
LTYPE
  5
25C
330
5
100
AcDbSymbolTableRecord
100
AcDbLinetypeTableRecord
  2
HIDDEN2
 70
     0
  3
_ _ _ _ _ _ _ _ _ _ _ _ _ _ _ _ _ _ _ _ _ _ _ _
 72
    65
 73
     2
 40
0.1875
 49
0.125
 74
     0
 49
-0.0625
 74
     0
  0
ENDTAB
  0
TABLE
  2
LAYER
  5
2
102
{ACAD_XDICTIONARY
360
7CB
102
}
330
0
100
AcDbSymbolTable
 70
     8
  0
LAYER
  5
F
330
2
100
AcDbSymbolTableRecord
100
AcDbLayerTableRecord
  2
0
 70
     0
 62
     7
  6
CONTINUOUS
370
    -3
390
564
  0
LAYER
  5
1AA
330
2
100
AcDbSymbolTableRecord
100
AcDbLayerTableRecord
  2
240
 70
     0
 62
     4
  6
CONTINUOUS
370
    -3
390
564
  0
LAYER
  5
1AB
330
2
100
AcDbSymbolTableRecord
100
AcDbLayerTableRecord
  2
241
 70
     0
 62
   211
  6
CONTINUOUS
370
    -3
390
564
  0
LAYER
  5
1AC
330
2
100
AcDbSymbolTableRecord
100
AcDbLayerTableRecord
  2
242
 70
     0
 62
     3
  6
CONTINUOUS
370
    -3
390
564
  0
LAYER
  5
1AF
330
2
100
AcDbSymbolTableRecord
100
AcDbLayerTableRecord
  2
245
 70
     0
 62
     2
  6
CENTER2
370
    -3
390
564
  0
LAYER
  5
21E
330
2
100
AcDbSymbolTableRecord
100
AcDbLayerTableRecord
  2
250
 70
     0
 62
     3
  6
CONTINUOUS
370
    -3
390
564
  0
LAYER
  5
5C4
330
2
100
AcDbSymbolTableRecord
100
AcDbLayerTableRecord
  2
Defpoints
 70
     0
 62
     7
  6
CONTINUOUS
290
     0
370
    -3
390
564
  0
ENDTAB
  0
TABLE
  2
STYLE
  5
3
330
0
100
AcDbSymbolTable
 70
     2
  0
STYLE
  5
10
330
3
100
AcDbSymbolTableRecord
100
AcDbTextStyleTableRecord
  2
STANDARD
 70
     0
 40
0.0
 41
1.0
 50
0.0
 71
     0
 42
3.0
  3
romans.shx
  4
BIGFONT.SHX
  0
STYLE
  5
339
330
3
100
AcDbSymbolTableRecord
100
AcDbTextStyleTableRecord
  2
YOKO
 70
     0
 40
0.0
 41
1.0
 50
0.0
 71
     0
 42
3.0
  3
romans.shx
  4
extfont.shx
  0
ENDTAB
  0
TABLE
  2
VIEW
  5
6
330
0
100
AcDbSymbolTable
 70
     0
  0
ENDTAB
  0
TABLE
  2
UCS
  5
7
330
0
100
AcDbSymbolTable
 70
     0
  0
ENDTAB
  0
TABLE
  2
APPID
  5
9
330
0
100
AcDbSymbolTable
 70
     9
  0
APPID
  5
11
330
9
100
AcDbSymbolTableRecord
100
AcDbRegAppTableRecord
  2
ACAD
 70
     0
  0
APPID
  5
1B1
330
9
100
AcDbSymbolTableRecord
100
AcDbRegAppTableRecord
  2
GLOBAL
 70
     0
  0
APPID
  5
2A4
330
9
100
AcDbSymbolTableRecord
100
AcDbRegAppTableRecord
  2
DETAIL
 70
     0
  0
APPID
  5
5FD
330
9
100
AcDbSymbolTableRecord
100
AcDbRegAppTableRecord
  2
GRPNAME
 70
     0
  0
APPID
  5
5FE
330
9
100
AcDbSymbolTableRecord
100
AcDbRegAppTableRecord
  2
GPARA
 70
     0
  0
APPID
  5
6C4
330
9
100
AcDbSymbolTableRecord
100
AcDbRegAppTableRecord
  2
DCO15
 70
     0
  0
APPID
  5
6C5
330
9
100
AcDbSymbolTableRecord
100
AcDbRegAppTableRecord
  2
ITEMNAME
 70
     0
  0
APPID
  5
6C6
330
9
100
AcDbSymbolTableRecord
100
AcDbRegAppTableRecord
  2
GRADE_0
 70
     0
  0
APPID
  5
7CA
330
9
100
AcDbSymbolTableRecord
100
AcDbRegAppTableRecord
  2
ACAD_PSEXT
 70
     0
  0
ENDTAB
  0
TABLE
  2
DIMSTYLE
  5
A
330
0
100
AcDbSymbolTable
 70
     5
100
AcDbDimStyleTable
 71
     1
340
725
  0
DIMSTYLE
105
725
102
{ACAD_REACTORS
330
836
330
839
330
83A
102
}
330
A
100
AcDbSymbolTableRecord
100
AcDbDimStyleTableRecord
  2
BIGT
 70
     0
 41
2.229999999999999
 42
0.5
 43
2.5
 44
1.0
 73
     0
 74
     0
 77
     3
 78
     8
 79
     2
140
2.799999999999998
141
0.0
147
1.0
172
     1
173
     1
174
     1
176
   256
177
   256
178
    40
179
     3
271
     3
272
     3
284
     8
289
     2
340
10
341
594
343
594
344
594
371
    -1
372
    -1
  0
DIMSTYLE
105
7C9
102
{ACAD_REACTORS
330
838
102
}
330
A
100
AcDbSymbolTableRecord
100
AcDbDimStyleTableRecord
  2
BIGT$0
 70
     0
  4
"
 41
2.229999999999999
 42
0.5
 43
7.0
 44
1.0
 47
0.1
 48
0.1
 73
     0
 74
     0
 77
     3
 78
     8
 79
     2
140
3.0
141
0.0
143
0.0393701
146
0.71
147
1.0
172
     1
176
     3
177
     3
178
    40
179
     3
271
     3
272
     3
284
     8
289
     2
340
10
341
594
342
594
371
    -1
372
    -1
  0
ENDTAB
  0
TABLE
  2
BLOCK_RECORD
  5
1
330
0
100
AcDbSymbolTable
 70
     9
  0
BLOCK_RECORD
  5
1A
102
{ACAD_XDICTIONARY
360
AEF
102
}
330
1
100
AcDbSymbolTableRecord
100
AcDbBlockTableRecord
  2
*MODEL_SPACE
340
567
  0
BLOCK_RECORD
  5
17
330
1
100
AcDbSymbolTableRecord
100
AcDbBlockTableRecord
  2
*PAPER_SPACE
340
568
  0
BLOCK_RECORD
  5
594
330
1
100
AcDbSymbolTableRecord
100
AcDbBlockTableRecord
  2
_Open
340
0
102
{BLKREFS
331
E45
331
E46
331
E4E
331
E4F
331
E57
331
E58
331
E60
102
}
  0
BLOCK_RECORD
  5
6E3
330
1
100
AcDbSymbolTableRecord
100
AcDbBlockTableRecord
  2
矢印なし
340
0
102
{BLKREFS
331
6E6
331
E5F
102
}
  0
BLOCK_RECORD
  5
893
330
1
100
AcDbSymbolTableRecord
100
AcDbBlockTableRecord
  2
*D2
340
0
  0
BLOCK_RECORD
  5
89F
330
1
100
AcDbSymbolTableRecord
100
AcDbBlockTableRecord
  2
*D3
340
0
  0
BLOCK_RECORD
  5
8AB
330
1
100
AcDbSymbolTableRecord
100
AcDbBlockTableRecord
  2
*D4
340
0
  0
BLOCK_RECORD
  5
8B7
330
1
100
AcDbSymbolTableRecord
100
AcDbBlockTableRecord
  2
*D5
340
0
  0
BLOCK_RECORD
  5
B74
330
1
100
AcDbSymbolTableRecord
100
AcDbBlockTableRecord
  2
1
340
0
310
2800000020000000200000000100080000000000000400000000000000000000000000000000000000000000000080000080000000808000800000008000800080800000C0C0C000C0DCC000F0CAA6000020400000206000002080000020A0000020C0000020E00000400000004020000040400000406000004080000040A0
310
000040C0000040E00000600000006020000060400000606000006080000060A0000060C0000060E00000800000008020000080400000806000008080000080A0000080C0000080E00000A0000000A0200000A0400000A0600000A0800000A0A00000A0C00000A0E00000C0000000C0200000C0400000C0600000C0800000C0
310
A00000C0C00000C0E00000E0000000E0200000E0400000E0600000E0800000E0A00000E0C00000E0E00040000000400020004000400040006000400080004000A0004000C0004000E00040200000402020004020400040206000402080004020A0004020C0004020E000404000004040200040404000404060004040800040
310
40A0004040C0004040E00040600000406020004060400040606000406080004060A0004060C0004060E00040800000408020004080400040806000408080004080A0004080C0004080E00040A0000040A0200040A0400040A0600040A0800040A0A00040A0C00040A0E00040C0000040C0200040C0400040C0600040C08000
310
40C0A00040C0C00040C0E00040E0000040E0200040E0400040E0600040E0800040E0A00040E0C00040E0E00080000000800020008000400080006000800080008000A0008000C0008000E00080200000802020008020400080206000802080008020A0008020C0008020E00080400000804020008040400080406000804080
310
008040A0008040C0008040E00080600000806020008060400080606000806080008060A0008060C0008060E00080800000808020008080400080806000808080008080A0008080C0008080E00080A0000080A0200080A0400080A0600080A0800080A0A00080A0C00080A0E00080C0000080C0200080C0400080C0600080C0
310
800080C0A00080C0C00080C0E00080E0000080E0200080E0400080E0600080E0800080E0A00080E0C00080E0E000C0000000C0002000C0004000C0006000C0008000C000A000C000C000C000E000C0200000C0202000C0204000C0206000C0208000C020A000C020C000C020E000C0400000C0402000C0404000C0406000C0
310
408000C040A000C040C000C040E000C0600000C0602000C0604000C0606000C0608000C060A000C060C000C060E000C0800000C0802000C0804000C0806000C0808000C080A000C080C000C080E000C0A00000C0A02000C0A04000C0A06000C0A08000C0A0A000C0A0C000C0A0E000C0C00000C0C02000C0C04000C0C06000
310
C0C08000C0C0A000F0FBFF00A4A0A000808080000000FF0000FF000000FFFF00FF000000FF00FF00FFFF0000FFFFFF0000000000000000000000000000000000000000000000000000000000000000000000000000000000000000000000000000000000000000000000000000000000000000000000000000000000000000
310
00000000000000000000000000000000000000000000000000000000000000000000000000000000000000000000000000000000000000000000000000000000000000000000000000000000000000000000000000000000000000000000000000000000000000000000000000000000000000000000000000000000000000
310
00000000000000000000000000000000000000000000000000000000000000000000000000000000000000000000000000000000000000000000000000FEFEFE0000000000000000000000000000000000000000000000000000000000FE00E70000000000000000000000000000000000000000000000000000000000FE00
310
E7FEFEFEFEFEFEFEFEFEFEE7FEFEFEFEFE00000000FEFEFEFEFEFEFEFEFEE700E70000000000000000E7E7E700000000FE00000000FE0000000000000000E700E70000000000000000E7E7E700000000FE00000000FE0000000000000000E700E70000000000000000E7E7E700000000FE00000000FEE7E7E7E7E7E7E700E7
310
00E70000000000000000E7E7E700000000FE00000000FE000000E7E7E7E700E700E700000000E7000000E7E7E700000000FE000000FBFEFBFBFBE7FBE7E7FBE7FBE7FAFBFBFBE7FBE7FBE7E7E7FBFBFBFBFEFB000000FEE7E7E7E7E7E7E700E700E7FA000000E700E700E7E7E700000000FE00000000FE0000000000000000
310
E7E7FAFAFAFAFAFAE7E7E7E7E7E7E7E7E7E7FE00000000FE0000000000000000E700E70000000000000000E7E7E7E7E7E7E7E700000000FEFEFEFEFEFEFEFEFEE700E70000000000000000FEE7E7FAE7E700FE00000000000000000000000000FE00E7FEFEFEFEFEFEFEFEFEE7E7FEFEFEFEFE000000000000000000000000
310
00FE00E70000000000000000000000000000000000000000000000000000000000FEFEFE00000000000000000000000000000000000000000000000000000000000000000000000000000000000000000000000000000000000000000000000000000000000000000000000000000000000000000000000000000000000000
310
00000000000000000000000000000000000000000000000000000000000000000000000000000000000000000000000000000000000000000000000000000000000000000000000000000000000000000000000000000000000000000000000000000000000000000000000000000000000000000000000000000000000000
310
0000000000000000000000000000000000000000000000000000000000000000000000000000000000000000000000000000000000000000
102
{BLKREFS
331
ECB
102
}
  0
ENDTAB
  0
ENDSEC
  0
SECTION
  2
BLOCKS
  0
BLOCK
  5
1B
330
1A
100
AcDbEntity
  8
0
100
AcDbBlockBegin
  2
*MODEL_SPACE
 70
     0
 10
0.0
 20
0.0
 30
0.0
  3
*MODEL_SPACE
  1

  0
ENDBLK
  5
1C
330
1A
100
AcDbEntity
  8
0
100
AcDbBlockEnd
  0
BLOCK
  5
18
330
17
100
AcDbEntity
 67
     1
  8
0
100
AcDbBlockBegin
  2
*PAPER_SPACE
 70
     0
 10
0.0
 20
0.0
 30
0.0
  3
*PAPER_SPACE
  1

  0
ENDBLK
  5
19
330
17
100
AcDbEntity
 67
     1
  8
0
100
AcDbBlockEnd
  0
BLOCK
  5
598
330
594
100
AcDbEntity
  8
0
100
AcDbBlockBegin
  2
_Open
 70
     0
 10
0.0
 20
0.0
 30
0.0
  3
_Open
  1

  0
LINE
  5
595
330
594
100
AcDbEntity
  8
0
  6
ByBlock
 62
     0
370
    -2
100
AcDbLine
 10
-1.0
 20
0.1666666666666666
 30
0.0
 11
0.0
 21
0.0
 31
0.0
  0
LINE
  5
596
330
594
100
AcDbEntity
  8
0
  6
ByBlock
 62
     0
370
    -2
100
AcDbLine
 10
-1.0
 20
-0.1666666666666666
 30
0.0
 11
0.0
 21
0.0
 31
0.0
  0
LINE
  5
597
330
594
100
AcDbEntity
  8
0
  6
ByBlock
 62
     0
370
    -2
100
AcDbLine
 10
0.0
 20
0.0
 30
0.0
 11
-1.0
 21
0.0
 31
0.0
  0
ENDBLK
  5
599
330
594
100
AcDbEntity
  8
0
100
AcDbBlockEnd
  0
BLOCK
  5
6E4
330
6E3
100
AcDbEntity
  8
0
100
AcDbBlockBegin
  2
矢印なし
 70
     0
 10
0.0
 20
0.0
 30
0.0
  3
矢印なし
  1

  0
ENDBLK
  5
6E5
330
6E3
100
AcDbEntity
  8
0
100
AcDbBlockEnd
  0
BLOCK
  5
89D
330
893
100
AcDbEntity
  8
0
100
AcDbBlockBegin
  2
*D2
 70
     1
 10
0.0
 20
0.0
 30
0.0
  3
*D2
  1

  0
LINE
  5
E42
330
893
100
AcDbEntity
  8
250
  6
Continuous
100
AcDbLine
 10
0.0000000000004121
 20
32.4999999999999
 30
0.0
 11
0.0000000000004132
 21
49.99999999999996
 31
0.0
  0
LINE
  5
E43
330
893
100
AcDbEntity
  8
250
  6
Continuous
100
AcDbLine
 10
79.99999999999996
 20
23.50000000000007
 30
0.0
 11
79.99999999999996
 21
49.99999999999996
 31
0.0
  0
LINE
  5
E44
330
893
100
AcDbEntity
  8
250
  6
Continuous
100
AcDbLine
 10
2.230000000000412
 20
48.99999999999996
 30
0.0
 11
77.76999999999995
 21
48.99999999999996
 31
0.0
  0
INSERT
  5
E45
330
893
100
AcDbEntity
  8
250
  6
Continuous
100
AcDbBlockReference
  2
_Open
 10
0.0000000000004131
 20
48.99999999999996
 30
0.0
 41
2.229999999999999
 42
2.229999999999999
 43
2.229999999999999
 50
180.0
  0
INSERT
  5
E46
330
893
100
AcDbEntity
  8
250
  6
Continuous
100
AcDbBlockReference
  2
_Open
 10
79.99999999999996
 20
48.99999999999996
 30
0.0
 41
2.229999999999999
 42
2.229999999999999
 43
2.229999999999999
  0
MTEXT
  5
E47
330
893
100
AcDbEntity
  8
250
  6
Continuous
 62
    40
100
AcDbMText
 10
40.00000000000018
 20
51.39999999999997
 30
0.0
 40
2.799999999999998
 41
0.0
 71
     5
 72
     1
  1
\A1;80
 73
     1
 44
1.0
1001
ACAD
1000
MTEXTBEGIN
1070
    73
1070
     1
1070
    44
1040
1.0
1070
    74
1070
     0
1000
MTEXTEND
  0
POINT
  5
E48
330
893
100
AcDbEntity
  8
Defpoints
  6
Continuous
 62
     0
100
AcDbPoint
 10
0.0000000000004121
 20
31.9999999999999
 30
0.0
  0
POINT
  5
E49
330
893
100
AcDbEntity
  8
Defpoints
  6
Continuous
 62
     0
100
AcDbPoint
 10
79.99999999999996
 20
23.00000000000007
 30
0.0
  0
POINT
  5
E4A
330
893
100
AcDbEntity
  8
Defpoints
  6
Continuous
 62
     0
100
AcDbPoint
 10
79.99999999999996
 20
48.99999999999996
 30
0.0
  0
ENDBLK
  5
89E
330
893
100
AcDbEntity
  8
0
100
AcDbBlockEnd
  0
BLOCK
  5
8A9
330
89F
100
AcDbEntity
  8
0
100
AcDbBlockBegin
  2
*D3
 70
     1
 10
0.0
 20
0.0
 30
0.0
  3
*D3
  1

  0
LINE
  5
E4B
330
89F
100
AcDbEntity
  8
250
  6
Continuous
 62
     3
100
AcDbLine
 10
5.000000000000781
 20
10.64999999999956
 30
0.0
 11
5.000000000000783
 21
42.99999999999995
 31
0.0
  0
LINE
  5
E4C
330
89F
100
AcDbEntity
  8
250
  6
Continuous
 62
     3
100
AcDbLine
 10
79.99999999999996
 20
23.50000000000007
 30
0.0
 11
79.99999999999996
 21
42.99999999999995
 31
0.0
  0
LINE
  5
E4D
330
89F
100
AcDbEntity
  8
250
  6
Continuous
 62
     3
100
AcDbLine
 10
7.000000000000783
 20
41.99999999999994
 30
0.0
 11
77.99999999999996
 21
41.99999999999994
 31
0.0
  0
INSERT
  5
E4E
330
89F
100
AcDbEntity
  8
250
  6
Continuous
 62
     3
100
AcDbBlockReference
  2
_Open
 10
5.000000000000783
 20
41.99999999999994
 30
0.0
 41
2.0
 42
2.0
 43
2.0
 50
180.0
  0
INSERT
  5
E4F
330
89F
100
AcDbEntity
  8
250
  6
Continuous
 62
     3
100
AcDbBlockReference
  2
_Open
 10
79.99999999999996
 20
41.99999999999994
 30
0.0
 41
2.0
 42
2.0
 43
2.0
  0
MTEXT
  5
E50
330
89F
100
AcDbEntity
  8
250
  6
Continuous
 62
    40
370
    -3
100
AcDbMText
 10
42.50000000000037
 20
44.49999999999994
 30
0.0
 40
3.0
 41
0.0
 71
     5
 72
     1
  1
\A1;（max.75）
 73
     1
 44
1.0
1001
ACAD
1000
MTEXTBEGIN
1070
    73
1070
     1
1070
    44
1040
1.0
1070
    74
1070
     0
1000
MTEXTEND
  0
POINT
  5
E51
330
89F
100
AcDbEntity
  8
Defpoints
  6
Continuous
 62
     0
100
AcDbPoint
 10
5.000000000000781
 20
10.14999999999956
 30
0.0
  0
POINT
  5
E52
330
89F
100
AcDbEntity
  8
Defpoints
  6
Continuous
 62
     0
100
AcDbPoint
 10
79.99999999999996
 20
23.00000000000007
 30
0.0
  0
POINT
  5
E53
330
89F
100
AcDbEntity
  8
Defpoints
  6
Continuous
 62
     0
100
AcDbPoint
 10
79.99999999999996
 20
41.99999999999994
 30
0.0
  0
ENDBLK
  5
8AA
330
89F
100
AcDbEntity
  8
0
100
AcDbBlockEnd
  0
BLOCK
  5
8B5
330
8AB
100
AcDbEntity
  8
0
100
AcDbBlockBegin
  2
*D4
 70
     1
 10
0.0
 20
0.0
 30
0.0
  3
*D4
  1

  0
LINE
  5
E54
330
8AB
100
AcDbEntity
  8
250
  6
Continuous
100
AcDbLine
 10
78.49999999999998
 20
-25.0
 30
0.0
 11
103.0000000000002
 21
-25.00000000000001
 31
0.0
  0
LINE
  5
E55
330
8AB
100
AcDbEntity
  8
250
  6
Continuous
100
AcDbLine
 10
78.83369234184506
 20
25.00000000000011
 30
0.0
 11
103.0000000000002
 21
25.00000000000011
 31
0.0
  0
LINE
  5
E56
330
8AB
100
AcDbEntity
  8
250
  6
Continuous
100
AcDbLine
 10
102.0000000000002
 20
-23.00000000000001
 30
0.0
 11
102.0000000000002
 21
23.0000000000001
 31
0.0
  0
INSERT
  5
E57
330
8AB
100
AcDbEntity
  8
250
  6
Continuous
100
AcDbBlockReference
  2
_Open
 10
102.0000000000002
 20
-25.00000000000001
 30
0.0
 41
2.0
 42
2.0
 43
2.0
 50
270.0
  0
INSERT
  5
E58
330
8AB
100
AcDbEntity
  8
250
  6
Continuous
100
AcDbBlockReference
  2
_Open
 10
102.0000000000002
 20
25.00000000000011
 30
0.0
 41
2.0
 42
2.0
 43
2.0
 50
90.0
  0
MTEXT
  5
E59
330
8AB
100
AcDbEntity
  8
250
  6
Continuous
 62
    40
370
    -3
100
AcDbMText
 10
99.60000000000022
 20
0.0000000000001567
 30
0.0
 40
2.799999999999998
 41
0.0
 71
     5
 72
     1
  1
\A1;{\H2.8;%%C}50
 11
0.0000000000000001
 21
1.0
 31
0.0
 73
     1
 44
1.0
1001
ACAD
1000
MTEXTBEGIN
1070
    73
1070
     1
1070
    44
1040
1.0
1070
    74
1070
     0
1000
MTEXTEND
  0
POINT
  5
E5A
330
8AB
100
AcDbEntity
  8
Defpoints
  6
Continuous
 62
     0
100
AcDbPoint
 10
77.99999999999998
 20
-25.0
 30
0.0
  0
POINT
  5
E5B
330
8AB
100
AcDbEntity
  8
Defpoints
  6
Continuous
 62
     0
100
AcDbPoint
 10
78.33369234184506
 20
25.00000000000011
 30
0.0
  0
POINT
  5
E5C
330
8AB
100
AcDbEntity
  8
Defpoints
  6
Continuous
 62
     0
100
AcDbPoint
 10
102.0000000000002
 20
25.00000000000011
 30
0.0
  0
ENDBLK
  5
8B6
330
8AB
100
AcDbEntity
  8
0
100
AcDbBlockEnd
  0
BLOCK
  5
8C0
330
8B7
100
AcDbEntity
  8
0
100
AcDbBlockBegin
  2
*D5
 70
     1
 10
0.0
 20
0.0
 30
0.0
  3
*D5
  1

  0
LINE
  5
E5D
330
8B7
100
AcDbEntity
  8
250
  6
Continuous
100
AcDbLine
 10
80.50000000000018
 20
10.00000000000237
 30
0.0
 11
96.00000000000022
 21
10.00000000000237
 31
0.0
  0
LINE
  5
E5E
330
8B7
100
AcDbEntity
  8
250
  6
Continuous
100
AcDbLine
 10
95.00000000000021
 20
-8.00000000000235
 30
0.0
 11
95.00000000000021
 21
8.000000000002367
 31
0.0
  0
INSERT
  5
E5F
330
8B7
100
AcDbEntity
  8
250
  6
Continuous
100
AcDbBlockReference
  2
矢印なし
 10
95.00000000000021
 20
-10.00000000000235
 30
0.0
 41
2.0
 42
2.0
 43
2.0
 50
270.0
  0
INSERT
  5
E60
330
8B7
100
AcDbEntity
  8
250
  6
Continuous
100
AcDbBlockReference
  2
_Open
 10
95.00000000000021
 20
10.00000000000237
 30
0.0
 41
2.0
 42
2.0
 43
2.0
 50
90.0
  0
MTEXT
  5
E61
330
8B7
100
AcDbEntity
  8
250
  6
Continuous
 62
    40
370
    -3
100
AcDbMText
 10
92.13333333333356
 20
0.0000000000001568
 30
0.0
 40
2.799999999999998
 41
0.0
 71
     5
 72
     1
  1
\A1;max.φ20
 11
0.0000000000000001
 21
1.0
 31
0.0
 73
     1
 44
1.0
1001
ACAD
1000
MTEXTBEGIN
1070
    73
1070
     1
1070
    44
1040
1.0
1070
    74
1070
     0
1000
MTEXTEND
  0
POINT
  5
E62
330
8B7
100
AcDbEntity
  8
Defpoints
  6
Continuous
 62
     0
100
AcDbPoint
 10
80.00000000000007
 20
-10.00000000000234
 30
0.0
  0
POINT
  5
E63
330
8B7
100
AcDbEntity
  8
Defpoints
  6
Continuous
 62
     0
100
AcDbPoint
 10
80.00000000000019
 20
10.00000000000237
 30
0.0
  0
POINT
  5
E64
330
8B7
100
AcDbEntity
  8
Defpoints
  6
Continuous
 62
     0
100
AcDbPoint
 10
95.00000000000021
 20
10.00000000000237
 30
0.0
  0
ENDBLK
  5
8C1
330
8B7
100
AcDbEntity
  8
0
100
AcDbBlockEnd
  0
BLOCK
  5
B75
330
B74
100
AcDbEntity
  8
0
100
AcDbBlockBegin
  2
1
 70
     0
 10
0.0
 20
0.0
 30
0.0
  3
1
  1

  0
LINE
  5
E65
330
B74
100
AcDbEntity
  8
245
  6
CENTER2
100
AcDbLine
 10
80.99999999999992
 20
-0.0000000000000426
 30
0.0
 11
-41.0000000000001
 21
-0.0000000000000284
 31
0.0
  0
LINE
  5
E66
330
B74
100
AcDbEntity
  8
240
  6
Continuous
100
AcDbLine
 10
-0.0000000000000711
 20
-25.00000000000005
 30
0.0
 11
0.0
 21
-17.99999999999979
 31
0.0
  0
LINE
  5
E67
330
B74
100
AcDbEntity
  8
240
  6
Continuous
100
AcDbLine
 10
-0.0000000000000142
 20
17.99999999999972
 30
0.0
 11
-0.0000000000000568
 21
25.00000000000007
 31
0.0
  0
LINE
  5
E68
330
B74
100
AcDbEntity
  8
240
100
AcDbLine
 10
47.00015756940395
 20
24.00000000000011
 30
0.0
 11
47.00015756940383
 21
20.49999999999168
 31
0.0
  0
ARC
  5
E69
330
B74
100
AcDbEntity
  8
240
100
AcDbCircle
 10
46.00015756940395
 20
23.99999999999998
 30
0.0
 40
1.0
100
AcDbArc
 50
0.0000000000048853
 51
74.99999999999549
  0
LINE
  5
E6A
330
B74
100
AcDbEntity
  8
241
  6
HIDDEN2
100
AcDbLine
 10
30.00000000000002
 20
12.40000000000013
 30
0.0
 11
40.00000000000018
 21
12.39999999999982
 31
0.0
  0
LINE
  5
E6B
330
B74
100
AcDbEntity
  8
241
  6
HIDDEN2
100
AcDbLine
 10
30.00000000000002
 20
12.40000000000013
 30
0.0
 11
30.00000000000019
 21
-0.000000000000071
 31
0.0
  0
LINE
  5
E6C
330
B74
100
AcDbEntity
  8
241
  6
HIDDEN2
100
AcDbLine
 10
40.00000000000018
 20
12.39999999999982
 30
0.0
 11
40.0000000000004
 21
-0.0000000000000142
 31
0.0
  0
LINE
  5
E6D
330
B74
100
AcDbEntity
  8
240
100
AcDbLine
 10
46.25897661450657
 20
24.96592582628926
 30
0.0
 11
46.1318100669916
 21
25.00000000000004
 31
0.0
  0
LINE
  5
E6E
330
B74
100
AcDbEntity
  8
240
100
AcDbLine
 10
47.00015756940395
 20
-24.00000000000013
 30
0.0
 11
47.00015756940426
 21
-20.49999999999136
 31
0.0
  0
ARC
  5
E6F
330
B74
100
AcDbEntity
  8
240
100
AcDbCircle
 10
46.00015756940395
 20
-24.00000000000002
 30
0.0
 40
1.0
100
AcDbArc
 50
285.0000000000045
 51
359.9999999999951
  0
LINE
  5
E70
330
B74
100
AcDbEntity
  8
240
100
AcDbLine
 10
46.1318100669916
 20
-25.00000000000007
 30
0.0
 11
13.00000000000016
 21
-25.00000000000006
 31
0.0
  0
LINE
  5
E71
330
B74
100
AcDbEntity
  8
240
100
AcDbLine
 10
46.25897661450657
 20
-24.96592582628929
 30
0.0
 11
46.1318100669916
 21
-25.00000000000007
 31
0.0
  0
LINE
  5
E72
330
B74
100
AcDbEntity
  8
240
100
AcDbLine
 10
47.00015756940383
 20
20.49999999999168
 30
0.0
 11
49.80000000000003
 21
20.49999999999714
 31
0.0
  0
LINE
  5
E73
330
B74
100
AcDbEntity
  8
240
100
AcDbLine
 10
47.00015756940426
 20
-20.49999999999136
 30
0.0
 11
49.8
 21
-20.49999999999443
 31
0.0
  0
LINE
  5
E74
330
B74
100
AcDbEntity
  8
240
  6
Continuous
100
AcDbLine
 10
79.99999999999999
 20
-23.0
 30
0.0
 11
79.99999999999999
 21
-0.0000000000000426
 31
0.0
1001
GRPNAME
1000
PASTMD01
  0
LINE
  5
E75
330
B74
100
AcDbEntity
  8
240
  6
Continuous
100
AcDbLine
 10
49.80000000000019
 20
-25.24999999999884
 30
0.0
 11
49.8
 21
-20.49999999999443
 31
0.0
1001
GRPNAME
1000
PASTMD01
  0
LINE
  5
E76
330
B74
100
AcDbEntity
  8
240
  6
Continuous
100
AcDbLine
 10
52.05909602705072
 20
-25.00000000000002
 30
0.0
 11
77.99999999999998
 21
-25.0
 31
0.0
  0
ARC
  5
E77
330
B74
100
AcDbEntity
  8
240
  6
Continuous
100
AcDbCircle
 10
77.99999999999998
 20
-23.0
 30
0.0
 40
2.0
100
AcDbArc
 50
270.0
 51
0.0
  0
LINE
  5
E78
330
B74
100
AcDbEntity
  8
240
  6
Continuous
100
AcDbLine
 10
52.05909602706057
 20
24.99999999999984
 30
0.0
 11
77.99999999999993
 21
25.00000000000007
 31
0.0
1001
GRPNAME
1000
PASTMD01
  0
ARC
  5
E79
330
B74
100
AcDbEntity
  8
240
  6
Continuous
100
AcDbCircle
 10
77.99999999999996
 20
23.00000000000007
 30
0.0
 40
2.0
100
AcDbArc
 50
0.0
 51
90.00000000000079
1001
GRPNAME
1000
PASTMD01
  0
LINE
  5
E7A
330
B74
100
AcDbEntity
  8
240
  6
Continuous
100
AcDbLine
 10
49.80000000000003
 20
25.24999999999939
 30
0.0
 11
51.62608332515921
 21
25.24999999999942
 31
0.0
  0
LINE
  5
E7B
330
B74
100
AcDbEntity
  8
241
100
AcDbLine
 10
56.0500334545771
 20
-25.00000000000007
 30
0.0
 11
56.0500334545771
 21
-0.0000000000000142
 31
0.0
  0
LINE
  5
E7C
330
B74
100
AcDbEntity
  8
241
100
AcDbLine
 10
54.75018730983465
 20
-25.00000000000041
 30
0.0
 11
54.75018730983465
 21
-0.0000000000000142
 31
0.0
  0
LINE
  5
E7D
330
B74
100
AcDbEntity
  8
241
100
AcDbLine
 10
52.93614019459046
 20
-24.99999999999996
 30
0.0
 11
52.93614019459046
 21
-0.0000000000000142
 31
0.0
  0
LINE
  5
E7E
330
B74
100
AcDbEntity
  8
241
100
AcDbLine
 10
51.62608332515386
 20
-25.2500000000003
 30
0.0
 11
51.62608332515386
 21
0.0000000000000427
 31
0.0
  0
LINE
  5
E7F
330
B74
100
AcDbEntity
  8
240
  6
Continuous
100
AcDbLine
 10
49.80000000000019
 20
-25.24999999999884
 30
0.0
 11
51.62608332515397
 21
-25.24999999999985
 31
0.0
  0
LINE
  5
E80
330
B74
100
AcDbEntity
  8
240
100
AcDbLine
 10
52.05909602705072
 20
-25.00000000000002
 30
0.0
 11
51.62608332515397
 21
-25.25000000000019
 31
0.0
  0
LINE
  5
E81
330
B74
100
AcDbEntity
  8
240
100
AcDbLine
 10
52.05909602706057
 20
24.99999999999984
 30
0.0
 11
51.62608332515921
 21
25.24999999999942
 31
0.0
  0
LINE
  5
E82
330
B74
100
AcDbEntity
  8
241
  6
HIDDEN2
100
AcDbLine
 10
67.09474411167473
 20
20.00000000000214
 30
0.0
 11
53.50015756939324
 21
20.00000000000238
 31
0.0
  0
LINE
  5
E83
330
B74
100
AcDbEntity
  8
242
  6
HIDDEN2
100
AcDbLine
 10
55.50015756940156
 20
19.25000000000225
 30
0.0
 11
54.20111946372816
 21
20.00000000000214
 31
0.0
  0
LINE
  5
E84
330
B74
100
AcDbEntity
  8
241
  6
HIDDEN2
100
AcDbLine
 10
52.50015756941245
 20
20.49999999999959
 30
0.0
 11
53.21148243479761
 21
20.50000000000587
 31
0.0
  0
LINE
  5
E85
330
B74
100
AcDbEntity
  8
241
  6
HIDDEN2
100
AcDbLine
 10
52.50015756940315
 20
19.51967746271829
 30
0.0
 11
52.50015756941245
 21
20.49999999999959
 31
0.0
1001
GRPNAME
1000
PASTMD0T
  0
LINE
  5
E86
330
B74
100
AcDbEntity
  8
241
  6
HIDDEN2
100
AcDbLine
 10
51.40015756940066
 20
19.51967746271877
 30
0.0
 11
51.40015756940679
 21
20.49999999999893
 31
0.0
1001
GRPNAME
1000
PASTMD0T
  0
LINE
  5
E87
330
B74
100
AcDbEntity
  8
241
  6
HIDDEN2
100
AcDbLine
 10
53.50015756939324
 20
20.00000000000238
 30
0.0
 11
53.21148243479761
 21
20.50000000000587
 31
0.0
  0
LINE
  5
E88
330
B74
100
AcDbEntity
  8
242
  6
HIDDEN2
100
AcDbLine
 10
55.50015756940156
 20
19.25000000000225
 30
0.0
 11
68.39378221734723
 21
19.2500000000026
 31
0.0
  0
LINE
  5
E89
330
B74
100
AcDbEntity
  8
241
  6
HIDDEN2
100
AcDbLine
 10
69.00000000000097
 20
18.90000000000021
 30
0.0
 11
67.09474411167473
 21
20.00000000000214
 31
0.0
  0
LINE
  5
E8A
330
B74
100
AcDbEntity
  8
241
  6
HIDDEN2
100
AcDbLine
 10
69.00000000000097
 20
18.90000000000021
 30
0.0
 11
69.00000000000041
 21
16.30489995906098
 31
0.0
  0
LINE
  5
E8B
330
B74
100
AcDbEntity
  8
241
100
AcDbLine
 10
49.80000000000014
 20
20.49999999999828
 30
0.0
 11
51.40015756940679
 21
20.49999999999893
 31
0.0
  0
LINE
  5
E8C
330
B74
100
AcDbEntity
  8
241
  6
HIDDEN2
100
AcDbLine
 10
80.00000000000019
 20
10.00000000000237
 30
0.0
 11
40.00000000000347
 21
10.00000000000299
 31
0.0
  0
LINE
  5
E8D
330
B74
100
AcDbEntity
  8
241
100
AcDbLine
 10
56.05003345457721
 20
25.00000000000011
 30
0.0
 11
56.0500334545771
 21
0.0000000000000995
 31
0.0
  0
LINE
  5
E8E
330
B74
100
AcDbEntity
  8
241
100
AcDbLine
 10
54.75018730983465
 20
25.00000000000055
 30
0.0
 11
54.75018730983465
 21
0.0000000000000995
 31
0.0
  0
LINE
  5
E8F
330
B74
100
AcDbEntity
  8
241
100
AcDbLine
 10
52.93614019459046
 20
25.00000000000011
 30
0.0
 11
52.93614019459046
 21
0.0000000000000995
 31
0.0
  0
LINE
  5
E90
330
B74
100
AcDbEntity
  8
241
100
AcDbLine
 10
51.62608332515397
 20
25.25000000000032
 30
0.0
 11
51.62608332515386
 21
0.0000000000000427
 31
0.0
  0
LINE
  5
E91
330
B74
100
AcDbEntity
  8
240
  6
Continuous
100
AcDbLine
 10
79.99999999999996
 20
23.00000000000007
 30
0.0
 11
79.99999999999999
 21
-0.0000000000000426
 31
0.0
1001
GRPNAME
1000
PASTMD01
  0
LINE
  5
E92
330
B74
100
AcDbEntity
  8
241
100
AcDbLine
 10
47.00015756940426
 20
-20.49999999999112
 30
0.0
 11
47.00015756940426
 21
-0.0000000000000426
 31
0.0
  0
LINE
  5
E93
330
B74
100
AcDbEntity
  8
241
100
AcDbLine
 10
49.8
 20
-20.49999999999418
 30
0.0
 11
49.8
 21
-0.0000000000000426
 31
0.0
  0
LINE
  5
E94
330
B74
100
AcDbEntity
  8
241
100
AcDbLine
 10
51.40015756940066
 20
19.51967746271877
 30
0.0
 11
52.50015756940315
 21
19.51967746271829
 31
0.0
  0
LINE
  5
E95
330
B74
100
AcDbEntity
  8
241
100
AcDbLine
 10
47.00015756940426
 20
20.49999999999103
 30
0.0
 11
47.00015756940426
 21
-0.0000000000000426
 31
0.0
  0
LINE
  5
E96
330
B74
100
AcDbEntity
  8
241
100
AcDbLine
 10
49.8
 20
20.4999999999941
 30
0.0
 11
49.8
 21
-0.0000000000000426
 31
0.0
  0
LINE
  5
E97
330
B74
100
AcDbEntity
  8
240
  6
Continuous
100
AcDbLine
 10
49.80000000000003
 20
25.24999999999939
 30
0.0
 11
49.8
 21
20.49999999999434
 31
0.0
1001
GRPNAME
1000
PASTMD01
  0
LINE
  5
E98
330
B74
100
AcDbEntity
  8
240
  6
Continuous
100
AcDbLine
 10
-39.0000000000001
 20
17.99999999999995
 30
0.0
 11
-15.9557259400001
 21
17.99999999999995
 31
0.0
  0
LINE
  5
E99
330
B74
100
AcDbEntity
  8
240
  6
Continuous
100
AcDbLine
 10
-15.9557259400001
 20
-18.00000000000004
 30
0.0
 11
-39.0000000000001
 21
-18.00000000000004
 31
0.0
  0
LINE
  5
E9A
330
B74
100
AcDbEntity
  8
241
  6
Continuous
100
AcDbLine
 10
-9.000000000000099
 20
-7.033160310000042
 30
0.0
 11
-40.00000000000009
 21
-7.033160310000042
 31
0.0
  0
LINE
  5
E9B
330
B74
100
AcDbEntity
  8
241
  6
Continuous
100
AcDbLine
 10
-9.000000000000099
 20
7.033160309999956
 30
0.0
 11
-40.00000000000009
 21
7.033160309999956
 31
0.0
  0
LINE
  5
E9C
330
B74
100
AcDbEntity
  8
240
  6
Continuous
100
AcDbLine
 10
-40.00000000000009
 20
16.99999999999995
 30
0.0
 11
-40.00000000000009
 21
-0.0000000000000426
 31
0.0
  0
LINE
  5
E9D
330
B74
100
AcDbEntity
  8
240
  6
Continuous
100
AcDbLine
 10
-40.00000000000009
 20
-17.00000000000004
 30
0.0
 11
-40.00000000000009
 21
-0.0000000000000426
 31
0.0
  0
ARC
  5
E9E
330
B74
100
AcDbEntity
  8
240
  6
Continuous
100
AcDbCircle
 10
-39.0000000000001
 20
-17.00000000000004
 30
0.0
 40
1.0
100
AcDbArc
 50
180.0
 51
270.0
  0
ARC
  5
E9F
330
B74
100
AcDbEntity
  8
240
  6
Continuous
100
AcDbCircle
 10
-39.0000000000001
 20
16.99999999999995
 30
0.0
 40
1.0
100
AcDbArc
 50
90.0
 51
180.0
  0
LINE
  5
EA0
330
B74
100
AcDbEntity
  8
241
  6
Continuous
100
AcDbLine
 10
-9.000000000000099
 20
7.033160309999956
 30
0.0
 11
-9.000000000000099
 21
-0.0000000000000426
 31
0.0
  0
LINE
  5
EA1
330
B74
100
AcDbEntity
  8
245
  6
CENTER2
100
AcDbLine
 10
-15.5000000000001
 20
6.999999999999956
 30
0.0
 11
-15.5000000000001
 21
-7.000000000000042
 31
0.0
  0
CIRCLE
  5
EA2
330
B74
100
AcDbEntity
  8
241
100
AcDbCircle
 10
-15.5000000000001
 20
-0.0000000000000426
 30
0.0
 40
4.5
  0
CIRCLE
  5
EA3
330
B74
100
AcDbEntity
  8
241
100
AcDbCircle
 10
-15.5000000000001
 20
-0.0000000000000426
 30
0.0
 40
6.0
  0
LINE
  5
EA4
330
B74
100
AcDbEntity
  8
241
  6
Continuous
100
AcDbLine
 10
-1.944274060000097
 20
-18.00000000000004
 30
0.0
 11
-15.9557259400001
 21
-18.00000000000004
 31
0.0
  0
LINE
  5
EA5
330
B74
100
AcDbEntity
  8
240
100
AcDbLine
 10
-13.3576497300001
 20
-21.50000000000005
 30
0.0
 11
-4.542350270000098
 21
-21.50000000000005
 31
0.0
  0
LINE
  5
EA6
330
B74
100
AcDbEntity
  8
240
100
AcDbLine
 10
-15.9557259400001
 20
-18.00000000000004
 30
0.0
 11
-14.2236751300001
 21
-21.00000000000004
 31
0.0
  0
ARC
  5
EA7
330
B74
100
AcDbEntity
  8
240
100
AcDbCircle
 10
-13.3576497300001
 20
-20.50000000000004
 30
0.0
 40
1.0
100
AcDbArc
 50
210.0000000000001
 51
270.0
  0
LINE
  5
EA8
330
B74
100
AcDbEntity
  8
240
  6
Continuous
100
AcDbLine
 10
0.0
 20
-17.99999999999979
 30
0.0
 11
-1.944274060000097
 21
-18.00000000000004
 31
0.0
  0
LINE
  5
EA9
330
B74
100
AcDbEntity
  8
240
100
AcDbLine
 10
-1.944274060000097
 20
-18.00000000000004
 30
0.0
 11
-3.676324870000101
 21
-21.00000000000004
 31
0.0
  0
ARC
  5
EAA
330
B74
100
AcDbEntity
  8
240
100
AcDbCircle
 10
-4.542350270000098
 20
-20.50000000000004
 30
0.0
 40
1.0
100
AcDbArc
 50
270.0
 51
329.9999999999999
  0
LINE
  5
EAB
330
B74
100
AcDbEntity
  8
241
  6
Continuous
100
AcDbLine
 10
-9.000000000000099
 20
-7.033160310000042
 30
0.0
 11
-9.000000000000099
 21
-0.0000000000000426
 31
0.0
  0
LINE
  5
EAC
330
B74
100
AcDbEntity
  8
241
  6
Continuous
100
AcDbLine
 10
-1.944274060000097
 20
17.99999999999995
 30
0.0
 11
-15.9557259400001
 21
17.99999999999995
 31
0.0
  0
LINE
  5
EAD
330
B74
100
AcDbEntity
  8
240
100
AcDbLine
 10
-13.3576497300001
 20
21.49999999999996
 30
0.0
 11
-4.542350270000098
 21
21.49999999999996
 31
0.0
  0
LINE
  5
EAE
330
B74
100
AcDbEntity
  8
240
100
AcDbLine
 10
-15.9557259400001
 20
17.99999999999995
 30
0.0
 11
-14.2236751300001
 21
20.99999999999996
 31
0.0
  0
ARC
  5
EAF
330
B74
100
AcDbEntity
  8
240
100
AcDbCircle
 10
-13.3576497300001
 20
20.49999999999996
 30
0.0
 40
1.0
100
AcDbArc
 50
90.0
 51
149.9999999999998
  0
LINE
  5
EB0
330
B74
100
AcDbEntity
  8
240
  6
Continuous
100
AcDbLine
 10
-0.0000000000000142
 20
17.99999999999972
 30
0.0
 11
-1.944274060000097
 21
17.99999999999995
 31
0.0
  0
LINE
  5
EB1
330
B74
100
AcDbEntity
  8
240
100
AcDbLine
 10
-1.944274060000097
 20
17.99999999999995
 30
0.0
 11
-3.676324870000101
 21
20.99999999999996
 31
0.0
  0
ARC
  5
EB2
330
B74
100
AcDbEntity
  8
240
100
AcDbCircle
 10
-4.542350270000098
 20
20.49999999999996
 30
0.0
 40
1.0
100
AcDbArc
 50
30.00000000000014
 51
90.0
  0
LINE
  5
EB3
330
B74
100
AcDbEntity
  8
240
100
AcDbLine
 10
46.1318100669916
 20
24.99999999999998
 30
0.0
 11
13.00000000000021
 21
24.99999999999996
 31
0.0
  0
LINE
  5
EB4
330
B74
100
AcDbEntity
  8
240
  6
Continuous
100
AcDbLine
 10
0.0000000000002132
 20
-32.00000000000006
 30
0.0
 11
9.000000000000126
 21
-32.00000000000016
 31
0.0
  0
LINE
  5
EB5
330
B74
100
AcDbEntity
  8
240
  6
Continuous
100
AcDbLine
 10
0.0000000000002132
 20
-32.00000000000006
 30
0.0
 11
0.0000000000002132
 21
-18.58301270189225
 31
0.0
  0
LINE
  5
EB6
330
B74
100
AcDbEntity
  8
240
  6
Continuous
100
AcDbLine
 10
0.0000000000004121
 20
31.9999999999999
 30
0.0
 11
9.000000000000182
 21
31.99999999999995
 31
0.0
  0
LINE
  5
EB7
330
B74
100
AcDbEntity
  8
240
  6
Continuous
100
AcDbLine
 10
0.0000000000004121
 20
31.9999999999999
 30
0.0
 11
0.0000000000002132
 21
18.58301270189223
 31
0.0
  0
LINE
  5
EB8
330
B74
100
AcDbEntity
  8
240
100
AcDbLine
 10
10.00000000000015
 20
-28.00000000000009
 30
0.0
 11
10.00000000000015
 21
-31.00000000000016
 31
0.0
  0
ARC
  5
EB9
330
B74
100
AcDbEntity
  8
240
100
AcDbCircle
 10
13.00000000000016
 20
-28.00000000000006
 30
0.0
 40
3.0
100
AcDbArc
 50
90.0
 51
180.0
  0
ARC
  5
EBA
330
B74
100
AcDbEntity
  8
240
  6
Continuous
100
AcDbCircle
 10
9.000000000000156
 20
-31.00000000000016
 30
0.0
 40
1.0
100
AcDbArc
 50
269.9999999999984
 51
0.0
  0
LINE
  5
EBB
330
B74
100
AcDbEntity
  8
240
100
AcDbLine
 10
10.00000000000018
 20
31.00000000000004
 30
0.0
 11
10.00000000000021
 21
27.99999999999996
 31
0.0
  0
ARC
  5
EBC
330
B74
100
AcDbEntity
  8
240
100
AcDbCircle
 10
13.00000000000021
 20
27.99999999999996
 30
0.0
 40
3.0
100
AcDbArc
 50
180.0
 51
270.0
  0
ARC
  5
EBD
330
B74
100
AcDbEntity
  8
240
  6
Continuous
100
AcDbCircle
 10
9.000000000000182
 20
31.00000000000004
 30
0.0
 40
1.0
100
AcDbArc
 50
0.0
 51
90.0
  0
LINE
  5
EBE
330
B74
100
AcDbEntity
  8
241
100
AcDbLine
 10
0.0
 20
-18.0
 30
0.0
 11
0.0
 21
0.0
 31
0.0
  0
LINE
  5
EBF
330
B74
100
AcDbEntity
  8
241
100
AcDbLine
 10
10.00000000000014
 20
-28.00000000000006
 30
0.0
 11
10.00000000000015
 21
-0.0000000000000142
 31
0.0
  0
LINE
  5
EC0
330
B74
100
AcDbEntity
  8
241
100
AcDbLine
 10
0.0
 20
17.99999999999995
 30
0.0
 11
0.0
 21
-0.0000000000000568
 31
0.0
  0
LINE
  5
EC1
330
B74
100
AcDbEntity
  8
241
100
AcDbLine
 10
10.00000000000015
 20
28.00000000000002
 30
0.0
 11
10.00000000000015
 21
-0.0000000000000426
 31
0.0
  0
LINE
  5
EC2
330
B74
100
AcDbEntity
  8
241
  6
HIDDEN2
100
AcDbLine
 10
5.000000000000781
 20
10.14999999999956
 30
0.0
 11
29.99999999999996
 21
10.14999999999991
 31
0.0
1001
GRPNAME
1000
PASTMD02
  0
LINE
  5
EC3
330
B74
100
AcDbEntity
  8
242
  6
HIDDEN2
100
AcDbLine
 10
12.00000000000104
 20
10.49999999999987
 30
0.0
 11
12.00000000000092
 21
-0.0000000000000426
 31
0.0
  0
LINE
  5
EC4
330
B74
100
AcDbEntity
  8
242
  6
HIDDEN2
100
AcDbLine
 10
12.00000000000109
 20
10.50000000000001
 30
0.0
 11
30.00000000000059
 21
10.49999999999995
 31
0.0
  0
LINE
  5
EC5
330
B74
100
AcDbEntity
  8
242
  6
HIDDEN2
100
AcDbLine
 10
12.00000000000104
 20
10.49999999999987
 30
0.0
 11
11.03838290319136
 21
10.14999999999965
 31
0.0
  0
LINE
  5
EC6
330
B74
100
AcDbEntity
  8
241
  6
HIDDEN2
100
AcDbLine
 10
74.38100000000402
 20
16.67500000000062
 30
0.0
 11
79.99999999999999
 21
13.43086883742565
 31
0.0
  0
LINE
  5
EC7
330
B74
100
AcDbEntity
  8
241
  6
HIDDEN2
100
AcDbLine
 10
74.38100000000391
 20
14.59999999999984
 30
0.0
 11
74.38100000000402
 21
16.67500000000062
 31
0.0
  0
LINE
  5
EC8
330
B74
100
AcDbEntity
  8
241
  6
HIDDEN2
100
AcDbLine
 10
74.38100000000391
 20
14.59999999999984
 30
0.0
 11
70.78100000000394
 21
14.59999999999856
 31
0.0
  0
LINE
  5
EC9
330
B74
100
AcDbEntity
  8
241
  6
HIDDEN2
100
AcDbLine
 10
70.78100000000394
 20
14.59999999999856
 30
0.0
 11
70.78100000000377
 21
16.50032537154034
 31
0.0
  0
LINE
  5
ECA
330
B74
100
AcDbEntity
  8
241
  6
HIDDEN2
100
AcDbLine
 10
70.78100000000377
 20
16.50032537154034
 30
0.0
 11
40.0000000000002
 21
12.17433793856554
 31
0.0
  0
ENDBLK
  5
B76
330
B74
100
AcDbEntity
  8
0
100
AcDbBlockEnd
  0
ENDSEC
  0
SECTION
  2
ENTITIES
  0
INSERT
  5
6E6
330
1A
100
AcDbEntity
  8
245
100
AcDbBlockReference
  2
矢印なし
 10
175.6238269664377
 20
90.55123571690598
 30
0.0
  0
DIMENSION
  5
836
330
1A
100
AcDbEntity
  8
250
  6
Continuous
100
AcDbDimension
  2
*D2
 10
79.99999999999996
 20
48.99999999999996
 30
0.0
 11
40.00000000000018
 21
51.39999999999997
 31
0.0
 70
    32
 71
     5
 42
79.99999999999954
  3
BIGT
100
AcDbAlignedDimension
 13
0.0000000000004121
 23
31.9999999999999
 33
0.0
 14
79.99999999999996
 24
23.00000000000007
 34
0.0
100
AcDbRotatedDimension
  0
TEXT
  5
837
330
1A
100
AcDbEntity
  8
241
100
AcDbText
 10
-40.00000000000009
 20
62.99999999999995
 30
0.0
 40
5.0
  1
CK6-MEGA ER32-80
  7
YOKO
 11
-40.00000000000009
 21
62.99999999999995
 31
0.0
100
AcDbText
 73
     1
  0
DIMENSION
  5
838
330
1A
100
AcDbEntity
  8
250
  6
Continuous
370
    -3
100
AcDbDimension
  2
*D3
 10
79.99999999999996
 20
41.99999999999994
 30
0.0
 11
42.50000000000037
 21
44.49999999999994
 31
0.0
 70
    32
  1
（max.<>）
 71
     5
 42
74.99999999999918
  3
BIGT$0
100
AcDbAlignedDimension
 13
5.000000000000781
 23
10.14999999999956
 33
0.0
 14
79.99999999999996
 24
23.00000000000007
 34
0.0
100
AcDbRotatedDimension
1001
ACAD
1000
DSTYLE
1002
{
1070
    41
1040
2.0
1002
}
  0
DIMENSION
  5
839
330
1A
100
AcDbEntity
  8
250
  6
Continuous
370
    -3
100
AcDbDimension
  2
*D4
 10
102.0000000000002
 20
25.00000000000011
 30
0.0
 11
102.0000000000002
 21
0.0000000000001564
 31
0.0
 70
   160
  1
{\H2.8;%%C}<>
 71
     5
 42
50.00000000000011
  3
BIGT
100
AcDbAlignedDimension
 13
77.99999999999998
 23
-25.0
 33
0.0
 14
78.33369234184506
 24
25.00000000000011
 34
0.0
 50
90.0
100
AcDbRotatedDimension
1001
ACAD
1000
DSTYLE
1002
{
1070
    41
1040
2.0
1002
}
  0
DIMENSION
  5
83A
330
1A
100
AcDbEntity
  8
250
  6
Continuous
370
    -3
100
AcDbDimension
  2
*D5
 10
95.00000000000021
 20
10.00000000000237
 30
0.0
 11
95.00000000000021
 21
0.0000000000001564
 31
0.0
 70
   160
  1
max.φ<>
 71
     5
 42
20.00000000000472
  3
BIGT
100
AcDbAlignedDimension
 13
80.00000000000007
 23
-10.00000000000234
 33
0.0
 14
80.00000000000019
 24
10.00000000000237
 34
0.0
 50
90.0
100
AcDbRotatedDimension
1001
ACAD
1000
DSTYLE
1002
{
1070
    41
1040
2.0
1070
    75
1070
     1
1070
   343
1005
6E3
1002
}
  0
LEADER
  5
AB3
330
1A
100
AcDbEntity
  8
250
  6
Continuous
100
AcDbLeader
  3
BIGT
 76
     2
 10
-24.11985929000009
 20
-18.00000000000004
 30
0.0
 10
-30.0625206900001
 20
-28.29299147000005
 30
0.0
1001
ACAD
1000
DSTYLE
1002
{
1070
     6
1000
OPEN
1070
   343
1005
594
1002
}
  0
MTEXT
  5
AB4
330
1A
100
AcDbEntity
  8
250
  6
Continuous
 62
    40
100
AcDbMText
 10
-40.32918735000009
 20
-27.29299147000005
 30
0.0
 40
2.799999999999998
 41
0.0
 71
     7
 72
     1
  1
CK6
  7
YOKO
 73
     1
 44
1.0
1001
ITEMNAME
1000
LNSP3
1001
ACAD
1000
MTEXTBEGIN
1070
    73
1070
     1
1070
    44
1040
1.0
1070
    74
1070
     0
1000
MTEXTEND
  0
LINE
  5
AB5
330
1A
100
AcDbEntity
  8
250
  6
Continuous
100
AcDbLine
 10
-30.0625206900001
 20
-28.29299147000005
 30
0.0
 11
-43.12918735000009
 21
-28.29299147000005
 31
0.0
1001
ITEMNAME
1000
LNSP2
  0
INSERT
  5
ECB
330
1A
100
AcDbEntity
  8
245
100
AcDbBlockReference
  2
1
 10
0.0
 20
0.0
 30
0.0
  0
VIEWPORT
  5
22
102
{ACAD_XDICTIONARY
360
ECD
102
}
330
17
100
AcDbEntity
 67
     1
  8
0
100
AcDbViewport
 10
261.5176991150442
 20
148.5
 30
0.0
 40
523.0353982300885
 41
297.0
 68
     1
 69
     1
 12
261.5176991150442
 22
148.5
 13
0.0
 23
0.0
 14
1.0
 24
1.0
 15
10.0
 25
10.0
 16
0.0
 26
0.0
 36
1.0
 17
0.0
 27
0.0
 37
0.0
 42
50.0
 43
0.0
 44
0.0
 45
297.0
 50
0.0
 51
0.0
 72
   100
 90
    32800
  1

281
     0
 71
     1
 74
     0
110
0.0
120
0.0
130
0.0
111
1.0
121
0.0
131
0.0
112
0.0
122
1.0
132
0.0
 79
     0
146
0.0
  0
ENDSEC
  0
SECTION
  2
OBJECTS
  0
DICTIONARY
  5
C
330
0
100
AcDbDictionary
281
     1
  3
ACAD_COLOR
350
791
  3
ACAD_GROUP
350
D
  3
ACAD_LAYOUT
350
565
  3
ACAD_MATERIAL
350
77C
  3
ACAD_MLINESTYLE
350
E
  3
ACAD_PLOTSETTINGS
350
566
  3
ACAD_PLOTSTYLENAME
350
563
  3
ACAD_TABLESTYLE
350
792
  3
ACAD_VISUALSTYLE
350
780
  3
AcDbVariableDictionary
350
BDE
  3
DWGPROPS
350
ECC
  3
GRADE_DWG
350
540
  0
DICTIONARY
  5
7CB
330
2
100
AcDbDictionary
280
     1
281
     1
  3
ACAD_LAYERSTATES
360
7CC
  0
DICTIONARY
  5
AEF
330
1A
100
AcDbDictionary
280
     1
281
     1
  3
ACAD_SORTENTS
360
AF0
  0
DICTIONARY
  5
ECD
330
22
100
AcDbDictionary
280
     1
281
     1
  3
ACAD_XREC_ROUNDTRIP
360
ECE
  0
DICTIONARY
  5
791
102
{ACAD_REACTORS
330
C
102
}
330
C
100
AcDbDictionary
281
     1
  0
DICTIONARY
  5
D
102
{ACAD_REACTORS
330
C
102
}
330
C
100
AcDbDictionary
281
     1
  3
*A1
350
6C7
  3
*A2
350
6C8
  3
*A3
350
6D4
  3
*A4
350
6D5
  3
DREC-1
350
5FC
  3
DREC-2
350
654
  3
DREC-3
350
673
  0
DICTIONARY
  5
565
102
{ACAD_REACTORS
330
C
102
}
330
C
100
AcDbDictionary
281
     1
  3
Model
350
567
  3
ﾚｲｱｳﾄ1
350
568
  0
DICTIONARY
  5
77C
102
{ACAD_REACTORS
330
C
102
}
330
C
100
AcDbDictionary
281
     1
  3
ByBlock
350
77E
  3
ByLayer
350
77D
  3
Global
350
77F
  0
DICTIONARY
  5
E
102
{ACAD_REACTORS
330
C
102
}
330
C
100
AcDbDictionary
281
     1
  3
STANDARD
350
13
  0
DICTIONARY
  5
566
102
{ACAD_REACTORS
330
C
102
}
330
C
100
AcDbDictionary
281
     1
  3
A3(0.5倍)
350
772
  3
A3(1倍)
350
773
  3
A3(1倍)(2000)
350
774
  3
A3(2倍)
350
775
  3
A4(0.5倍)
350
776
  3
A4(1倍)
350
777
  3
A4(1倍)(2000)
350
778
  3
A4(2倍)
350
779
  0
ACDBDICTIONARYWDFLT
  5
563
102
{ACAD_REACTORS
330
C
102
}
330
C
100
AcDbDictionary
281
     1
  3
Normal
350
564
100
AcDbDictionaryWithDefault
340
564
  0
DICTIONARY
  5
792
102
{ACAD_REACTORS
330
C
102
}
330
C
100
AcDbDictionary
281
     1
  3
Standard
350
793
  0
DICTIONARY
  5
780
102
{ACAD_REACTORS
330
C
102
}
330
C
100
AcDbDictionary
281
     1
  3
2dWireframe
350
786
  3
3D Hidden
350
788
  3
3dWireframe
350
787
  3
Basic
350
785
  3
Brighten
350
78C
  3
ColorChange
350
790
  3
Conceptual
350
789
  3
Dim
350
78B
  3
Facepattern
350
78F
  3
Flat
350
781
  3
FlatWithEdges
350
782
  3
Gouraud
350
783
  3
GouraudWithEdges
350
784
  3
Linepattern
350
78E
  3
Realistic
350
78A
  3
Thicken
350
78D
  0
DICTIONARY
  5
BDE
102
{ACAD_REACTORS
330
C
102
}
330
C
100
AcDbDictionary
281
     1
  3
CTABLESTYLE
350
BDF
  3
DIMASSOC
350
BE2
  3
INDEXCTL
350
BE1
  3
SORTENTS
350
BE0
  0
XRECORD
  5
ECC
102
{ACAD_REACTORS
330
C
102
}
330
C
100
AcDbXrecord
280
     1
  1
DWGPROPS COOKIE
  2

  3

  4

  6

  7

  8
AWTEC
  9

300
=
301
=
302
=
303
=
304
=
305
=
306
=
307
=
308
=
309
=
 40
0.0106309722222222
 41
2456997.695100903
 42
2456997.706185799
  1

 90
        0
  0
DICTIONARY
  5
540
102
{ACAD_REACTORS
330
C
102
}
330
C
100
AcDbDictionary
281
     1
  3
VERSION
350
560
  0
DICTIONARY
  5
7CC
102
{ACAD_REACTORS
330
7CB
102
}
330
7CB
100
AcDbDictionary
281
     1
  0
SORTENTSTABLE
  5
AF0
102
{ACAD_REACTORS
330
AEF
102
}
330
AEF
100
AcDbSortentsTable
330
1A
331
83A
  5
83A
331
6E6
  5
6E6
331
838
  5
838
331
836
  5
836
331
AB4
  5
AB4
331
839
  5
839
331
837
  5
837
331
AB5
  5
AB5
331
AB3
  5
AB3
  0
XRECORD
  5
ECE
102
{ACAD_REACTORS
330
ECD
102
}
330
ECD
100
AcDbXrecord
280
     1
102
SHADEPLOT
 70
     0
  0
GROUP
  5
6C7
102
{ACAD_REACTORS
330
D
102
}
330
D
100
AcDbGroup
300

 70
     0
 71
     1
1001
GRPNAME
1000
DMA00
  0
GROUP
  5
6C8
102
{ACAD_REACTORS
330
D
102
}
330
D
100
AcDbGroup
300

 70
     0
 71
     1
1001
GRPNAME
1000
DMA00
  0
GROUP
  5
6D4
102
{ACAD_REACTORS
330
D
102
}
330
D
100
AcDbGroup
300

 70
     0
 71
     1
1001
GRPNAME
1000
DMA00
  0
GROUP
  5
6D5
102
{ACAD_REACTORS
330
D
102
}
330
D
100
AcDbGroup
300

 70
     0
 71
     1
1001
GRPNAME
1000
DMA00
  0
GROUP
  5
5FC
102
{ACAD_REACTORS
330
D
102
}
330
D
100
AcDbGroup
300

 70
     0
 71
     1
1001
GRPNAME
1000
DREC-
1001
GPARA
1000
xsiz
1000
44.182
1000
ysiz
1000
40.677
1000
angl
1000
0
1000
ctyp
1000
0
1000
csiz
1000
5
1000
lfnt
1000
cont
1000
hcnt
1000
hoff
1000
vcnt
1000
voff
1000
opnt
1000
4
1000
dxpt
1000
0
1000
dypt
1000
0
  0
GROUP
  5
654
102
{ACAD_REACTORS
330
D
102
}
330
D
100
AcDbGroup
300

 70
     0
 71
     1
1001
GRPNAME
1000
DREC-
1001
GPARA
1000
xsiz
1000
54.592
1000
ysiz
1000
53.036
1000
angl
1000
0
1000
ctyp
1000
0
1000
csiz
1000
5
1000
lfnt
1000
cont
1000
hcnt
1000
hoff
1000
vcnt
1000
voff
1000
opnt
1000
4
1000
dxpt
1000
0
1000
dypt
1000
0
  0
GROUP
  5
673
102
{ACAD_REACTORS
330
D
102
}
330
D
100
AcDbGroup
300

 70
     0
 71
     1
1001
GRPNAME
1000
DREC-
1001
GPARA
1000
xsiz
1000
30.363
1000
ysiz
1000
36.175
1000
angl
1000
0
1000
ctyp
1000
0
1000
csiz
1000
5
1000
lfnt
1000
cont
1000
hcnt
1000
hoff
1000
vcnt
1000
voff
1000
opnt
1000
4
1000
dxpt
1000
0
1000
dypt
1000
0
  0
LAYOUT
  5
567
102
{ACAD_XDICTIONARY
360
ECF
102
}
102
{ACAD_REACTORS
330
565
102
}
330
565
100
AcDbPlotSettings
  1

  2
Canon LBP5610
  4
A4
  6

 40
5.789083003997802
 41
5.789072513580322
 42
5.789077758789062
 43
5.789093017578125
 44
209.9733276367186
 45
296.9259948730469
 46
49.1907168130815
 47
69.59320636957868
 48
0.0
 49
0.0
140
0.0
141
0.0
142
1.0
143
1.0
 70
 11956
 72
     1
 73
     1
 74
     1
  7
big.ctb
 75
    16
147
1.0
148
43.14140978258547
149
32.01016152276014
100
AcDbLayout
  1
Model
 70
     1
 71
     0
 10
0.0
 20
0.0
 11
12.0
 21
9.0
 12
0.0
 22
0.0
 32
0.0
 14
0.0
 24
0.0
 34
0.0
 15
0.0
 25
0.0
 35
0.0
146
0.0
 13
0.0
 23
0.0
 33
0.0
 16
1.0
 26
0.0
 36
0.0
 17
0.0
 27
1.0
 37
0.0
 76
     0
330
1A
331
77A
1001
ACAD_PSEXT
1000
Canon LBP5610
1000
Canon LBP5610
1000
IP_192.168.120.151
1000

1070
     0
  0
LAYOUT
  5
568
102
{ACAD_XDICTIONARY
360
ED1
102
}
102
{ACAD_REACTORS
330
565
102
}
330
565
100
AcDbPlotSettings
  1

  2
\\ICHIRO\FX Able Model-PRII ART4-ADV
  4

  6

 40
0.0
 41
0.0
 42
0.0
 43
0.0
 44
0.0
 45
0.0
 46
0.0
 47
0.0
 48
0.0
 49
0.0
140
0.0
141
0.0
142
1.0
143
1.0
 70
   688
 72
     0
 73
     0
 74
     5
  7
big.ctb
 75
    16
147
1.0
148
0.0
149
0.0
100
AcDbLayout
  1
ﾚｲｱｳﾄ1
 70
     1
 71
     1
 10
0.0
 20
0.0
 11
420.0
 21
297.0
 12
0.0
 22
0.0
 32
0.0
 14
1.000000000000000E+20
 24
1.000000000000000E+20
 34
1.000000000000000E+20
 15
-1.000000000000000E+20
 25
-1.000000000000000E+20
 35
-1.000000000000000E+20
146
0.0
 13
0.0
 23
0.0
 33
0.0
 16
1.0
 26
0.0
 36
0.0
 17
0.0
 27
1.0
 37
0.0
 76
     0
330
17
331
22
  0
MATERIAL
  5
77E
102
{ACAD_XDICTIONARY
360
C24
102
}
102
{ACAD_REACTORS
330
77C
102
}
330
77C
100
AcDbMaterial
  1
ByBlock
  0
MATERIAL
  5
77D
102
{ACAD_XDICTIONARY
360
C22
102
}
102
{ACAD_REACTORS
330
77C
102
}
330
77C
100
AcDbMaterial
  1
ByLayer
  0
MATERIAL
  5
77F
102
{ACAD_XDICTIONARY
360
C26
102
}
102
{ACAD_REACTORS
330
77C
102
}
330
77C
100
AcDbMaterial
  1
Global
  0
MLINESTYLE
  5
13
102
{ACAD_REACTORS
330
E
102
}
330
E
100
AcDbMlineStyle
  2
STANDARD
 70
     0
  3

 62
     0
 51
90.0
 52
90.0
 71
     2
 49
0.5
 62
   256
  6
BYLAYER
 49
-0.5
 62
   256
  6
BYLAYER
  0
PLOTSETTINGS
  5
772
102
{ACAD_XDICTIONARY
360
ED3
102
}
102
{ACAD_REACTORS
330
566
102
}
330
566
100
AcDbPlotSettings
  1
A3(0.5倍)
  2
Canon LBP5600.pc3
  4
A3
  6

 40
5.873749732971191
 41
5.873747825622557
 42
5.873748779296875
 43
5.873748779296875
 44
296.9259948730469
 45
419.9466552734373
 46
90.09
 47
129.85
 48
0.0
 49
0.0
140
0.0
141
0.0
142
1.0
143
2.0
 70
  1716
 72
     1
 73
     1
 74
     2
  7
big.ctb
 75
    17
147
0.5
148
0.0
149
0.0
  0
PLOTSETTINGS
  5
773
102
{ACAD_XDICTIONARY
360
ED5
102
}
102
{ACAD_REACTORS
330
566
102
}
330
566
100
AcDbPlotSettings
  1
A3(1倍)
  2
Canon LBP5600.pc3
  4
A3
  6

 40
5.873749732971191
 41
5.873747825622557
 42
5.873748779296875
 43
5.873748779296875
 44
296.9259948730469
 45
419.9466552734373
 46
37.59
 47
55.6
 48
0.0
 49
0.0
140
0.0
141
0.0
142
1.0
143
1.0
 70
  1716
 72
     1
 73
     1
 74
     2
  7
big.ctb
 75
    16
147
1.0
148
0.0
149
0.0
  0
PLOTSETTINGS
  5
774
102
{ACAD_XDICTIONARY
360
ED7
102
}
102
{ACAD_REACTORS
330
566
102
}
330
566
100
AcDbPlotSettings
  1
A3(1倍)(2000)
  2
Canon LBP5600.pc3
  4
A3
  6

 40
5.873749732971191
 41
5.873747825622557
 42
5.873748779296875
 43
5.873748779296875
 44
296.9259948730469
 45
419.9466552734373
 46
37.59
 47
55.6
 48
0.0
 49
0.0
140
0.0
141
0.0
142
1.0
143
1.0
 70
  1716
 72
     1
 73
     1
 74
     2
  7
big.ctb
 75
    16
147
1.0
148
0.0
149
0.0
  0
PLOTSETTINGS
  5
775
102
{ACAD_XDICTIONARY
360
ED9
102
}
102
{ACAD_REACTORS
330
566
102
}
330
566
100
AcDbPlotSettings
  1
A3(2倍)
  2
Canon LBP5600.pc3
  4
A3
  6

 40
5.873749732971191
 41
5.873747825622557
 42
5.873748779296875
 43
5.873748779296875
 44
296.9259948730469
 45
419.9466552734373
 46
-67.40999999999999
 47
-92.9
 48
0.0
 49
0.0
140
0.0
141
0.0
142
1.0
143
0.5
 70
  1716
 72
     1
 73
     1
 74
     2
  7
big.ctb
 75
    27
147
2.0
148
0.0
149
0.0
  0
PLOTSETTINGS
  5
776
102
{ACAD_XDICTIONARY
360
EDB
102
}
102
{ACAD_REACTORS
330
566
102
}
330
566
100
AcDbPlotSettings
  1
A4(0.5倍)
  2
Canon LBP5600.pc3
  4
A3
  6

 40
5.873749732971191
 41
5.873747825622557
 42
5.873748779296875
 43
5.873748779296875
 44
296.9259948730469
 45
419.9466552734373
 46
90.09
 47
129.85
 48
0.0
 49
0.0
140
0.0
141
0.0
142
1.0
143
2.0
 70
  1716
 72
     1
 73
     1
 74
     2
  7
big.ctb
 75
    17
147
0.5
148
0.0
149
0.0
  0
PLOTSETTINGS
  5
777
102
{ACAD_XDICTIONARY
360
EDD
102
}
102
{ACAD_REACTORS
330
566
102
}
330
566
100
AcDbPlotSettings
  1
A4(1倍)
  2
Canon LBP5600.pc3
  4
A3
  6

 40
5.873749732971191
 41
5.873747825622557
 42
5.873748779296875
 43
5.873748779296875
 44
296.9259948730469
 45
419.9466552734373
 46
37.59
 47
55.6
 48
0.0
 49
0.0
140
0.0
141
0.0
142
1.0
143
1.0
 70
  1716
 72
     1
 73
     1
 74
     2
  7
big.ctb
 75
    16
147
1.0
148
0.0
149
0.0
  0
PLOTSETTINGS
  5
778
102
{ACAD_XDICTIONARY
360
EDF
102
}
102
{ACAD_REACTORS
330
566
102
}
330
566
100
AcDbPlotSettings
  1
A4(1倍)(2000)
  2
Canon LBP5600.pc3
  4
A3
  6

 40
5.873749732971191
 41
5.873747825622557
 42
5.873748779296875
 43
5.873748779296875
 44
296.9259948730469
 45
419.9466552734373
 46
37.59
 47
55.6
 48
0.0
 49
0.0
140
0.0
141
0.0
142
1.0
143
1.0
 70
  1716
 72
     1
 73
     1
 74
     2
  7
big.ctb
 75
    16
147
1.0
148
0.0
149
0.0
  0
PLOTSETTINGS
  5
779
102
{ACAD_XDICTIONARY
360
EE1
102
}
102
{ACAD_REACTORS
330
566
102
}
330
566
100
AcDbPlotSettings
  1
A4(2倍)
  2
Canon LBP5600.pc3
  4
A3
  6

 40
5.873749732971191
 41
5.873747825622557
 42
5.873748779296875
 43
5.873748779296875
 44
296.9259948730469
 45
419.9466552734373
 46
-67.40999999999999
 47
-92.9
 48
0.0
 49
0.0
140
0.0
141
0.0
142
1.0
143
0.5
 70
  1716
 72
     1
 73
     1
 74
     2
  7
big.ctb
 75
    27
147
2.0
148
0.0
149
0.0
  0
ACDBPLACEHOLDER
  5
564
102
{ACAD_REACTORS
330
563
102
}
330
563
  0
TABLESTYLE
  5
793
102
{ACAD_XDICTIONARY
360
EE3
102
}
102
{ACAD_REACTORS
330
792
102
}
330
792
100
AcDbTableStyle
  3
Standard
 70
     0
 71
     0
 40
1.5
 41
1.5
280
     0
281
     0
  7
STANDARD
140
4.5
170
     2
 62
     0
 63
     7
283
     0
274
    -2
284
     1
 64
     0
275
    -2
285
     1
 65
     0
276
    -2
286
     1
 66
     0
277
    -2
287
     1
 67
     0
278
    -2
288
     1
 68
     0
279
    -2
289
     1
 69
     0
  7
STANDARD
140
6.0
170
     5
 62
     0
 63
     7
283
     0
274
    -2
284
     1
 64
     0
275
    -2
285
     1
 65
     0
276
    -2
286
     1
 66
     0
277
    -2
287
     1
 67
     0
278
    -2
288
     1
 68
     0
279
    -2
289
     1
 69
     0
  7
STANDARD
140
4.5
170
     5
 62
     0
 63
     7
283
     0
274
    -2
284
     1
 64
     0
275
    -2
285
     1
 65
     0
276
    -2
286
     1
 66
     0
277
    -2
287
     1
 67
     0
278
    -2
288
     1
 68
     0
279
    -2
289
     1
 69
     0
  0
VISUALSTYLE
  5
786
102
{ACAD_REACTORS
330
780
102
}
330
780
100
AcDbVisualStyle
  2
2dWireframe
 70
     4
 71
     0
 72
     2
 73
     0
 90
        0
 40
-0.6
 41
-30.0
 62
     5
 63
     7
 74
     1
 91
        4
 64
     7
 65
   257
 75
     1
175
     1
 42
1.0
 92
        0
 66
   257
 43
1.0
 76
     1
 77
     6
 78
     2
 67
     7
 79
     5
170
     0
171
     0
290
     0
174
     0
 93
        1
 44
0.0
173
     0
291
     0
 45
0.0
1001
ACAD
1000
AcDbSavedByObjectVersion
1070
     0
1000
AcDbSavedByObjectVersion
1070
     0
  0
VISUALSTYLE
  5
788
102
{ACAD_REACTORS
330
780
102
}
330
780
100
AcDbVisualStyle
  2
3D Hidden
 70
     6
 71
     1
 72
     2
 73
     2
 90
        0
 40
-0.6
 41
-30.0
 62
     5
 63
     7
 74
     2
 91
        2
 64
     7
 65
   257
 75
     2
175
     1
 42
40.0
 92
        0
 66
   257
 43
1.0
 76
     1
 77
     6
 78
     2
 67
     7
 79
     3
170
     0
171
     0
290
     0
174
     0
 93
        1
 44
0.0
173
     0
291
     0
 45
0.0
1001
ACAD
1000
AcDbSavedByObjectVersion
1070
     0
1000
AcDbSavedByObjectVersion
1070
     0
  0
VISUALSTYLE
  5
787
102
{ACAD_REACTORS
330
780
102
}
330
780
100
AcDbVisualStyle
  2
3dWireframe
 70
     5
 71
     0
 72
     2
 73
     0
 90
        0
 40
-0.6
 41
-30.0
 62
     5
 63
     7
 74
     1
 91
        4
 64
     7
 65
   257
 75
     1
175
     1
 42
1.0
 92
        0
 66
   257
 43
1.0
 76
     1
 77
     6
 78
     2
 67
     7
 79
     5
170
     0
171
     0
290
     0
174
     0
 93
        1
 44
0.0
173
     0
291
     0
 45
0.0
1001
ACAD
1000
AcDbSavedByObjectVersion
1070
     0
1000
AcDbSavedByObjectVersion
1070
     0
  0
VISUALSTYLE
  5
785
102
{ACAD_REACTORS
330
780
102
}
330
780
100
AcDbVisualStyle
  2
Basic
 70
     7
 71
     1
 72
     0
 73
     1
 90
        0
 40
-0.6
 41
-30.0
 62
     5
 63
     7
 74
     0
 91
        4
 64
     7
 65
   257
 75
     1
175
     1
 42
1.0
 92
        8
 66
     7
 43
1.0
 76
     1
 77
     6
 78
     2
 67
     7
 79
     5
170
     0
171
     0
290
     0
174
     0
 93
        1
 44
0.0
173
     0
291
     1
 45
0.0
1001
ACAD
1000
AcDbSavedByObjectVersion
1070
     0
1000
AcDbSavedByObjectVersion
1070
     0
  0
VISUALSTYLE
  5
78C
102
{ACAD_REACTORS
330
780
102
}
330
780
100
AcDbVisualStyle
  2
Brighten
 70
    12
 71
     2
 72
     2
 73
     0
 90
        0
 40
-0.6
 41
-30.0
 62
     5
 63
     7
 74
     1
 91
        4
 64
     7
 65
   257
 75
     1
175
     1
 42
1.0
 92
        8
 66
     7
 43
1.0
 76
     1
 77
     6
 78
     2
 67
     7
 79
     5
170
     0
171
     0
290
     0
174
     0
 93
        1
 44
50.0
173
     0
291
     1
 45
0.0
1001
ACAD
1000
AcDbSavedByObjectVersion
1070
     0
1000
AcDbSavedByObjectVersion
1070
     0
  0
VISUALSTYLE
  5
790
102
{ACAD_REACTORS
330
780
102
}
330
780
100
AcDbVisualStyle
  2
ColorChange
 70
    16
 71
     2
 72
     2
 73
     3
 90
        0
 40
-0.6
 41
-30.0
 62
     5
 63
     8
 74
     1
 91
        4
 64
     7
 65
   257
 75
     1
175
     1
 42
1.0
 92
        8
 66
     8
 43
1.0
 76
     1
 77
     6
 78
     2
 67
     7
 79
     5
170
     0
171
     0
290
     0
174
     0
 93
        1
 44
0.0
173
     0
291
     1
 45
0.0
1001
ACAD
1000
AcDbSavedByObjectVersion
1070
     0
1000
AcDbSavedByObjectVersion
1070
     0
  0
VISUALSTYLE
  5
789
102
{ACAD_REACTORS
330
780
102
}
330
780
100
AcDbVisualStyle
  2
Conceptual
 70
     9
 71
     3
 72
     2
 73
     0
 90
        0
 40
-0.6
 41
-30.0
 62
     5
 63
     7
 74
     2
 91
        2
 64
     7
 65
   257
 75
     1
175
     1
 42
40.0
 92
        8
 66
     7
 43
1.0
 76
     1
 77
     6
 78
     2
 67
     7
 79
     3
170
     0
171
     0
290
     0
174
     0
 93
        1
 44
0.0
173
     0
291
     0
 45
0.0
1001
ACAD
1000
AcDbSavedByObjectVersion
1070
     0
1000
AcDbSavedByObjectVersion
1070
     0
  0
VISUALSTYLE
  5
78B
102
{ACAD_REACTORS
330
780
102
}
330
780
100
AcDbVisualStyle
  2
Dim
 70
    11
 71
     2
 72
     2
 73
     0
 90
        0
 40
-0.6
 41
-30.0
 62
     5
 63
     7
 74
     1
 91
        4
 64
     7
 65
   257
 75
     1
175
     1
 42
1.0
 92
        8
 66
     7
 43
1.0
 76
     1
 77
     6
 78
     2
 67
     7
 79
     5
170
     0
171
     0
290
     0
174
     0
 93
        1
 44
-50.0
173
     0
291
     1
 45
0.0
1001
ACAD
1000
AcDbSavedByObjectVersion
1070
     0
1000
AcDbSavedByObjectVersion
1070
     0
  0
VISUALSTYLE
  5
78F
102
{ACAD_REACTORS
330
780
102
}
330
780
100
AcDbVisualStyle
  2
Facepattern
 70
    15
 71
     2
 72
     2
 73
     0
 90
        0
 40
-0.6
 41
-30.0
 62
     5
 63
     7
 74
     1
 91
        4
 64
     7
 65
   257
 75
     1
175
     1
 42
1.0
 92
        8
 66
     7
 43
1.0
 76
     1
 77
     6
 78
     2
 67
     7
 79
     5
170
     0
171
     0
290
     0
174
     0
 93
        1
 44
0.0
173
     0
291
     1
 45
0.0
1001
ACAD
1000
AcDbSavedByObjectVersion
1070
     0
1000
AcDbSavedByObjectVersion
1070
     0
  0
VISUALSTYLE
  5
781
102
{ACAD_REACTORS
330
780
102
}
330
780
100
AcDbVisualStyle
  2
Flat
 70
     0
 71
     2
 72
     1
 73
     1
 90
        2
 40
-0.6
 41
30.0
 62
     5
 63
     7
 74
     0
 91
        4
 64
     7
 65
   257
 75
     1
175
     1
 42
1.0
 92
        8
 66
     7
 43
1.0
 76
     1
 77
     6
 78
     2
 67
     7
 79
     5
170
     0
171
     0
290
     0
174
     0
 93
       13
 44
0.0
173
     0
291
     1
 45
0.0
1001
ACAD
1000
AcDbSavedByObjectVersion
1070
     0
1000
AcDbSavedByObjectVersion
1070
     0
  0
VISUALSTYLE
  5
782
102
{ACAD_REACTORS
330
780
102
}
330
780
100
AcDbVisualStyle
  2
FlatWithEdges
 70
     1
 71
     2
 72
     1
 73
     1
 90
        2
 40
-0.6
 41
30.0
 62
     5
 63
     7
 74
     1
 91
        4
 64
     7
 65
   257
 75
     1
175
     1
 42
1.0
 92
        0
 66
   257
 43
1.0
 76
     1
 77
     6
 78
     2
 67
     7
 79
     5
170
     0
171
     0
290
     0
174
     0
 93
       13
 44
0.0
173
     0
291
     1
 45
0.0
1001
ACAD
1000
AcDbSavedByObjectVersion
1070
     0
1000
AcDbSavedByObjectVersion
1070
     0
  0
VISUALSTYLE
  5
783
102
{ACAD_REACTORS
330
780
102
}
330
780
100
AcDbVisualStyle
  2
Gouraud
 70
     2
 71
     2
 72
     2
 73
     1
 90
        2
 40
-0.6
 41
30.0
 62
     5
 63
     7
 74
     0
 91
        4
 64
     7
 65
   257
 75
     1
175
     1
 42
1.0
 92
        0
 66
     7
 43
1.0
 76
     1
 77
     6
 78
     2
 67
     7
 79
     5
170
     0
171
     0
290
     0
174
     0
 93
       13
 44
0.0
173
     0
291
     1
 45
0.0
1001
ACAD
1000
AcDbSavedByObjectVersion
1070
     0
1000
AcDbSavedByObjectVersion
1070
     0
  0
VISUALSTYLE
  5
784
102
{ACAD_REACTORS
330
780
102
}
330
780
100
AcDbVisualStyle
  2
GouraudWithEdges
 70
     3
 71
     2
 72
     2
 73
     1
 90
        2
 40
-0.6
 41
30.0
 62
     5
 63
     7
 74
     1
 91
        4
 64
     7
 65
   257
 75
     1
175
     1
 42
1.0
 92
        0
 66
   257
 43
1.0
 76
     1
 77
     6
 78
     2
 67
     7
 79
     5
170
     0
171
     0
290
     0
174
     0
 93
       13
 44
0.0
173
     0
291
     1
 45
0.0
1001
ACAD
1000
AcDbSavedByObjectVersion
1070
     0
1000
AcDbSavedByObjectVersion
1070
     0
  0
VISUALSTYLE
  5
78E
102
{ACAD_REACTORS
330
780
102
}
330
780
100
AcDbVisualStyle
  2
Linepattern
 70
    14
 71
     2
 72
     2
 73
     0
 90
        0
 40
-0.6
 41
-30.0
 62
     5
 63
     7
 74
     1
 91
        4
 64
     7
 65
   257
 75
     7
175
     7
 42
1.0
 92
        8
 66
     7
 43
1.0
 76
     1
 77
     6
 78
     2
 67
     7
 79
     5
170
     0
171
     0
290
     0
174
     0
 93
        1
 44
0.0
173
     0
291
     1
 45
0.0
1001
ACAD
1000
AcDbSavedByObjectVersion
1070
     0
1000
AcDbSavedByObjectVersion
1070
     0
  0
VISUALSTYLE
  5
78A
102
{ACAD_REACTORS
330
780
102
}
330
780
100
AcDbVisualStyle
  2
Realistic
 70
     8
 71
     2
 72
     2
 73
     0
 90
        0
 40
-0.6
 41
-30.0
 62
     5
 63
     7
 74
     1
 91
        0
 64
     7
 65
   257
 75
     1
175
     1
 42
1.0
 92
        8
 66
     8
 43
1.0
 76
     1
 77
     6
 78
     2
 67
     7
 79
     5
170
     0
171
     0
290
     0
174
     0
 93
       13
 44
0.0
173
     0
291
     0
 45
0.0
1001
ACAD
1000
AcDbSavedByObjectVersion
1070
     0
1000
AcDbSavedByObjectVersion
1070
     0
  0
VISUALSTYLE
  5
78D
102
{ACAD_REACTORS
330
780
102
}
330
780
100
AcDbVisualStyle
  2
Thicken
 70
    13
 71
     2
 72
     2
 73
     0
 90
        0
 40
-0.6
 41
-30.0
 62
     5
 63
     7
 74
     1
 91
        4
 64
     7
 65
   257
 75
     1
175
     1
 42
1.0
 92
       12
 66
     7
 43
1.0
 76
     1
 77
     6
 78
     2
 67
     7
 79
     5
170
     0
171
     0
290
     0
174
     0
 93
        1
 44
0.0
173
     0
291
     1
 45
0.0
1001
ACAD
1000
AcDbSavedByObjectVersion
1070
     0
1000
AcDbSavedByObjectVersion
1070
     0
  0
DICTIONARYVAR
  5
BDF
102
{ACAD_REACTORS
330
BDE
102
}
330
BDE
100
DictionaryVariables
280
     0
  1
STANDARD
  0
DICTIONARYVAR
  5
BE2
102
{ACAD_REACTORS
330
BDE
102
}
330
BDE
100
DictionaryVariables
280
     0
  1
1
  0
DICTIONARYVAR
  5
BE1
102
{ACAD_REACTORS
330
BDE
102
}
330
BDE
100
DictionaryVariables
280
     0
  1
0
  0
DICTIONARYVAR
  5
BE0
102
{ACAD_REACTORS
330
BDE
102
}
330
BDE
100
DictionaryVariables
280
     0
  1
127
  0
XRECORD
  5
560
102
{ACAD_REACTORS
330
540
102
}
330
540
100
AcDbXrecord
280
     1
  1
2.0.0
  0
DICTIONARY
  5
ECF
330
567
100
AcDbDictionary
280
     1
281
     1
  3
ACAD_XREC_ROUNDTRIP
360
ED0
  0
DICTIONARY
  5
ED1
330
568
100
AcDbDictionary
280
     1
281
     1
  3
ACAD_XREC_ROUNDTRIP
360
ED2
  0
DICTIONARY
  5
C24
330
77E
100
AcDbDictionary
280
     1
281
     1
  3
ACAD_XREC_ROUNDTRIP
360
C25
  0
DICTIONARY
  5
C22
330
77D
100
AcDbDictionary
280
     1
281
     1
  3
ACAD_XREC_ROUNDTRIP
360
C23
  0
DICTIONARY
  5
C26
330
77F
100
AcDbDictionary
280
     1
281
     1
  3
ACAD_XREC_ROUNDTRIP
360
C27
  0
DICTIONARY
  5
ED3
330
772
100
AcDbDictionary
280
     1
281
     1
  3
ACAD_XREC_ROUNDTRIP
360
ED4
  0
DICTIONARY
  5
ED5
330
773
100
AcDbDictionary
280
     1
281
     1
  3
ACAD_XREC_ROUNDTRIP
360
ED6
  0
DICTIONARY
  5
ED7
330
774
100
AcDbDictionary
280
     1
281
     1
  3
ACAD_XREC_ROUNDTRIP
360
ED8
  0
DICTIONARY
  5
ED9
330
775
100
AcDbDictionary
280
     1
281
     1
  3
ACAD_XREC_ROUNDTRIP
360
EDA
  0
DICTIONARY
  5
EDB
330
776
100
AcDbDictionary
280
     1
281
     1
  3
ACAD_XREC_ROUNDTRIP
360
EDC
  0
DICTIONARY
  5
EDD
330
777
100
AcDbDictionary
280
     1
281
     1
  3
ACAD_XREC_ROUNDTRIP
360
EDE
  0
DICTIONARY
  5
EDF
330
778
100
AcDbDictionary
280
     1
281
     1
  3
ACAD_XREC_ROUNDTRIP
360
EE0
  0
DICTIONARY
  5
EE1
330
779
100
AcDbDictionary
280
     1
281
     1
  3
ACAD_XREC_ROUNDTRIP
360
EE2
  0
DICTIONARY
  5
EE3
330
793
100
AcDbDictionary
280
     1
281
     1
  3
ACAD_XREC_ROUNDTRIP
360
EE4
  0
XRECORD
  5
ED0
102
{ACAD_REACTORS
330
ECF
102
}
330
ECF
100
AcDbXrecord
280
     1
102
SHADEPLOT
 70
     0
102
SHADEPLOTRESLEVEL
 70
     2
102
SHADEPLOTCUSTOMDPI
 70
   300
  0
XRECORD
  5
ED2
102
{ACAD_REACTORS
330
ED1
102
}
330
ED1
100
AcDbXrecord
280
     1
102
SHADEPLOT
 70
     0
102
SHADEPLOTRESLEVEL
 70
     2
102
SHADEPLOTCUSTOMDPI
 70
   300
  0
XRECORD
  5
C25
102
{ACAD_REACTORS
330
C24
102
}
330
C24
100
AcDbXrecord
280
     1
102
MATERIAL
148
0.0
149
0.0
149
0.0
 93
        0
 94
       63
282
     0
 72
     1
 77
     1
171
     1
175
     1
179
     1
273
     0
  0
XRECORD
  5
C23
102
{ACAD_REACTORS
330
C22
102
}
330
C22
100
AcDbXrecord
280
     1
102
MATERIAL
148
0.0
149
0.0
149
0.0
 93
        0
 94
       63
282
     0
 72
     1
 77
     1
171
     1
175
     1
179
     1
273
     0
  0
XRECORD
  5
C27
102
{ACAD_REACTORS
330
C26
102
}
330
C26
100
AcDbXrecord
280
     1
102
MATERIAL
148
0.0
149
0.0
149
0.0
 93
        0
 94
       63
282
     0
 72
     1
 77
     1
171
     1
175
     1
179
     1
273
     0
  0
XRECORD
  5
ED4
102
{ACAD_REACTORS
330
ED3
102
}
330
ED3
100
AcDbXrecord
280
     1
102
SHADEPLOT
 70
     0
102
SHADEPLOTRESLEVEL
 70
     2
102
SHADEPLOTCUSTOMDPI
 70
   300
  0
XRECORD
  5
ED6
102
{ACAD_REACTORS
330
ED5
102
}
330
ED5
100
AcDbXrecord
280
     1
102
SHADEPLOT
 70
     0
102
SHADEPLOTRESLEVEL
 70
     2
102
SHADEPLOTCUSTOMDPI
 70
   300
  0
XRECORD
  5
ED8
102
{ACAD_REACTORS
330
ED7
102
}
330
ED7
100
AcDbXrecord
280
     1
102
SHADEPLOT
 70
     0
102
SHADEPLOTRESLEVEL
 70
     2
102
SHADEPLOTCUSTOMDPI
 70
   300
  0
XRECORD
  5
EDA
102
{ACAD_REACTORS
330
ED9
102
}
330
ED9
100
AcDbXrecord
280
     1
102
SHADEPLOT
 70
     0
102
SHADEPLOTRESLEVEL
 70
     2
102
SHADEPLOTCUSTOMDPI
 70
   300
  0
XRECORD
  5
EDC
102
{ACAD_REACTORS
330
EDB
102
}
330
EDB
100
AcDbXrecord
280
     1
102
SHADEPLOT
 70
     0
102
SHADEPLOTRESLEVEL
 70
     2
102
SHADEPLOTCUSTOMDPI
 70
   300
  0
XRECORD
  5
EDE
102
{ACAD_REACTORS
330
EDD
102
}
330
EDD
100
AcDbXrecord
280
     1
102
SHADEPLOT
 70
     0
102
SHADEPLOTRESLEVEL
 70
     2
102
SHADEPLOTCUSTOMDPI
 70
   300
  0
XRECORD
  5
EE0
102
{ACAD_REACTORS
330
EDF
102
}
330
EDF
100
AcDbXrecord
280
     1
102
SHADEPLOT
 70
     0
102
SHADEPLOTRESLEVEL
 70
     2
102
SHADEPLOTCUSTOMDPI
 70
   300
  0
XRECORD
  5
EE2
102
{ACAD_REACTORS
330
EE1
102
}
330
EE1
100
AcDbXrecord
280
     1
102
SHADEPLOT
 70
     0
102
SHADEPLOTRESLEVEL
 70
     2
102
SHADEPLOTCUSTOMDPI
 70
   300
  0
XRECORD
  5
EE4
102
{ACAD_REACTORS
330
EE3
102
}
330
EE3
100
AcDbXrecord
280
     1
102
ACAD_ROUNDTRIP_PRE2007_TABLESTYLE
 90
      512
 91
        0
  1

 92
      512
 93
        0
  2

 94
      512
 95
        0
  3

  0
ENDSEC
  0
EOF
