  0
SECTION
  2
HEADER
  9
$ACADVER
  1
AC1014
  9
$ACADMAINTVER
 70
     9
  9
$DWGCODEPAGE
  3
ANSI_932
  9
$INSBASE
 10
0.0
 20
0.0
 30
0.0
  9
$EXTMIN
 10
-43.12971432
 20
-32.00180009
 30
-0.00152582
  9
$EXTMAX
 10
75.10652204
 20
64.51309236
 30
0.00000003
  9
$LIMMIN
 10
0.0
 20
0.0
  9
$LIMMAX
 10
420.0
 20
297.0
  9
$ORTHOMODE
 70
     0
  9
$REGENMODE
 70
     1
  9
$FILLMODE
 70
     1
  9
$QTEXTMODE
 70
     0
  9
$MIRRTEXT
 70
     1
  9
$DRAGMODE
 70
     2
  9
$LTSCALE
 40
10.0
  9
$OSMODE
 70
   549
  9
$ATTMODE
 70
     1
  9
$TEXTSIZE
 40
3.0
  9
$TRACEWID
 40
1.0
  9
$TEXTSTYLE
  7
YOKO
  9
$CLAYER
  8
245
  9
$CELTYPE
  6
BYLAYER
  9
$CECOLOR
 62
   256
  9
$CELTSCALE
 40
1.0
  9
$DELOBJ
 70
     1
  9
$DISPSILH
 70
     0
  9
$DIMSCALE
 40
1.0
  9
$DIMASZ
 40
2.23
  9
$DIMEXO
 40
0.5
  9
$DIMDLI
 40
2.5
  9
$DIMRND
 40
0.0
  9
$DIMDLE
 40
0.0
  9
$DIMEXE
 40
1.0
  9
$DIMTP
 40
0.0
  9
$DIMTM
 40
0.0
  9
$DIMTXT
 40
2.8
  9
$DIMCEN
 40
0.0
  9
$DIMTSZ
 40
0.0
  9
$DIMTOL
 70
     0
  9
$DIMLIM
 70
     0
  9
$DIMTIH
 70
     0
  9
$DIMTOH
 70
     0
  9
$DIMSE1
 70
     0
  9
$DIMSE2
 70
     0
  9
$DIMTAD
 70
     3
  9
$DIMZIN
 70
     8
  9
$DIMBLK
  1

  9
$DIMASO
 70
     1
  9
$DIMSHO
 70
     1
  9
$DIMPOST
  1

  9
$DIMAPOST
  1

  9
$DIMALT
 70
     0
  9
$DIMALTD
 70
     2
  9
$DIMALTF
 40
25.4
  9
$DIMLFAC
 40
1.0
  9
$DIMTOFL
 70
     1
  9
$DIMTVP
 40
0.0
  9
$DIMTIX
 70
     1
  9
$DIMSOXD
 70
     0
  9
$DIMSAH
 70
     1
  9
$DIMBLK1
  1
OPEN
  9
$DIMBLK2
  1
OPEN
  9
$DIMSTYLE
  2
BIGT
  9
$DIMCLRD
 70
   256
  9
$DIMCLRE
 70
   256
  9
$DIMCLRT
 70
    40
  9
$DIMTFAC
 40
1.0
  9
$DIMGAP
 40
1.0
  9
$DIMJUST
 70
     0
  9
$DIMSD1
 70
     0
  9
$DIMSD2
 70
     0
  9
$DIMTOLJ
 70
     1
  9
$DIMTZIN
 70
     8
  9
$DIMALTZ
 70
     0
  9
$DIMALTTZ
 70
     0
  9
$DIMFIT
 70
     2
  9
$DIMUPT
 70
     0
  9
$DIMUNIT
 70
     2
  9
$DIMDEC
 70
     3
  9
$DIMTDEC
 70
     3
  9
$DIMALTU
 70
     2
  9
$DIMALTTD
 70
     2
  9
$DIMTXSTY
  7
STANDARD
  9
$DIMAUNIT
 70
     0
  9
$LUNITS
 70
     2
  9
$LUPREC
 70
     3
  9
$SKETCHINC
 40
1.0
  9
$FILLETRAD
 40
0.0
  9
$AUNITS
 70
     0
  9
$AUPREC
 70
     3
  9
$MENU
  1
.
  9
$ELEVATION
 40
0.0
  9
$PELEVATION
 40
0.0
  9
$THICKNESS
 40
0.0
  9
$LIMCHECK
 70
     0
  9
$BLIPMODE
 70
     0
  9
$CHAMFERA
 40
10.0
  9
$CHAMFERB
 40
10.0
  9
$CHAMFERC
 40
0.0
  9
$CHAMFERD
 40
0.0
  9
$SKPOLY
 70
     0
  9
$TDCREATE
 40
2455454.385967511
  9
$TDUPDATE
 40
2455454.390951423
  9
$TDINDWG
 40
0.0049858912
  9
$TDUSRTIMER
 40
0.0049857176
  9
$USRTIMER
 70
     1
  9
$ANGBASE
 50
0.0
  9
$ANGDIR
 70
     0
  9
$PDMODE
 70
     1
  9
$PDSIZE
 40
-5.0
  9
$PLINEWID
 40
0.0
  9
$COORDS
 70
     2
  9
$SPLFRAME
 70
     0
  9
$SPLINETYPE
 70
     6
  9
$SPLINESEGS
 70
     8
  9
$ATTDIA
 70
     0
  9
$ATTREQ
 70
     1
  9
$HANDLING
 70
-16383
  9
$HANDSEED
  5
BE1
  9
$SURFTAB1
 70
     6
  9
$SURFTAB2
 70
     6
  9
$SURFTYPE
 70
     6
  9
$SURFU
 70
     6
  9
$SURFV
 70
     6
  9
$UCSNAME
  2

  9
$UCSORG
 10
0.0
 20
0.0
 30
0.0
  9
$UCSXDIR
 10
1.0
 20
0.0
 30
0.0
  9
$UCSYDIR
 10
0.0
 20
1.0
 30
0.0
  9
$PUCSNAME
  2

  9
$PUCSORG
 10
0.0
 20
0.0
 30
0.0
  9
$PUCSXDIR
 10
1.0
 20
0.0
 30
0.0
  9
$PUCSYDIR
 10
0.0
 20
1.0
 30
0.0
  9
$USERI1
 70
     1
  9
$USERI2
 70
     0
  9
$USERI3
 70
     0
  9
$USERI4
 70
     0
  9
$USERI5
 70
     0
  9
$USERR1
 40
0.0
  9
$USERR2
 40
0.0
  9
$USERR3
 40
0.0
  9
$USERR4
 40
0.0
  9
$USERR5
 40
0.0
  9
$WORLDVIEW
 70
     1
  9
$SHADEDGE
 70
     3
  9
$SHADEDIF
 70
    70
  9
$TILEMODE
 70
     1
  9
$MAXACTVP
 70
    16
  9
$PINSBASE
 10
0.0
 20
0.0
 30
0.0
  9
$PLIMCHECK
 70
     0
  9
$PEXTMIN
 10
1.00000000E+20
 20
1.00000000E+20
 30
1.00000000E+20
  9
$PEXTMAX
 10
-1.00000000E+20
 20
-1.00000000E+20
 30
-1.00000000E+20
  9
$PLIMMIN
 10
0.0
 20
0.0
  9
$PLIMMAX
 10
420.0
 20
297.0
  9
$UNITMODE
 70
     0
  9
$VISRETAIN
 70
     0
  9
$PLINEGEN
 70
     0
  9
$PSLTSCALE
 70
     1
  9
$TREEDEPTH
 70
  3020
  9
$PICKSTYLE
 70
     0
  9
$CMLSTYLE
  2
STANDARD
  9
$CMLJUST
 70
     0
  9
$CMLSCALE
 40
1.0
  9
$PROXYGRAPHICS
 70
     1
  9
$MEASUREMENT
 70
     1
  0
ENDSEC
  0
SECTION
  2
CLASSES
  0
CLASS
  1
XRECORD
  2
AcDbXrecord
  3
AutoCAD 2000
 90
        0
280
     0
281
     0
  0
CLASS
  1
ACDBDICTIONARYWDFLT
  2
AcDbDictionaryWithDefault
  3
AutoCAD 2000
 90
        0
280
     0
281
     0
  0
CLASS
  1
ACDBPLACEHOLDER
  2
AcDbPlaceHolder
  3
AutoCAD 2000
 90
        0
280
     0
281
     0
  0
CLASS
  1
LAYOUT
  2
AcDbLayout
  3
AutoCAD 2000
 90
        0
280
     0
281
     0
  0
CLASS
  1
PLOTSETTINGS
  2
AcDbPlotSettings
  3
AutoCAD 2000
 90
        0
280
     0
281
     0
  0
CLASS
  1
LONG_TRANSACTION
  2
AcDbLongTransaction
  3
AutoCAD 2000
 90
        0
280
     0
281
     0
  0
CLASS
  1
LWPOLYLINE
  2
AcDbPolyline
  3
AutoCAD 2000
 90
        0
280
     0
281
     1
  0
CLASS
  1
HATCH
  2
AcDbHatch
  3
AutoCAD 2000
 90
        0
280
     0
281
     1
  0
CLASS
  1
XRECORD
  2
AcDbXrecord
  3
AutoCAD 2000
 90
        0
280
     0
281
     0
  0
ENDSEC
  0
SECTION
  2
TABLES
  0
TABLE
  2
VPORT
  5
8
330
0
100
AcDbSymbolTable
 70
     4
  0
VPORT
  5
BB2
330
8
100
AcDbSymbolTableRecord
100
AcDbViewportTableRecord
  2
*ACTIVE
 70
     0
 10
0.0
 20
0.0
 11
1.0
 21
1.0
 12
15.98840386
 22
16.25564614
 13
0.0
 23
0.0
 14
7.0
 24
7.0
 15
7.0
 25
7.0
 16
0.0
 26
0.0
 36
1.0
 17
0.0
 27
0.0
 37
0.0
 40
97.26914378
 41
1.4085213
 42
50.0
 43
0.0
 44
0.0
 50
0.0
 51
0.0
 71
     0
 72
  2000
 73
     1
 74
     0
 75
     0
 76
     0
 77
     0
 78
     0
  0
ENDTAB
  0
TABLE
  2
LTYPE
  5
5
330
0
100
AcDbSymbolTable
 70
    39
  0
LTYPE
  5
14
330
5
100
AcDbSymbolTableRecord
100
AcDbLinetypeTableRecord
  2
BYBLOCK
 70
     0
  3

 72
    65
 73
     0
 40
0.0
  0
LTYPE
  5
15
330
5
100
AcDbSymbolTableRecord
100
AcDbLinetypeTableRecord
  2
BYLAYER
 70
     0
  3

 72
    65
 73
     0
 40
0.0
  0
LTYPE
  5
16
330
5
100
AcDbSymbolTableRecord
100
AcDbLinetypeTableRecord
  2
CONTINUOUS
 70
     0
  3
Solid line
 72
    65
 73
     0
 40
0.0
  0
LTYPE
  5
258
330
5
100
AcDbSymbolTableRecord
100
AcDbLinetypeTableRecord
  2
CENTER2
 70
     0
  3
___ _ ___ _ ___ _ ___ _ ___ _ ___ _ ___ _ ___ _
 72
    65
 73
     4
 40
1.125
 49
0.75
 74
     0
 49
-0.125
 74
     0
 49
0.125
 74
     0
 49
-0.125
 74
     0
  0
LTYPE
  5
25C
330
5
100
AcDbSymbolTableRecord
100
AcDbLinetypeTableRecord
  2
HIDDEN2
 70
     0
  3
_ _ _ _ _ _ _ _ _ _ _ _ _ _ _ _ _ _ _ _ _ _ _ _
 72
    65
 73
     2
 40
0.1875
 49
0.125
 74
     0
 49
-0.0625
 74
     0
  0
ENDTAB
  0
TABLE
  2
LAYER
  5
2
330
0
100
AcDbSymbolTable
 70
    32
  0
LAYER
  5
F
330
2
100
AcDbSymbolTableRecord
100
AcDbLayerTableRecord
  2
0
 70
     0
 62
     7
  6
CONTINUOUS
  0
LAYER
  5
1AA
330
2
100
AcDbSymbolTableRecord
100
AcDbLayerTableRecord
  2
240
 70
     0
 62
     4
  6
CONTINUOUS
  0
LAYER
  5
1AB
330
2
100
AcDbSymbolTableRecord
100
AcDbLayerTableRecord
  2
241
 70
     0
 62
   211
  6
CONTINUOUS
  0
LAYER
  5
1AC
330
2
100
AcDbSymbolTableRecord
100
AcDbLayerTableRecord
  2
242
 70
     0
 62
     3
  6
CONTINUOUS
  0
LAYER
  5
1AF
330
2
100
AcDbSymbolTableRecord
100
AcDbLayerTableRecord
  2
245
 70
     0
 62
     2
  6
CENTER2
  0
LAYER
  5
21E
330
2
100
AcDbSymbolTableRecord
100
AcDbLayerTableRecord
  2
250
 70
     0
 62
     3
  6
CONTINUOUS
  0
LAYER
  5
5C4
330
2
100
AcDbSymbolTableRecord
100
AcDbLayerTableRecord
  2
DEFPOINTS
 70
     0
 62
     7
  6
CONTINUOUS
  0
ENDTAB
  0
TABLE
  2
STYLE
  5
3
330
0
100
AcDbSymbolTable
 70
     3
  0
STYLE
  5
10
330
3
100
AcDbSymbolTableRecord
100
AcDbTextStyleTableRecord
  2
STANDARD
 70
     0
 40
0.0
 41
1.0
 50
0.0
 71
     0
 42
3.0
  3
romans.shx
  4
BIGFONT.SHX
  0
STYLE
  5
339
330
3
100
AcDbSymbolTableRecord
100
AcDbTextStyleTableRecord
  2
YOKO
 70
     0
 40
0.0
 41
1.0
 50
0.0
 71
     0
 42
3.0
  3
romans.shx
  4
extfont.shx
  0
ENDTAB
  0
TABLE
  2
VIEW
  5
6
330
0
100
AcDbSymbolTable
 70
     0
  0
ENDTAB
  0
TABLE
  2
UCS
  5
7
330
0
100
AcDbSymbolTable
 70
     0
  0
ENDTAB
  0
TABLE
  2
APPID
  5
9
330
0
100
AcDbSymbolTable
 70
     9
  0
APPID
  5
11
330
9
100
AcDbSymbolTableRecord
100
AcDbRegAppTableRecord
  2
ACAD
 70
     0
  0
APPID
  5
1B1
330
9
100
AcDbSymbolTableRecord
100
AcDbRegAppTableRecord
  2
GLOBAL
 70
     0
  0
APPID
  5
2A4
330
9
100
AcDbSymbolTableRecord
100
AcDbRegAppTableRecord
  2
DETAIL
 70
     0
  0
APPID
  5
5FD
330
9
100
AcDbSymbolTableRecord
100
AcDbRegAppTableRecord
  2
GRPNAME
 70
     0
  0
APPID
  5
5FE
330
9
100
AcDbSymbolTableRecord
100
AcDbRegAppTableRecord
  2
GPARA
 70
     0
  0
APPID
  5
6C4
330
9
100
AcDbSymbolTableRecord
100
AcDbRegAppTableRecord
  2
DCO15
 70
     0
  0
APPID
  5
6C5
330
9
100
AcDbSymbolTableRecord
100
AcDbRegAppTableRecord
  2
ITEMNAME
 70
     0
  0
APPID
  5
6C6
330
9
100
AcDbSymbolTableRecord
100
AcDbRegAppTableRecord
  2
GRADE_0
 70
     0
  0
APPID
  5
BE0
330
9
100
AcDbSymbolTableRecord
100
AcDbRegAppTableRecord
  2
CONTENTBLOCKICON
 70
     0
  0
ENDTAB
  0
TABLE
  2
DIMSTYLE
  5
A
330
0
100
AcDbSymbolTable
 70
    11
  0
DIMSTYLE
105
725
102
{ACAD_REACTORS
330
A14
330
A4C
330
A86
102
}
330
A
100
AcDbSymbolTableRecord
100
AcDbDimStyleTableRecord
  2
BIGT
 70
     0
  3

  4

  5

  6
OPEN
  7
OPEN
 40
1.0
 41
2.23
 42
0.5
 43
2.5
 44
1.0
 45
0.0
 46
0.0
 47
0.0
 48
0.0
140
2.8
141
0.0
142
0.0
143
25.4
144
1.0
145
0.0
146
1.0
147
1.0
 71
     0
 72
     0
 73
     0
 74
     0
 75
     0
 76
     0
 77
     3
 78
     8
170
     0
171
     2
172
     1
173
     1
174
     1
175
     0
176
   256
177
   256
178
    40
270
     2
271
     3
272
     3
273
     2
274
     2
340
10
275
     0
280
     0
281
     0
282
     0
283
     1
284
     8
285
     0
286
     0
287
     2
288
     0
  0
ENDTAB
  0
TABLE
  2
BLOCK_RECORD
  5
1
330
0
100
AcDbSymbolTable
 70
    21
  0
BLOCK_RECORD
  5
1A
102
{ACAD_XDICTIONARY
360
BD6
102
}
330
1
100
AcDbSymbolTableRecord
100
AcDbBlockTableRecord
  2
*MODEL_SPACE
  0
BLOCK_RECORD
  5
17
102
{ACAD_XDICTIONARY
360
BD4
102
}
330
1
100
AcDbSymbolTableRecord
100
AcDbBlockTableRecord
  2
*PAPER_SPACE
  0
BLOCK_RECORD
  5
594
330
1
100
AcDbSymbolTableRecord
100
AcDbBlockTableRecord
  2
_OPEN
  0
BLOCK_RECORD
  5
6E3
330
1
100
AcDbSymbolTableRecord
100
AcDbBlockTableRecord
  2
矢印なし
  0
BLOCK_RECORD
  5
A54
330
1
100
AcDbSymbolTableRecord
100
AcDbBlockTableRecord
  2
*D17
  0
BLOCK_RECORD
  5
A60
330
1
100
AcDbSymbolTableRecord
100
AcDbBlockTableRecord
  2
*D18
  0
BLOCK_RECORD
  5
A87
330
1
100
AcDbSymbolTableRecord
100
AcDbBlockTableRecord
  2
*D19
  0
BLOCK_RECORD
  5
ADD
330
1
100
AcDbSymbolTableRecord
100
AcDbBlockTableRecord
  2
1
1001
CONTENTBLOCKICON
1071
        0
1004
2800000020000000200000000100080000000000000400000000000000000000000000000000000000000000000080000080000000808000800000008000800080800000C0C0C000C0DCC000F0CAA6000020400000206000002080000020A0000020C0000020E00000400000004020000040400000406000004080000040A0
1004
000040C0000040E00000600000006020000060400000606000006080000060A0000060C0000060E00000800000008020000080400000806000008080000080A0000080C0000080E00000A0000000A0200000A0400000A0600000A0800000A0A00000A0C00000A0E00000C0000000C0200000C0400000C0600000C0800000C0
1004
A00000C0C00000C0E00000E0000000E0200000E0400000E0600000E0800000E0A00000E0C00000E0E00040000000400020004000400040006000400080004000A0004000C0004000E00040200000402020004020400040206000402080004020A0004020C0004020E000404000004040200040404000404060004040800040
1004
40A0004040C0004040E00040600000406020004060400040606000406080004060A0004060C0004060E00040800000408020004080400040806000408080004080A0004080C0004080E00040A0000040A0200040A0400040A0600040A0800040A0A00040A0C00040A0E00040C0000040C0200040C0400040C0600040C08000
1004
40C0A00040C0C00040C0E00040E0000040E0200040E0400040E0600040E0800040E0A00040E0C00040E0E00080000000800020008000400080006000800080008000A0008000C0008000E00080200000802020008020400080206000802080008020A0008020C0008020E00080400000804020008040400080406000804080
1004
008040A0008040C0008040E00080600000806020008060400080606000806080008060A0008060C0008060E00080800000808020008080400080806000808080008080A0008080C0008080E00080A0000080A0200080A0400080A0600080A0800080A0A00080A0C00080A0E00080C0000080C0200080C0400080C0600080C0
1004
800080C0A00080C0C00080C0E00080E0000080E0200080E0400080E0600080E0800080E0A00080E0C00080E0E000C0000000C0002000C0004000C0006000C0008000C000A000C000C000C000E000C0200000C0202000C0204000C0206000C0208000C020A000C020C000C020E000C0400000C0402000C0404000C0406000C0
1004
408000C040A000C040C000C040E000C0600000C0602000C0604000C0606000C0608000C060A000C060C000C060E000C0800000C0802000C0804000C0806000C0808000C080A000C080C000C080E000C0A00000C0A02000C0A04000C0A06000C0A08000C0A0A000C0A0C000C0A0E000C0C00000C0C02000C0C04000C0C06000
1004
C0C08000C0C0A000F0FBFF00A4A0A000808080000000FF0000FF000000FFFF00FF000000FF00FF00FFFF0000FFFFFF0000000000000000000000000000000000000000000000000000000000000000000000000000000000000000000000000000000000000000000000000000000000000000000000000000000000000000
1004
000000000000000000000000000000000000000000000000000000000000000000000000000000000000000000000000000000000000000000000000000000000000000000000000000000000000000000000000000000000000000000000000000000000000000000000000000000000000000000000000000000000000FE
1004
FEFE0000000000000000000000000000000000000000000000000000000000FE00FEFEFEFEFEFEFEFEFEFEFEFEFEFE00000000000000000000000000000000FE00FEFE00E7000000E7E7FAFAE70000FE0000000000000000000000FEFEFEFEFE00E7FE00E7000000E7E7E7E7E70000FE00000000FEFEFEFEFEFEFEFEE7E7FE
1004
FE00E7FE00E7000000E7E7E7E7E70000FE00000000FE00000000000000000000E700E7E700E7000000E7E7FAFAE70000FE00000000FE00000000000000000000E700E7E700E7000000E7E7FAFAE70000FE00000000FEE7E7E7E7E7E7E7E7E700E700E7E700E7000000E7E7FAFAE70000FE00000000FE0000000000E7E7E7E7
1004
00E700E7E700E7000000E7E7FAFAE70000FE00000000FE00000000E7E7FBE7E700E700E7E700E7000000E7E7E7E7E70000FE000000FBFEFBFBFBFBE7E7FBE7E7FBE7FBE7E7FBE7FBFBFBE7E7E7E7E7FBFBFEFB000000FE0000000000E7E7E7E700E700E7E700E7000000E7E7FAFAE70000E700000000FEE7E7E7E7E7E7E7E7
1004
E700E700E7E7E7E7E7E7E7E7E7E7E7E7E7E7E700000000FE00000000000000000000E700E7E700E7000000E7E7FAFAE70000E700000000FE00000000000000000000E700E7E700E7000000E7E7FAFAE70000E700000000FEFEFEFEFEFEFEFEE7E7FEFE00E7FE00E7000000E7E7E7E7E70000FE0000000000000000000000FE
1004
FEFEFEFE00FEFE00E7000000E7E7E7E7E70000FE000000000000000000000000000000FE00FEFE00E7000000E7E7FAFAE70000FE000000000000000000000000000000FE00FEFEFEFEFEFEFEFEE7FEFEFEFEFE00000000000000000000000000000000FEFEFE00000000000000000000000000000000000000000000000000
1004
00000000000000000000000000000000000000000000000000000000000000000000000000000000000000000000000000000000000000000000000000000000000000000000000000000000000000000000000000000000000000000000000000000000000000000000000000000000000000000000000000000000000000
1004
0000000000000000000000000000000000000000000000000000000000000000000000000000000000000000000000000000000000000000
  0
ENDTAB
  0
ENDSEC
  0
SECTION
  2
BLOCKS
  0
BLOCK
  5
1B
330
1A
100
AcDbEntity
  8
0
100
AcDbBlockBegin
  2
*MODEL_SPACE
 70
     0
 10
0.0
 20
0.0
 30
0.0
  3
*MODEL_SPACE
  1

  0
ENDBLK
  5
1C
330
1A
100
AcDbEntity
  8
0
100
AcDbBlockEnd
  0
BLOCK
  5
18
330
17
100
AcDbEntity
 67
     1
  8
0
100
AcDbBlockBegin
  2
*PAPER_SPACE
 70
     0
 10
0.0
 20
0.0
 30
0.0
  3
*PAPER_SPACE
  1

  0
ENDBLK
  5
19
330
17
100
AcDbEntity
 67
     1
  8
0
100
AcDbBlockEnd
  0
BLOCK
  5
598
330
594
100
AcDbEntity
  8
0
100
AcDbBlockBegin
  2
_OPEN
 70
     0
 10
0.0
 20
0.0
 30
0.0
  3
_OPEN
  1

  0
LINE
  5
595
330
594
100
AcDbEntity
  8
0
  6
BYBLOCK
 62
     0
100
AcDbLine
 10
-1.0
 20
0.16666667
 30
0.0
 11
0.0
 21
0.0
 31
0.0
  0
LINE
  5
596
330
594
100
AcDbEntity
  8
0
  6
BYBLOCK
 62
     0
100
AcDbLine
 10
-1.0
 20
-0.16666667
 30
0.0
 11
0.0
 21
0.0
 31
0.0
  0
LINE
  5
597
330
594
100
AcDbEntity
  8
0
  6
BYBLOCK
 62
     0
100
AcDbLine
 10
0.0
 20
0.0
 30
0.0
 11
-1.0
 21
0.0
 31
0.0
  0
ENDBLK
  5
599
330
594
100
AcDbEntity
  8
0
100
AcDbBlockEnd
  0
BLOCK
  5
6E4
330
6E3
100
AcDbEntity
  8
0
100
AcDbBlockBegin
  2
矢印なし
 70
     0
 10
0.0
 20
0.0
 30
0.0
  3
矢印なし
  1

  0
ENDBLK
  5
6E5
330
6E3
100
AcDbEntity
  8
0
100
AcDbBlockEnd
  0
BLOCK
  5
A5E
330
A54
100
AcDbEntity
  8
0
100
AcDbBlockBegin
  2
*D17
 70
     1
 10
0.0
 20
0.0
 30
0.0
  3
*D17
  1

  0
LINE
  5
AC3
330
A54
100
AcDbEntity
  8
250
  6
CONTINUOUS
100
AcDbLine
 10
31.4
 20
-30.0
 30
0.0
 11
75.1
 21
-30.0
 31
0.0
  0
LINE
  5
AC4
330
A54
100
AcDbEntity
  8
250
  6
CONTINUOUS
100
AcDbLine
 10
31.4
 20
30.0
 30
0.0
 11
75.1
 21
30.0
 31
0.0
  0
LINE
  5
AC5
330
A54
100
AcDbEntity
  8
250
  6
CONTINUOUS
100
AcDbLine
 10
74.1
 20
-27.77
 30
0.0
 11
74.1
 21
27.77
 31
0.0
  0
INSERT
  5
AC6
330
A54
100
AcDbEntity
  8
250
  6
CONTINUOUS
100
AcDbBlockReference
  2
_OPEN
 10
74.1
 20
-30.0
 30
0.0
 41
2.23
 42
2.23
 43
2.23
 50
270.0
  0
INSERT
  5
AC7
330
A54
100
AcDbEntity
  8
250
  6
CONTINUOUS
100
AcDbBlockReference
  2
_OPEN
 10
74.1
 20
30.0
 30
0.0
 41
2.23
 42
2.23
 43
2.23
 50
90.0
  0
MTEXT
  5
AC8
330
A54
100
AcDbEntity
  8
250
  6
CONTINUOUS
 62
    40
100
AcDbMText
 10
71.7
 20
0.0
 30
0.0
 40
2.8
 41
0.0
 71
     5
 72
     1
  1
\A1;{\H2.8;\U+2205}60
 11
0.0
 21
1.0
 31
0.0
1001
ACAD
1000
MTEXTBEGIN
1070
    73
1070
     1
1070
    44
1040
1.0
1070
    74
1070
     0
1000
MTEXTEND
  0
POINT
  5
AC9
330
A54
100
AcDbEntity
  8
DEFPOINTS
  6
CONTINUOUS
 62
     0
100
AcDbPoint
 10
30.9
 20
-30.0
 30
0.0
  0
POINT
  5
ACA
330
A54
100
AcDbEntity
  8
DEFPOINTS
  6
CONTINUOUS
 62
     0
100
AcDbPoint
 10
30.9
 20
30.0
 30
0.0
  0
POINT
  5
ACB
330
A54
100
AcDbEntity
  8
DEFPOINTS
  6
CONTINUOUS
 62
     0
100
AcDbPoint
 10
74.1
 20
30.0
 30
0.0
  0
ENDBLK
  5
A5F
330
A54
100
AcDbEntity
  8
0
100
AcDbBlockEnd
  0
BLOCK
  5
A69
330
A60
100
AcDbEntity
  8
0
100
AcDbBlockBegin
  2
*D18
 70
     1
 10
0.0
 20
0.0
 30
0.0
  3
*D18
  1

  0
LINE
  5
BD8
330
A60
100
AcDbEntity
  8
250
  6
CONTINUOUS
100
AcDbLine
 10
56.5
 20
10.0
 30
0.0
 11
68.1
 21
10.0
 31
0.0
  0
LINE
  5
BD9
330
A60
100
AcDbEntity
  8
250
  6
CONTINUOUS
100
AcDbLine
 10
67.1
 20
-7.77
 30
0.0
 11
67.1
 21
7.77
 31
0.0
  0
INSERT
  5
BDA
330
A60
100
AcDbEntity
  8
250
  6
CONTINUOUS
100
AcDbBlockReference
  2
矢印なし
 10
67.1
 20
-10.0
 30
0.0
 41
2.23
 42
2.23
 43
2.23
 50
270.0
  0
INSERT
  5
BDB
330
A60
100
AcDbEntity
  8
250
  6
CONTINUOUS
100
AcDbBlockReference
  2
_OPEN
 10
67.1
 20
10.0
 30
0.0
 41
2.23
 42
2.23
 43
2.23
 50
90.0
  0
MTEXT
  5
BDC
330
A60
100
AcDbEntity
  8
250
  6
CONTINUOUS
 62
    40
100
AcDbMText
 10
64.7
 20
0.0
 30
0.0
 40
2.8
 41
0.0
 71
     5
 72
     1
  1
\A1;{\H2.8;\U+2205}20
 11
0.0
 21
1.0
 31
0.0
  0
POINT
  5
BDD
330
A60
100
AcDbEntity
  8
DEFPOINTS
  6
CONTINUOUS
 62
     0
100
AcDbPoint
 10
56.0
 20
-10.0
 30
0.0
  0
POINT
  5
BDE
330
A60
100
AcDbEntity
  8
DEFPOINTS
  6
CONTINUOUS
 62
     0
100
AcDbPoint
 10
56.0
 20
10.0
 30
0.0
  0
POINT
  5
BDF
330
A60
100
AcDbEntity
  8
DEFPOINTS
  6
CONTINUOUS
 62
     0
100
AcDbPoint
 10
67.1
 20
10.0
 30
0.0
  0
ENDBLK
  5
A6A
330
A60
100
AcDbEntity
  8
0
100
AcDbBlockEnd
  0
BLOCK
  5
A91
330
A87
100
AcDbEntity
  8
0
100
AcDbBlockBegin
  2
*D19
 70
     1
 10
0.0
 20
0.0
 30
0.0
  3
*D19
  1

  0
LINE
  5
ACC
330
A87
100
AcDbEntity
  8
250
  6
CONTINUOUS
100
AcDbLine
 10
0.0
 20
32.5
 30
0.0
 11
0.0
 21
46.5
 31
0.0
  0
LINE
  5
ACD
330
A87
100
AcDbEntity
  8
250
  6
CONTINUOUS
100
AcDbLine
 10
56.0
 20
17.21173368
 30
0.0
 11
56.0
 21
46.5
 31
0.0
  0
LINE
  5
ACE
330
A87
100
AcDbEntity
  8
250
  6
CONTINUOUS
100
AcDbLine
 10
2.23
 20
45.5
 30
0.0
 11
53.77
 21
45.5
 31
0.0
  0
INSERT
  5
ACF
330
A87
100
AcDbEntity
  8
250
  6
CONTINUOUS
100
AcDbBlockReference
  2
_OPEN
 10
0.0
 20
45.5
 30
0.0
 41
2.23
 42
2.23
 43
2.23
 50
180.0
  0
INSERT
  5
AD0
330
A87
100
AcDbEntity
  8
250
  6
CONTINUOUS
100
AcDbBlockReference
  2
_OPEN
 10
56.0
 20
45.5
 30
0.0
 41
2.23
 42
2.23
 43
2.23
  0
MTEXT
  5
AD1
330
A87
100
AcDbEntity
  8
250
  6
CONTINUOUS
 62
    40
100
AcDbMText
 10
28.0
 20
47.9
 30
0.0
 40
2.8
 41
0.0
 71
     5
 72
     1
  1
\A1;56
1001
ACAD
1000
MTEXTBEGIN
1070
    73
1070
     1
1070
    44
1040
1.0
1070
    74
1070
     0
1000
MTEXTEND
  0
POINT
  5
AD2
330
A87
100
AcDbEntity
  8
DEFPOINTS
  6
CONTINUOUS
 62
     0
100
AcDbPoint
 10
0.0
 20
32.0
 30
0.0
  0
POINT
  5
AD3
330
A87
100
AcDbEntity
  8
DEFPOINTS
  6
CONTINUOUS
 62
     0
100
AcDbPoint
 10
56.0
 20
16.71173368
 30
0.0
  0
POINT
  5
AD4
330
A87
100
AcDbEntity
  8
DEFPOINTS
  6
CONTINUOUS
 62
     0
100
AcDbPoint
 10
56.0
 20
45.5
 30
0.0
  0
ENDBLK
  5
A92
330
A87
100
AcDbEntity
  8
0
100
AcDbBlockEnd
  0
BLOCK
  5
ADE
330
ADD
100
AcDbEntity
  8
0
100
AcDbBlockBegin
  2
1
 70
     0
 10
0.0
 20
0.0
 30
0.0
  3
1
  1

  0
LINE
  5
AE0
330
ADD
100
AcDbEntity
  8
245
  6
CENTER2
100
AcDbLine
 10
-41.0
 20
0.0
 30
0.0
 11
58.1
 21
0.0
 31
0.0
  0
LINE
  5
AE1
330
ADD
100
AcDbEntity
  8
240
  6
CONTINUOUS
100
AcDbLine
 10
-39.0
 20
18.0
 30
0.0
 11
-15.95572594
 21
18.0
 31
0.0
  0
LINE
  5
AE2
330
ADD
100
AcDbEntity
  8
240
  6
CONTINUOUS
100
AcDbLine
 10
-15.95572594
 20
-18.0
 30
0.0
 11
-39.0
 21
-18.0
 31
0.0
  0
LINE
  5
AE3
330
ADD
100
AcDbEntity
  8
241
  6
CONTINUOUS
100
AcDbLine
 10
-9.0
 20
-7.03316031
 30
0.0
 11
-40.0
 21
-7.03316031
 31
0.0
  0
LINE
  5
AE4
330
ADD
100
AcDbEntity
  8
241
  6
CONTINUOUS
100
AcDbLine
 10
-9.0
 20
7.03316031
 30
0.0
 11
-40.0
 21
7.03316031
 31
0.0
  0
LINE
  5
AE5
330
ADD
100
AcDbEntity
  8
240
  6
CONTINUOUS
100
AcDbLine
 10
-40.0
 20
17.0
 30
0.0
 11
-40.0
 21
0.0
 31
0.0
  0
LINE
  5
AE6
330
ADD
100
AcDbEntity
  8
240
  6
CONTINUOUS
100
AcDbLine
 10
-40.0
 20
-17.0
 30
0.0
 11
-40.0
 21
0.0
 31
0.0
  0
ARC
  5
AE7
330
ADD
100
AcDbEntity
  8
240
  6
CONTINUOUS
100
AcDbCircle
 10
-39.0
 20
-17.0
 30
0.0
 40
1.0
100
AcDbArc
 50
180.0
 51
270.0
  0
ARC
  5
AE8
330
ADD
100
AcDbEntity
  8
240
  6
CONTINUOUS
100
AcDbCircle
 10
-39.0
 20
17.0
 30
0.0
 40
1.0
100
AcDbArc
 50
90.0
 51
180.0
  0
HATCH
  5
AE9
330
ADD
100
AcDbEntity
  8
242
100
AcDbHatch
 10
0.0
 20
0.0
 30
0.0
210
0.0
220
0.0
230
1.0
  2
ANSI37
 70
     0
 71
     0
 91
        5
 92
        7
 72
     1
 73
     1
 93
        6
 10
33.89999999999989
 20
29.75000000000003
 42
0.0
 10
33.89999999999989
 20
23.00825579815076
 42
-0.0500271281060121
 10
34.32132034355962
 20
23.05051645807876
 42
0.0
 10
44.0786796564403
 20
23.05051645807876
 42
-0.0380326087163122
 10
44.39999999999995
 20
23.02603975122994
 42
0.0
 10
44.39999999999995
 20
29.75000000000003
 42
0.0
 97
        0
 92
        7
 72
     1
 73
     1
 93
        6
 10
34.32132034355962
 20
18.80787577095944
 42
-0.0500271281060118
 10
33.89999999999989
 20
18.85013643088737
 42
0.0
 10
33.89999999999995
 20
10.00000000000025
 42
0.0
 10
44.39999999999995
 20
10.00000000000025
 42
0.0
 10
44.39999999999995
 20
18.83235247780825
 42
-0.0380326087163122
 10
44.0786796564403
 20
18.80787577095944
 42
0.0
 97
        0
 92
        7
 72
     1
 73
     1
 93
        7
 10
33.89999999999989
 20
10.00000000000025
 42
0.0
 10
33.89999999999989
 20
3.033150177620626
 42
-0.1015756045138773
 10
35.19999999999996
 20
3.299999999999982
 42
0.0
 10
43.19999986671994
 20
3.300000000000039
 42
0.0
 10
43.20000000000002
 20
3.300000000000039
 42
-0.0933115500244096
 10
44.39999999999995
 20
3.074085229787925
 42
0.0
 10
44.39999999999995
 20
10.00000000000025
 42
0.0
 97
        0
 92
        7
 72
     1
 73
     1
 93
        8
 10
35.19999999999996
 20
-3.299999999999982
 42
-0.1015756045138801
 10
33.89999999999989
 20
-3.033150177620569
 42
0.0
 10
33.89999999999989
 20
-18.85013643088737
 42
-0.0500271281060121
 10
34.32132034355962
 20
-18.80787577095938
 42
0.0
 10
44.0786796564403
 20
-18.80787577095938
 42
-0.0380326087163122
 10
44.39999999999995
 20
-18.8323524778082
 42
0.0
 10
44.39999999999995
 20
-3.074085229787868
 42
-0.0933115500244096
 10
43.20000000000002
 20
-3.299999999999982
 42
0.0
 97
        0
 92
        7
 72
     1
 73
     1
 93
        6
 10
34.32132034355962
 20
-23.0505164580787
 42
-0.0500271281060118
 10
33.89999999999989
 20
-23.00825579815076
 42
0.0
 10
33.89999999999989
 20
-29.74999999999997
 42
0.0
 10
44.39999999999995
 20
-29.74999999999997
 42
0.0
 10
44.39999999999995
 20
-23.02603975122988
 42
-0.0380326087163122
 10
44.0786796564403
 20
-23.0505164580787
 42
0.0
 97
        0
 75
     0
 76
     1
 52
0.0
 41
0.5
 77
     0
 78
     2
 53
45.0
 43
-276.9999999999999
 44
-140.0
 45
-1.122532015133643
 46
1.122532015133644
 79
     0
 53
135.0
 43
-276.9999999999999
 44
-140.0
 45
-1.122532015133644
 46
-1.122532015133643
 79
     0
 47
0.1410428
 98
        5
 10
40.71898552598392
 20
26.49848233872293
 10
39.87240407859619
 20
14.65088702596617
 10
39.59021026280035
 20
7.034575840344558
 10
39.87240407859619
 20
-7.351789462249968
 10
40.43679171018808
 20
-25.12318243138523
  0
LINE
  5
AEA
330
ADD
100
AcDbEntity
  8
241
  6
CONTINUOUS
100
AcDbLine
 10
15.9
 20
-30.5
 30
0.0
 11
15.9
 21
0.0
 31
0.0
  0
LINE
  5
AEB
330
ADD
100
AcDbEntity
  8
241
  6
CONTINUOUS
100
AcDbLine
 10
17.9
 20
-30.0
 30
0.0
 11
17.9
 21
0.0
 31
0.0
  0
LINE
  5
AEC
330
ADD
100
AcDbEntity
  8
240
  6
CONTINUOUS
100
AcDbLine
 10
0.0
 20
-32.0
 30
0.0
 11
0.0
 21
-18.0
 31
0.0
  0
LINE
  5
AED
330
ADD
100
AcDbEntity
  8
240
  6
CONTINUOUS
100
AcDbLine
 10
11.9
 20
-29.0
 30
0.0
 11
11.9
 21
-18.15
 31
0.0
  0
LINE
  5
AEE
330
ADD
100
AcDbEntity
  8
240
  6
CONTINUOUS
100
AcDbLine
 10
8.0
 20
-31.0
 30
0.0
 11
8.0
 21
-21.15
 31
0.0
  0
LINE
  5
AEF
330
ADD
100
AcDbEntity
  8
241
  6
CONTINUOUS
100
AcDbLine
 10
30.9
 20
-30.0
 30
0.0
 11
30.9
 21
0.0
 31
0.0
  0
LINE
  5
AF0
330
ADD
100
AcDbEntity
  8
241
  6
CONTINUOUS
100
AcDbLine
 10
44.4
 20
-29.75
 30
0.0
 11
44.4
 21
-23.02603975
 31
0.0
  0
LINE
  5
AF1
330
ADD
100
AcDbEntity
  8
241
  6
CONTINUOUS
100
AcDbLine
 10
33.9
 20
-29.75
 30
0.0
 11
33.9
 21
-23.0082558
 31
0.0
  0
ARC
  5
AF2
330
ADD
100
AcDbEntity
  8
240
  6
CONTINUOUS
100
AcDbCircle
 10
53.1
 20
-24.63682535
 30
0.0
 40
4.0
100
AcDbArc
 50
275.0
 51
0.0
  0
LINE
  5
AF3
330
ADD
100
AcDbEntity
  8
240
  6
CONTINUOUS
100
AcDbLine
 10
0.0
 20
-32.0
 30
0.0
 11
7.0
 21
-32.0
 31
0.0
  0
ARC
  5
AF4
330
ADD
100
AcDbEntity
  8
240
  6
CONTINUOUS
100
AcDbCircle
 10
7.0
 20
-31.0
 30
0.0
 40
1.0
100
AcDbArc
 50
270.0
 51
0.0
  0
LINE
  5
AF5
330
ADD
100
AcDbEntity
  8
240
  6
CONTINUOUS
100
AcDbLine
 10
31.15
 20
-29.75
 30
0.0
 11
44.4
 21
-29.75
 31
0.0
  0
LINE
  5
AF6
330
ADD
100
AcDbEntity
  8
240
  6
CONTINUOUS
100
AcDbLine
 10
16.4
 20
-30.0
 30
0.0
 11
30.9
 21
-30.0
 31
0.0
  0
LINE
  5
AF7
330
ADD
100
AcDbEntity
  8
240
  6
CONTINUOUS
100
AcDbLine
 10
13.4
 20
-30.5
 30
0.0
 11
15.9
 21
-30.5
 31
0.0
  0
ARC
  5
AF8
330
ADD
100
AcDbEntity
  8
240
  6
CONTINUOUS
100
AcDbCircle
 10
13.4
 20
-29.0
 30
0.0
 40
1.5
100
AcDbArc
 50
180.0
 51
270.0
  0
LINE
  5
AF9
330
ADD
100
AcDbEntity
  8
240
  6
CONTINUOUS
100
AcDbLine
 10
16.4
 20
-30.0
 30
0.0
 11
15.9
 21
-30.5
 31
0.0
  0
LINE
  5
AFA
330
ADD
100
AcDbEntity
  8
240
  6
CONTINUOUS
100
AcDbLine
 10
31.15
 20
-29.75
 30
0.0
 11
30.9
 21
-30.0
 31
0.0
  0
LINE
  5
AFB
330
ADD
100
AcDbEntity
  8
240
  6
CONTINUOUS
100
AcDbLine
 10
53.44862297
 20
-28.62160414
 30
0.0
 11
46.2660254
 21
-29.25
 31
0.0
  0
LINE
  5
AFC
330
ADD
100
AcDbEntity
  8
240
  6
CONTINUOUS
100
AcDbLine
 10
46.2660254
 20
-29.25
 30
0.0
 11
44.4
 21
-29.75
 31
0.0
  0
LINE
  5
AFD
330
ADD
100
AcDbEntity
  8
241
  6
HIDDEN2
100
AcDbLine
 10
10.7660254
 20
10.0
 30
0.0
 11
56.0
 21
10.0
 31
0.0
1001
GRPNAME
1000
PASTMD40
  0
ARC
  5
AFE
330
ADD
100
AcDbEntity
  8
240
  6
CONTINUOUS
100
AcDbCircle
 10
52.1
 20
23.72049417
 30
0.0
 40
5.0
100
AcDbArc
 50
0.0
 51
85.0
  0
ARC
  5
AFF
330
ADD
100
AcDbEntity
  8
240
  6
CONTINUOUS
100
AcDbCircle
 10
11.0
 20
-21.15
 30
0.0
 40
3.0
100
AcDbArc
 50
90.0
 51
180.0
  0
ARC
  5
B00
330
ADD
100
AcDbEntity
  8
240
  6
CONTINUOUS
100
AcDbCircle
 10
11.0
 20
21.15
 30
0.0
 40
3.0
100
AcDbArc
 50
180.0
 51
270.0
  0
LINE
  5
B01
330
ADD
100
AcDbEntity
  8
241
100
AcDbLine
 10
0.0
 20
18.0
 30
0.0
 11
0.0
 21
0.0
 31
0.0
  0
LINE
  5
B02
330
ADD
100
AcDbEntity
  8
245
  6
CENTER2
100
AcDbLine
 10
-15.5
 20
7.0
 30
0.0
 11
-15.5
 21
-7.0
 31
0.0
  0
LINE
  5
B03
330
ADD
100
AcDbEntity
  8
241
  6
CONTINUOUS
100
AcDbLine
 10
-9.0
 20
7.03316031
 30
0.0
 11
-9.0
 21
0.0
 31
0.0
  0
LINE
  5
B04
330
ADD
100
AcDbEntity
  8
241
  6
CONTINUOUS
100
AcDbLine
 10
8.0
 20
21.15
 30
0.0
 11
8.0
 21
0.0
 31
0.0
  0
CIRCLE
  5
B05
330
ADD
100
AcDbEntity
  8
241
100
AcDbCircle
 10
-15.5
 20
0.0
 30
0.0
 40
6.0
  0
CIRCLE
  5
B06
330
ADD
100
AcDbEntity
  8
241
100
AcDbCircle
 10
-15.5
 20
0.0
 30
0.0
 40
4.5
  0
LINE
  5
B07
330
ADD
100
AcDbEntity
  8
241
  6
CONTINUOUS
100
AcDbLine
 10
-1.94427406
 20
-18.0
 30
0.0
 11
-15.95572594
 21
-18.0
 31
0.0
  0
ARC
  5
B08
330
ADD
100
AcDbEntity
  8
240
100
AcDbCircle
 10
-13.35764973
 20
-20.5
 30
0.0
 40
1.0
100
AcDbArc
 50
210.0
 51
270.0
  0
LINE
  5
B09
330
ADD
100
AcDbEntity
  8
240
100
AcDbLine
 10
-15.95572594
 20
-18.0
 30
0.0
 11
-14.22367513
 21
-21.0
 31
0.0
  0
LINE
  5
B0A
330
ADD
100
AcDbEntity
  8
241
  6
CONTINUOUS
100
AcDbLine
 10
8.0
 20
-21.15
 30
0.0
 11
8.0
 21
0.0
 31
0.0
  0
LINE
  5
B0B
330
ADD
100
AcDbEntity
  8
241
100
AcDbLine
 10
0.0
 20
-18.0
 30
0.0
 11
0.0
 21
0.0
 31
0.0
  0
LINE
  5
B0C
330
ADD
100
AcDbEntity
  8
240
100
AcDbLine
 10
-1.94427406
 20
-18.0
 30
0.0
 11
-3.67632487
 21
-21.0
 31
0.0
  0
LINE
  5
B0D
330
ADD
100
AcDbEntity
  8
240
100
AcDbLine
 10
-13.35764973
 20
-21.5
 30
0.0
 11
-4.54235027
 21
-21.5
 31
0.0
  0
ARC
  5
B0E
330
ADD
100
AcDbEntity
  8
240
100
AcDbCircle
 10
-4.54235027
 20
-20.5
 30
0.0
 40
1.0
100
AcDbArc
 50
270.0
 51
330.0
  0
LINE
  5
B0F
330
ADD
100
AcDbEntity
  8
240
  6
CONTINUOUS
100
AcDbLine
 10
0.0
 20
-18.0
 30
0.0
 11
-1.94427406
 21
-18.0
 31
0.0
  0
LINE
  5
B10
330
ADD
100
AcDbEntity
  8
241
  6
CONTINUOUS
100
AcDbLine
 10
-9.0
 20
-7.03316031
 30
0.0
 11
-9.0
 21
0.0
 31
0.0
  0
LINE
  5
B11
330
ADD
100
AcDbEntity
  8
241
  6
CONTINUOUS
100
AcDbLine
 10
-1.94427406
 20
18.0
 30
0.0
 11
-15.95572594
 21
18.0
 31
0.0
  0
ARC
  5
B12
330
ADD
100
AcDbEntity
  8
240
100
AcDbCircle
 10
-13.35764973
 20
20.5
 30
0.0
 40
1.0
100
AcDbArc
 50
90.0
 51
150.0
  0
LINE
  5
B13
330
ADD
100
AcDbEntity
  8
240
100
AcDbLine
 10
-15.95572594
 20
18.0
 30
0.0
 11
-14.22367513
 21
21.0
 31
0.0
  0
LINE
  5
B14
330
ADD
100
AcDbEntity
  8
240
  6
CONTINUOUS
100
AcDbLine
 10
8.0
 20
31.0
 30
0.0
 11
8.0
 21
21.15
 31
0.0
  0
LINE
  5
B15
330
ADD
100
AcDbEntity
  8
240
  6
CONTINUOUS
100
AcDbLine
 10
0.0
 20
32.0
 30
0.0
 11
0.0
 21
18.0
 31
0.0
  0
LINE
  5
B16
330
ADD
100
AcDbEntity
  8
240
100
AcDbLine
 10
-1.94427406
 20
18.0
 30
0.0
 11
-3.67632487
 21
21.0
 31
0.0
  0
LINE
  5
B17
330
ADD
100
AcDbEntity
  8
240
100
AcDbLine
 10
-13.35764973
 20
21.5
 30
0.0
 11
-4.54235027
 21
21.5
 31
0.0
  0
ARC
  5
B18
330
ADD
100
AcDbEntity
  8
240
100
AcDbCircle
 10
-4.54235027
 20
20.5
 30
0.0
 40
1.0
100
AcDbArc
 50
30.0
 51
90.0
  0
LINE
  5
B19
330
ADD
100
AcDbEntity
  8
240
  6
CONTINUOUS
100
AcDbLine
 10
0.0
 20
18.0
 30
0.0
 11
-1.94427406
 21
18.0
 31
0.0
  0
ARC
  5
B1A
330
ADD
100
AcDbEntity
  8
240
  6
CONTINUOUS
100
AcDbCircle
 10
7.0
 20
31.0
 30
0.0
 40
1.0
100
AcDbArc
 50
0.0
 51
90.0
  0
LINE
  5
B1B
330
ADD
100
AcDbEntity
  8
240
  6
CONTINUOUS
100
AcDbLine
 10
0.0
 20
32.0
 30
0.0
 11
7.0
 21
32.0
 31
0.0
  0
LINE
  5
B1C
330
ADD
100
AcDbEntity
  8
241
  6
CONTINUOUS
100
AcDbLine
 10
30.9
 20
30.0
 30
0.0
 11
30.9
 21
0.0
 31
0.0
  0
LINE
  5
B1D
330
ADD
100
AcDbEntity
  8
241
  6
CONTINUOUS
100
AcDbLine
 10
15.9
 20
30.5
 30
0.0
 11
15.9
 21
0.0
 31
0.0
  0
LINE
  5
B1E
330
ADD
100
AcDbEntity
  8
241
  6
CONTINUOUS
100
AcDbLine
 10
17.9
 20
30.0
 30
0.0
 11
17.9
 21
0.0
 31
0.0
  0
LINE
  5
B1F
330
ADD
100
AcDbEntity
  8
241
100
AcDbLine
 10
11.9
 20
18.15
 30
0.0
 11
11.9
 21
0.0
 31
0.0
  0
LINE
  5
B20
330
ADD
100
AcDbEntity
  8
241
  6
CONTINUOUS
100
AcDbLine
 10
44.4
 20
18.83235248
 30
0.0
 11
44.4
 21
3.07408523
 31
0.0
  0
LINE
  5
B21
330
ADD
100
AcDbEntity
  8
241
  6
CONTINUOUS
100
AcDbLine
 10
33.9
 20
18.85013643
 30
0.0
 11
33.9
 21
3.03315018
 31
0.0
  0
ARC
  5
B22
330
ADD
100
AcDbEntity
  8
241
  6
CONTINUOUS
100
AcDbCircle
 10
34.32132034
 20
-20.92919611
 30
0.0
 40
2.121320343559645
100
AcDbArc
 50
90.0
 51
270.0
  0
ARC
  5
B23
330
ADD
100
AcDbEntity
  8
241
  6
CONTINUOUS
100
AcDbCircle
 10
34.32132034
 20
-18.9151064
 30
0.0
 40
2.121320343559661
100
AcDbArc
 50
208.34147881
 51
270.0
  0
ARC
  5
B24
330
ADD
100
AcDbEntity
  8
241
  6
CONTINUOUS
100
AcDbCircle
 10
35.2
 20
0.0
 30
0.0
 40
3.0
100
AcDbArc
 50
180.0
 51
270.0
  0
ARC
  5
B25
330
ADD
100
AcDbEntity
  8
241
  6
CONTINUOUS
100
AcDbCircle
 10
35.2
 20
0.0
 30
0.0
 40
3.299999999999997
100
AcDbArc
 50
180.0
 51
269.99999419
  0
ARC
  5
B26
330
ADD
100
AcDbEntity
  8
241
  6
CONTINUOUS
100
AcDbCircle
 10
35.2
 20
0.0
 30
0.0
 40
3.299999999999997
100
AcDbArc
 50
180.0
 51
270.0
  0
ARC
  5
B27
330
ADD
100
AcDbEntity
  8
241
  6
CONTINUOUS
100
AcDbCircle
 10
35.2
 20
0.0
 30
0.0
 40
3.299999999999997
100
AcDbArc
 50
90.0
 51
180.0
  0
ARC
  5
B28
330
ADD
100
AcDbEntity
  8
241
  6
CONTINUOUS
100
AcDbCircle
 10
35.2
 20
0.0
 30
0.0
 40
3.0
100
AcDbArc
 50
90.0
 51
180.0
  0
ARC
  5
B29
330
ADD
100
AcDbEntity
  8
241
  6
CONTINUOUS
100
AcDbCircle
 10
35.2
 20
0.0
 30
0.0
 40
3.299999999999997
100
AcDbArc
 50
90.00000581
 51
180.0
  0
LINE
  5
B2A
330
ADD
100
AcDbEntity
  8
241
100
AcDbLine
 10
11.9
 20
-18.15
 30
0.0
 11
11.9
 21
0.0
 31
0.0
  0
LINE
  5
B2B
330
ADD
100
AcDbEntity
  8
240
  6
CONTINUOUS
100
AcDbLine
 10
10.9
 20
-18.15
 30
0.0
 11
11.9
 21
-18.15
 31
0.0
  0
LINE
  5
B2C
330
ADD
100
AcDbEntity
  8
241
  6
CONTINUOUS
100
AcDbLine
 10
44.4
 20
-18.83235248
 30
0.0
 11
44.4
 21
-3.07408523
 31
0.0
  0
LINE
  5
B2D
330
ADD
100
AcDbEntity
  8
241
  6
CONTINUOUS
100
AcDbLine
 10
33.9
 20
-18.85013643
 30
0.0
 11
33.9
 21
-3.03315018
 31
0.0
  0
ARC
  5
B2E
330
ADD
100
AcDbEntity
  8
241
  6
CONTINUOUS
100
AcDbCircle
 10
44.07867966
 20
-20.92919611
 30
0.0
 40
2.121320343559659
100
AcDbArc
 50
270.0
 51
90.0
  0
ARC
  5
B2F
330
ADD
100
AcDbEntity
  8
241
  6
CONTINUOUS
100
AcDbCircle
 10
44.07867966
 20
-18.9151064
 30
0.0
 40
2.121320343559659
100
AcDbArc
 50
270.0
 51
331.65852119
  0
LINE
  5
B30
330
ADD
100
AcDbEntity
  8
241
  6
CONTINUOUS
100
AcDbLine
 10
34.32132034
 20
-18.80787577
 30
0.0
 11
44.07867966
 21
-18.80787577
 31
0.0
  0
LINE
  5
B31
330
ADD
100
AcDbEntity
  8
241
  6
CONTINUOUS
100
AcDbLine
 10
34.32132034
 20
-23.05051646
 30
0.0
 11
44.07867966
 21
-23.05051646
 31
0.0
  0
LINE
  5
B32
330
ADD
100
AcDbEntity
  8
241
  6
CONTINUOUS
100
AcDbLine
 10
34.32132034
 20
-21.03642674
 30
0.0
 11
44.07867966
 21
-21.03642674
 31
0.0
  0
ARC
  5
B33
330
ADD
100
AcDbEntity
  8
241
  6
CONTINUOUS
100
AcDbCircle
 10
43.2
 20
0.0
 30
0.0
 40
3.300000000000014
100
AcDbArc
 50
269.99999769
 51
0.0
  0
ARC
  5
B34
330
ADD
100
AcDbEntity
  8
241
  6
CONTINUOUS
100
AcDbCircle
 10
43.2
 20
0.0
 30
0.0
 40
3.0
100
AcDbArc
 50
270.0
 51
0.0
  0
ARC
  5
B35
330
ADD
100
AcDbEntity
  8
241
  6
CONTINUOUS
100
AcDbCircle
 10
43.2
 20
0.0
 30
0.0
 40
3.300000000000014
100
AcDbArc
 50
0.0
 51
90.00000231
  0
ARC
  5
B36
330
ADD
100
AcDbEntity
  8
241
  6
CONTINUOUS
100
AcDbCircle
 10
43.2
 20
0.0
 30
0.0
 40
3.0
100
AcDbArc
 50
0.0
 51
90.0
  0
LINE
  5
B37
330
ADD
100
AcDbEntity
  8
241
  6
CONTINUOUS
100
AcDbLine
 10
43.2
 20
-3.3
 30
0.0
 11
35.2
 21
-3.3
 31
0.0
  0
LINE
  5
B38
330
ADD
100
AcDbEntity
  8
241
  6
CONTINUOUS
100
AcDbLine
 10
35.2
 20
-3.0
 30
0.0
 11
43.2
 21
-3.0
 31
0.0
  0
LINE
  5
B39
330
ADD
100
AcDbEntity
  8
241
  6
CONTINUOUS
100
AcDbLine
 10
43.19999987
 20
-3.3
 30
0.0
 11
35.19999967
 21
-3.3
 31
0.0
  0
LINE
  5
B3A
330
ADD
100
AcDbEntity
  8
241
  6
CONTINUOUS
100
AcDbLine
 10
43.19999987
 20
3.3
 30
0.0
 11
35.19999967
 21
3.3
 31
0.0
  0
LINE
  5
B3B
330
ADD
100
AcDbEntity
  8
241
  6
CONTINUOUS
100
AcDbLine
 10
43.2
 20
3.3
 30
0.0
 11
35.2
 21
3.3
 31
0.0
  0
LINE
  5
B3C
330
ADD
100
AcDbEntity
  8
241
  6
CONTINUOUS
100
AcDbLine
 10
35.2
 20
3.0
 30
0.0
 11
43.2
 21
3.0
 31
0.0
  0
ARC
  5
B3D
330
ADD
100
AcDbEntity
  8
241
  6
CONTINUOUS
100
AcDbCircle
 10
34.32132034
 20
18.9151064
 30
0.0
 40
2.121320343559661
100
AcDbArc
 50
90.0
 51
151.65852119
  0
ARC
  5
B3E
330
ADD
100
AcDbEntity
  8
241
  6
CONTINUOUS
100
AcDbCircle
 10
34.32132034
 20
20.92919611
 30
0.0
 40
2.121320343559645
100
AcDbArc
 50
90.0
 51
270.0
  0
LINE
  5
B3F
330
ADD
100
AcDbEntity
  8
240
  6
CONTINUOUS
100
AcDbLine
 10
31.15
 20
29.75
 30
0.0
 11
44.4
 21
29.75
 31
0.0
1001
GRPNAME
1000
PASTMD0P
  0
LINE
  5
B40
330
ADD
100
AcDbEntity
  8
240
  6
CONTINUOUS
100
AcDbLine
 10
11.9
 20
29.0
 30
0.0
 11
11.9
 21
18.15
 31
0.0
  0
LINE
  5
B41
330
ADD
100
AcDbEntity
  8
240
  6
CONTINUOUS
100
AcDbLine
 10
10.9
 20
18.15
 30
0.0
 11
11.9
 21
18.15
 31
0.0
1001
GRPNAME
1000
PASTMD04
  0
LINE
  5
B42
330
ADD
100
AcDbEntity
  8
240
  6
CONTINUOUS
100
AcDbLine
 10
16.4
 20
30.0
 30
0.0
 11
30.9
 21
30.0
 31
0.0
1001
GRPNAME
1000
PASTMD0P
  0
LINE
  5
B43
330
ADD
100
AcDbEntity
  8
240
  6
CONTINUOUS
100
AcDbLine
 10
13.4
 20
30.5
 30
0.0
 11
15.9
 21
30.5
 31
0.0
1001
GRPNAME
1000
PASTMD0P
  0
ARC
  5
B44
330
ADD
100
AcDbEntity
  8
240
  6
CONTINUOUS
100
AcDbCircle
 10
13.4
 20
29.0
 30
0.0
 40
1.5
100
AcDbArc
 50
90.0
 51
180.0
1001
GRPNAME
1000
PASTMD0P
  0
LINE
  5
B45
330
ADD
100
AcDbEntity
  8
240
  6
CONTINUOUS
100
AcDbLine
 10
16.4
 20
30.0
 30
0.0
 11
15.9
 21
30.5
 31
0.0
1001
GRPNAME
1000
PASTMD0P
  0
LINE
  5
B46
330
ADD
100
AcDbEntity
  8
240
  6
CONTINUOUS
100
AcDbLine
 10
31.15
 20
29.75
 30
0.0
 11
30.9
 21
30.0
 31
0.0
1001
GRPNAME
1000
PASTMD0P
  0
ARC
  5
B47
330
ADD
100
AcDbEntity
  8
241
  6
CONTINUOUS
100
AcDbCircle
 10
44.07867966
 20
20.92919611
 30
0.0
 40
2.121320343559659
100
AcDbArc
 50
270.0
 51
90.0
  0
ARC
  5
B48
330
ADD
100
AcDbEntity
  8
241
  6
CONTINUOUS
100
AcDbCircle
 10
44.07867966
 20
18.9151064
 30
0.0
 40
2.121320343559659
100
AcDbArc
 50
28.34147881
 51
90.0
  0
LINE
  5
B49
330
ADD
100
AcDbEntity
  8
241
  6
CONTINUOUS
100
AcDbLine
 10
34.32132034
 20
18.80787577
 30
0.0
 11
44.07867966
 21
18.80787577
 31
0.0
  0
LINE
  5
B4A
330
ADD
100
AcDbEntity
  8
241
  6
CONTINUOUS
100
AcDbLine
 10
34.32132034
 20
21.03642674
 30
0.0
 11
44.07867966
 21
21.03642674
 31
0.0
  0
LINE
  5
B4B
330
ADD
100
AcDbEntity
  8
241
  6
CONTINUOUS
100
AcDbLine
 10
34.32132034
 20
23.05051646
 30
0.0
 11
44.07867966
 21
23.05051646
 31
0.0
  0
LINE
  5
B4C
330
ADD
100
AcDbEntity
  8
241
  6
CONTINUOUS
100
AcDbLine
 10
33.9
 20
29.75
 30
0.0
 11
33.9
 21
23.0082558
 31
0.0
  0
LINE
  5
B4D
330
ADD
100
AcDbEntity
  8
240
  6
CONTINUOUS
100
AcDbLine
 10
52.53577871
 20
28.70146766
 30
0.0
 11
46.2660254
 21
29.25
 31
0.0
  0
LINE
  5
B4E
330
ADD
100
AcDbEntity
  8
241
  6
CONTINUOUS
100
AcDbLine
 10
44.4
 20
29.75
 30
0.0
 11
44.4
 21
23.02603975
 31
0.0
  0
LINE
  5
B4F
330
ADD
100
AcDbEntity
  8
240
  6
CONTINUOUS
100
AcDbLine
 10
46.2660254
 20
29.25
 30
0.0
 11
44.4
 21
29.75
 31
0.0
1001
GRPNAME
1000
PASTMD0P
  0
LINE
  5
B50
330
ADD
100
AcDbEntity
  8
240
  6
CONTINUOUS
100
AcDbLine
 10
57.1
 20
23.72049417
 30
0.0
 11
57.1
 21
0.0
 31
0.0
  0
LINE
  5
B51
330
ADD
100
AcDbEntity
  8
241
  6
HIDDEN2
100
AcDbLine
 10
56.0
 20
16.71173368
 30
0.0
 11
56.0
 21
0.0
 31
0.0
  0
LINE
  5
B52
330
ADD
100
AcDbEntity
  8
240
  6
CONTINUOUS
100
AcDbLine
 10
57.1
 20
-24.63682535
 30
0.0
 11
57.1
 21
0.0
 31
0.0
  0
ENDBLK
  5
ADF
330
ADD
100
AcDbEntity
  8
0
100
AcDbBlockEnd
  0
ENDSEC
  0
SECTION
  2
ENTITIES
  0
INSERT
  5
6E6
330
1A
100
AcDbEntity
  8
245
100
AcDbBlockReference
  2
矢印なし
 10
175.62382697
 20
90.55123572
 30
0.0
  0
LEADER
  5
979
330
1A
100
AcDbEntity
  8
250
  6
CONTINUOUS
100
AcDbLeader
  3
BIGT
 76
     2
 10
-24.11985929
 20
-18.0
 30
0.0
 10
-30.06252069
 20
-28.29299147
 30
0.0
1001
ACAD
1000
DSTYLE
1002
{
1070
     6
1000
OPEN
1070
   343
1005
594
1002
}
  0
LINE
  5
97A
330
1A
100
AcDbEntity
  8
250
  6
CONTINUOUS
100
AcDbLine
 10
-30.06252069
 20
-28.29299147
 30
0.0
 11
-43.12918735
 21
-28.29299147
 31
0.0
1001
ITEMNAME
1000
LNSP2
  0
MTEXT
  5
97B
330
1A
100
AcDbEntity
  8
250
  6
CONTINUOUS
 62
    40
100
AcDbMText
 10
-40.32918735
 20
-27.29299147
 30
0.0
 40
2.8
 41
0.0
 71
     7
 72
     1
  1
CK6
  7
YOKO
1001
ITEMNAME
1000
LNSP3
1001
ACAD
1000
MTEXTBEGIN
1070
    73
1070
     1
1070
    44
1040
1.0
1070
    74
1070
     0
1000
MTEXTEND
1000
MTEXTBEGIN
1070
    73
1070
     1
1070
    44
1040
1.0
1070
    74
1070
     0
1000
MTEXTEND
1000
MTEXTBEGIN
1070
    73
1070
     1
1070
    44
1040
1.0
1070
    74
1070
     0
1000
MTEXTEND
  0
DIMENSION
  5
A14
330
1A
100
AcDbEntity
  8
250
  6
CONTINUOUS
100
AcDbDimension
  2
*D17
 10
74.1
 20
30.0
 30
0.0
 11
74.1
 21
0.0
 31
0.0
 70
   160
  1
{\H2.8;\U+2205}<>
  3
BIGT
100
AcDbAlignedDimension
 13
30.9
 23
-30.0
 33
0.0
 14
30.9
 24
30.0
 34
0.0
 50
90.0
100
AcDbRotatedDimension
  0
DIMENSION
  5
A4C
330
1A
100
AcDbEntity
  8
250
  6
CONTINUOUS
100
AcDbDimension
  2
*D18
 10
67.1
 20
10.0
 30
0.0
 11
67.1
 21
0.0
 31
0.0
 70
   160
  1
{\H2.8;\U+2205}<>
  3
BIGT
100
AcDbAlignedDimension
 13
56.0
 23
-10.0
 33
0.0
 14
56.0
 24
10.0
 34
0.0
 50
90.0
100
AcDbRotatedDimension
1001
ACAD
1000
DSTYLE
1002
{
1070
    75
1070
     1
1070
     6
1000
矢印なし
1002
}
  0
DIMENSION
  5
A86
330
1A
100
AcDbEntity
  8
250
  6
CONTINUOUS
100
AcDbDimension
  2
*D19
 10
56.0
 20
45.5
 30
0.0
 11
28.0
 21
47.9
 31
0.0
 70
    32
  3
BIGT
100
AcDbAlignedDimension
 13
0.0
 23
32.0
 33
0.0
 14
56.0
 24
16.71173368
 34
0.0
100
AcDbRotatedDimension
  0
TEXT
  5
A95
330
1A
100
AcDbEntity
  8
241
100
AcDbText
 10
-40.0
 20
59.5
 30
0.0
 40
5.0
  1
CK6-HMC20
  7
YOKO
 11
-40.0
 21
59.5
 31
0.0
100
AcDbText
 73
     1
  0
INSERT
  5
B53
330
1A
100
AcDbEntity
  8
245
100
AcDbBlockReference
  2
1
 10
0.0
 20
0.0
 30
0.0
  0
VIEWPORT
  5
22
330
17
100
AcDbEntity
 67
     1
  8
0
100
AcDbViewport
 10
261.51769912
 20
148.5
 30
0.0
 40
523.03539823
 41
297.0
 68
     1
 69
     1
1001
ACAD
1000
MVIEW
1002
{
1070
    16
1010
0.0
1020
0.0
1030
0.0
1010
0.0
1020
0.0
1030
1.0
1040
0.0
1040
297.0
1040
261.51769912
1040
148.5
1040
50.0
1040
0.0
1040
0.0
1070
     0
1070
   100
1070
     1
1070
     1
1070
     0
1070
     0
1070
     0
1070
     0
1040
0.0
1040
0.0
1040
0.0
1040
1.0
1040
1.0
1040
10.0
1040
10.0
1070
     0
1002
{
1002
}
1002
}
  0
ENDSEC
  0
SECTION
  2
OBJECTS
  0
DICTIONARY
  5
C
330
0
100
AcDbDictionary
  3
ACAD_GROUP
350
D
  3
ACAD_LAYOUT
350
565
  3
ACAD_MLINESTYLE
350
E
  3
ACAD_PLOTSETTINGS
350
566
  3
ACAD_PLOTSTYLENAME
350
563
  3
ACDBHEADERROUNDTRIPXREC
350
BB3
  3
GRADE_DWG
350
540
  0
DICTIONARY
  5
BD6
330
1A
100
AcDbDictionary
280
     1
  3
ACAD_LAYOUTSELFREF
360
BD7
  0
DICTIONARY
  5
BD4
330
17
100
AcDbDictionary
280
     1
  3
ACAD_LAYOUTSELFREF
360
BD5
  0
DICTIONARY
  5
D
102
{ACAD_REACTORS
330
C
102
}
330
C
100
AcDbDictionary
  3
*A1
350
6C7
  3
*A2
350
6C8
  3
*A3
350
6D4
  3
*A4
350
6D5
  3
DREC-1
350
5FC
  3
DREC-2
350
654
  3
DREC-3
350
673
  0
DICTIONARY
  5
565
102
{ACAD_REACTORS
330
C
102
}
330
C
100
AcDbDictionary
  0
DICTIONARY
  5
E
102
{ACAD_REACTORS
330
C
102
}
330
C
100
AcDbDictionary
  3
STANDARD
350
13
  0
DICTIONARY
  5
566
102
{ACAD_REACTORS
330
C
102
}
330
C
100
AcDbDictionary
  3
A3_0_5倍_
350
758
  3
A3_1倍_
350
757
  3
A3_1倍__2000_
350
707
  3
A3_2倍_
350
759
  3
A4_0_5倍_
350
755
  3
A4_1倍_
350
754
  3
A4_1倍__2000_
350
708
  3
A4_2倍_
350
756
  0
ACDBDICTIONARYWDFLT
  5
563
102
{ACAD_REACTORS
330
C
102
}
330
C
100
AcDbDictionary
281
     1
  3
Normal
350
564
100
AcDbDictionaryWithDefault
340
564
  0
DICTIONARY
  5
BB3
102
{ACAD_REACTORS
330
C
102
}
330
C
100
AcDbDictionary
  3
CEPSNTYPE
350
BBD
  3
DIMSTYLEDATA
350
BC1
  3
FINGERPRINTGUID
350
BBE
  3
HYPERLINKBASE
350
BB6
  3
INSUNITS
350
BBC
  3
LAYOUTDICT
350
BB8
  3
LWETCUNION
350
BBB
  3
PLOTSETDICT
350
BB9
  3
PLOTSTYLNAMDICT
350
BBA
  3
PSVPSCALE
350
BC0
  3
PUCSBASE
350
BC4
  3
PUCSORGBACK
350
BCA
  3
PUCSORGBOTTOM
350
BC6
  3
PUCSORGFRONT
350
BC9
  3
PUCSORGLEFT
350
BC7
  3
PUCSORGRIGHT
350
BC8
  3
PUCSORGTOP
350
BC5
  3
PUCSORTHOREF
350
BC2
  3
PUCSORTHOVIEW
350
BC3
  3
STYLESHEET
350
BB7
  3
TSTACKALIGN
350
BB4
  3
TSTACKSIZE
350
BB5
  3
UCSBASE
350
BCD
  3
UCSORGBACK
350
BD3
  3
UCSORGBOTTOM
350
BCF
  3
UCSORGFRONT
350
BD2
  3
UCSORGLEFT
350
BD0
  3
UCSORGRIGHT
350
BD1
  3
UCSORGTOP
350
BCE
  3
UCSORTHOREF
350
BCB
  3
UCSORTHOVIEW
350
BCC
  3
VERSIONGUID
350
BBF
  0
DICTIONARY
  5
540
102
{ACAD_REACTORS
330
C
102
}
330
C
100
AcDbDictionary
  3
VERSION
350
560
  0
XRECORD
  5
BD7
102
{ACAD_REACTORS
330
BD6
102
}
330
BD6
100
AcDbXrecord
340
1A
  0
XRECORD
  5
BD5
102
{ACAD_REACTORS
330
BD4
102
}
330
BD4
100
AcDbXrecord
340
17
  0
GROUP
  5
6C7
102
{ACAD_REACTORS
330
D
102
}
330
D
100
AcDbGroup
300

 70
     0
 71
     1
1001
GRPNAME
1000
DMA00
  0
GROUP
  5
6C8
102
{ACAD_REACTORS
330
D
102
}
330
D
100
AcDbGroup
300

 70
     0
 71
     1
1001
GRPNAME
1000
DMA00
  0
GROUP
  5
6D4
102
{ACAD_REACTORS
330
D
102
}
330
D
100
AcDbGroup
300

 70
     0
 71
     1
1001
GRPNAME
1000
DMA00
  0
GROUP
  5
6D5
102
{ACAD_REACTORS
330
D
102
}
330
D
100
AcDbGroup
300

 70
     0
 71
     1
1001
GRPNAME
1000
DMA00
  0
GROUP
  5
5FC
102
{ACAD_REACTORS
330
D
102
}
330
D
100
AcDbGroup
300

 70
     0
 71
     1
1001
GRPNAME
1000
DREC-
1001
GPARA
1000
xsiz
1000
44.182
1000
ysiz
1000
40.677
1000
angl
1000
0
1000
ctyp
1000
0
1000
csiz
1000
5
1000
lfnt
1000
cont
1000
hcnt
1000
hoff
1000
vcnt
1000
voff
1000
opnt
1000
4
1000
dxpt
1000
0
1000
dypt
1000
0
  0
GROUP
  5
654
102
{ACAD_REACTORS
330
D
102
}
330
D
100
AcDbGroup
300

 70
     0
 71
     1
1001
GRPNAME
1000
DREC-
1001
GPARA
1000
xsiz
1000
54.592
1000
ysiz
1000
53.036
1000
angl
1000
0
1000
ctyp
1000
0
1000
csiz
1000
5
1000
lfnt
1000
cont
1000
hcnt
1000
hoff
1000
vcnt
1000
voff
1000
opnt
1000
4
1000
dxpt
1000
0
1000
dypt
1000
0
  0
GROUP
  5
673
102
{ACAD_REACTORS
330
D
102
}
330
D
100
AcDbGroup
300

 70
     0
 71
     1
1001
GRPNAME
1000
DREC-
1001
GPARA
1000
xsiz
1000
30.363
1000
ysiz
1000
36.175
1000
angl
1000
0
1000
ctyp
1000
0
1000
csiz
1000
5
1000
lfnt
1000
cont
1000
hcnt
1000
hoff
1000
vcnt
1000
voff
1000
opnt
1000
4
1000
dxpt
1000
0
1000
dypt
1000
0
  0
MLINESTYLE
  5
13
102
{ACAD_REACTORS
330
E
102
}
330
E
100
AcDbMlineStyle
  2
STANDARD
 70
     0
  3

 62
     0
 51
90.0
 52
90.0
 71
     2
 49
0.5
 62
   256
  6
BYLAYER
 49
-0.5
 62
   256
  6
BYLAYER
  0
PLOTSETTINGS
  5
758
102
{ACAD_REACTORS
330
566
102
}
330
566
100
AcDbPlotSettings
  1
A3(0.5倍)
  2
\\AWTECPC05\HP DeskJet 1120C
  4
A3
  6

 40
5.95841646
 41
13.49375153
 42
6.04309082
 43
3.67242432
 44
296.92599487
 45
419.94665527
 46
89.96
 47
127.14
 48
0.0
 49
0.0
140
0.0
141
0.0
142
1.0
143
2.0
 70
  1716
 72
     1
 73
     1
 74
     2
  7
big.ctb
 75
    17
147
0.5
148
0.0
149
0.0
  0
PLOTSETTINGS
  5
757
102
{ACAD_REACTORS
330
566
102
}
330
566
100
AcDbPlotSettings
  1
A3(1倍)
  2
\\AWTECPC05\HP DeskJet 1120C
  4
A3
  6

 40
5.95841646
 41
13.49375153
 42
6.04309082
 43
3.67242432
 44
296.92599487
 45
419.94665527
 46
37.46
 47
52.89
 48
0.0
 49
0.0
140
0.0
141
0.0
142
1.0
143
1.0
 70
  1716
 72
     1
 73
     1
 74
     2
  7
big.ctb
 75
    16
147
1.0
148
0.0
149
0.0
  0
PLOTSETTINGS
  5
707
102
{ACAD_REACTORS
330
566
102
}
330
566
100
AcDbPlotSettings
  1
A3(1倍)(2000)
  2
SII LS-1300 (D-SCAN)
  4
User258
  6

 40
3.17499995
 41
3.17499995
 42
3.17498779
 43
3.17498779
 44
419.98898315
 45
296.98950195
 46
58.32
 47
40.32
 48
0.0
 49
0.0
140
0.0
141
0.0
142
1.0
143
1.0
 70
  1716
 72
     1
 73
     0
 74
     2
  7
big.ctb
 75
    16
147
1.0
148
0.0
149
0.0
  0
PLOTSETTINGS
  5
759
102
{ACAD_REACTORS
330
566
102
}
330
566
100
AcDbPlotSettings
  1
A3(2倍)
  2
\\AWTECPC05\HP DeskJet 1120C
  4
A3
  6

 40
5.95841646
 41
13.49375153
 42
6.04309082
 43
3.67242432
 44
296.92599487
 45
419.94665527
 46
-67.54
 47
-95.61
 48
0.0
 49
0.0
140
0.0
141
0.0
142
1.0
143
0.5
 70
  1716
 72
     1
 73
     1
 74
     2
  7
big.ctb
 75
    27
147
2.0
148
0.0
149
0.0
  0
PLOTSETTINGS
  5
755
102
{ACAD_REACTORS
330
566
102
}
330
566
100
AcDbPlotSettings
  1
A4(0.5倍)
  2
\\AWTECPC05\HP DeskJet 1120C
  4
A4
  6

 40
4.18041658
 41
13.49374962
 42
4.18040466
 43
3.92642212
 44
209.97332764
 45
296.92599487
 46
48.31
 47
65.5
 48
0.0
 49
0.0
140
0.0
141
0.0
142
1.0
143
2.0
 70
  1716
 72
     1
 73
     1
 74
     2
  7
big.ctb
 75
    17
147
0.5
148
0.0
149
0.0
  0
PLOTSETTINGS
  5
754
102
{ACAD_REACTORS
330
566
102
}
330
566
100
AcDbPlotSettings
  1
A4(1倍)
  2
\\AWTECPC05\HP DeskJet 1120C
  4
A4
  6

 40
4.18041658
 41
13.49374962
 42
4.18040466
 43
3.92642212
 44
209.97332764
 45
296.92599487
 46
-4.19
 47
-8.75
 48
0.0
 49
0.0
140
0.0
141
0.0
142
1.0
143
1.0
 70
  1716
 72
     1
 73
     1
 74
     2
  7
big.ctb
 75
    16
147
1.0
148
0.0
149
0.0
  0
PLOTSETTINGS
  5
708
102
{ACAD_REACTORS
330
566
102
}
330
566
100
AcDbPlotSettings
  1
A4(1倍)(2000)
  2
SII LS-1300 (D-SCAN)
  4
User259
  6

 40
3.17499995
 41
3.17499995
 42
3.17498779
 43
3.17500305
 44
296.98950195
 45
209.99449158
 46
-3.18
 47
-3.18
 48
0.0
 49
0.0
140
0.0
141
0.0
142
1.0
143
1.0
 70
  1716
 72
     1
 73
     0
 74
     2
  7
big.ctb
 75
    16
147
1.0
148
0.0
149
0.0
  0
PLOTSETTINGS
  5
756
102
{ACAD_REACTORS
330
566
102
}
330
566
100
AcDbPlotSettings
  1
A4(2倍)
  2
\\AWTECPC05\HP DeskJet 1120C
  4
A4
  6

 40
4.18041658
 41
13.49374962
 42
4.18040466
 43
3.92642212
 44
209.97332764
 45
296.92599487
 46
-109.19
 47
-157.25
 48
0.0
 49
0.0
140
0.0
141
0.0
142
1.0
143
0.5
 70
  1716
 72
     1
 73
     1
 74
     2
  7
big.ctb
 75
    27
147
2.0
148
0.0
149
0.0
  0
ACDBPLACEHOLDER
  5
564
102
{ACAD_REACTORS
330
563
102
}
330
563
100
AcDbPlaceHolder
280
     0
  0
XRECORD
  5
BBD
102
{ACAD_REACTORS
330
BB3
102
}
330
BB3
100
AcDbXrecord
 90
        0
  0
XRECORD
  5
BC1
102
{ACAD_REACTORS
330
BB3
102
}
330
BB3
100
AcDbXrecord
1000
DSTYLE
1002
{
1070
    79
 70
     2
1070
   179
 70
     3
1070
   289
 70
     2
1070
   341
340
594
1070
   343
340
594
1070
   344
340
594
1070
   371
 70
    -1
1070
   372
 70
    -1
1002
}
  0
XRECORD
  5
BBE
102
{ACAD_REACTORS
330
BB3
102
}
330
BB3
100
AcDbXrecord
  1
{51294030-9CB4-11D3-8E18-00A0C925D94D}
  0
XRECORD
  5
BB6
102
{ACAD_REACTORS
330
BB3
102
}
330
BB3
100
AcDbXrecord
  1

  0
XRECORD
  5
BBC
102
{ACAD_REACTORS
330
BB3
102
}
330
BB3
100
AcDbXrecord
 90
        0
  0
XRECORD
  5
BB8
102
{ACAD_REACTORS
330
BB3
102
}
330
BB3
100
AcDbXrecord
340
565
  0
XRECORD
  5
BBB
102
{ACAD_REACTORS
330
BB3
102
}
330
BB3
100
AcDbXrecord
 90
    10781
  0
XRECORD
  5
BB9
102
{ACAD_REACTORS
330
BB3
102
}
330
BB3
100
AcDbXrecord
340
566
  0
XRECORD
  5
BBA
102
{ACAD_REACTORS
330
BB3
102
}
330
BB3
100
AcDbXrecord
340
563
  0
XRECORD
  5
BC0
102
{ACAD_REACTORS
330
BB3
102
}
330
BB3
100
AcDbXrecord
 40
0.0
  0
XRECORD
  5
BC4
102
{ACAD_REACTORS
330
BB3
102
}
330
BB3
100
AcDbXrecord
340
0
  0
XRECORD
  5
BCA
102
{ACAD_REACTORS
330
BB3
102
}
330
BB3
100
AcDbXrecord
 10
0.0
 20
0.0
 30
0.0
  0
XRECORD
  5
BC6
102
{ACAD_REACTORS
330
BB3
102
}
330
BB3
100
AcDbXrecord
 10
0.0
 20
0.0
 30
0.0
  0
XRECORD
  5
BC9
102
{ACAD_REACTORS
330
BB3
102
}
330
BB3
100
AcDbXrecord
 10
0.0
 20
0.0
 30
0.0
  0
XRECORD
  5
BC7
102
{ACAD_REACTORS
330
BB3
102
}
330
BB3
100
AcDbXrecord
 10
0.0
 20
0.0
 30
0.0
  0
XRECORD
  5
BC8
102
{ACAD_REACTORS
330
BB3
102
}
330
BB3
100
AcDbXrecord
 10
0.0
 20
0.0
 30
0.0
  0
XRECORD
  5
BC5
102
{ACAD_REACTORS
330
BB3
102
}
330
BB3
100
AcDbXrecord
 10
0.0
 20
0.0
 30
0.0
  0
XRECORD
  5
BC2
102
{ACAD_REACTORS
330
BB3
102
}
330
BB3
100
AcDbXrecord
340
0
  0
XRECORD
  5
BC3
102
{ACAD_REACTORS
330
BB3
102
}
330
BB3
100
AcDbXrecord
 70
     0
  0
XRECORD
  5
BB7
102
{ACAD_REACTORS
330
BB3
102
}
330
BB3
100
AcDbXrecord
  1
big.ctb
  0
XRECORD
  5
BB4
102
{ACAD_REACTORS
330
BB3
102
}
330
BB3
100
AcDbXrecord
 90
        1
  0
XRECORD
  5
BB5
102
{ACAD_REACTORS
330
BB3
102
}
330
BB3
100
AcDbXrecord
 90
       70
  0
XRECORD
  5
BCD
102
{ACAD_REACTORS
330
BB3
102
}
330
BB3
100
AcDbXrecord
340
0
  0
XRECORD
  5
BD3
102
{ACAD_REACTORS
330
BB3
102
}
330
BB3
100
AcDbXrecord
 10
0.0
 20
0.0
 30
0.0
  0
XRECORD
  5
BCF
102
{ACAD_REACTORS
330
BB3
102
}
330
BB3
100
AcDbXrecord
 10
0.0
 20
0.0
 30
0.0
  0
XRECORD
  5
BD2
102
{ACAD_REACTORS
330
BB3
102
}
330
BB3
100
AcDbXrecord
 10
0.0
 20
0.0
 30
0.0
  0
XRECORD
  5
BD0
102
{ACAD_REACTORS
330
BB3
102
}
330
BB3
100
AcDbXrecord
 10
0.0
 20
0.0
 30
0.0
  0
XRECORD
  5
BD1
102
{ACAD_REACTORS
330
BB3
102
}
330
BB3
100
AcDbXrecord
 10
0.0
 20
0.0
 30
0.0
  0
XRECORD
  5
BCE
102
{ACAD_REACTORS
330
BB3
102
}
330
BB3
100
AcDbXrecord
 10
0.0
 20
0.0
 30
0.0
  0
XRECORD
  5
BCB
102
{ACAD_REACTORS
330
BB3
102
}
330
BB3
100
AcDbXrecord
340
0
  0
XRECORD
  5
BCC
102
{ACAD_REACTORS
330
BB3
102
}
330
BB3
100
AcDbXrecord
 70
     0
  0
XRECORD
  5
BBF
102
{ACAD_REACTORS
330
BB3
102
}
330
BB3
100
AcDbXrecord
  1
{4D05CE22-D453-4392-BEB5-F06E9891179C}
  0
XRECORD
  5
560
102
{ACAD_REACTORS
330
540
102
}
330
540
100
AcDbXrecord
  1
2.0.0
  0
ENDSEC
  0
EOF
