  0
SECTION
  2
HEADER
  9
$ACADVER
  1
AC1014
  9
$ACADMAINTVER
 70
     9
  9
$DWGCODEPAGE
  3
ANSI_932
  9
$INSBASE
 10
0.0
 20
0.0
 30
0.0
  9
$EXTMIN
 10
-39.16709948948016
 20
-35.90234189450271
 30
0.0
  9
$EXTMAX
 10
116.0987671652661
 20
61.00000000000001
 30
0.0
  9
$LIMMIN
 10
0.0
 20
0.0
  9
$LIMMAX
 10
297.0
 20
210.0
  9
$ORTHOMODE
 70
     0
  9
$REGENMODE
 70
     1
  9
$FILLMODE
 70
     1
  9
$QTEXTMODE
 70
     0
  9
$MIRRTEXT
 70
     1
  9
$DRAGMODE
 70
     2
  9
$LTSCALE
 40
10.0
  9
$OSMODE
 70
   613
  9
$ATTMODE
 70
     1
  9
$TEXTSIZE
 40
3.0
  9
$TRACEWID
 40
1.0
  9
$TEXTSTYLE
  7
YOKO
  9
$CLAYER
  8
240
  9
$CELTYPE
  6
BYLAYER
  9
$CECOLOR
 62
   256
  9
$CELTSCALE
 40
1.0
  9
$DELOBJ
 70
     1
  9
$DISPSILH
 70
     0
  9
$DIMSCALE
 40
1.0
  9
$DIMASZ
 40
2.229999999999999
  9
$DIMEXO
 40
0.5
  9
$DIMDLI
 40
2.5
  9
$DIMRND
 40
0.0
  9
$DIMDLE
 40
0.0
  9
$DIMEXE
 40
1.0
  9
$DIMTP
 40
0.0
  9
$DIMTM
 40
0.0
  9
$DIMTXT
 40
3.0
  9
$DIMCEN
 40
0.0
  9
$DIMTSZ
 40
0.0
  9
$DIMTOL
 70
     0
  9
$DIMLIM
 70
     0
  9
$DIMTIH
 70
     0
  9
$DIMTOH
 70
     0
  9
$DIMSE1
 70
     0
  9
$DIMSE2
 70
     0
  9
$DIMTAD
 70
     3
  9
$DIMZIN
 70
     8
  9
$DIMBLK
  1
OPEN
  9
$DIMASO
 70
     1
  9
$DIMSHO
 70
     1
  9
$DIMPOST
  1

  9
$DIMAPOST
  1

  9
$DIMALT
 70
     0
  9
$DIMALTD
 70
     2
  9
$DIMALTF
 40
25.4
  9
$DIMLFAC
 40
1.0
  9
$DIMTOFL
 70
     1
  9
$DIMTVP
 40
0.0
  9
$DIMTIX
 70
     0
  9
$DIMSOXD
 70
     0
  9
$DIMSAH
 70
     0
  9
$DIMBLK1
  1

  9
$DIMBLK2
  1

  9
$DIMSTYLE
  2
BIGT
  9
$DIMCLRD
 70
   256
  9
$DIMCLRE
 70
   256
  9
$DIMCLRT
 70
    40
  9
$DIMTFAC
 40
1.0
  9
$DIMGAP
 40
1.0
  9
$DIMJUST
 70
     0
  9
$DIMSD1
 70
     0
  9
$DIMSD2
 70
     0
  9
$DIMTOLJ
 70
     1
  9
$DIMTZIN
 70
     8
  9
$DIMALTZ
 70
     0
  9
$DIMALTTZ
 70
     0
  9
$DIMFIT
 70
     2
  9
$DIMUPT
 70
     0
  9
$DIMUNIT
 70
     2
  9
$DIMDEC
 70
     3
  9
$DIMTDEC
 70
     3
  9
$DIMALTU
 70
     2
  9
$DIMALTTD
 70
     2
  9
$DIMTXSTY
  7
STANDARD
  9
$DIMAUNIT
 70
     0
  9
$LUNITS
 70
     2
  9
$LUPREC
 70
     3
  9
$SKETCHINC
 40
1.0
  9
$FILLETRAD
 40
0.0
  9
$AUNITS
 70
     0
  9
$AUPREC
 70
     3
  9
$MENU
  1
.
  9
$ELEVATION
 40
0.0
  9
$PELEVATION
 40
0.0
  9
$THICKNESS
 40
0.0
  9
$LIMCHECK
 70
     0
  9
$BLIPMODE
 70
     0
  9
$CHAMFERA
 40
10.0
  9
$CHAMFERB
 40
10.0
  9
$CHAMFERC
 40
0.0
  9
$CHAMFERD
 40
0.0
  9
$SKPOLY
 70
     0
  9
$TDCREATE
 40
2452310.378031134
  9
$TDUPDATE
 40
2452668.644194872
  9
$TDINDWG
 40
0.0248032176
  9
$TDUSRTIMER
 40
0.0248030440
  9
$USRTIMER
 70
     1
  9
$ANGBASE
 50
0.0
  9
$ANGDIR
 70
     0
  9
$PDMODE
 70
    35
  9
$PDSIZE
 40
-5.0
  9
$PLINEWID
 40
0.0
  9
$COORDS
 70
     0
  9
$SPLFRAME
 70
     0
  9
$SPLINETYPE
 70
     6
  9
$SPLINESEGS
 70
     8
  9
$ATTDIA
 70
     1
  9
$ATTREQ
 70
     0
  9
$HANDLING
 70
-16383
  9
$HANDSEED
  5
1080
  9
$SURFTAB1
 70
     6
  9
$SURFTAB2
 70
     6
  9
$SURFTYPE
 70
     6
  9
$SURFU
 70
     6
  9
$SURFV
 70
     6
  9
$UCSNAME
  2

  9
$UCSORG
 10
0.0
 20
0.0
 30
0.0
  9
$UCSXDIR
 10
1.0
 20
0.0
 30
0.0
  9
$UCSYDIR
 10
0.0
 20
1.0
 30
0.0
  9
$PUCSNAME
  2

  9
$PUCSORG
 10
0.0
 20
0.0
 30
0.0
  9
$PUCSXDIR
 10
1.0
 20
0.0
 30
0.0
  9
$PUCSYDIR
 10
0.0
 20
1.0
 30
0.0
  9
$USERI1
 70
     1
  9
$USERI2
 70
     0
  9
$USERI3
 70
     0
  9
$USERI4
 70
     0
  9
$USERI5
 70
     0
  9
$USERR1
 40
0.0
  9
$USERR2
 40
0.0
  9
$USERR3
 40
0.0
  9
$USERR4
 40
0.0
  9
$USERR5
 40
0.0
  9
$WORLDVIEW
 70
     1
  9
$SHADEDGE
 70
     3
  9
$SHADEDIF
 70
    70
  9
$TILEMODE
 70
     1
  9
$MAXACTVP
 70
    16
  9
$PINSBASE
 10
0.0
 20
0.0
 30
0.0
  9
$PLIMCHECK
 70
     0
  9
$PEXTMIN
 10
1.000000000000000E+20
 20
1.000000000000000E+20
 30
1.000000000000000E+20
  9
$PEXTMAX
 10
-1.000000000000000E+20
 20
-1.000000000000000E+20
 30
-1.000000000000000E+20
  9
$PLIMMIN
 10
0.0
 20
0.0
  9
$PLIMMAX
 10
420.0
 20
297.0
  9
$UNITMODE
 70
     0
  9
$VISRETAIN
 70
     0
  9
$PLINEGEN
 70
     0
  9
$PSLTSCALE
 70
     1
  9
$TREEDEPTH
 70
  3020
  9
$PICKSTYLE
 70
     0
  9
$CMLSTYLE
  2
STANDARD
  9
$CMLJUST
 70
     0
  9
$CMLSCALE
 40
1.0
  9
$PROXYGRAPHICS
 70
     1
  9
$MEASUREMENT
 70
     1
  0
ENDSEC
  0
SECTION
  2
CLASSES
  0
CLASS
  1
XRECORD
  2
AcDbXrecord
  3
AutoCAD 2000
 90
        0
280
     0
281
     0
  0
CLASS
  1
ACDBDICTIONARYWDFLT
  2
AcDbDictionaryWithDefault
  3
AutoCAD 2000
 90
        0
280
     0
281
     0
  0
CLASS
  1
ACDBPLACEHOLDER
  2
AcDbPlaceHolder
  3
AutoCAD 2000
 90
        0
280
     0
281
     0
  0
CLASS
  1
LAYOUT
  2
AcDbLayout
  3
AutoCAD 2000
 90
        0
280
     0
281
     0
  0
CLASS
  1
LONG_TRANSACTION
  2
AcDbLongTransaction
  3
AutoCAD 2000
 90
        0
280
     0
281
     0
  0
CLASS
  1
LWPOLYLINE
  2
AcDbPolyline
  3
AutoCAD 2000
 90
        0
280
     0
281
     1
  0
CLASS
  1
HATCH
  2
AcDbHatch
  3
AutoCAD 2000
 90
        0
280
     0
281
     1
  0
CLASS
  1
XRECORD
  2
AcDbXrecord
  3
AutoCAD 2000
 90
        0
280
     0
281
     0
  0
ENDSEC
  0
SECTION
  2
TABLES
  0
TABLE
  2
VPORT
  5
8
330
0
100
AcDbSymbolTable
 70
     2
  0
VPORT
  5
105A
330
8
100
AcDbSymbolTableRecord
100
AcDbViewportTableRecord
  2
*ACTIVE
 70
     0
 10
0.0
 20
0.0
 11
1.0
 21
1.0
 12
38.46801497437252
 22
12.54242125401449
 13
0.0
 23
0.0
 14
7.0
 24
7.0
 15
7.0
 25
7.0
 16
0.0
 26
0.0
 36
1.0
 17
0.0
 27
0.0
 37
0.0
 40
101.8821269865769
 41
1.53185955786736
 42
50.0
 43
0.0
 44
0.0
 50
0.0
 51
0.0
 71
     0
 72
  2000
 73
     1
 74
     0
 75
     0
 76
     0
 77
     0
 78
     0
  0
ENDTAB
  0
TABLE
  2
LTYPE
  5
5
330
0
100
AcDbSymbolTable
 70
     2
  0
LTYPE
  5
14
330
5
100
AcDbSymbolTableRecord
100
AcDbLinetypeTableRecord
  2
BYBLOCK
 70
     0
  3

 72
    65
 73
     0
 40
0.0
  0
LTYPE
  5
15
330
5
100
AcDbSymbolTableRecord
100
AcDbLinetypeTableRecord
  2
BYLAYER
 70
     0
  3

 72
    65
 73
     0
 40
0.0
  0
LTYPE
  5
16
330
5
100
AcDbSymbolTableRecord
100
AcDbLinetypeTableRecord
  2
CONTINUOUS
 70
     0
  3
Solid line
 72
    65
 73
     0
 40
0.0
  0
LTYPE
  5
258
330
5
100
AcDbSymbolTableRecord
100
AcDbLinetypeTableRecord
  2
CENTER2
 70
     0
  3
___ _ ___ _ ___ _ ___ _ ___ _ ___ _ ___ _ ___ _
 72
    65
 73
     4
 40
1.125
 49
0.75
 74
     0
 49
-0.125
 74
     0
 49
0.125
 74
     0
 49
-0.125
 74
     0
  0
ENDTAB
  0
TABLE
  2
LAYER
  5
2
330
0
100
AcDbSymbolTable
 70
     7
  0
LAYER
  5
F
330
2
100
AcDbSymbolTableRecord
100
AcDbLayerTableRecord
  2
0
 70
     0
 62
     7
  6
CONTINUOUS
  0
LAYER
  5
1AA
330
2
100
AcDbSymbolTableRecord
100
AcDbLayerTableRecord
  2
240
 70
     0
 62
     4
  6
CONTINUOUS
  0
LAYER
  5
1AB
330
2
100
AcDbSymbolTableRecord
100
AcDbLayerTableRecord
  2
241
 70
     0
 62
   211
  6
CONTINUOUS
  0
LAYER
  5
1AF
330
2
100
AcDbSymbolTableRecord
100
AcDbLayerTableRecord
  2
245
 70
     0
 62
     2
  6
CENTER2
  0
LAYER
  5
21B
330
2
100
AcDbSymbolTableRecord
100
AcDbLayerTableRecord
  2
247
 70
     0
 62
    60
  6
CONTINUOUS
  0
LAYER
  5
21E
330
2
100
AcDbSymbolTableRecord
100
AcDbLayerTableRecord
  2
250
 70
     0
 62
     3
  6
CONTINUOUS
  0
LAYER
  5
5C4
330
2
100
AcDbSymbolTableRecord
100
AcDbLayerTableRecord
  2
DEFPOINTS
 70
     0
 62
     7
  6
CONTINUOUS
  0
ENDTAB
  0
TABLE
  2
STYLE
  5
3
330
0
100
AcDbSymbolTable
 70
     2
  0
STYLE
  5
10
330
3
100
AcDbSymbolTableRecord
100
AcDbTextStyleTableRecord
  2
STANDARD
 70
     0
 40
0.0
 41
1.0
 50
0.0
 71
     0
 42
3.0
  3
romans.shx
  4
BIGFONT.SHX
  0
STYLE
  5
339
330
3
100
AcDbSymbolTableRecord
100
AcDbTextStyleTableRecord
  2
YOKO
 70
     0
 40
0.0
 41
1.0
 50
0.0
 71
     0
 42
3.0
  3
romans.shx
  4
extfont.shx
  0
ENDTAB
  0
TABLE
  2
VIEW
  5
6
330
0
100
AcDbSymbolTable
 70
     0
  0
ENDTAB
  0
TABLE
  2
UCS
  5
7
330
0
100
AcDbSymbolTable
 70
     0
  0
ENDTAB
  0
TABLE
  2
APPID
  5
9
330
0
100
AcDbSymbolTable
 70
     9
  0
APPID
  5
11
330
9
100
AcDbSymbolTableRecord
100
AcDbRegAppTableRecord
  2
ACAD
 70
     0
  0
APPID
  5
1B1
330
9
100
AcDbSymbolTableRecord
100
AcDbRegAppTableRecord
  2
GLOBAL
 70
     0
  0
APPID
  5
2A4
330
9
100
AcDbSymbolTableRecord
100
AcDbRegAppTableRecord
  2
DETAIL
 70
     0
  0
APPID
  5
5FD
330
9
100
AcDbSymbolTableRecord
100
AcDbRegAppTableRecord
  2
GRPNAME
 70
     0
  0
APPID
  5
5FE
330
9
100
AcDbSymbolTableRecord
100
AcDbRegAppTableRecord
  2
GPARA
 70
     0
  0
APPID
  5
873
330
9
100
AcDbSymbolTableRecord
100
AcDbRegAppTableRecord
  2
HATCH_TYPE
 70
     0
  0
APPID
  5
874
330
9
100
AcDbSymbolTableRecord
100
AcDbRegAppTableRecord
  2
HATCH_DISPLAY
 70
     0
  0
APPID
  5
875
330
9
100
AcDbSymbolTableRecord
100
AcDbRegAppTableRecord
  2
HATCH_DISTANCE
 70
     0
  0
APPID
  5
B82
330
9
100
AcDbSymbolTableRecord
100
AcDbRegAppTableRecord
  2
ITEMNAME
 70
     0
  0
ENDTAB
  0
TABLE
  2
DIMSTYLE
  5
A
330
0
100
AcDbSymbolTable
 70
     2
  0
DIMSTYLE
105
48F
330
A
100
AcDbSymbolTableRecord
100
AcDbDimStyleTableRecord
  2
STANDARD
 70
     0
  3

  4

  5

  6

  7

 40
1.0
 41
2.0
 42
2.0
 43
3.75
 44
2.0
 45
0.0
 46
0.0
 47
0.0
 48
0.0
140
4.0
141
0.09
142
0.0
143
25.4
144
1.0
145
0.0
146
1.0
147
1.0
 71
     0
 72
     0
 73
     1
 74
     1
 75
     0
 76
     0
 77
     0
 78
     8
170
     0
171
     2
172
     0
173
     1
174
     0
175
     0
176
   256
177
   256
178
   256
270
     2
271
     3
272
     4
273
     2
274
     2
340
10
275
     0
280
     0
281
     0
282
     0
283
     1
284
     8
285
     0
286
     0
287
     3
288
     0
  0
DIMSTYLE
105
59A
102
{ACAD_REACTORS
330
FEE
330
FEF
330
FF4
330
FF9
102
}
330
A
100
AcDbSymbolTableRecord
100
AcDbDimStyleTableRecord
  2
BIGT
 70
     0
  3

  4

  5
OPEN
  6

  7

 40
1.0
 41
2.229999999999999
 42
0.5
 43
2.5
 44
1.0
 45
0.0
 46
0.0
 47
0.0
 48
0.0
140
3.5
141
0.0
142
0.0
143
25.4
144
1.0
145
0.0
146
1.0
147
1.0
 71
     0
 72
     0
 73
     0
 74
     0
 75
     0
 76
     0
 77
     3
 78
     9
170
     0
171
     2
172
     1
173
     0
174
     0
175
     0
176
   256
177
   256
178
    40
270
     2
271
     3
272
     3
273
     2
274
     2
340
10
275
     0
280
     0
281
     0
282
     0
283
     1
284
     8
285
     0
286
     0
287
     2
288
     0
  0
ENDTAB
  0
TABLE
  2
BLOCK_RECORD
  5
1
330
0
100
AcDbSymbolTable
 70
     6
  0
BLOCK_RECORD
  5
1A
102
{ACAD_XDICTIONARY
360
107E
102
}
330
1
100
AcDbSymbolTableRecord
100
AcDbBlockTableRecord
  2
*MODEL_SPACE
  0
BLOCK_RECORD
  5
17
102
{ACAD_XDICTIONARY
360
107C
102
}
330
1
100
AcDbSymbolTableRecord
100
AcDbBlockTableRecord
  2
*PAPER_SPACE
  0
BLOCK_RECORD
  5
594
330
1
100
AcDbSymbolTableRecord
100
AcDbBlockTableRecord
  2
_OPEN
  0
BLOCK_RECORD
  5
EA5
330
1
100
AcDbSymbolTableRecord
100
AcDbBlockTableRecord
  2
A$C610D5CF9
  0
BLOCK_RECORD
  5
FFA
330
1
100
AcDbSymbolTableRecord
100
AcDbBlockTableRecord
  2
*D2
  0
BLOCK_RECORD
  5
1006
330
1
100
AcDbSymbolTableRecord
100
AcDbBlockTableRecord
  2
*D3
  0
BLOCK_RECORD
  5
1012
330
1
100
AcDbSymbolTableRecord
100
AcDbBlockTableRecord
  2
*D4
  0
BLOCK_RECORD
  5
101E
330
1
100
AcDbSymbolTableRecord
100
AcDbBlockTableRecord
  2
*D5
  0
ENDTAB
  0
ENDSEC
  0
SECTION
  2
BLOCKS
  0
BLOCK
  5
1B
330
1A
100
AcDbEntity
  8
0
100
AcDbBlockBegin
  2
*MODEL_SPACE
 70
     0
 10
0.0
 20
0.0
 30
0.0
  3
*MODEL_SPACE
  1

  0
ENDBLK
  5
1C
330
1A
100
AcDbEntity
  8
0
100
AcDbBlockEnd
  0
BLOCK
  5
18
330
17
100
AcDbEntity
 67
     1
  8
0
100
AcDbBlockBegin
  2
*PAPER_SPACE
 70
     0
 10
0.0
 20
0.0
 30
0.0
  3
*PAPER_SPACE
  1

  0
ENDBLK
  5
19
330
17
100
AcDbEntity
 67
     1
  8
0
100
AcDbBlockEnd
  0
BLOCK
  5
598
330
594
100
AcDbEntity
  8
0
100
AcDbBlockBegin
  2
_OPEN
 70
     0
 10
0.0
 20
0.0
 30
0.0
  3
_OPEN
  1

  0
LINE
  5
595
330
594
100
AcDbEntity
  8
0
  6
BYBLOCK
 62
     0
100
AcDbLine
 10
-1.0
 20
0.1666666666666666
 30
0.0
 11
0.0
 21
0.0
 31
0.0
  0
LINE
  5
596
330
594
100
AcDbEntity
  8
0
  6
BYBLOCK
 62
     0
100
AcDbLine
 10
-1.0
 20
-0.1666666666666666
 30
0.0
 11
0.0
 21
0.0
 31
0.0
  0
LINE
  5
597
330
594
100
AcDbEntity
  8
0
  6
BYBLOCK
 62
     0
100
AcDbLine
 10
0.0
 20
0.0
 30
0.0
 11
-1.0
 21
0.0
 31
0.0
  0
ENDBLK
  5
599
330
594
100
AcDbEntity
  8
0
100
AcDbBlockEnd
  0
BLOCK
  5
F9A
330
EA5
100
AcDbEntity
  8
0
100
AcDbBlockBegin
  2
A$C610D5CF9
 70
     0
 10
0.0
 20
0.0
 30
0.0
  3
A$C610D5CF9
  1

  0
ARC
  5
EA6
330
EA5
100
AcDbEntity
  8
240
100
AcDbCircle
 10
41.0
 20
30.30000000000001
 30
0.0
 40
4.0
100
AcDbArc
 50
224.4270039999996
 51
315.5729960000003
  0
ARC
  5
EA7
330
EA5
100
AcDbEntity
  8
240
100
AcDbCircle
 10
41.0
 20
-30.30000000000001
 30
0.0
 40
4.0
100
AcDbArc
 50
44.42700399999967
 51
135.5729960000003
  0
LINE
  5
EA8
330
EA5
100
AcDbEntity
  8
245
100
AcDbLine
 10
-32.21987747342268
 20
0.0
 30
0.0
 11
96.04256921968806
 21
-0.0000000000000142
 31
0.0
  0
LINE
  5
EA9
330
EA5
100
AcDbEntity
  8
241
100
AcDbLine
 10
0.0
 20
-13.99999999999782
 30
0.0
 11
0.0
 21
13.99999999999846
 31
0.0
  0
LINE
  5
EAA
330
EA5
100
AcDbEntity
  8
241
100
AcDbLine
 10
8.5
 20
25.0
 30
0.0
 11
8.5
 21
-0.0000000000000142
 31
0.0
  0
LINE
  5
EAB
330
EA5
100
AcDbEntity
  8
241
100
AcDbLine
 10
38.14342900000002
 20
-0.0000000000000142
 30
0.0
 11
38.14342900000002
 21
27.5
 31
0.0
  0
LINE
  5
EAC
330
EA5
100
AcDbEntity
  8
241
100
AcDbLine
 10
-27.51998599999998
 20
13.716109
 30
0.0
 11
-27.51998600000002
 21
-0.0000000000000142
 31
0.0
  0
LINE
  5
EAD
330
EA5
100
AcDbEntity
  8
241
100
AcDbLine
 10
-25.5
 20
13.99999999999998
 30
0.0
 11
-25.5
 21
-0.0000000000000142
 31
0.0
  0
CIRCLE
  5
EAE
330
EA5
100
AcDbEntity
  8
241
100
AcDbCircle
 10
-13.0
 20
0.0
 30
0.0
 40
4.0
  0
CIRCLE
  5
EAF
330
EA5
100
AcDbEntity
  8
241
100
AcDbCircle
 10
-13.0
 20
0.0
 30
0.0
 40
5.081999999999999
  0
LINE
  5
EB0
330
EA5
100
AcDbEntity
  8
240
100
AcDbLine
 10
-30.0
 20
13.414359
 30
0.0
 11
-30.0
 21
-13.41436000000001
 31
0.0
  0
TEXT
  5
EB1
330
EA5
100
AcDbEntity
  8
247
100
AcDbText
 10
5.595728413923382
 20
-4.766061219601681
 30
0.0
 40
2.0
  1
CK5-STC30-92
 50
90.0
 41
0.7
  7
YOKO
 11
5.595728413923382
 21
-4.766061219601681
 31
0.0
100
AcDbText
 73
     1
  0
LINE
  5
EB2
330
EA5
100
AcDbEntity
  8
245
100
AcDbLine
 10
-13.0
 20
7.956057000000015
 30
0.0
 11
-13.0
 21
-7.927305999999987
 31
0.0
  0
LINE
  5
EB3
330
EA5
100
AcDbEntity
  8
241
100
AcDbLine
 10
-12.97949250824632
 20
-14.00000058539055
 30
0.0
 11
-2.020507491753676
 21
-14.00000058539055
 31
0.0
  0
LINE
  5
EB4
330
EA5
100
AcDbEntity
  8
240
100
AcDbLine
 10
-2.133974999999992
 20
-14.29852000000001
 30
0.0
 11
-3.116325000000003
 21
-16.00000000000001
 31
0.0
  0
LINE
  5
EB5
330
EA5
100
AcDbEntity
  8
240
100
AcDbLine
 10
-27.51998599999998
 20
-13.71611000000001
 30
0.0
 11
-25.5
 21
-14.00000000000001
 31
0.0
  0
LINE
  5
EB6
330
EA5
100
AcDbEntity
  8
241
100
AcDbLine
 10
-27.51998599999998
 20
-13.71611000000001
 30
0.0
 11
-27.519986
 21
-0.0000000000000142
 31
0.0
  0
LINE
  5
EB7
330
EA5
100
AcDbEntity
  8
240
100
AcDbLine
 10
-27.51998599999998
 20
-13.71611000000001
 30
0.0
 11
-29.061081
 21
-13.987846
 31
0.0
  0
ARC
  5
EB8
330
EA5
100
AcDbEntity
  8
240
100
AcDbCircle
 10
-29.19999999999999
 20
-13.2
 30
0.0
 40
0.8
100
AcDbArc
 50
210.0000000000001
 51
280.0000000000001
  0
LINE
  5
EB9
330
EA5
100
AcDbEntity
  8
240
100
AcDbLine
 10
-30.0
 20
-13.41436000000001
 30
0.0
 11
-29.89282032302753
 21
-13.6
 31
0.0
  0
ARC
  5
EBA
330
EA5
100
AcDbEntity
  8
240
100
AcDbCircle
 10
-3.982349999999996
 20
-15.50000000000001
 30
0.0
 40
1.0
100
AcDbArc
 50
270.0
 51
329.9999999999998
  0
ARC
  5
EBB
330
EA5
100
AcDbEntity
  8
240
100
AcDbCircle
 10
-11.01765
 20
-15.50000000000001
 30
0.0
 40
1.0
100
AcDbArc
 50
210.0000000000001
 51
270.0
  0
LINE
  5
EBC
330
EA5
100
AcDbEntity
  8
240
100
AcDbLine
 10
-11.01765
 20
-16.50000000000001
 30
0.0
 11
-3.982349999999996
 21
-16.50000000000001
 31
0.0
  0
LINE
  5
EBD
330
EA5
100
AcDbEntity
  8
240
100
AcDbLine
 10
-25.5
 20
-14.00000000000001
 30
0.0
 11
-12.97949262866036
 21
-14.00000000000004
 31
0.0
  0
LINE
  5
EBE
330
EA5
100
AcDbEntity
  8
241
100
AcDbLine
 10
-25.5
 20
-14.00000000000001
 30
0.0
 11
-25.5
 21
-0.0000000000000142
 31
0.0
  0
ARC
  5
EBF
330
EA5
100
AcDbEntity
  8
240
100
AcDbCircle
 10
-12.0
 20
-13.79852000000001
 30
0.0
 40
1.0
100
AcDbArc
 50
191.6235529999999
 51
210.0000000000001
  0
LINE
  5
EC0
330
EA5
100
AcDbEntity
  8
240
100
AcDbLine
 10
-12.866025
 20
-14.29852000000001
 30
0.0
 11
-11.88367499999999
 21
-16.00000000000001
 31
0.0
  0
LINE
  5
EC1
330
EA5
100
AcDbEntity
  8
240
100
AcDbLine
 10
9.5
 20
-27.50000000000001
 30
0.0
 11
38.14342900000002
 21
-27.50000000000001
 31
0.0
  0
LINE
  5
EC2
330
EA5
100
AcDbEntity
  8
241
100
AcDbLine
 10
8.5
 20
-25.00000000000001
 30
0.0
 11
8.5
 21
-0.0000000000000142
 31
0.0
  0
LINE
  5
EC3
330
EA5
100
AcDbEntity
  8
240
100
AcDbLine
 10
0.0
 20
-24.00000000000001
 30
0.0
 11
0.0
 21
-13.99999999999782
 31
0.0
  0
ARC
  5
EC4
330
EA5
100
AcDbEntity
  8
240
100
AcDbCircle
 10
9.5
 20
-26.50000000000001
 30
0.0
 40
1.0
100
AcDbArc
 50
180.0
 51
270.0
  0
LINE
  5
EC5
330
EA5
100
AcDbEntity
  8
240
100
AcDbLine
 10
1.0
 20
-25.00000000000001
 30
0.0
 11
0.0
 21
-24.00000000000001
 31
0.0
  0
LINE
  5
EC6
330
EA5
100
AcDbEntity
  8
240
100
AcDbLine
 10
1.0
 20
-25.00000000000001
 30
0.0
 11
8.5
 21
-25.00000000000001
 31
0.0
  0
LINE
  5
EC7
330
EA5
100
AcDbEntity
  8
240
100
AcDbLine
 10
8.5
 20
-26.50000000000001
 30
0.0
 11
8.5
 21
-25.00000000000001
 31
0.0
  0
HATCH
  5
EC8
330
EA5
100
AcDbEntity
  8
247
100
AcDbHatch
 10
0.0
 20
0.0
 30
0.0
210
0.0
220
0.0
230
1.0
  2
ANSI31
 70
     0
 71
     1
 91
        1
 92
       33
 93
       15
 72
     1
 10
3.810738634685492
 20
-7.000206846449685
 11
3.594577746013612
 21
-7.068369688246562
 72
     2
 10
4.709544787029244
 20
-6.657487119887193
 40
0.9619301605224604
 50
200.8721834020736
 51
222.5419489373881
 73
     1
 72
     2
 10
4.007904162029234
 20
-7.54542413160594
 40
0.2376546716690064
 50
91.71012138206437
 51
253.9983983544486
 73
     1
 72
     1
 10
5.006173204997992
 20
-8.078909239027822
 11
3.942390246013616
 21
-7.77387261793406
 72
     2
 10
5.071678576091755
 20
-7.850460752699689
 40
0.2376545047760009
 50
254.000273057184
 51
434.000273057184
 73
     1
 72
     1
 10
5.137183947185491
 20
-7.622012266371569
 11
4.630324816326094
 21
-7.47667169019968
 72
     1
 10
4.630324816326094
 20
-7.665035948012189
 11
4.630324816326094
 21
-7.47667169019968
 72
     1
 10
4.630324816326094
 20
-7.665035948012189
 11
4.403986925701104
 21
-7.600137266371575
 72
     1
 10
4.403986925701104
 20
-7.600137266371575
 11
4.403986925701104
 21
-6.940853819105939
 72
     1
 10
5.558303598979932
 20
-7.271849912855941
 11
4.403986925701104
 21
-6.940853819105939
 72
     1
 10
5.425541147808047
 20
-7.404620908949695
 11
5.558303598979932
 21
-7.271849912855941
 72
     2
 10
4.822713732341725
 20
-7.82615899488718
 40
0.7355981445312501
 50
253.9997507017275
 51
394.9638732916308
 73
     1
 72
     2
 10
4.861388048747983
 20
-6.623495420668447
 40
1.924965820312499
 50
245.2051773698423
 51
262.7948259620505
 73
     1
 72
     2
 10
4.256869005779236
 20
-7.66390801832469
 40
0.7355906677246093
 50
143.4440121970578
 51
254.0001843876854
 73
     1
 72
     2
 10
4.709544787029244
 20
-6.657487119887193
 40
1.188265914916992
 50
200.2296450633201
 51
208.5716889237166
 73
     1
 97
       15
330
F19
330
F13
330
F16
330
F11
330
F34
330
F12
330
F17
330
F18
330
F15
330
F10
330
F33
330
ECB
330
EF3
330
ECA
330
F14
 75
     0
 76
     1
 52
90.0
 41
0.056
 77
     0
 78
     1
 53
135.0
 43
14.71780482731245
 44
-79.52837515089299
 45
-0.1257235856949681
 46
-0.1257235856949681
 79
     0
 98
        1
 10
14.71780482731245
 20
-79.52837515089299
  0
HATCH
  5
EC9
330
EA5
100
AcDbEntity
  8
247
100
AcDbHatch
 10
0.0
 20
0.0
 30
0.0
210
0.0
220
0.0
230
1.0
  2
ANSI31
 70
     0
 71
     1
 91
        1
 92
       33
 93
       10
 72
     1
 10
3.521279406169867
 20
-10.78470147535594
 11
3.747617296794885
 21
-10.84960015699657
 72
     1
 10
3.521279406169867
 20
-11.25211724684031
 11
3.521279406169867
 21
-10.78470147535594
 72
     1
 10
3.747617296794885
 20
-11.25211724684031
 11
3.747617296794885
 21
-10.84960015699657
 72
     2
 10
4.709544787029244
 20
-11.25211724684031
 40
0.9619274902343747
 50
180.0
 51
360.0
 73
     1
 72
     2
 10
4.709544787029244
 20
-11.25211724684031
 40
1.188265380859374
 50
180.0
 51
360.0
 73
     1
 72
     1
 10
5.897810429092373
 20
-11.25211724684031
 11
5.897810429092373
 21
-6.657487119887193
 72
     1
 10
5.671472544292413
 20
-11.25211724684031
 11
5.671472544292413
 21
-6.657487119887193
 72
     2
 10
4.709544787029244
 20
-6.657487119887193
 40
1.188265380859374
 50
0.0
 51
194.7707939660941
 73
     1
 72
     2
 10
4.709544787029244
 20
-6.657487119887193
 40
0.9619274902343747
 50
0.0
 51
194.1274364964119
 73
     1
 72
     1
 10
3.77670421085736
 20
-6.892275938246569
 11
3.56054332218548
 21
-6.960438780043432
 97
       10
330
F05
330
F02
330
EFF
330
EE1
330
ED6
330
ECC
330
ECD
330
F0E
330
F0F
330
F32
 75
     0
 76
     1
 52
90.0
 41
0.056
 77
     0
 78
     1
 53
135.0
 43
14.71780482731245
 44
-79.52837515089299
 45
-0.1257235856949681
 46
-0.1257235856949681
 79
     0
 98
        1
 10
14.71780482731245
 20
-79.52837515089299
  0
ARC
  5
ECA
102
{ACAD_REACTORS
330
EC8
102
}
330
EA5
100
AcDbEntity
  8
247
100
AcDbCircle
 10
4.256869005779236
 20
-7.66390801832469
 30
0.0
 40
0.7355906677246093
100
AcDbArc
 50
143.4440121970578
 51
254.0001843876854
  0
ARC
  5
ECB
102
{ACAD_REACTORS
330
EC8
102
}
330
EA5
100
AcDbEntity
  8
247
100
AcDbCircle
 10
4.822713732341725
 20
-7.82615899488718
 30
0.0
 40
0.7355981445312501
100
AcDbArc
 50
253.9997507017275
 51
34.96387329163082
  0
LINE
  5
ECC
102
{ACAD_REACTORS
330
EC9
102
}
330
EA5
100
AcDbEntity
  8
247
100
AcDbLine
 10
5.897810429092373
 20
-11.25211724684031
 30
0.0
 11
5.897810429092373
 21
-6.657487119887193
 31
0.0
  0
LINE
  5
ECD
102
{ACAD_REACTORS
330
EC9
102
}
330
EA5
100
AcDbEntity
  8
247
100
AcDbLine
 10
5.671472544292413
 20
-11.25211724684031
 30
0.0
 11
5.671472544292413
 21
-6.657487119887193
 31
0.0
  0
LINE
  5
ECE
330
EA5
100
AcDbEntity
  8
240
100
AcDbLine
 10
-2.020507371339633
 20
-14.00000000000004
 30
0.0
 11
0.0
 21
-13.99999999999775
 31
0.0
  0
POLYLINE
  5
ECF
330
EA5
100
AcDbEntity
  8
241
100
AcDb3dPolyline
 66
     1
 10
0.0
 20
0.0
 30
0.0
 70
     8
  0
VERTEX
  5
ED0
330
ECF
100
AcDbEntity
  8
241
100
AcDbVertex
100
AcDb3dPolylineVertex
 10
-1.852919999999997
 20
-15.00000000000001
 30
0.0
 70
    32
  0
VERTEX
  5
ED1
330
ECF
100
AcDbEntity
  8
241
100
AcDbVertex
100
AcDb3dPolylineVertex
 10
-1.852919999999997
 20
-15.00000000000001
 30
0.0
 70
    32
  0
VERTEX
  5
ED2
330
ECF
100
AcDbEntity
  8
241
100
AcDbVertex
100
AcDb3dPolylineVertex
 10
-1.852919999999997
 20
-15.00000000000001
 30
0.0
 70
    32
  0
VERTEX
  5
ED3
330
ECF
100
AcDbEntity
  8
241
100
AcDbVertex
100
AcDb3dPolylineVertex
 10
-1.852919999999997
 20
-15.00000000000001
 30
0.0
 70
    32
  0
SEQEND
  5
ED4
330
ECF
100
AcDbEntity
  8
241
  0
ARC
  5
ED5
330
EA5
100
AcDbEntity
  8
240
100
AcDbCircle
 10
-3.0
 20
-13.79852000000001
 30
0.0
 40
1.0
100
AcDbArc
 50
329.9999999999998
 51
348.376447
  0
ARC
  5
ED6
102
{ACAD_REACTORS
330
EC9
102
}
330
EA5
100
AcDbEntity
  8
247
100
AcDbCircle
 10
4.709544787029244
 20
-11.25211724684031
 30
0.0
 40
1.188265380859374
100
AcDbArc
 50
180.0
 51
0.0
  0
HATCH
  5
ED7
330
EA5
100
AcDbEntity
  8
247
100
AcDbHatch
 10
0.0
 20
0.0
 30
0.0
210
0.0
220
0.0
230
1.0
  2
ANSI31
 70
     0
 71
     1
 91
        1
 92
        7
 72
     0
 73
     1
 93
        6
 10
3.521279406169867
 20
-8.418356260512195
 10
3.521279406169867
 20
-9.006998838637189
 10
3.77024424991987
 20
-9.078391660902809
 10
3.770244249919869
 20
-8.995975889418444
 10
5.558303598979932
 20
-9.508696836684068
 10
5.558303598979932
 20
-9.002461485121559
 97
        1
330
EEB
 75
     0
 76
     1
 52
90.0
 41
0.056
 77
     0
 78
     1
 53
135.0
 43
14.71780482731245
 44
-79.52837515089299
 45
-0.1257235856949681
 46
-0.1257235856949681
 79
     0
 47
0.0134348504236232
 98
        1
 10
4.486453062702224
 20
-8.947546328877919
  0
LINE
  5
ED8
330
EA5
100
AcDbEntity
  8
247
100
AcDbLine
 10
5.558303598979932
 20
-9.002461485121557
 30
0.0
 11
3.521279406169867
 21
-8.418356260512197
 31
0.0
  0
LINE
  5
ED9
330
EA5
100
AcDbEntity
  8
247
100
AcDbLine
 10
5.558303598979932
 20
-11.13335137769965
 30
0.0
 11
3.747617296795539
 21
-10.61414483473119
 31
0.0
  0
LINE
  5
EDA
330
EA5
100
AcDbEntity
  8
247
100
AcDbLine
 10
4.89733694480418
 20
-10.11492764896991
 30
0.0
 11
4.155165453442066
 21
-9.372756157607781
 31
0.0
  0
LINE
  5
EDB
330
EA5
100
AcDbEntity
  8
247
100
AcDbLine
 10
5.354396981377533
 20
-11.07488202832313
 30
0.0
 11
4.396737642715436
 21
-10.11722268966099
 31
0.0
  0
LINE
  5
EDC
330
EA5
100
AcDbEntity
  8
247
100
AcDbLine
 10
5.001861879135446
 20
-10.97379409747094
 30
0.0
 11
4.209581939954773
 21
-10.18151415829028
 31
0.0
  0
LINE
  5
EDD
330
EA5
100
AcDbEntity
  8
247
100
AcDbLine
 10
5.558303598979932
 20
-10.5244471317557
 30
0.0
 11
4.727818417219481
 21
-9.693961949995269
 31
0.0
  0
ARC
  5
EDE
330
EA5
100
AcDbEntity
  8
247
100
AcDbCircle
 10
4.992467150310488
 20
-10.19409356519969
 30
0.0
 40
0.5658361816406247
100
AcDbArc
 50
0.0
 51
130.3298406541676
  0
ARC
  5
EDF
330
EA5
100
AcDbEntity
  8
247
100
AcDbCircle
 10
4.969831652263621
 20
-10.44660455152781
 30
0.0
 40
0.3395070695877076
100
AcDbArc
 50
351.6628542111489
 51
156.3381921591137
  0
LINE
  5
EE0
330
EA5
100
AcDbEntity
  8
247
100
AcDbLine
 10
4.658866793566062
 20
-10.31034778305283
 30
0.0
 11
5.305750823762508
 21
-10.49583219132009
 31
0.0
  0
ARC
  5
EE1
102
{ACAD_REACTORS
330
EC9
102
}
330
EA5
100
AcDbEntity
  8
247
100
AcDbCircle
 10
4.709544787029244
 20
-11.25211724684031
 30
0.0
 40
0.9619274902343747
100
AcDbArc
 50
180.0
 51
0.0
  0
LINE
  5
EE2
330
EA5
100
AcDbEntity
  8
247
100
AcDbLine
 10
5.558303598979932
 20
-9.508696836684066
 30
0.0
 11
3.770244249919869
 21
-8.995975889418446
 31
0.0
  0
POLYLINE
  5
EE3
330
EA5
100
AcDbEntity
  8
247
100
AcDb2dPolyline
 66
     1
 10
0.0
 20
0.0
 30
0.0
 70
     1
1001
HATCH_DISTANCE
1040
1.0
1001
HATCH_DISPLAY
1070
     0
1001
HATCH_TYPE
1070
     7
  0
VERTEX
  5
EE4
330
EE3
100
AcDbEntity
  8
247
100
AcDbVertex
100
AcDb2dVertex
 10
3.521279406169867
 20
-9.006998838637187
 30
0.0
  0
VERTEX
  5
EE5
330
EE3
100
AcDbEntity
  8
247
100
AcDbVertex
100
AcDb2dVertex
 10
3.770244249919869
 20
-9.078391660902809
 30
0.0
  0
VERTEX
  5
EE6
330
EE3
100
AcDbEntity
  8
247
100
AcDbVertex
100
AcDb2dVertex
 10
3.770244249919869
 20
-8.995975889418446
 30
0.0
  0
VERTEX
  5
EE7
330
EE3
100
AcDbEntity
  8
247
100
AcDbVertex
100
AcDb2dVertex
 10
5.558303598979932
 20
-9.508696836684066
 30
0.0
  0
VERTEX
  5
EE8
330
EE3
100
AcDbEntity
  8
247
100
AcDbVertex
100
AcDb2dVertex
 10
5.558303598979932
 20
-9.002461485121557
 30
0.0
  0
VERTEX
  5
EE9
330
EE3
100
AcDbEntity
  8
247
100
AcDbVertex
100
AcDb2dVertex
 10
3.521279406169867
 20
-8.418356260512197
 30
0.0
  0
SEQEND
  5
EEA
330
EE3
100
AcDbEntity
  8
247
  0
POLYLINE
  5
EEB
102
{ACAD_REACTORS
330
ED7
102
}
330
EA5
100
AcDbEntity
  8
247
100
AcDb2dPolyline
 66
     1
 10
0.0
 20
0.0
 30
0.0
 70
     1
  0
VERTEX
  5
EEC
330
EEB
100
AcDbEntity
  8
247
100
AcDbVertex
100
AcDb2dVertex
 10
3.521279406169867
 20
-9.006998838637187
 30
0.0
  0
VERTEX
  5
EED
330
EEB
100
AcDbEntity
  8
247
100
AcDbVertex
100
AcDb2dVertex
 10
3.770244249919869
 20
-9.078391660902809
 30
0.0
  0
VERTEX
  5
EEE
330
EEB
100
AcDbEntity
  8
247
100
AcDbVertex
100
AcDb2dVertex
 10
3.770244249919869
 20
-8.995975889418446
 30
0.0
  0
VERTEX
  5
EEF
330
EEB
100
AcDbEntity
  8
247
100
AcDbVertex
100
AcDb2dVertex
 10
5.558303598979932
 20
-9.508696836684066
 30
0.0
  0
VERTEX
  5
EF0
330
EEB
100
AcDbEntity
  8
247
100
AcDbVertex
100
AcDb2dVertex
 10
5.558303598979932
 20
-9.002461485121557
 30
0.0
  0
VERTEX
  5
EF1
330
EEB
100
AcDbEntity
  8
247
100
AcDbVertex
100
AcDb2dVertex
 10
3.521279406169867
 20
-8.418356260512197
 30
0.0
  0
SEQEND
  5
EF2
330
EEB
100
AcDbEntity
  8
247
  0
ARC
  5
EF3
102
{ACAD_REACTORS
330
EC8
102
}
330
EA5
100
AcDbEntity
  8
247
100
AcDbCircle
 10
4.861388048747983
 20
-6.623495420668447
 30
0.0
 40
1.924965820312499
100
AcDbArc
 50
245.2051773698423
 51
262.7948259620505
  0
LINE
  5
EF4
330
EA5
100
AcDbEntity
  8
247
100
AcDbLine
 10
3.770244249919869
 20
-9.078391660902809
 30
0.0
 11
3.770244249919869
 21
-8.995975889418446
 31
0.0
  0
LINE
  5
EF5
330
EA5
100
AcDbEntity
  8
247
100
AcDbLine
 10
3.770244249919869
 20
-9.078391660902809
 30
0.0
 11
3.521279406169867
 21
-9.006998838637187
 31
0.0
  0
LINE
  5
EF6
330
EA5
100
AcDbEntity
  8
247
100
AcDbLine
 10
3.521279406169867
 20
-9.006998838637187
 30
0.0
 11
3.521279406169867
 21
-8.418356260512197
 31
0.0
  0
ARC
  5
EF7
330
EA5
100
AcDbEntity
  8
247
100
AcDbCircle
 10
4.087115587810501
 20
-9.934490293715313
 30
0.0
 40
0.5658409881591795
100
AcDbArc
 50
17.66957754739792
 51
180.2361598426716
  0
LINE
  5
EF8
330
EA5
100
AcDbEntity
  8
247
100
AcDbLine
 10
3.753533197019862
 20
-10.05074721295261
 30
0.0
 11
4.400398040558826
 21
-10.23622856981714
 31
0.0
  0
ARC
  5
EF9
330
EA5
100
AcDbEntity
  8
247
100
AcDbCircle
 10
4.064488634685488
 20
-10.18700128004343
 30
0.0
 40
0.3394973564147949
100
AcDbArc
 50
351.6626016879293
 51
156.3381550951899
  0
LINE
  5
EFA
330
EA5
100
AcDbEntity
  8
247
100
AcDbLine
 10
4.73366256794543
 20
-10.20270044350105
 30
0.0
 11
3.923717239604286
 21
-9.392755115159928
 31
0.0
  0
LINE
  5
EFB
330
EA5
100
AcDbEntity
  8
247
100
AcDbLine
 10
4.64932677689336
 20
-10.87270616661881
 30
0.0
 11
3.857050174347307
 21
-10.08042956407277
 31
0.0
  0
LINE
  5
EFC
330
EA5
100
AcDbEntity
  8
247
100
AcDbLine
 10
3.911830145073054
 20
-9.883762363408592
 30
0.0
 11
3.629603522694253
 21
-9.601535741029778
 31
0.0
  0
LINE
  5
EFD
330
EA5
100
AcDbEntity
  8
247
100
AcDbLine
 10
4.134267225067929
 20
-9.854752272013513
 30
0.0
 11
3.755512615685319
 21
-9.475997662630902
 31
0.0
  0
LINE
  5
EFE
330
EA5
100
AcDbEntity
  8
247
100
AcDbLine
 10
3.779351827340491
 20
-10.00273121706594
 30
0.0
 11
3.54592330921352
 21
-9.769302698938986
 31
0.0
  0
LINE
  5
EFF
102
{ACAD_REACTORS
330
EC9
102
}
330
EA5
100
AcDbEntity
  8
247
100
AcDbLine
 10
3.747617296794885
 20
-11.25211724684031
 30
0.0
 11
3.747617296794885
 21
-10.84960015699657
 31
0.0
  0
LINE
  5
F00
330
EA5
100
AcDbEntity
  8
247
100
AcDbLine
 10
3.747617296794885
 20
-10.73187676832493
 30
0.0
 11
3.747617296795539
 21
-10.61414483473119
 31
0.0
  0
LINE
  5
F01
330
EA5
100
AcDbEntity
  8
247
100
AcDbLine
 10
3.521279406169867
 20
-10.66697808668394
 30
0.0
 11
3.521279406169924
 21
-9.936822551719444
 31
0.0
  0
LINE
  5
F02
102
{ACAD_REACTORS
330
EC9
102
}
330
EA5
100
AcDbEntity
  8
247
100
AcDbLine
 10
3.521279406169867
 20
-11.25211724684031
 30
0.0
 11
3.521279406169867
 21
-10.78470147535594
 31
0.0
  0
LINE
  5
F03
330
EA5
100
AcDbEntity
  8
247
100
AcDbLine
 10
3.944256572409187
 20
-10.67053030491453
 30
0.0
 11
3.521279406169895
 21
-10.24755313867522
 31
0.0
  0
LINE
  5
F04
330
EA5
100
AcDbEntity
  8
247
100
AcDbLine
 10
3.747617296794885
 20
-10.72533820069017
 30
0.0
 11
3.521279406169867
 21
-10.49900031006514
 31
0.0
  0
LINE
  5
F05
102
{ACAD_REACTORS
330
EC9
102
}
330
EA5
100
AcDbEntity
  8
247
100
AcDbLine
 10
3.521279406169867
 20
-10.78470147535594
 30
0.0
 11
3.747617296794885
 21
-10.84960015699657
 31
0.0
  0
LINE
  5
F06
330
EA5
100
AcDbEntity
  8
247
100
AcDbLine
 10
4.296791674651274
 20
-10.77161823576666
 30
0.0
 11
3.521279406169924
 21
-9.996105967285316
 31
0.0
  0
LINE
  5
F07
330
EA5
100
AcDbEntity
  8
247
100
AcDbLine
 10
3.521279406169867
 20
-10.66697808668394
 30
0.0
 11
3.747617296794885
 21
-10.73187676832493
 31
0.0
  0
LINE
  5
F08
330
EA5
100
AcDbEntity
  8
247
100
AcDbLine
 10
5.515879822704164
 20
-9.979129012700042
 30
0.0
 11
5.20743170281014
 21
-9.670680892806032
 31
0.0
  0
LINE
  5
F09
330
EA5
100
AcDbEntity
  8
247
100
AcDbLine
 10
5.558303598979932
 20
-11.02734147453556
 30
0.0
 11
4.914652735322817
 21
-10.38369061087843
 31
0.0
  0
LINE
  5
F0A
330
EA5
100
AcDbEntity
  8
247
100
AcDbLine
 10
5.558303598979932
 20
-10.77589430314564
 30
0.0
 11
5.267182628889088
 21
-10.48477333305481
 31
0.0
  0
LINE
  5
F0B
330
EA5
100
AcDbEntity
  8
247
100
AcDbLine
 10
5.558303598979932
 20
-10.27299996036575
 30
0.0
 11
4.9184261566852
 21
-9.633122518071033
 31
0.0
  0
LINE
  5
F0C
330
EA5
100
AcDbEntity
  8
247
100
AcDbLine
 10
5.558303598979932
 20
-11.13335137769965
 30
0.0
 11
5.558303598979932
 21
-10.19409356519969
 31
0.0
  0
LINE
  5
F0D
330
EA5
100
AcDbEntity
  8
247
100
AcDbLine
 10
5.558303598979932
 20
-9.508696836684066
 30
0.0
 11
5.558303598979932
 21
-9.002461485121557
 31
0.0
  0
ARC
  5
F0E
102
{ACAD_REACTORS
330
EC9
102
}
330
EA5
100
AcDbEntity
  8
247
100
AcDbCircle
 10
4.709544787029244
 20
-6.657487119887193
 30
0.0
 40
1.188265380859374
100
AcDbArc
 50
0.0
 51
194.7707939660941
  0
ARC
  5
F0F
102
{ACAD_REACTORS
330
EC9
102
}
330
EA5
100
AcDbEntity
  8
247
100
AcDbCircle
 10
4.709544787029244
 20
-6.657487119887193
 30
0.0
 40
0.9619274902343747
100
AcDbArc
 50
0.0
 51
194.1274364964119
  0
LINE
  5
F10
102
{ACAD_REACTORS
330
EC8
102
}
330
EA5
100
AcDbEntity
  8
247
100
AcDbLine
 10
5.558303598979932
 20
-7.271849912855941
 30
0.0
 11
4.403986925701104
 21
-6.940853819105939
 31
0.0
  0
LINE
  5
F11
102
{ACAD_REACTORS
330
EC8
102
}
330
EA5
100
AcDbEntity
  8
247
100
AcDbLine
 10
5.006173204997992
 20
-8.078909239027822
 30
0.0
 11
3.942390246013616
 21
-7.77387261793406
 31
0.0
  0
LINE
  5
F12
102
{ACAD_REACTORS
330
EC8
102
}
330
EA5
100
AcDbEntity
  8
247
100
AcDbLine
 10
5.137183947185491
 20
-7.622012266371569
 30
0.0
 11
4.630324816326094
 21
-7.47667169019968
 31
0.0
  0
ARC
  5
F13
102
{ACAD_REACTORS
330
EC8
102
}
330
EA5
100
AcDbEntity
  8
247
100
AcDbCircle
 10
4.709544787029244
 20
-6.657487119887193
 30
0.0
 40
0.9619301605224604
100
AcDbArc
 50
200.8721834020736
 51
222.5419489373881
  0
ARC
  5
F14
102
{ACAD_REACTORS
330
EC8
102
}
330
EA5
100
AcDbEntity
  8
247
100
AcDbCircle
 10
4.709544787029244
 20
-6.657487119887193
 30
0.0
 40
1.188265914916992
100
AcDbArc
 50
200.2296450633201
 51
208.5716889237166
  0
LINE
  5
F15
102
{ACAD_REACTORS
330
EC8
102
}
330
EA5
100
AcDbEntity
  8
247
100
AcDbLine
 10
4.403986925701104
 20
-7.600137266371575
 30
0.0
 11
4.403986925701104
 21
-6.940853819105939
 31
0.0
  0
ARC
  5
F16
102
{ACAD_REACTORS
330
EC8
102
}
330
EA5
100
AcDbEntity
  8
247
100
AcDbCircle
 10
4.007904162029234
 20
-7.54542413160594
 30
0.0
 40
0.2376546716690064
100
AcDbArc
 50
91.71012138206437
 51
253.9983983544486
  0
LINE
  5
F17
102
{ACAD_REACTORS
330
EC8
102
}
330
EA5
100
AcDbEntity
  8
247
100
AcDbLine
 10
4.630324816326094
 20
-7.665035948012189
 30
0.0
 11
4.630324816326094
 21
-7.47667169019968
 31
0.0
  0
LINE
  5
F18
102
{ACAD_REACTORS
330
EC8
102
}
330
EA5
100
AcDbEntity
  8
247
100
AcDbLine
 10
4.630324816326094
 20
-7.665035948012189
 30
0.0
 11
4.403986925701104
 21
-7.600137266371575
 31
0.0
  0
LINE
  5
F19
102
{ACAD_REACTORS
330
EC8
102
}
330
EA5
100
AcDbEntity
  8
247
100
AcDbLine
 10
3.810738634685492
 20
-7.000206846449685
 30
0.0
 11
3.594577746013612
 21
-7.068369688246562
 31
0.0
  0
POLYLINE
  5
F1A
330
EA5
100
AcDbEntity
  8
247
100
AcDb2dPolyline
 66
     1
 10
0.0
 20
0.0
 30
0.0
 70
     1
1001
HATCH_DISTANCE
1040
1.0
1001
HATCH_DISPLAY
1070
     0
1001
HATCH_TYPE
1070
     7
  0
VERTEX
  5
F1B
330
F1A
100
AcDbEntity
  8
247
100
AcDbVertex
100
AcDb2dVertex
 10
3.77670421085736
 20
-6.892275938246569
 30
0.0
  0
VERTEX
  5
F1C
330
F1A
100
AcDbEntity
  8
247
100
AcDbVertex
100
AcDb2dVertex
 10
3.56054332218548
 20
-6.960438780043432
 30
0.0
  0
VERTEX
  5
F1D
330
F1A
100
AcDbEntity
  8
247
100
AcDbVertex
100
AcDb2dVertex
 10
3.56054332218548
 20
-6.960438780043432
 30
0.0
  0
VERTEX
  5
F1E
330
F1A
100
AcDbEntity
  8
247
100
AcDbVertex
100
AcDb2dVertex
 10
3.77670421085736
 20
-6.892275938246569
 30
0.0
  0
SEQEND
  5
F1F
330
F1A
100
AcDbEntity
  8
247
  0
POLYLINE
  5
F20
330
EA5
100
AcDbEntity
  8
247
100
AcDb2dPolyline
 66
     1
 10
0.0
 20
0.0
 30
0.0
 70
     1
  0
VERTEX
  5
F21
330
F20
100
AcDbEntity
  8
247
100
AcDbVertex
100
AcDb2dVertex
 10
3.77670421085736
 20
-6.892275938246569
 30
0.0
  0
VERTEX
  5
F22
330
F20
100
AcDbEntity
  8
247
100
AcDbVertex
100
AcDb2dVertex
 10
3.56054332218548
 20
-6.960438780043432
 30
0.0
  0
VERTEX
  5
F23
330
F20
100
AcDbEntity
  8
247
100
AcDbVertex
100
AcDb2dVertex
 10
3.56054332218548
 20
-6.960438780043432
 30
0.0
  0
VERTEX
  5
F24
330
F20
100
AcDbEntity
  8
247
100
AcDbVertex
100
AcDb2dVertex
 10
3.77670421085736
 20
-6.892275938246569
 30
0.0
  0
SEQEND
  5
F25
330
F20
100
AcDbEntity
  8
247
  0
POLYLINE
  5
F26
330
EA5
100
AcDbEntity
  8
247
100
AcDb2dPolyline
 66
     1
 10
0.0
 20
0.0
 30
0.0
 70
     1
1001
HATCH_DISTANCE
1040
1.0
1001
HATCH_DISPLAY
1070
     0
1001
HATCH_TYPE
1070
     7
  0
VERTEX
  5
F27
330
F26
100
AcDbEntity
  8
247
100
AcDbVertex
100
AcDb2dVertex
 10
3.77670421085736
 20
-6.892275938246569
 30
0.0
  0
VERTEX
  5
F28
330
F26
100
AcDbEntity
  8
247
100
AcDbVertex
100
AcDb2dVertex
 10
3.56054332218548
 20
-6.960438780043432
 30
0.0
  0
VERTEX
  5
F29
330
F26
100
AcDbEntity
  8
247
100
AcDbVertex
100
AcDb2dVertex
 10
3.56054332218548
 20
-6.960438780043432
 30
0.0
  0
VERTEX
  5
F2A
330
F26
100
AcDbEntity
  8
247
100
AcDbVertex
100
AcDb2dVertex
 10
3.77670421085736
 20
-6.892275938246569
 30
0.0
  0
SEQEND
  5
F2B
330
F26
100
AcDbEntity
  8
247
  0
POLYLINE
  5
F2C
330
EA5
100
AcDbEntity
  8
247
100
AcDb2dPolyline
 66
     1
 10
0.0
 20
0.0
 30
0.0
 70
     1
  0
VERTEX
  5
F2D
330
F2C
100
AcDbEntity
  8
247
100
AcDbVertex
100
AcDb2dVertex
 10
3.77670421085736
 20
-6.892275938246569
 30
0.0
  0
VERTEX
  5
F2E
330
F2C
100
AcDbEntity
  8
247
100
AcDbVertex
100
AcDb2dVertex
 10
3.56054332218548
 20
-6.960438780043432
 30
0.0
  0
VERTEX
  5
F2F
330
F2C
100
AcDbEntity
  8
247
100
AcDbVertex
100
AcDb2dVertex
 10
3.56054332218548
 20
-6.960438780043432
 30
0.0
  0
VERTEX
  5
F30
330
F2C
100
AcDbEntity
  8
247
100
AcDbVertex
100
AcDb2dVertex
 10
3.77670421085736
 20
-6.892275938246569
 30
0.0
  0
SEQEND
  5
F31
330
F2C
100
AcDbEntity
  8
247
  0
LINE
  5
F32
102
{ACAD_REACTORS
330
EC9
102
}
330
EA5
100
AcDbEntity
  8
247
100
AcDbLine
 10
3.77670421085736
 20
-6.892275938246569
 30
0.0
 11
3.56054332218548
 21
-6.960438780043432
 31
0.0
  0
LINE
  5
F33
102
{ACAD_REACTORS
330
EC8
102
}
330
EA5
100
AcDbEntity
  8
247
100
AcDbLine
 10
5.425541147808047
 20
-7.404620908949695
 30
0.0
 11
5.558303598979932
 21
-7.271849912855941
 31
0.0
  0
ARC
  5
F34
102
{ACAD_REACTORS
330
EC8
102
}
330
EA5
100
AcDbEntity
  8
247
100
AcDbCircle
 10
5.071678576091755
 20
-7.850460752699689
 30
0.0
 40
0.2376545047760009
100
AcDbArc
 50
254.000273057184
 51
74.00027305718406
  0
LINE
  5
F35
330
EA5
100
AcDbEntity
  8
241
100
AcDbLine
 10
38.14342900000002
 20
-0.0000000000000142
 30
0.0
 11
38.14342900000002
 21
-27.50000000000001
 31
0.0
  0
LINE
  5
F36
330
EA5
100
AcDbEntity
  8
241
100
AcDbLine
 10
-12.9794924229615
 20
13.99999999999998
 30
0.0
 11
-2.0205075770385
 21
13.99999999999998
 31
0.0
  0
LINE
  5
F37
330
EA5
100
AcDbEntity
  8
240
100
AcDbLine
 10
-2.133974999999992
 20
14.29851899999998
 30
0.0
 11
-3.116325000000003
 21
15.99999999999998
 31
0.0
  0
LINE
  5
F38
330
EA5
100
AcDbEntity
  8
240
100
AcDbLine
 10
-27.51998599999998
 20
13.716109
 30
0.0
 11
-25.5
 21
13.99999999999998
 31
0.0
  0
LINE
  5
F39
330
EA5
100
AcDbEntity
  8
240
100
AcDbLine
 10
-27.51998599999998
 20
13.716109
 30
0.0
 11
-29.061081
 21
13.987846
 31
0.0
  0
ARC
  5
F3A
330
EA5
100
AcDbEntity
  8
240
100
AcDbCircle
 10
-29.19999999999999
 20
13.19999999999997
 30
0.0
 40
0.8
100
AcDbArc
 50
79.9999999999998
 51
149.9999999999998
  0
LINE
  5
F3B
330
EA5
100
AcDbEntity
  8
240
100
AcDbLine
 10
-29.89282032302753
 20
13.59999999999998
 30
0.0
 11
-30.0
 21
13.414359
 31
0.0
  0
ARC
  5
F3C
330
EA5
100
AcDbEntity
  8
240
100
AcDbCircle
 10
-3.982349999999996
 20
15.49999999999998
 30
0.0
 40
1.0
100
AcDbArc
 50
30.00000000000014
 51
90.0
  0
ARC
  5
F3D
330
EA5
100
AcDbEntity
  8
240
100
AcDbCircle
 10
-11.01765
 20
15.49999999999998
 30
0.0
 40
1.0
100
AcDbArc
 50
90.0
 51
149.9999999999998
  0
LINE
  5
F3E
330
EA5
100
AcDbEntity
  8
240
100
AcDbLine
 10
-25.5
 20
13.99999999999998
 30
0.0
 11
-12.97949242296151
 21
13.99999999999997
 31
0.0
  0
ARC
  5
F3F
330
EA5
100
AcDbEntity
  8
240
100
AcDbCircle
 10
-12.0
 20
13.79851899999998
 30
0.0
 40
1.0
100
AcDbArc
 50
149.9999999999998
 51
168.376447
  0
LINE
  5
F40
330
EA5
100
AcDbEntity
  8
240
100
AcDbLine
 10
-12.866025
 20
14.29851899999998
 30
0.0
 11
-11.88367499999999
 21
15.99999999999998
 31
0.0
  0
LINE
  5
F41
330
EA5
100
AcDbEntity
  8
240
100
AcDbLine
 10
-11.01765
 20
16.49999999999998
 30
0.0
 11
-3.982349999999996
 21
16.49999999999998
 31
0.0
  0
LINE
  5
F42
330
EA5
100
AcDbEntity
  8
240
100
AcDbLine
 10
9.5
 20
27.5
 30
0.0
 11
38.14342900000002
 21
27.5
 31
0.0
  0
LINE
  5
F43
330
EA5
100
AcDbEntity
  8
240
100
AcDbLine
 10
0.0
 20
24.0
 30
0.0
 11
0.0
 21
13.99999999999845
 31
0.0
  0
LINE
  5
F44
330
EA5
100
AcDbEntity
  8
240
100
AcDbLine
 10
-2.020507577038486
 20
13.99999999999997
 30
0.0
 11
0.0
 21
13.99999999999836
 31
0.0
  0
ARC
  5
F45
330
EA5
100
AcDbEntity
  8
240
100
AcDbCircle
 10
-3.0
 20
13.79851899999998
 30
0.0
 40
1.0
100
AcDbArc
 50
11.62355299999997
 51
30.00000000000014
  0
ARC
  5
F46
330
EA5
100
AcDbEntity
  8
240
100
AcDbCircle
 10
9.5
 20
26.5
 30
0.0
 40
1.0
100
AcDbArc
 50
90.0
 51
180.0
  0
LINE
  5
F47
330
EA5
100
AcDbEntity
  8
240
100
AcDbLine
 10
1.0
 20
25.0
 30
0.0
 11
0.0
 21
24.0
 31
0.0
  0
LINE
  5
F48
330
EA5
100
AcDbEntity
  8
240
100
AcDbLine
 10
1.0
 20
25.0
 30
0.0
 11
8.5
 21
25.0
 31
0.0
  0
LINE
  5
F49
330
EA5
100
AcDbEntity
  8
240
100
AcDbLine
 10
8.5
 20
26.5
 30
0.0
 11
8.5
 21
25.0
 31
0.0
  0
LINE
  5
F4A
330
EA5
100
AcDbEntity
  8
241
100
AcDbLine
 10
50.26053100000002
 20
-0.0000000000000142
 30
0.0
 11
50.26053100000002
 21
27.0
 31
0.0
  0
LINE
  5
F4B
330
EA5
100
AcDbEntity
  8
241
100
AcDbLine
 10
45.14342900000002
 20
-0.0000000000000142
 30
0.0
 11
45.14342900000002
 21
27.5
 31
0.0
  0
LINE
  5
F4C
330
EA5
100
AcDbEntity
  8
241
100
AcDbLine
 10
43.856571
 20
-0.0000000000000142
 30
0.0
 11
43.856571
 21
27.5
 31
0.0
  0
LINE
  5
F4D
330
EA5
100
AcDbEntity
  8
241
100
AcDbLine
 10
54.0
 20
-0.0000000000000142
 30
0.0
 11
54.0
 21
16.94999999999997
 31
0.0
  0
LINE
  5
F4E
330
EA5
100
AcDbEntity
  8
241
100
AcDbLine
 10
70.5
 20
18.49999999999998
 30
0.0
 11
70.5
 21
-0.0000000000000142
 31
0.0
  0
ARC
  5
F4F
330
EA5
100
AcDbEntity
  8
241
100
AcDbCircle
 10
119.928847
 20
-0.0000000000000142
 30
0.0
 40
49.42884799999999
100
AcDbArc
 50
168.45531
 51
191.5446910000006
  0
LINE
  5
F50
330
EA5
100
AcDbEntity
  8
241
100
AcDbLine
 10
68.5
 20
15.49999999999998
 30
0.0
 11
68.5
 21
-0.0000000000000142
 31
0.0
  0
LINE
  5
F51
330
EA5
100
AcDbEntity
  8
241
100
AcDbLine
 10
66.0
 20
-15.50000000000001
 30
0.0
 11
66.0
 21
15.49999999999998
 31
0.0
  0
LINE
  5
F52
330
EA5
100
AcDbEntity
  8
241
100
AcDbLine
 10
65.0
 20
-16.70509
 30
0.0
 11
65.0
 21
16.70508999999997
 31
0.0
  0
ARC
  5
F53
330
EA5
100
AcDbEntity
  8
241
100
AcDbCircle
 10
62.53557600000002
 20
-0.0000000000000142
 30
0.0
 40
25.464424
100
AcDbArc
 50
337.1403259999993
 51
22.85967400000064
  0
LINE
  5
F54
330
EA5
100
AcDbEntity
  8
240
100
AcDbLine
 10
92.0
 20
16.34999999999998
 30
0.0
 11
92.0
 21
-0.0000000000000142
 31
0.0
  0
LINE
  5
F55
330
EA5
100
AcDbEntity
  8
240
100
AcDbLine
 10
86.37250100000002
 20
-20.09903800000002
 30
0.0
 11
91.56698700000001
 21
-17.1
 31
0.0
  0
LINE
  5
F56
330
EA5
100
AcDbEntity
  8
240
100
AcDbLine
 10
66.5
 20
-15.00000000000001
 30
0.0
 11
68.0
 21
-15.00000000000001
 31
0.0
  0
LINE
  5
F57
330
EA5
100
AcDbEntity
  8
241
100
AcDbLine
 10
50.26053100000002
 20
-0.0000000000000142
 30
0.0
 11
50.26053100000002
 21
-27.00000000000001
 31
0.0
  0
LINE
  5
F58
330
EA5
100
AcDbEntity
  8
241
100
AcDbLine
 10
45.14342900000002
 20
-0.0000000000000142
 30
0.0
 11
45.14342900000002
 21
-27.50000000000001
 31
0.0
  0
LINE
  5
F59
330
EA5
100
AcDbEntity
  8
241
100
AcDbLine
 10
43.856571
 20
-0.0000000000000142
 30
0.0
 11
43.856571
 21
-27.50000000000001
 31
0.0
  0
LINE
  5
F5A
330
EA5
100
AcDbEntity
  8
241
100
AcDbLine
 10
54.0
 20
-0.0000000000000142
 30
0.0
 11
54.0
 21
-16.95
 31
0.0
  0
LINE
  5
F5B
330
EA5
100
AcDbEntity
  8
240
100
AcDbLine
 10
65.146446
 20
-16.60355300000001
 30
0.0
 11
65.853553
 21
-15.89644600000001
 31
0.0
  0
LINE
  5
F5C
330
EA5
100
AcDbEntity
  8
240
100
AcDbLine
 10
54.19999999999999
 20
-16.75000000000001
 30
0.0
 11
64.79289300000002
 21
-16.75000000000001
 31
0.0
  0
ARC
  5
F5D
330
EA5
100
AcDbEntity
  8
240
100
AcDbCircle
 10
51.5
 20
-24.50000000000001
 30
0.0
 40
2.5
100
AcDbArc
 50
270.0
 51
0.0
  0
ARC
  5
F5E
330
EA5
100
AcDbEntity
  8
240
100
AcDbCircle
 10
48.0
 20
-30.30000000000001
 30
0.0
 40
4.0
100
AcDbArc
 50
55.58849099999989
 51
135.5729960000003
  0
LINE
  5
F5F
330
EA5
100
AcDbEntity
  8
240
100
AcDbLine
 10
43.856571
 20
-27.50000000000001
 30
0.0
 11
45.14342900000002
 21
-27.50000000000001
 31
0.0
  0
LINE
  5
F60
330
EA5
100
AcDbEntity
  8
240
100
AcDbLine
 10
50.26053100000002
 20
-27.00000000000001
 30
0.0
 11
51.5
 21
-27.00000000000001
 31
0.0
  0
LINE
  5
F61
330
EA5
100
AcDbEntity
  8
240
100
AcDbLine
 10
54.0
 20
-24.50000000000001
 30
0.0
 11
54.0
 21
-16.9499999999975
 31
0.0
  0
LINE
  5
F62
330
EA5
100
AcDbEntity
  8
240
100
AcDbLine
 10
54.19999999999999
 20
-16.75000000000001
 30
0.0
 11
54.0
 21
-16.95
 31
0.0
  0
ARC
  5
F63
330
EA5
100
AcDbEntity
  8
240
100
AcDbCircle
 10
64.79289300000002
 20
-16.25000000000001
 30
0.0
 40
0.5
100
AcDbArc
 50
270.0
 51
315.0
  0
ARC
  5
F64
330
EA5
100
AcDbEntity
  8
240
100
AcDbCircle
 10
66.5
 20
-15.50000000000001
 30
0.0
 40
0.5
100
AcDbArc
 50
90.0
 51
180.0
  0
LINE
  5
F65
330
EA5
100
AcDbEntity
  8
240
100
AcDbLine
 10
66.0
 20
-15.542893
 30
0.0
 11
66.0
 21
-15.50000000000001
 31
0.0
  0
ARC
  5
F66
330
EA5
100
AcDbEntity
  8
240
100
AcDbCircle
 10
65.5
 20
-15.542893
 30
0.0
 40
0.5
100
AcDbArc
 50
315.0
 51
0.0
  0
LINE
  5
F67
330
EA5
100
AcDbEntity
  8
241
100
AcDbLine
 10
70.5
 20
-18.50000000000001
 30
0.0
 11
70.5
 21
-0.0000000000000142
 31
0.0
  0
ARC
  5
F68
330
EA5
100
AcDbEntity
  8
241
100
AcDbCircle
 10
82.06309100000002
 20
-15.596152
 30
0.0
 40
11.563091
100
AcDbArc
 50
155.9961240000003
 51
204.0038769999996
  0
ARC
  5
F69
330
EA5
100
AcDbEntity
  8
241
100
AcDbCircle
 10
81.46845399999998
 20
-15.596152
 30
0.0
 40
6.531545999999999
100
AcDbArc
 50
313.9311729999998
 51
46.06882700000016
  0
LINE
  5
F6A
330
EA5
100
AcDbEntity
  8
240
100
AcDbLine
 10
68.5
 20
-17.50000000000001
 30
0.0
 11
68.5
 21
-15.50000000000001
 31
0.0
  0
LINE
  5
F6B
330
EA5
100
AcDbEntity
  8
240
100
AcDbLine
 10
71.69999999999999
 20
-20.30000000000002
 30
0.0
 11
85.62250100000003
 21
-20.30000000000002
 31
0.0
  0
ARC
  5
F6C
330
EA5
100
AcDbEntity
  8
240
100
AcDbCircle
 10
71.69999999999999
 20
-19.10000000000001
 30
0.0
 40
1.199999999999999
100
AcDbArc
 50
180.0
 51
270.0
  0
LINE
  5
F6D
330
EA5
100
AcDbEntity
  8
240
100
AcDbLine
 10
69.0
 20
-18.00000000000001
 30
0.0
 11
70.0
 21
-18.00000000000001
 31
0.0
  0
ARC
  5
F6E
330
EA5
100
AcDbEntity
  8
240
100
AcDbCircle
 10
69.0
 20
-17.50000000000001
 30
0.0
 40
0.5
100
AcDbArc
 50
180.0
 51
270.0
  0
LINE
  5
F6F
330
EA5
100
AcDbEntity
  8
240
100
AcDbLine
 10
70.5
 20
-19.10000000000001
 30
0.0
 11
70.5
 21
-18.50000000000001
 31
0.0
  0
ARC
  5
F70
330
EA5
100
AcDbEntity
  8
240
100
AcDbCircle
 10
70.0
 20
-18.50000000000001
 30
0.0
 40
0.5
100
AcDbArc
 50
0.0
 51
90.0
  0
ARC
  5
F71
330
EA5
100
AcDbEntity
  8
240
100
AcDbCircle
 10
85.62250100000003
 20
-18.80000000000002
 30
0.0
 40
1.5
100
AcDbArc
 50
270.0
 51
299.9999999999997
  0
LINE
  5
F72
330
EA5
100
AcDbEntity
  8
241
100
AcDbLine
 10
71.5
 20
-10.892305
 30
0.0
 11
86.0
 21
-10.892305
 31
0.0
  0
LINE
  5
F73
330
EA5
100
AcDbEntity
  8
241
100
AcDbLine
 10
71.5
 20
-9.892305000000007
 30
0.0
 11
86.0
 21
-9.892305000000007
 31
0.0
  0
LINE
  5
F74
330
EA5
100
AcDbEntity
  8
241
100
AcDbLine
 10
68.5
 20
-15.50000000000001
 30
0.0
 11
68.5
 21
-0.0000000000000142
 31
0.0
  0
ARC
  5
F75
330
EA5
100
AcDbEntity
  8
240
100
AcDbCircle
 10
68.0
 20
-15.50000000000001
 30
0.0
 40
0.5
100
AcDbArc
 50
0.0
 51
90.0
  0
LINE
  5
F76
330
EA5
100
AcDbEntity
  8
241
100
AcDbLine
 10
71.5
 20
-10.892305
 30
0.0
 11
71.5
 21
-9.892305000000007
 31
0.0
  0
LINE
  5
F77
330
EA5
100
AcDbEntity
  8
241
100
AcDbLine
 10
86.0
 20
-10.892305
 30
0.0
 11
86.0
 21
-9.892305000000007
 31
0.0
  0
LINE
  5
F78
330
EA5
100
AcDbEntity
  8
240
100
AcDbLine
 10
92.0
 20
-16.35
 30
0.0
 11
91.56698700000001
 21
-17.1
 31
0.0
  0
LINE
  5
F79
330
EA5
100
AcDbEntity
  8
240
100
AcDbLine
 10
92.0
 20
-16.35
 30
0.0
 11
92.0
 21
-0.0000000000000142
 31
0.0
  0
LINE
  5
F7A
330
EA5
100
AcDbEntity
  8
240
100
AcDbLine
 10
92.0
 20
-13.00864100000002
 30
0.0
 11
92.0
 21
-1.000000000000014
 31
0.0
  0
LINE
  5
F7B
330
EA5
100
AcDbEntity
  8
240
100
AcDbLine
 10
86.37250100000002
 20
20.09903799999999
 30
0.0
 11
91.56698700000001
 21
17.09999999999998
 31
0.0
  0
LINE
  5
F7C
330
EA5
100
AcDbEntity
  8
240
100
AcDbLine
 10
66.5
 20
14.99999999999998
 30
0.0
 11
68.0
 21
14.99999999999998
 31
0.0
  0
LINE
  5
F7D
330
EA5
100
AcDbEntity
  8
240
100
AcDbLine
 10
65.146446
 20
16.60355399999998
 30
0.0
 11
65.853553
 21
15.896447
 31
0.0
  0
ARC
  5
F7E
330
EA5
100
AcDbEntity
  8
240
100
AcDbCircle
 10
66.5
 20
15.49999999999998
 30
0.0
 40
0.5
100
AcDbArc
 50
180.0
 51
270.0
  0
LINE
  5
F7F
330
EA5
100
AcDbEntity
  8
240
100
AcDbLine
 10
66.0
 20
15.49999999999998
 30
0.0
 11
66.0
 21
15.54289299999997
 31
0.0
  0
ARC
  5
F80
330
EA5
100
AcDbEntity
  8
240
100
AcDbCircle
 10
65.5
 20
15.54289299999997
 30
0.0
 40
0.5
100
AcDbArc
 50
0.0
 51
45.0
  0
LINE
  5
F81
330
EA5
100
AcDbEntity
  8
240
100
AcDbLine
 10
54.19999999999999
 20
16.74999999999998
 30
0.0
 11
64.79289300000002
 21
16.74999999999998
 31
0.0
  0
ARC
  5
F82
330
EA5
100
AcDbEntity
  8
240
100
AcDbCircle
 10
51.5
 20
24.5
 30
0.0
 40
2.5
100
AcDbArc
 50
0.0
 51
90.0
  0
LINE
  5
F83
330
EA5
100
AcDbEntity
  8
240
100
AcDbLine
 10
54.0
 20
24.5
 30
0.0
 11
54.00000000000003
 21
16.94999999999117
 31
0.0
  0
LINE
  5
F84
330
EA5
100
AcDbEntity
  8
240
100
AcDbLine
 10
54.19999999999999
 20
16.74999999999998
 30
0.0
 11
54.0
 21
16.94999999999997
 31
0.0
  0
ARC
  5
F85
330
EA5
100
AcDbEntity
  8
240
100
AcDbCircle
 10
48.0
 20
30.30000000000001
 30
0.0
 40
4.0
100
AcDbArc
 50
224.4270039999996
 51
304.411509
  0
LINE
  5
F86
330
EA5
100
AcDbEntity
  8
240
100
AcDbLine
 10
43.856571
 20
27.5
 30
0.0
 11
45.14342900000002
 21
27.5
 31
0.0
  0
LINE
  5
F87
330
EA5
100
AcDbEntity
  8
240
100
AcDbLine
 10
50.26053100000002
 20
27.0
 30
0.0
 11
51.5
 21
27.0
 31
0.0
  0
ARC
  5
F88
330
EA5
100
AcDbEntity
  8
240
100
AcDbCircle
 10
64.79289300000002
 20
16.24999999999998
 30
0.0
 40
0.5
100
AcDbArc
 50
45.0
 51
90.0
  0
ARC
  5
F89
330
EA5
100
AcDbEntity
  8
241
100
AcDbCircle
 10
82.06309100000002
 20
15.596153
 30
0.0
 40
11.563091
100
AcDbArc
 50
155.9961230000002
 51
204.0038769999996
  0
ARC
  5
F8A
330
EA5
100
AcDbEntity
  8
241
100
AcDbCircle
 10
81.46845399999998
 20
15.596153
 30
0.0
 40
6.531545999999999
100
AcDbArc
 50
313.9311729999998
 51
46.06882700000016
  0
LINE
  5
F8B
330
EA5
100
AcDbEntity
  8
240
100
AcDbLine
 10
68.5
 20
17.49999999999998
 30
0.0
 11
68.5
 21
15.49999999999998
 31
0.0
  0
LINE
  5
F8C
330
EA5
100
AcDbEntity
  8
241
100
AcDbLine
 10
71.5
 20
10.892305
 30
0.0
 11
86.0
 21
10.892305
 31
0.0
  0
LINE
  5
F8D
330
EA5
100
AcDbEntity
  8
241
100
AcDbLine
 10
71.5
 20
9.892305000000007
 30
0.0
 11
86.0
 21
9.892305000000007
 31
0.0
  0
LINE
  5
F8E
330
EA5
100
AcDbEntity
  8
241
100
AcDbLine
 10
71.5
 20
10.892305
 30
0.0
 11
71.5
 21
9.892305000000007
 31
0.0
  0
ARC
  5
F8F
330
EA5
100
AcDbEntity
  8
240
100
AcDbCircle
 10
68.0
 20
15.49999999999998
 30
0.0
 40
0.5
100
AcDbArc
 50
270.0
 51
0.0
  0
LINE
  5
F90
330
EA5
100
AcDbEntity
  8
241
100
AcDbLine
 10
86.0
 20
10.892305
 30
0.0
 11
86.0
 21
9.892305000000007
 31
0.0
  0
LINE
  5
F91
330
EA5
100
AcDbEntity
  8
240
100
AcDbLine
 10
71.69999999999999
 20
20.29999999999999
 30
0.0
 11
85.62250100000003
 21
20.29999999999999
 31
0.0
  0
ARC
  5
F92
330
EA5
100
AcDbEntity
  8
240
100
AcDbCircle
 10
71.69999999999999
 20
19.09999999999998
 30
0.0
 40
1.199999999999999
100
AcDbArc
 50
90.0
 51
180.0
  0
LINE
  5
F93
330
EA5
100
AcDbEntity
  8
240
100
AcDbLine
 10
69.0
 20
17.99999999999998
 30
0.0
 11
70.0
 21
17.99999999999998
 31
0.0
  0
ARC
  5
F94
330
EA5
100
AcDbEntity
  8
240
100
AcDbCircle
 10
69.0
 20
17.49999999999998
 30
0.0
 40
0.5
100
AcDbArc
 50
90.0
 51
180.0
  0
LINE
  5
F95
330
EA5
100
AcDbEntity
  8
240
100
AcDbLine
 10
70.5
 20
19.09999999999998
 30
0.0
 11
70.5
 21
18.49999999999998
 31
0.0
  0
ARC
  5
F96
330
EA5
100
AcDbEntity
  8
240
100
AcDbCircle
 10
70.0
 20
18.49999999999998
 30
0.0
 40
0.5
100
AcDbArc
 50
270.0
 51
0.0
  0
ARC
  5
F97
330
EA5
100
AcDbEntity
  8
240
100
AcDbCircle
 10
85.62250100000003
 20
18.79999999999999
 30
0.0
 40
1.5
100
AcDbArc
 50
59.99999999999986
 51
90.0
  0
LINE
  5
F98
330
EA5
100
AcDbEntity
  8
240
100
AcDbLine
 10
92.0
 20
16.34999999999998
 30
0.0
 11
91.56698700000001
 21
17.09999999999998
 31
0.0
  0
LINE
  5
F99
330
EA5
100
AcDbEntity
  8
240
100
AcDbLine
 10
92.0
 20
13.00864199999999
 30
0.0
 11
92.0
 21
0.9999999999999857
 31
0.0
  0
ENDBLK
  5
F9B
330
EA5
100
AcDbEntity
  8
0
100
AcDbBlockEnd
  0
BLOCK
  5
1004
330
FFA
100
AcDbEntity
  8
0
100
AcDbBlockBegin
  2
*D2
 70
     1
 10
0.0
 20
0.0
 30
0.0
  3
*D2
  1

  0
LINE
  5
102A
330
FFA
100
AcDbEntity
  8
250
  6
CONTINUOUS
100
AcDbLine
 10
0.0
 20
24.5
 30
0.0
 11
0.0000000000000007
 21
36.0
 31
0.0
  0
LINE
  5
102B
330
FFA
100
AcDbEntity
  8
250
  6
CONTINUOUS
100
AcDbLine
 10
54.0
 20
25.0
 30
0.0
 11
54.0
 21
36.0
 31
0.0
  0
LINE
  5
102C
330
FFA
100
AcDbEntity
  8
250
  6
CONTINUOUS
100
AcDbLine
 10
2.23
 20
35.0
 30
0.0
 11
51.77
 21
35.0
 31
0.0
  0
INSERT
  5
102D
330
FFA
100
AcDbEntity
  8
250
  6
CONTINUOUS
100
AcDbBlockReference
  2
_OPEN
 10
0.0000000000000007
 20
35.0
 30
0.0
 41
2.229999999999999
 42
2.229999999999999
 43
2.229999999999999
 50
180.0
  0
INSERT
  5
102E
330
FFA
100
AcDbEntity
  8
250
  6
CONTINUOUS
100
AcDbBlockReference
  2
_OPEN
 10
54.0
 20
35.0
 30
0.0
 41
2.229999999999999
 42
2.229999999999999
 43
2.229999999999999
  0
MTEXT
  5
102F
330
FFA
100
AcDbEntity
  8
250
  6
CONTINUOUS
 62
    40
100
AcDbMText
 10
27.0
 20
37.5
 30
0.0
 40
3.0
 41
0.0
 71
     5
 72
     1
  1
\A1;54
1001
ACAD
1000
MTEXTBEGIN
1070
    73
1070
     1
1070
    44
1040
1.0
1070
    74
1070
     0
1000
MTEXTEND
  0
POINT
  5
1030
330
FFA
100
AcDbEntity
  8
DEFPOINTS
  6
CONTINUOUS
 62
     0
100
AcDbPoint
 10
0.0
 20
24.0
 30
0.0
  0
POINT
  5
1031
330
FFA
100
AcDbEntity
  8
DEFPOINTS
  6
CONTINUOUS
 62
     0
100
AcDbPoint
 10
54.0
 20
24.5
 30
0.0
  0
POINT
  5
1032
330
FFA
100
AcDbEntity
  8
DEFPOINTS
  6
CONTINUOUS
 62
     0
100
AcDbPoint
 10
54.0
 20
35.0
 30
0.0
  0
ENDBLK
  5
1005
330
FFA
100
AcDbEntity
  8
0
100
AcDbBlockEnd
  0
BLOCK
  5
1010
330
1006
100
AcDbEntity
  8
0
100
AcDbBlockBegin
  2
*D3
 70
     1
 10
0.0
 20
0.0
 30
0.0
  3
*D3
  1

  0
LINE
  5
1033
330
1006
100
AcDbEntity
  8
250
  6
CONTINUOUS
100
AcDbLine
 10
0.0
 20
24.5
 30
0.0
 11
0.0000000000000012
 21
43.0
 31
0.0
  0
LINE
  5
1034
330
1006
100
AcDbEntity
  8
250
  6
CONTINUOUS
100
AcDbLine
 10
92.0
 20
16.84999999999999
 30
0.0
 11
92.0
 21
43.0
 31
0.0
  0
LINE
  5
1035
330
1006
100
AcDbEntity
  8
250
  6
CONTINUOUS
100
AcDbLine
 10
2.23
 20
42.0
 30
0.0
 11
89.77
 21
42.0
 31
0.0
  0
INSERT
  5
1036
330
1006
100
AcDbEntity
  8
250
  6
CONTINUOUS
100
AcDbBlockReference
  2
_OPEN
 10
0.0000000000000011
 20
42.0
 30
0.0
 41
2.229999999999999
 42
2.229999999999999
 43
2.229999999999999
 50
180.0
  0
INSERT
  5
1037
330
1006
100
AcDbEntity
  8
250
  6
CONTINUOUS
100
AcDbBlockReference
  2
_OPEN
 10
92.0
 20
42.0
 30
0.0
 41
2.229999999999999
 42
2.229999999999999
 43
2.229999999999999
  0
MTEXT
  5
1038
330
1006
100
AcDbEntity
  8
250
  6
CONTINUOUS
 62
    40
100
AcDbMText
 10
46.0
 20
44.5
 30
0.0
 40
3.0
 41
0.0
 71
     5
 72
     1
  1
\A1;92
1001
ACAD
1000
MTEXTBEGIN
1070
    73
1070
     1
1070
    44
1040
1.0
1070
    74
1070
     0
1000
MTEXTEND
  0
POINT
  5
1039
330
1006
100
AcDbEntity
  8
DEFPOINTS
  6
CONTINUOUS
 62
     0
100
AcDbPoint
 10
0.0
 20
24.0
 30
0.0
  0
POINT
  5
103A
330
1006
100
AcDbEntity
  8
DEFPOINTS
  6
CONTINUOUS
 62
     0
100
AcDbPoint
 10
92.0
 20
16.34999999999999
 30
0.0
  0
POINT
  5
103B
330
1006
100
AcDbEntity
  8
DEFPOINTS
  6
CONTINUOUS
 62
     0
100
AcDbPoint
 10
92.0
 20
42.0
 30
0.0
  0
ENDBLK
  5
1011
330
1006
100
AcDbEntity
  8
0
100
AcDbBlockEnd
  0
BLOCK
  5
101C
330
1012
100
AcDbEntity
  8
0
100
AcDbBlockBegin
  2
*D4
 70
     1
 10
0.0
 20
0.0
 30
0.0
  3
*D4
  1

  0
LINE
  5
103C
330
1012
100
AcDbEntity
  8
250
  6
CONTINUOUS
100
AcDbLine
 10
86.12250100000002
 20
-20.30000000000001
 30
0.0
 11
113.0
 21
-20.30000000000002
 31
0.0
  0
LINE
  5
103D
330
1012
100
AcDbEntity
  8
250
  6
CONTINUOUS
100
AcDbLine
 10
86.12250100000002
 20
20.30000000000001
 30
0.0
 11
113.0
 21
20.3
 31
0.0
  0
LINE
  5
103E
330
1012
100
AcDbEntity
  8
250
  6
CONTINUOUS
100
AcDbLine
 10
112.0
 20
-18.07000000000001
 30
0.0
 11
112.0
 21
18.07
 31
0.0
  0
INSERT
  5
103F
330
1012
100
AcDbEntity
  8
250
  6
CONTINUOUS
100
AcDbBlockReference
  2
_OPEN
 10
112.0
 20
-20.30000000000002
 30
0.0
 41
2.229999999999999
 42
2.229999999999999
 43
2.229999999999999
 50
270.0
  0
INSERT
  5
1040
330
1012
100
AcDbEntity
  8
250
  6
CONTINUOUS
100
AcDbBlockReference
  2
_OPEN
 10
112.0
 20
20.3
 30
0.0
 41
2.229999999999999
 42
2.229999999999999
 43
2.229999999999999
 50
90.0
  0
MTEXT
  5
1041
330
1012
100
AcDbEntity
  8
250
  6
CONTINUOUS
 62
    40
100
AcDbMText
 10
109.4999999999999
 20
0.0000000000000112
 30
0.0
 40
3.0
 41
0.0
 71
     5
 72
     1
  1
\A1;{\H3;\U+2205}41
 11
0.0000000000000001
 21
1.0
 31
0.0
1001
ACAD
1000
MTEXTBEGIN
1070
    73
1070
     1
1070
    44
1040
1.0
1070
    74
1070
     0
1000
MTEXTEND
  0
POINT
  5
1042
330
1012
100
AcDbEntity
  8
DEFPOINTS
  6
CONTINUOUS
 62
     0
100
AcDbPoint
 10
85.62250100000003
 20
-20.30000000000001
 30
0.0
  0
POINT
  5
1043
330
1012
100
AcDbEntity
  8
DEFPOINTS
  6
CONTINUOUS
 62
     0
100
AcDbPoint
 10
85.62250100000003
 20
20.30000000000001
 30
0.0
  0
POINT
  5
1044
330
1012
100
AcDbEntity
  8
DEFPOINTS
  6
CONTINUOUS
 62
     0
100
AcDbPoint
 10
112.0
 20
20.3
 30
0.0
  0
ENDBLK
  5
101D
330
1012
100
AcDbEntity
  8
0
100
AcDbBlockEnd
  0
BLOCK
  5
1028
330
101E
100
AcDbEntity
  8
0
100
AcDbBlockBegin
  2
*D5
 70
     1
 10
0.0
 20
0.0
 30
0.0
  3
*D5
  1

  0
LINE
  5
1045
330
101E
100
AcDbEntity
  8
250
  6
CONTINUOUS
100
AcDbLine
 10
54.0
 20
25.5
 30
0.0
 11
54.0
 21
36.0
 31
0.0
  0
LINE
  5
1046
330
101E
100
AcDbEntity
  8
250
  6
CONTINUOUS
100
AcDbLine
 10
92.0
 20
16.84999999999999
 30
0.0
 11
92.0
 21
36.0
 31
0.0
  0
LINE
  5
1047
330
101E
100
AcDbEntity
  8
250
  6
CONTINUOUS
100
AcDbLine
 10
56.23
 20
35.0
 30
0.0
 11
89.77
 21
35.0
 31
0.0
  0
INSERT
  5
1048
330
101E
100
AcDbEntity
  8
250
  6
CONTINUOUS
100
AcDbBlockReference
  2
_OPEN
 10
54.0
 20
35.0
 30
0.0
 41
2.229999999999999
 42
2.229999999999999
 43
2.229999999999999
 50
180.0
  0
INSERT
  5
1049
330
101E
100
AcDbEntity
  8
250
  6
CONTINUOUS
100
AcDbBlockReference
  2
_OPEN
 10
92.0
 20
35.0
 30
0.0
 41
2.229999999999999
 42
2.229999999999999
 43
2.229999999999999
  0
MTEXT
  5
104A
330
101E
100
AcDbEntity
  8
250
  6
CONTINUOUS
 62
    40
100
AcDbMText
 10
73.0
 20
37.5
 30
0.0
 40
3.0
 41
0.0
 71
     5
 72
     1
  1
\A1;38
1001
ACAD
1000
MTEXTBEGIN
1070
    73
1070
     1
1070
    44
1040
1.0
1070
    74
1070
     0
1000
MTEXTEND
  0
POINT
  5
104B
330
101E
100
AcDbEntity
  8
DEFPOINTS
  6
CONTINUOUS
 62
     0
100
AcDbPoint
 10
54.0
 20
25.0
 30
0.0
  0
POINT
  5
104C
330
101E
100
AcDbEntity
  8
DEFPOINTS
  6
CONTINUOUS
 62
     0
100
AcDbPoint
 10
92.0
 20
16.34999999999999
 30
0.0
  0
POINT
  5
104D
330
101E
100
AcDbEntity
  8
DEFPOINTS
  6
CONTINUOUS
 62
     0
100
AcDbPoint
 10
92.0
 20
35.0
 30
0.0
  0
ENDBLK
  5
1029
330
101E
100
AcDbEntity
  8
0
100
AcDbBlockEnd
  0
ENDSEC
  0
SECTION
  2
ENTITIES
  0
INSERT
  5
FED
330
1A
100
AcDbEntity
  8
240
100
AcDbBlockReference
  2
A$C610D5CF9
 10
0.0
 20
0.0
 30
0.0
  0
DIMENSION
  5
FEE
330
1A
100
AcDbEntity
  8
250
  6
CONTINUOUS
100
AcDbDimension
  2
*D2
 10
54.0
 20
35.0
 30
0.0
 11
27.0
 21
37.5
 31
0.0
 70
    32
  3
BIGT
100
AcDbAlignedDimension
 13
0.0
 23
24.0
 33
0.0
 14
54.0
 24
24.5
 34
0.0
100
AcDbRotatedDimension
1001
ACAD
1000
DSTYLE
1002
{
1070
    78
1070
     8
1070
   140
1040
3.0
1002
}
  0
DIMENSION
  5
FEF
330
1A
100
AcDbEntity
  8
250
  6
CONTINUOUS
100
AcDbDimension
  2
*D3
 10
92.0
 20
42.0
 30
0.0
 11
46.0
 21
44.5
 31
0.0
 70
    32
  3
BIGT
100
AcDbAlignedDimension
 13
0.0
 23
24.0
 33
0.0
 14
92.0
 24
16.34999999999999
 34
0.0
100
AcDbRotatedDimension
1001
ACAD
1000
DSTYLE
1002
{
1070
    78
1070
     8
1070
   140
1040
3.0
1002
}
  0
LINE
  5
FF0
330
1A
100
AcDbEntity
  8
250
  6
CONTINUOUS
100
AcDbLine
 10
-25.16709948948016
 20
-25.09154647960133
 30
0.0
 11
-39.16709948948016
 21
-25.09154647960133
 31
0.0
1001
ITEMNAME
1000
LNSP2
  0
MTEXT
  5
FF1
330
1A
100
AcDbEntity
  8
250
  6
CONTINUOUS
 62
    40
100
AcDbMText
 10
-36.16709948948016
 20
-24.09154647960133
 30
0.0
 40
3.0
 41
0.0
 71
     7
 72
     1
  1
CK5
  7
YOKO
1001
ITEMNAME
1000
LNSP3
1001
ACAD
1000
MTEXTBEGIN
1070
    73
1070
     1
1070
    44
1040
1.0
1070
    74
1070
     0
1000
MTEXTEND
  0
LEADER
  5
FF2
330
1A
100
AcDbEntity
  8
250
  6
CONTINUOUS
100
AcDbLeader
  3
BIGT
 76
     2
 10
-18.76339214375309
 20
-14.00000000000003
 30
0.0
 10
-25.16709948948016
 20
-25.09154647960133
 30
0.0
1001
ACAD
1000
DSTYLE
1002
{
1070
     5
1000
OPEN
1070
    78
1070
     8
1070
   140
1040
3.0
1002
}
  0
TEXT
  5
FF3
330
1A
100
AcDbEntity
  8
241
100
AcDbText
 10
-28.0
 20
56.0
 30
0.0
 40
5.0
  1
CK5-STC30-92
  7
YOKO
 11
-28.0
 21
56.0
 31
0.0
100
AcDbText
 73
     1
  0
DIMENSION
  5
FF4
330
1A
100
AcDbEntity
  8
250
  6
CONTINUOUS
100
AcDbDimension
  2
*D4
 10
112.0
 20
20.3
 30
0.0
 11
109.4999999999999
 21
0.0000000000000112
 31
0.0
 70
    32
  1
{\H3;\U+2205}41
  3
BIGT
100
AcDbAlignedDimension
 13
85.62250100000003
 23
-20.30000000000001
 33
0.0
 14
85.62250100000003
 24
20.30000000000001
 34
0.0
 50
90.0
100
AcDbRotatedDimension
1001
ACAD
1000
DSTYLE
1002
{
1070
    78
1070
     8
1070
   140
1040
3.0
1002
}
  0
LINE
  5
FF5
330
1A
100
AcDbEntity
  8
250
  6
CONTINUOUS
100
AcDbLine
 10
82.64162430812328
 20
-31.90234189450268
 30
0.0
 11
116.0987671652661
 21
-31.90234189450268
 31
0.0
1001
ITEMNAME
1000
LNSP2
  0
MTEXT
  5
FF6
330
1A
100
AcDbEntity
  8
250
  6
CONTINUOUS
 62
    40
100
AcDbMText
 10
85.64162430812329
 20
-32.90234189450268
 30
0.0
 40
3.0
 41
0.0
 71
     1
 72
     1
  1
d=M20～M30
  7
YOKO
1001
ITEMNAME
1000
LNSP4
1001
ACAD
1000
MTEXTBEGIN
1070
    73
1070
     1
1070
    44
1040
1.0
1070
    74
1070
     0
1000
MTEXTEND
  0
MTEXT
  5
FF7
330
1A
100
AcDbEntity
  8
250
  6
CONTINUOUS
 62
    40
100
AcDbMText
 10
85.64162430812329
 20
-30.90234189450268
 30
0.0
 40
3.0
 41
0.0
 71
     7
 72
     1
  1
TC30-d
  7
YOKO
1001
ITEMNAME
1000
LNSP3
1001
ACAD
1000
MTEXTBEGIN
1070
    73
1070
     1
1070
    44
1040
1.0
1070
    74
1070
     0
1000
MTEXTEND
  0
LEADER
  5
FF8
330
1A
100
AcDbEntity
  8
250
  6
CONTINUOUS
100
AcDbLeader
  3
BIGT
 76
     2
 10
75.9430090921021
 20
-20.30000000000001
 30
0.0
 10
82.64162430812328
 20
-31.90234189450268
 30
0.0
1001
ACAD
1000
DSTYLE
1002
{
1070
     5
1000
OPEN
1070
    78
1070
     8
1070
   140
1040
3.0
1002
}
  0
DIMENSION
  5
FF9
330
1A
100
AcDbEntity
  8
250
  6
CONTINUOUS
100
AcDbDimension
  2
*D5
 10
92.0
 20
35.0
 30
0.0
 11
73.0
 21
37.5
 31
0.0
 70
    32
  3
BIGT
100
AcDbAlignedDimension
 13
54.0
 23
25.0
 33
0.0
 14
92.0
 24
16.34999999999999
 34
0.0
100
AcDbRotatedDimension
1001
ACAD
1000
DSTYLE
1002
{
1070
    78
1070
     8
1070
   140
1040
3.0
1002
}
  0
VIEWPORT
  5
22
330
17
100
AcDbEntity
 67
     1
  8
0
100
AcDbViewport
 10
261.5176991150442
 20
148.5
 30
0.0
 40
523.0353982300885
 41
297.0
 68
     1
 69
     1
1001
ACAD
1000
MVIEW
1002
{
1070
    16
1010
0.0
1020
0.0
1030
0.0
1010
0.0
1020
0.0
1030
1.0
1040
0.0
1040
297.0
1040
261.5176991150442
1040
148.5
1040
50.0
1040
0.0
1040
0.0
1070
     0
1070
   100
1070
     1
1070
     1
1070
     0
1070
     0
1070
     0
1070
     0
1040
0.0
1040
0.0
1040
0.0
1040
1.0
1040
1.0
1040
10.0
1040
10.0
1070
     0
1002
{
1002
}
1002
}
  0
ENDSEC
  0
SECTION
  2
OBJECTS
  0
DICTIONARY
  5
C
330
0
100
AcDbDictionary
  3
ACAD_GROUP
350
D
  3
ACAD_LAYOUT
350
565
  3
ACAD_MLINESTYLE
350
E
  3
ACAD_PLOTSETTINGS
350
566
  3
ACAD_PLOTSTYLENAME
350
563
  3
ACDBHEADERROUNDTRIPXREC
350
105B
  3
GRADE_DWG
350
540
  0
DICTIONARY
  5
107E
330
1A
100
AcDbDictionary
280
     1
  3
ACAD_LAYOUTSELFREF
360
107F
  0
DICTIONARY
  5
107C
330
17
100
AcDbDictionary
280
     1
  3
ACAD_LAYOUTSELFREF
360
107D
  0
DICTIONARY
  5
D
102
{ACAD_REACTORS
330
C
102
}
330
C
100
AcDbDictionary
  3
DREC-1
350
5FC
  3
DREC-2
350
654
  3
DREC-3
350
673
  3
LNSP-1
350
B87
  3
LNSP-2
350
B8F
  0
DICTIONARY
  5
565
102
{ACAD_REACTORS
330
C
102
}
330
C
100
AcDbDictionary
  0
DICTIONARY
  5
E
102
{ACAD_REACTORS
330
C
102
}
330
C
100
AcDbDictionary
  3
STANDARD
350
13
  0
DICTIONARY
  5
566
102
{ACAD_REACTORS
330
C
102
}
330
C
100
AcDbDictionary
  0
ACDBDICTIONARYWDFLT
  5
563
102
{ACAD_REACTORS
330
C
102
}
330
C
100
AcDbDictionary
281
     1
  3
Normal
350
564
100
AcDbDictionaryWithDefault
340
564
  0
DICTIONARY
  5
105B
102
{ACAD_REACTORS
330
C
102
}
330
C
100
AcDbDictionary
  3
CEPSNTYPE
350
1065
  3
DIMSTYLEDATA
350
1069
  3
FINGERPRINTGUID
350
1066
  3
HYPERLINKBASE
350
105E
  3
INSUNITS
350
1064
  3
LAYOUTDICT
350
1060
  3
LWETCUNION
350
1063
  3
PLOTSETDICT
350
1061
  3
PLOTSTYLNAMDICT
350
1062
  3
PSVPSCALE
350
1068
  3
PUCSBASE
350
106C
  3
PUCSORGBACK
350
1072
  3
PUCSORGBOTTOM
350
106E
  3
PUCSORGFRONT
350
1071
  3
PUCSORGLEFT
350
106F
  3
PUCSORGRIGHT
350
1070
  3
PUCSORGTOP
350
106D
  3
PUCSORTHOREF
350
106A
  3
PUCSORTHOVIEW
350
106B
  3
STYLESHEET
350
105F
  3
TSTACKALIGN
350
105C
  3
TSTACKSIZE
350
105D
  3
UCSBASE
350
1075
  3
UCSORGBACK
350
107B
  3
UCSORGBOTTOM
350
1077
  3
UCSORGFRONT
350
107A
  3
UCSORGLEFT
350
1078
  3
UCSORGRIGHT
350
1079
  3
UCSORGTOP
350
1076
  3
UCSORTHOREF
350
1073
  3
UCSORTHOVIEW
350
1074
  3
VERSIONGUID
350
1067
  0
DICTIONARY
  5
540
102
{ACAD_REACTORS
330
C
102
}
330
C
100
AcDbDictionary
  3
VERSION
350
560
  0
XRECORD
  5
107F
102
{ACAD_REACTORS
330
107E
102
}
330
107E
100
AcDbXrecord
340
1A
  0
XRECORD
  5
107D
102
{ACAD_REACTORS
330
107C
102
}
330
107C
100
AcDbXrecord
340
17
  0
GROUP
  5
5FC
102
{ACAD_REACTORS
330
D
102
}
330
D
100
AcDbGroup
300

 70
     0
 71
     1
1001
GRPNAME
1000
DREC-
1001
GPARA
1000
xsiz
1000
44.182
1000
ysiz
1000
40.677
1000
angl
1000
0
1000
ctyp
1000
0
1000
csiz
1000
5
1000
lfnt
1000
cont
1000
hcnt
1000
hoff
1000
vcnt
1000
voff
1000
opnt
1000
4
1000
dxpt
1000
0
1000
dypt
1000
0
  0
GROUP
  5
654
102
{ACAD_REACTORS
330
D
102
}
330
D
100
AcDbGroup
300

 70
     0
 71
     1
1001
GRPNAME
1000
DREC-
1001
GPARA
1000
xsiz
1000
54.592
1000
ysiz
1000
53.036
1000
angl
1000
0
1000
ctyp
1000
0
1000
csiz
1000
5
1000
lfnt
1000
cont
1000
hcnt
1000
hoff
1000
vcnt
1000
voff
1000
opnt
1000
4
1000
dxpt
1000
0
1000
dypt
1000
0
  0
GROUP
  5
673
102
{ACAD_REACTORS
330
D
102
}
330
D
100
AcDbGroup
300

 70
     0
 71
     1
1001
GRPNAME
1000
DREC-
1001
GPARA
1000
xsiz
1000
30.363
1000
ysiz
1000
36.175
1000
angl
1000
0
1000
ctyp
1000
0
1000
csiz
1000
5
1000
lfnt
1000
cont
1000
hcnt
1000
hoff
1000
vcnt
1000
voff
1000
opnt
1000
4
1000
dxpt
1000
0
1000
dypt
1000
0
  0
GROUP
  5
B87
102
{ACAD_REACTORS
330
D
102
}
330
D
100
AcDbGroup
300

 70
     0
 71
     1
1001
GRPNAME
1000
LNSP
  0
GROUP
  5
B8F
102
{ACAD_REACTORS
330
D
102
}
330
D
100
AcDbGroup
300

 70
     0
 71
     1
1001
GRPNAME
1000
LNSP
  0
MLINESTYLE
  5
13
102
{ACAD_REACTORS
330
E
102
}
330
E
100
AcDbMlineStyle
  2
STANDARD
 70
     0
  3

 62
     0
 51
90.0
 52
90.0
 71
     2
 49
0.5
 62
   256
  6
BYLAYER
 49
-0.5
 62
   256
  6
BYLAYER
  0
ACDBPLACEHOLDER
  5
564
102
{ACAD_REACTORS
330
563
102
}
330
563
100
AcDbPlaceHolder
280
     0
  0
XRECORD
  5
1065
102
{ACAD_REACTORS
330
105B
102
}
330
105B
100
AcDbXrecord
 90
        0
  0
XRECORD
  5
1069
102
{ACAD_REACTORS
330
105B
102
}
330
105B
100
AcDbXrecord
1000
DSTYLE
1002
{
1070
    79
 70
     2
1070
   179
 70
     3
1070
   289
 70
     2
1070
   341
340
594
1070
   342
340
594
1070
   371
 70
    -1
1070
   372
 70
    -1
1002
}
  0
XRECORD
  5
1066
102
{ACAD_REACTORS
330
105B
102
}
330
105B
100
AcDbXrecord
  1
{51294030-9CB4-11D3-8E18-00A0C925D94D}
  0
XRECORD
  5
105E
102
{ACAD_REACTORS
330
105B
102
}
330
105B
100
AcDbXrecord
  1

  0
XRECORD
  5
1064
102
{ACAD_REACTORS
330
105B
102
}
330
105B
100
AcDbXrecord
 90
        0
  0
XRECORD
  5
1060
102
{ACAD_REACTORS
330
105B
102
}
330
105B
100
AcDbXrecord
340
565
  0
XRECORD
  5
1063
102
{ACAD_REACTORS
330
105B
102
}
330
105B
100
AcDbXrecord
 90
    10781
  0
XRECORD
  5
1061
102
{ACAD_REACTORS
330
105B
102
}
330
105B
100
AcDbXrecord
340
566
  0
XRECORD
  5
1062
102
{ACAD_REACTORS
330
105B
102
}
330
105B
100
AcDbXrecord
340
563
  0
XRECORD
  5
1068
102
{ACAD_REACTORS
330
105B
102
}
330
105B
100
AcDbXrecord
 40
0.0
  0
XRECORD
  5
106C
102
{ACAD_REACTORS
330
105B
102
}
330
105B
100
AcDbXrecord
340
0
  0
XRECORD
  5
1072
102
{ACAD_REACTORS
330
105B
102
}
330
105B
100
AcDbXrecord
 10
0.0
 20
0.0
 30
0.0
  0
XRECORD
  5
106E
102
{ACAD_REACTORS
330
105B
102
}
330
105B
100
AcDbXrecord
 10
0.0
 20
0.0
 30
0.0
  0
XRECORD
  5
1071
102
{ACAD_REACTORS
330
105B
102
}
330
105B
100
AcDbXrecord
 10
0.0
 20
0.0
 30
0.0
  0
XRECORD
  5
106F
102
{ACAD_REACTORS
330
105B
102
}
330
105B
100
AcDbXrecord
 10
0.0
 20
0.0
 30
0.0
  0
XRECORD
  5
1070
102
{ACAD_REACTORS
330
105B
102
}
330
105B
100
AcDbXrecord
 10
0.0
 20
0.0
 30
0.0
  0
XRECORD
  5
106D
102
{ACAD_REACTORS
330
105B
102
}
330
105B
100
AcDbXrecord
 10
0.0
 20
0.0
 30
0.0
  0
XRECORD
  5
106A
102
{ACAD_REACTORS
330
105B
102
}
330
105B
100
AcDbXrecord
340
0
  0
XRECORD
  5
106B
102
{ACAD_REACTORS
330
105B
102
}
330
105B
100
AcDbXrecord
 70
     0
  0
XRECORD
  5
105F
102
{ACAD_REACTORS
330
105B
102
}
330
105B
100
AcDbXrecord
  1
big.ctb
  0
XRECORD
  5
105C
102
{ACAD_REACTORS
330
105B
102
}
330
105B
100
AcDbXrecord
 90
        1
  0
XRECORD
  5
105D
102
{ACAD_REACTORS
330
105B
102
}
330
105B
100
AcDbXrecord
 90
       70
  0
XRECORD
  5
1075
102
{ACAD_REACTORS
330
105B
102
}
330
105B
100
AcDbXrecord
340
0
  0
XRECORD
  5
107B
102
{ACAD_REACTORS
330
105B
102
}
330
105B
100
AcDbXrecord
 10
0.0
 20
0.0
 30
0.0
  0
XRECORD
  5
1077
102
{ACAD_REACTORS
330
105B
102
}
330
105B
100
AcDbXrecord
 10
0.0
 20
0.0
 30
0.0
  0
XRECORD
  5
107A
102
{ACAD_REACTORS
330
105B
102
}
330
105B
100
AcDbXrecord
 10
0.0
 20
0.0
 30
0.0
  0
XRECORD
  5
1078
102
{ACAD_REACTORS
330
105B
102
}
330
105B
100
AcDbXrecord
 10
0.0
 20
0.0
 30
0.0
  0
XRECORD
  5
1079
102
{ACAD_REACTORS
330
105B
102
}
330
105B
100
AcDbXrecord
 10
0.0
 20
0.0
 30
0.0
  0
XRECORD
  5
1076
102
{ACAD_REACTORS
330
105B
102
}
330
105B
100
AcDbXrecord
 10
0.0
 20
0.0
 30
0.0
  0
XRECORD
  5
1073
102
{ACAD_REACTORS
330
105B
102
}
330
105B
100
AcDbXrecord
340
0
  0
XRECORD
  5
1074
102
{ACAD_REACTORS
330
105B
102
}
330
105B
100
AcDbXrecord
 70
     0
  0
XRECORD
  5
1067
102
{ACAD_REACTORS
330
105B
102
}
330
105B
100
AcDbXrecord
  1
{CA454543-324D-11D7-96A2-006094EB2375}
  0
XRECORD
  5
560
102
{ACAD_REACTORS
330
540
102
}
330
540
100
AcDbXrecord
  1
2.0.0
  0
ENDSEC
  0
EOF
