  0
SECTION
  2
HEADER
  9
$ACADVER
  1
AC1015
  9
$ACADMAINTVER
 70
    20
  9
$DWGCODEPAGE
  3
ANSI_932
  9
$INSBASE
 10
0.0
 20
0.0
 30
0.0
  9
$EXTMIN
 10
-35.39145558159487
 20
-25.00823881591685
 30
-0.0000000349181948
  9
$EXTMAX
 10
102.5214717545848
 20
61.00164901816544
 30
0.0000000814935746
  9
$LIMMIN
 10
0.0
 20
0.0
  9
$LIMMAX
 10
297.0
 20
210.0
  9
$ORTHOMODE
 70
     1
  9
$REGENMODE
 70
     1
  9
$FILLMODE
 70
     1
  9
$QTEXTMODE
 70
     0
  9
$MIRRTEXT
 70
     1
  9
$LTSCALE
 40
10.0
  9
$ATTMODE
 70
     1
  9
$TEXTSIZE
 40
3.0
  9
$TRACEWID
 40
1.0
  9
$TEXTSTYLE
  7
YOKO
  9
$CLAYER
  8
245
  9
$CELTYPE
  6
BYLAYER
  9
$CECOLOR
 62
   256
  9
$CELTSCALE
 40
1.0
  9
$DISPSILH
 70
     0
  9
$DIMSCALE
 40
1.0
  9
$DIMASZ
 40
2.0
  9
$DIMEXO
 40
0.5
  9
$DIMDLI
 40
2.5
  9
$DIMRND
 40
0.0
  9
$DIMDLE
 40
0.0
  9
$DIMEXE
 40
1.0
  9
$DIMTP
 40
0.0
  9
$DIMTM
 40
0.0
  9
$DIMTXT
 40
2.799999999999999
  9
$DIMCEN
 40
0.0
  9
$DIMTSZ
 40
0.0
  9
$DIMTOL
 70
     0
  9
$DIMLIM
 70
     0
  9
$DIMTIH
 70
     0
  9
$DIMTOH
 70
     0
  9
$DIMSE1
 70
     0
  9
$DIMSE2
 70
     0
  9
$DIMTAD
 70
     3
  9
$DIMZIN
 70
     8
  9
$DIMBLK
  1

  9
$DIMASO
 70
     1
  9
$DIMSHO
 70
     1
  9
$DIMPOST
  1

  9
$DIMAPOST
  1

  9
$DIMALT
 70
     0
  9
$DIMALTD
 70
     2
  9
$DIMALTF
 40
25.4
  9
$DIMLFAC
 40
1.0
  9
$DIMTOFL
 70
     1
  9
$DIMTVP
 40
0.0
  9
$DIMTIX
 70
     1
  9
$DIMSOXD
 70
     0
  9
$DIMSAH
 70
     1
  9
$DIMBLK1
  1
Open
  9
$DIMBLK2
  1
Open
  9
$DIMSTYLE
  2
BIGT
  9
$DIMCLRD
 70
   256
  9
$DIMCLRE
 70
   256
  9
$DIMCLRT
 70
    40
  9
$DIMTFAC
 40
1.0
  9
$DIMGAP
 40
1.0
  9
$DIMJUST
 70
     0
  9
$DIMSD1
 70
     0
  9
$DIMSD2
 70
     0
  9
$DIMTOLJ
 70
     1
  9
$DIMTZIN
 70
     8
  9
$DIMALTZ
 70
     0
  9
$DIMALTTZ
 70
     0
  9
$DIMUPT
 70
     0
  9
$DIMDEC
 70
     3
  9
$DIMTDEC
 70
     3
  9
$DIMALTU
 70
     2
  9
$DIMALTTD
 70
     2
  9
$DIMTXSTY
  7
STANDARD
  9
$DIMAUNIT
 70
     0
  9
$DIMADEC
 70
     3
  9
$DIMALTRND
 40
0.0
  9
$DIMAZIN
 70
     2
  9
$DIMDSEP
 70
    46
  9
$DIMATFIT
 70
     2
  9
$DIMFRAC
 70
     0
  9
$DIMLDRBLK
  1
Open
  9
$DIMLUNIT
 70
     2
  9
$DIMLWD
 70
    -1
  9
$DIMLWE
 70
    -1
  9
$DIMTMOVE
 70
     0
  9
$LUNITS
 70
     2
  9
$LUPREC
 70
     3
  9
$SKETCHINC
 40
1.0
  9
$FILLETRAD
 40
1.0
  9
$AUNITS
 70
     0
  9
$AUPREC
 70
     3
  9
$MENU
  1
.
  9
$ELEVATION
 40
0.0
  9
$PELEVATION
 40
0.0
  9
$THICKNESS
 40
0.0
  9
$LIMCHECK
 70
     0
  9
$CHAMFERA
 40
10.0
  9
$CHAMFERB
 40
10.0
  9
$CHAMFERC
 40
0.0
  9
$CHAMFERD
 40
0.0
  9
$SKPOLY
 70
     0
  9
$TDCREATE
 40
2456997.676739537
  9
$TDUCREATE
 40
2456997.301739537
  9
$TDUPDATE
 40
2456997.685581053
  9
$TDUUPDATE
 40
2456997.310581053
  9
$TDINDWG
 40
0.0088467593
  9
$TDUSRTIMER
 40
0.0088467593
  9
$USRTIMER
 70
     1
  9
$ANGBASE
 50
0.0
  9
$ANGDIR
 70
     0
  9
$PDMODE
 70
     1
  9
$PDSIZE
 40
-5.0
  9
$PLINEWID
 40
0.0
  9
$SPLFRAME
 70
     0
  9
$SPLINETYPE
 70
     6
  9
$SPLINESEGS
 70
     8
  9
$HANDSEED
  5
E8C
  9
$SURFTAB1
 70
     6
  9
$SURFTAB2
 70
     6
  9
$SURFTYPE
 70
     6
  9
$SURFU
 70
     6
  9
$SURFV
 70
     6
  9
$UCSBASE
  2

  9
$UCSNAME
  2

  9
$UCSORG
 10
0.0
 20
0.0
 30
0.0
  9
$UCSXDIR
 10
1.0
 20
0.0
 30
0.0
  9
$UCSYDIR
 10
0.0
 20
1.0
 30
0.0
  9
$UCSORTHOREF
  2

  9
$UCSORTHOVIEW
 70
     0
  9
$UCSORGTOP
 10
0.0
 20
0.0
 30
0.0
  9
$UCSORGBOTTOM
 10
0.0
 20
0.0
 30
0.0
  9
$UCSORGLEFT
 10
0.0
 20
0.0
 30
0.0
  9
$UCSORGRIGHT
 10
0.0
 20
0.0
 30
0.0
  9
$UCSORGFRONT
 10
0.0
 20
0.0
 30
0.0
  9
$UCSORGBACK
 10
0.0
 20
0.0
 30
0.0
  9
$PUCSBASE
  2

  9
$PUCSNAME
  2

  9
$PUCSORG
 10
0.0
 20
0.0
 30
0.0
  9
$PUCSXDIR
 10
1.0
 20
0.0
 30
0.0
  9
$PUCSYDIR
 10
0.0
 20
1.0
 30
0.0
  9
$PUCSORTHOREF
  2

  9
$PUCSORTHOVIEW
 70
     0
  9
$PUCSORGTOP
 10
0.0
 20
0.0
 30
0.0
  9
$PUCSORGBOTTOM
 10
0.0
 20
0.0
 30
0.0
  9
$PUCSORGLEFT
 10
0.0
 20
0.0
 30
0.0
  9
$PUCSORGRIGHT
 10
0.0
 20
0.0
 30
0.0
  9
$PUCSORGFRONT
 10
0.0
 20
0.0
 30
0.0
  9
$PUCSORGBACK
 10
0.0
 20
0.0
 30
0.0
  9
$USERI1
 70
     1
  9
$USERI2
 70
     0
  9
$USERI3
 70
     0
  9
$USERI4
 70
     0
  9
$USERI5
 70
     0
  9
$USERR1
 40
0.0
  9
$USERR2
 40
0.0
  9
$USERR3
 40
0.0
  9
$USERR4
 40
0.0
  9
$USERR5
 40
0.0
  9
$WORLDVIEW
 70
     1
  9
$SHADEDGE
 70
     3
  9
$SHADEDIF
 70
    70
  9
$TILEMODE
 70
     1
  9
$MAXACTVP
 70
    16
  9
$PINSBASE
 10
0.0
 20
0.0
 30
0.0
  9
$PLIMCHECK
 70
     0
  9
$PEXTMIN
 10
1.000000000000000E+20
 20
1.000000000000000E+20
 30
1.000000000000000E+20
  9
$PEXTMAX
 10
-1.000000000000000E+20
 20
-1.000000000000000E+20
 30
-1.000000000000000E+20
  9
$PLIMMIN
 10
0.0
 20
0.0
  9
$PLIMMAX
 10
420.0
 20
297.0
  9
$UNITMODE
 70
     0
  9
$VISRETAIN
 70
     0
  9
$PLINEGEN
 70
     0
  9
$PSLTSCALE
 70
     1
  9
$TREEDEPTH
 70
  3020
  9
$CMLSTYLE
  2
STANDARD
  9
$CMLJUST
 70
     0
  9
$CMLSCALE
 40
1.0
  9
$PROXYGRAPHICS
 70
     1
  9
$MEASUREMENT
 70
     1
  9
$CELWEIGHT
370
    -1
  9
$ENDCAPS
280
     0
  9
$JOINSTYLE
280
     0
  9
$LWDISPLAY
290
     0
  9
$INSUNITS
 70
     0
  9
$HYPERLINKBASE
  1

  9
$STYLESHEET
  1
big.ctb
  9
$XEDIT
290
     1
  9
$CEPSNTYPE
380
     0
  9
$PSTYLEMODE
290
     1
  9
$FINGERPRINTGUID
  2
{1D326467-DBA8-4FC9-AC1C-D36F29C76192}
  9
$VERSIONGUID
  2
{3DC31996-F8ED-4BC1-9B88-7A4CC3F716FE}
  9
$EXTNAMES
290
     1
  9
$PSVPSCALE
 40
0.0
  9
$OLESTARTUP
290
     0
  0
ENDSEC
  0
SECTION
  2
CLASSES
  0
CLASS
  1
ACDBDICTIONARYWDFLT
  2
AcDbDictionaryWithDefault
  3
ObjectDBX Classes
 90
        0
280
     0
281
     0
  0
CLASS
  1
ACDBPLACEHOLDER
  2
AcDbPlaceHolder
  3
ObjectDBX Classes
 90
        0
280
     0
281
     0
  0
CLASS
  1
LAYOUT
  2
AcDbLayout
  3
ObjectDBX Classes
 90
        0
280
     0
281
     0
  0
CLASS
  1
PLOTSETTINGS
  2
AcDbPlotSettings
  3
ObjectDBX Classes
 90
        0
280
     0
281
     0
  0
CLASS
  1
MATERIAL
  2
AcDbMaterial
  3
ObjectDBX Classes
 90
     1024
280
     0
281
     0
  0
CLASS
  1
VISUALSTYLE
  2
AcDbVisualStyle
  3
ObjectDBX Classes
 90
     4095
280
     0
281
     0
  0
CLASS
  1
TABLESTYLE
  2
AcDbTableStyle
  3
ObjectDBX Classes
 90
     4095
280
     0
281
     0
  0
CLASS
  1
SORTENTSTABLE
  2
AcDbSortentsTable
  3
ObjectDBX Classes
 90
        0
280
     0
281
     0
  0
CLASS
  1
DICTIONARYVAR
  2
AcDbDictionaryVar
  3
ObjectDBX Classes
 90
        0
280
     0
281
     0
  0
ENDSEC
  0
SECTION
  2
TABLES
  0
TABLE
  2
VPORT
  5
8
330
0
100
AcDbSymbolTable
 70
     1
  0
VPORT
  5
77A
330
8
100
AcDbSymbolTableRecord
100
AcDbViewportTableRecord
  2
*Active
 70
     0
 10
0.0
 20
0.0
 11
1.0
 21
1.0
 12
33.56500808649496
 22
17.99670510112429
 13
0.0
 23
0.0
 14
7.0
 24
7.0
 15
7.0
 25
7.0
 16
0.0
 26
0.0
 36
1.0
 17
0.0
 27
0.0
 37
0.0
 40
86.52440361374779
 41
1.755489021956087
 42
50.0
 43
0.0
 44
0.0
 50
0.0
 51
0.0
 71
     0
 72
 20000
 73
     1
 74
     0
 75
     0
 76
     0
 77
     0
 78
     0
281
     0
 65
     1
110
0.0
120
0.0
130
0.0
111
1.0
121
0.0
131
0.0
112
0.0
122
1.0
132
0.0
 79
     0
146
0.0
  0
ENDTAB
  0
TABLE
  2
LTYPE
  5
5
330
0
100
AcDbSymbolTable
 70
    39
  0
LTYPE
  5
14
330
5
100
AcDbSymbolTableRecord
100
AcDbLinetypeTableRecord
  2
BYBLOCK
 70
     0
  3

 72
    65
 73
     0
 40
0.0
  0
LTYPE
  5
15
330
5
100
AcDbSymbolTableRecord
100
AcDbLinetypeTableRecord
  2
BYLAYER
 70
     0
  3

 72
    65
 73
     0
 40
0.0
  0
LTYPE
  5
16
330
5
100
AcDbSymbolTableRecord
100
AcDbLinetypeTableRecord
  2
CONTINUOUS
 70
     0
  3
Solid line
 72
    65
 73
     0
 40
0.0
  0
LTYPE
  5
258
330
5
100
AcDbSymbolTableRecord
100
AcDbLinetypeTableRecord
  2
CENTER2
 70
     0
  3
___ _ ___ _ ___ _ ___ _ ___ _ ___ _ ___ _ ___ _
 72
    65
 73
     4
 40
1.125
 49
0.75
 74
     0
 49
-0.125
 74
     0
 49
0.125
 74
     0
 49
-0.125
 74
     0
  0
LTYPE
  5
25C
330
5
100
AcDbSymbolTableRecord
100
AcDbLinetypeTableRecord
  2
HIDDEN2
 70
     0
  3
_ _ _ _ _ _ _ _ _ _ _ _ _ _ _ _ _ _ _ _ _ _ _ _
 72
    65
 73
     2
 40
0.1875
 49
0.125
 74
     0
 49
-0.0625
 74
     0
  0
ENDTAB
  0
TABLE
  2
LAYER
  5
2
102
{ACAD_XDICTIONARY
360
95F
102
}
330
0
100
AcDbSymbolTable
 70
    32
  0
LAYER
  5
F
330
2
100
AcDbSymbolTableRecord
100
AcDbLayerTableRecord
  2
0
 70
     0
 62
     7
  6
CONTINUOUS
370
    -3
390
564
  0
LAYER
  5
1AA
330
2
100
AcDbSymbolTableRecord
100
AcDbLayerTableRecord
  2
240
 70
     0
 62
     4
  6
CONTINUOUS
370
    -3
390
564
  0
LAYER
  5
1AB
330
2
100
AcDbSymbolTableRecord
100
AcDbLayerTableRecord
  2
241
 70
     0
 62
   211
  6
CONTINUOUS
370
    -3
390
564
  0
LAYER
  5
1AC
330
2
100
AcDbSymbolTableRecord
100
AcDbLayerTableRecord
  2
242
 70
     0
 62
     3
  6
CONTINUOUS
370
    -3
390
564
  0
LAYER
  5
1AF
330
2
100
AcDbSymbolTableRecord
100
AcDbLayerTableRecord
  2
245
 70
     0
 62
     2
  6
CENTER2
370
    -3
390
564
  0
LAYER
  5
21E
330
2
100
AcDbSymbolTableRecord
100
AcDbLayerTableRecord
  2
250
 70
     0
 62
     3
  6
CONTINUOUS
370
    -3
390
564
  0
LAYER
  5
5C4
330
2
100
AcDbSymbolTableRecord
100
AcDbLayerTableRecord
  2
Defpoints
 70
     0
 62
     7
  6
CONTINUOUS
290
     0
370
    -3
390
564
  0
ENDTAB
  0
TABLE
  2
STYLE
  5
3
330
0
100
AcDbSymbolTable
 70
     3
  0
STYLE
  5
10
330
3
100
AcDbSymbolTableRecord
100
AcDbTextStyleTableRecord
  2
STANDARD
 70
     0
 40
0.0
 41
1.0
 50
0.0
 71
     0
 42
2.799999999999999
  3
romans.shx
  4
BIGFONT.SHX
  0
STYLE
  5
339
330
3
100
AcDbSymbolTableRecord
100
AcDbTextStyleTableRecord
  2
YOKO
 70
     0
 40
0.0
 41
1.0
 50
0.0
 71
     0
 42
3.0
  3
romans.shx
  4
extfont.shx
  0
ENDTAB
  0
TABLE
  2
VIEW
  5
6
330
0
100
AcDbSymbolTable
 70
     0
  0
ENDTAB
  0
TABLE
  2
UCS
  5
7
330
0
100
AcDbSymbolTable
 70
     0
  0
ENDTAB
  0
TABLE
  2
APPID
  5
9
330
0
100
AcDbSymbolTable
 70
     9
  0
APPID
  5
11
330
9
100
AcDbSymbolTableRecord
100
AcDbRegAppTableRecord
  2
ACAD
 70
     0
  0
APPID
  5
1B1
330
9
100
AcDbSymbolTableRecord
100
AcDbRegAppTableRecord
  2
GLOBAL
 70
     0
  0
APPID
  5
2A4
330
9
100
AcDbSymbolTableRecord
100
AcDbRegAppTableRecord
  2
DETAIL
 70
     0
  0
APPID
  5
5FD
330
9
100
AcDbSymbolTableRecord
100
AcDbRegAppTableRecord
  2
GRPNAME
 70
     0
  0
APPID
  5
5FE
330
9
100
AcDbSymbolTableRecord
100
AcDbRegAppTableRecord
  2
GPARA
 70
     0
  0
APPID
  5
6C4
330
9
100
AcDbSymbolTableRecord
100
AcDbRegAppTableRecord
  2
DCO15
 70
     0
  0
APPID
  5
6C5
330
9
100
AcDbSymbolTableRecord
100
AcDbRegAppTableRecord
  2
ITEMNAME
 70
     0
  0
APPID
  5
6C6
330
9
100
AcDbSymbolTableRecord
100
AcDbRegAppTableRecord
  2
GRADE_0
 70
     0
  0
APPID
  5
864
330
9
100
AcDbSymbolTableRecord
100
AcDbRegAppTableRecord
  2
ACAD_PSEXT
 70
     0
  0
ENDTAB
  0
TABLE
  2
DIMSTYLE
  5
A
330
0
100
AcDbSymbolTable
 70
    12
100
AcDbDimStyleTable
 71
     1
340
725
  0
DIMSTYLE
105
725
102
{ACAD_REACTORS
330
7F1
102
}
330
A
100
AcDbSymbolTableRecord
100
AcDbDimStyleTableRecord
  2
BIGT
 70
     0
 41
2.229999999999999
 42
0.5
 43
2.5
 44
1.0
 73
     0
 74
     0
 77
     3
 78
     8
 79
     2
140
2.799999999999999
141
0.0
147
1.0
172
     1
173
     1
174
     1
176
   256
177
   256
178
    40
179
     3
271
     3
272
     3
284
     8
289
     2
340
10
341
594
343
594
344
594
371
    -1
372
    -1
  0
DIMSTYLE
105
BD6
102
{ACAD_REACTORS
330
C29
330
C2E
330
CF3
330
CF8
330
D79
102
}
330
A
100
AcDbSymbolTableRecord
100
AcDbDimStyleTableRecord
  2
BIGT$0
 70
     0
  4
"
 41
2.229999999999999
 42
0.5
 43
7.0
 44
1.0
 47
0.1
 48
0.1
 73
     0
 74
     0
 77
     3
 78
     8
 79
     2
140
3.0
141
0.0
143
0.0393701
146
0.71
147
1.0
172
     1
176
     3
177
     3
178
    40
179
     3
271
     3
272
     3
284
     8
289
     2
340
10
341
594
342
594
371
    -1
372
    -1
  0
ENDTAB
  0
TABLE
  2
BLOCK_RECORD
  5
1
330
0
100
AcDbSymbolTable
 70
    38
  0
BLOCK_RECORD
  5
1A
102
{ACAD_XDICTIONARY
360
92C
102
}
330
1
100
AcDbSymbolTableRecord
100
AcDbBlockTableRecord
  2
*MODEL_SPACE
340
567
  0
BLOCK_RECORD
  5
17
330
1
100
AcDbSymbolTableRecord
100
AcDbBlockTableRecord
  2
*PAPER_SPACE
340
568
  0
BLOCK_RECORD
  5
594
330
1
100
AcDbSymbolTableRecord
100
AcDbBlockTableRecord
  2
_Open
340
0
102
{BLKREFS
331
79F
331
7A0
331
7AB
331
7AC
331
84F
331
850
331
935
331
936
331
941
331
942
331
94D
331
94E
331
959
331
AAB
331
AAC
331
AB4
331
AB5
331
ABD
331
ABE
331
AC6
331
BC1
331
BCF
331
BD0
331
C35
331
C40
331
C41
331
DE9
331
DEA
331
DF1
331
DF9
331
DFA
331
E02
331
E03
102
}
  0
BLOCK_RECORD
  5
6E3
330
1
100
AcDbSymbolTableRecord
100
AcDbBlockTableRecord
  2
矢印なし
340
0
102
{BLKREFS
331
6E6
331
958
331
AC5
102
}
  0
BLOCK_RECORD
  5
82E
330
1
100
AcDbSymbolTableRecord
100
AcDbBlockTableRecord
  2
*D16
340
0
  0
BLOCK_RECORD
  5
BC7
330
1
100
AcDbSymbolTableRecord
100
AcDbBlockTableRecord
  2
_None
340
0
  0
BLOCK_RECORD
  5
CF9
330
1
100
AcDbSymbolTableRecord
100
AcDbBlockTableRecord
  2
*D34
340
0
  0
BLOCK_RECORD
  5
D03
330
1
100
AcDbSymbolTableRecord
100
AcDbBlockTableRecord
  2
*D35
340
0
  0
BLOCK_RECORD
  5
D7A
330
1
100
AcDbSymbolTableRecord
100
AcDbBlockTableRecord
  2
*D36
340
0
  0
BLOCK_RECORD
  5
E08
330
1
100
AcDbSymbolTableRecord
100
AcDbBlockTableRecord
  2
1
340
0
310
2800000020000000200000000100080000000000000400000000000000000000000000000000000000000000000080000080000000808000800000008000800080800000C0C0C000C0DCC000F0CAA6000020400000206000002080000020A0000020C0000020E00000400000004020000040400000406000004080000040A0
310
000040C0000040E00000600000006020000060400000606000006080000060A0000060C0000060E00000800000008020000080400000806000008080000080A0000080C0000080E00000A0000000A0200000A0400000A0600000A0800000A0A00000A0C00000A0E00000C0000000C0200000C0400000C0600000C0800000C0
310
A00000C0C00000C0E00000E0000000E0200000E0400000E0600000E0800000E0A00000E0C00000E0E00040000000400020004000400040006000400080004000A0004000C0004000E00040200000402020004020400040206000402080004020A0004020C0004020E000404000004040200040404000404060004040800040
310
40A0004040C0004040E00040600000406020004060400040606000406080004060A0004060C0004060E00040800000408020004080400040806000408080004080A0004080C0004080E00040A0000040A0200040A0400040A0600040A0800040A0A00040A0C00040A0E00040C0000040C0200040C0400040C0600040C08000
310
40C0A00040C0C00040C0E00040E0000040E0200040E0400040E0600040E0800040E0A00040E0C00040E0E00080000000800020008000400080006000800080008000A0008000C0008000E00080200000802020008020400080206000802080008020A0008020C0008020E00080400000804020008040400080406000804080
310
008040A0008040C0008040E00080600000806020008060400080606000806080008060A0008060C0008060E00080800000808020008080400080806000808080008080A0008080C0008080E00080A0000080A0200080A0400080A0600080A0800080A0A00080A0C00080A0E00080C0000080C0200080C0400080C0600080C0
310
800080C0A00080C0C00080C0E00080E0000080E0200080E0400080E0600080E0800080E0A00080E0C00080E0E000C0000000C0002000C0004000C0006000C0008000C000A000C000C000C000E000C0200000C0202000C0204000C0206000C0208000C020A000C020C000C020E000C0400000C0402000C0404000C0406000C0
310
408000C040A000C040C000C040E000C0600000C0602000C0604000C0606000C0608000C060A000C060C000C060E000C0800000C0802000C0804000C0806000C0808000C080A000C080C000C080E000C0A00000C0A02000C0A04000C0A06000C0A08000C0A0A000C0A0C000C0A0E000C0C00000C0C02000C0C04000C0C06000
310
C0C08000C0C0A000F0FBFF00A4A0A000808080000000FF0000FF000000FFFF00FF000000FF00FF00FFFF0000FFFFFF0000000000000000000000000000000000000000000000000000000000000000000000000000000000000000000000000000000000000000000000000000000000000000000000000000000000000000
310
00000000000000000000000000000000000000000000000000000000000000000000000000000000000000000000000000000000000000000000000000000000000000000000000000000000000000000000000000000000000000000000000000000000000000000000000000000000000000000000000000000000000000
310
00000000000000000000000000000000000000000000000000000000000000000000000000000000000000000000000000000000000000000000000000000000000000000000000000000000000000000000000000000000000000FEFEFEFE00000000000000000000000000000000000000000000000000000000FE0000E7
310
FEFEFEFEFEFEFEFEFEFEE7E7FEFEFEFEFE0000000000000000FEFEFEFE0000E7000000000000000000E7E7E700000000FE00000000FEFEFEFEE7E7E7FE0000E7000000000000000000E7E7E700000000FE00000000FE000000000000E70000E7000000000000000000E7E7E700000000FE00000000FEE7E7E7E7E700E70000
310
E7000000000000000000E7E7E700000000FE000000FBFEFBFBE7FBE7FBE7FBFBE7FBFBFBFBFBFBFBFBE7E7E7E7FBFBFBFBFEFB000000FE0000E7E7E700E70000E7FA00000000E70000E7E7E7E700000000FE00000000FEE7E7E7E7E700E70000E7FA00000000E70000E7E7E7E700000000FE00000000FE000000000000E700
310
E7E7FAFAFAFAFAE7E7E7E7E7E7E7E7E7E7E7E700000000FEFEFEFEFEE7E7FE0000E7000000000000000000E7E7E7E7E7E7E7FE0000000000000000FEFEFEFE0000E7000000000000000000E7E7E7E7E70000FE0000000000000000000000FE0000E7FEFEFEFEFEFEFEFEFEFEE7E7FEFEFEFEFE0000000000000000000000FE
310
FEFEFE00000000000000000000000000000000000000000000000000000000000000000000000000000000000000000000000000000000000000000000000000000000000000000000000000000000000000000000000000000000000000000000000000000000000000000000000000000000000000000000000000000000
310
00000000000000000000000000000000000000000000000000000000000000000000000000000000000000000000000000000000000000000000000000000000000000000000000000000000000000000000000000000000000000000000000000000000000000000000000000000000000000000000000000000000000000
310
0000000000000000000000000000000000000000000000000000000000000000000000000000000000000000000000000000000000000000
102
{BLKREFS
331
E69
102
}
  0
ENDTAB
  0
ENDSEC
  0
SECTION
  2
BLOCKS
  0
BLOCK
  5
1B
330
1A
100
AcDbEntity
  8
0
100
AcDbBlockBegin
  2
*MODEL_SPACE
 70
     0
 10
0.0
 20
0.0
 30
0.0
  3
*MODEL_SPACE
  1

  0
ENDBLK
  5
1C
330
1A
100
AcDbEntity
  8
0
100
AcDbBlockEnd
  0
BLOCK
  5
18
330
17
100
AcDbEntity
 67
     1
  8
0
100
AcDbBlockBegin
  2
*PAPER_SPACE
 70
     0
 10
0.0
 20
0.0
 30
0.0
  3
*PAPER_SPACE
  1

  0
ENDBLK
  5
19
330
17
100
AcDbEntity
 67
     1
  8
0
100
AcDbBlockEnd
  0
BLOCK
  5
598
330
594
100
AcDbEntity
  8
0
100
AcDbBlockBegin
  2
_Open
 70
     0
 10
0.0
 20
0.0
 30
0.0
  3
_Open
  1

  0
LINE
  5
595
330
594
100
AcDbEntity
  8
0
  6
ByBlock
 62
     0
370
    -2
100
AcDbLine
 10
-1.0
 20
0.1666666666666666
 30
0.0
 11
0.0
 21
0.0
 31
0.0
  0
LINE
  5
596
330
594
100
AcDbEntity
  8
0
  6
ByBlock
 62
     0
370
    -2
100
AcDbLine
 10
-1.0
 20
-0.1666666666666666
 30
0.0
 11
0.0
 21
0.0
 31
0.0
  0
LINE
  5
597
330
594
100
AcDbEntity
  8
0
  6
ByBlock
 62
     0
370
    -2
100
AcDbLine
 10
0.0
 20
0.0
 30
0.0
 11
-1.0
 21
0.0
 31
0.0
  0
ENDBLK
  5
599
330
594
100
AcDbEntity
  8
0
100
AcDbBlockEnd
  0
BLOCK
  5
6E4
330
6E3
100
AcDbEntity
  8
0
100
AcDbBlockBegin
  2
矢印なし
 70
     0
 10
0.0
 20
0.0
 30
0.0
  3
矢印なし
  1

  0
ENDBLK
  5
6E5
330
6E3
100
AcDbEntity
  8
0
100
AcDbBlockEnd
  0
BLOCK
  5
838
330
82E
100
AcDbEntity
  8
0
100
AcDbBlockBegin
  2
*D16
 70
     1
 10
0.0
 20
0.0
 30
0.0
  3
*D16
  1

  0
LINE
  5
DE6
330
82E
100
AcDbEntity
  8
250
  6
Continuous
100
AcDbLine
 10
0.0
 20
25.49999999999983
 30
0.0
 11
0.0000000000000011
 21
43.0
 31
0.0
  0
LINE
  5
DE7
330
82E
100
AcDbEntity
  8
250
  6
Continuous
100
AcDbLine
 10
80.00000000000005
 20
19.5
 30
0.0
 11
80.00000000000005
 21
43.0
 31
0.0
  0
LINE
  5
DE8
330
82E
100
AcDbEntity
  8
250
  6
Continuous
100
AcDbLine
 10
2.23
 20
42.0
 30
0.0
 11
77.77000000000005
 21
42.0
 31
0.0
  0
INSERT
  5
DE9
330
82E
100
AcDbEntity
  8
250
  6
Continuous
100
AcDbBlockReference
  2
_Open
 10
0.000000000000001
 20
42.0
 30
0.0
 41
2.229999999999999
 42
2.229999999999999
 43
2.229999999999999
 50
180.0
  0
INSERT
  5
DEA
330
82E
100
AcDbEntity
  8
250
  6
Continuous
100
AcDbBlockReference
  2
_Open
 10
80.00000000000005
 20
42.0
 30
0.0
 41
2.229999999999999
 42
2.229999999999999
 43
2.229999999999999
  0
MTEXT
  5
DEB
330
82E
100
AcDbEntity
  8
250
  6
Continuous
 62
    40
100
AcDbMText
 10
40.00000000000002
 20
44.4
 30
0.0
 40
2.799999999999999
 41
0.0
 71
     5
 72
     1
  1
\A1;80
 73
     1
 44
1.0
1001
ACAD
1000
MTEXTBEGIN
1070
    73
1070
     1
1070
    44
1040
1.0
1070
    74
1070
     0
1000
MTEXTEND
  0
POINT
  5
DEC
330
82E
100
AcDbEntity
  8
Defpoints
  6
Continuous
 62
     0
100
AcDbPoint
 10
0.0
 20
24.99999999999983
 30
0.0
  0
POINT
  5
DED
330
82E
100
AcDbEntity
  8
Defpoints
  6
Continuous
 62
     0
100
AcDbPoint
 10
80.00000000000005
 20
19.0
 30
0.0
  0
POINT
  5
DEE
330
82E
100
AcDbEntity
  8
Defpoints
  6
Continuous
 62
     0
100
AcDbPoint
 10
80.00000000000005
 20
42.0
 30
0.0
  0
ENDBLK
  5
839
330
82E
100
AcDbEntity
  8
0
100
AcDbBlockEnd
  0
BLOCK
  5
BC8
330
BC7
100
AcDbEntity
  8
0
100
AcDbBlockBegin
  2
_None
 70
     0
 10
0.0
 20
0.0
 30
0.0
  3
_None
  1

  0
ENDBLK
  5
BC9
330
BC7
100
AcDbEntity
  8
0
100
AcDbBlockEnd
  0
BLOCK
  5
D01
330
CF9
100
AcDbEntity
  8
0
100
AcDbBlockBegin
  2
*D34
 70
     1
 10
0.0
 20
0.0
 30
0.0
  3
*D34
  1

  0
LINE
  5
DEF
330
CF9
100
AcDbEntity
  8
250
  6
Continuous
 62
     3
100
AcDbLine
 10
80.5
 20
8.0
 30
0.0
 11
95.47131655101361
 21
7.999999999999994
 31
0.0
  0
LINE
  5
DF0
330
CF9
100
AcDbEntity
  8
250
  6
Continuous
 62
     3
100
AcDbLine
 10
94.47131655101362
 20
-8.000000000000003
 30
0.0
 11
94.47131655101362
 21
5.999999999999996
 31
0.0
  0
INSERT
  5
DF1
330
CF9
100
AcDbEntity
  8
250
  6
Continuous
 62
     3
100
AcDbBlockReference
  2
_Open
 10
94.47131655101362
 20
7.999999999999996
 30
0.0
 41
2.0
 42
2.0
 43
2.0
 50
90.0
  0
MTEXT
  5
DF2
330
CF9
100
AcDbEntity
  8
250
  6
Continuous
 62
    40
370
    -3
100
AcDbMText
 10
91.97131655101362
 20
-2.404431296177847
 30
0.0
 40
3.0
 41
0.0
 71
     5
 72
     1
  1
\A1;max.{\H3;%%C}16
 11
0.0000000000000001
 21
1.0
 31
0.0
 73
     1
 44
1.0
1001
ACAD
1000
MTEXTBEGIN
1070
    73
1070
     1
1070
    44
1040
1.0
1070
    74
1070
     0
1000
MTEXTEND
  0
POINT
  5
DF3
330
CF9
100
AcDbEntity
  8
Defpoints
  6
Continuous
 62
     0
100
AcDbPoint
 10
80.0
 20
-8.0
 30
0.0
  0
POINT
  5
DF4
330
CF9
100
AcDbEntity
  8
Defpoints
  6
Continuous
 62
     0
100
AcDbPoint
 10
80.0
 20
8.0
 30
0.0
  0
POINT
  5
DF5
330
CF9
100
AcDbEntity
  8
Defpoints
  6
Continuous
 62
     0
100
AcDbPoint
 10
94.47131655101362
 20
7.999999999999996
 30
0.0
  0
ENDBLK
  5
D02
330
CF9
100
AcDbEntity
  8
0
100
AcDbBlockEnd
  0
BLOCK
  5
D0D
330
D03
100
AcDbEntity
  8
0
100
AcDbBlockBegin
  2
*D35
 70
     1
 10
0.0
 20
0.0
 30
0.0
  3
*D35
  1

  0
LINE
  5
DF6
330
D03
100
AcDbEntity
  8
250
  6
Continuous
 62
     3
100
AcDbLine
 10
78.49999999999994
 20
-21.00000000000001
 30
0.0
 11
102.5
 21
-21.00000000000002
 31
0.0
  0
LINE
  5
DF7
330
D03
100
AcDbEntity
  8
250
  6
Continuous
 62
     3
100
AcDbLine
 10
78.50000000000003
 20
20.99999999999997
 30
0.0
 11
102.5
 21
20.99999999999997
 31
0.0
  0
LINE
  5
DF8
330
D03
100
AcDbEntity
  8
250
  6
Continuous
 62
     3
100
AcDbLine
 10
101.5
 20
-19.00000000000002
 30
0.0
 11
101.5
 21
18.99999999999996
 31
0.0
  0
INSERT
  5
DF9
330
D03
100
AcDbEntity
  8
250
  6
Continuous
 62
     3
100
AcDbBlockReference
  2
_Open
 10
101.5
 20
-21.00000000000002
 30
0.0
 41
2.0
 42
2.0
 43
2.0
 50
270.0
  0
INSERT
  5
DFA
330
D03
100
AcDbEntity
  8
250
  6
Continuous
 62
     3
100
AcDbBlockReference
  2
_Open
 10
101.5
 20
20.99999999999997
 30
0.0
 41
2.0
 42
2.0
 43
2.0
 50
90.0
  0
MTEXT
  5
DFB
330
D03
100
AcDbEntity
  8
250
  6
Continuous
 62
    40
370
    -3
100
AcDbMText
 10
99.0
 20
0.0000000000000003
 30
0.0
 40
3.0
 41
0.0
 71
     5
 72
     1
  1
\A1;{\H3;%%C}42
 11
0.0000000000000001
 21
1.0
 31
0.0
 73
     1
 44
1.0
1001
ACAD
1000
MTEXTBEGIN
1070
    73
1070
     1
1070
    44
1040
1.0
1070
    74
1070
     0
1000
MTEXTEND
  0
POINT
  5
DFC
330
D03
100
AcDbEntity
  8
Defpoints
  6
Continuous
 62
     0
100
AcDbPoint
 10
77.99999999999994
 20
-21.00000000000001
 30
0.0
  0
POINT
  5
DFD
330
D03
100
AcDbEntity
  8
Defpoints
  6
Continuous
 62
     0
100
AcDbPoint
 10
78.00000000000003
 20
20.99999999999997
 30
0.0
  0
POINT
  5
DFE
330
D03
100
AcDbEntity
  8
Defpoints
  6
Continuous
 62
     0
100
AcDbPoint
 10
101.5
 20
20.99999999999997
 30
0.0
  0
ENDBLK
  5
D0E
330
D03
100
AcDbEntity
  8
0
100
AcDbBlockEnd
  0
BLOCK
  5
D84
330
D7A
100
AcDbEntity
  8
0
370
    -3
100
AcDbBlockBegin
  2
*D36
 70
     1
 10
0.0
 20
0.0
 30
0.0
  3
*D36
  1

  0
LINE
  5
DFF
330
D7A
100
AcDbEntity
  8
250
  6
Continuous
 62
     3
100
AcDbLine
 10
6.000000000000042
 20
9.150000000000204
 30
0.0
 11
6.000000000000044
 21
36.0
 31
0.0
  0
LINE
  5
E00
330
D7A
100
AcDbEntity
  8
250
  6
Continuous
 62
     3
100
AcDbLine
 10
80.00000000000005
 20
19.5
 30
0.0
 11
80.00000000000005
 21
36.0
 31
0.0
  0
LINE
  5
E01
330
D7A
100
AcDbEntity
  8
250
  6
Continuous
 62
     3
100
AcDbLine
 10
8.000000000000044
 20
35.0
 30
0.0
 11
78.00000000000006
 21
35.0
 31
0.0
  0
INSERT
  5
E02
330
D7A
100
AcDbEntity
  8
250
  6
Continuous
 62
     3
100
AcDbBlockReference
  2
_Open
 10
6.000000000000044
 20
35.0
 30
0.0
 41
2.0
 42
2.0
 43
2.0
 50
180.0
  0
INSERT
  5
E03
330
D7A
100
AcDbEntity
  8
250
  6
Continuous
 62
     3
100
AcDbBlockReference
  2
_Open
 10
80.00000000000005
 20
35.0
 30
0.0
 41
2.0
 42
2.0
 43
2.0
  0
MTEXT
  5
E04
330
D7A
100
AcDbEntity
  8
250
  6
Continuous
 62
    40
370
    -3
100
AcDbMText
 10
43.00000000000005
 20
37.5
 30
0.0
 40
3.0
 41
0.0
 71
     5
 72
     1
  1
\A1;（max.74）
 73
     1
 44
1.0
1001
ACAD
1000
MTEXTBEGIN
1070
    73
1070
     1
1070
    44
1040
1.0
1070
    74
1070
     0
1000
MTEXTEND
  0
POINT
  5
E05
330
D7A
100
AcDbEntity
  8
Defpoints
  6
Continuous
 62
     0
100
AcDbPoint
 10
6.000000000000042
 20
8.650000000000204
 30
0.0
  0
POINT
  5
E06
330
D7A
100
AcDbEntity
  8
Defpoints
  6
Continuous
 62
     0
100
AcDbPoint
 10
80.00000000000005
 20
19.0
 30
0.0
  0
POINT
  5
E07
330
D7A
100
AcDbEntity
  8
Defpoints
  6
Continuous
 62
     0
100
AcDbPoint
 10
80.00000000000005
 20
35.0
 30
0.0
  0
ENDBLK
  5
D85
330
D7A
100
AcDbEntity
  8
0
370
    -3
100
AcDbBlockEnd
  0
BLOCK
  5
E09
330
E08
100
AcDbEntity
  8
0
100
AcDbBlockBegin
  2
1
 70
     0
 10
0.0
 20
0.0
 30
0.0
  3
1
  1

  0
LINE
  5
E0B
330
E08
100
AcDbEntity
  8
245
  6
CENTER2
100
AcDbLine
 10
-31.0
 20
0.0
 30
0.0
 11
81.00000000000003
 21
0.0
 31
0.0
  0
LINE
  5
E0C
330
E08
100
AcDbEntity
  8
240
  6
Continuous
100
AcDbLine
 10
-30.0
 20
14.0
 30
0.0
 11
-13.03837566999999
 21
14.0
 31
0.0
  0
LINE
  5
E0D
330
E08
100
AcDbEntity
  8
240
  6
Continuous
100
AcDbLine
 10
-30.0
 20
-14.0
 30
0.0
 11
-13.03837566999999
 21
-14.0
 31
0.0
  0
LINE
  5
E0E
330
E08
100
AcDbEntity
  8
241
  6
Continuous
100
AcDbLine
 10
-7.200000000000002
 20
5.470235800000011
 30
0.0
 11
-30.0
 21
5.470235800000011
 31
0.0
  0
LINE
  5
E0F
330
E08
100
AcDbEntity
  8
241
  6
Continuous
100
AcDbLine
 10
-7.200000000000002
 20
-5.470235799999997
 30
0.0
 11
-30.0
 21
-5.470235799999997
 31
0.0
  0
LINE
  5
E10
330
E08
100
AcDbEntity
  8
240
  6
Continuous
100
AcDbLine
 10
-30.0
 20
14.0
 30
0.0
 11
-30.0
 21
0.0
 31
0.0
  0
LINE
  5
E11
330
E08
100
AcDbEntity
  8
240
  6
Continuous
100
AcDbLine
 10
-30.0
 20
-14.0
 30
0.0
 11
-30.0
 21
0.0
 31
0.0
  0
LINE
  5
E12
330
E08
100
AcDbEntity
  8
240
  6
Continuous
100
AcDbLine
 10
0.0
 20
-24.99999999999959
 30
0.0
 11
0.0
 21
-14.0
 31
0.0
  0
LINE
  5
E13
330
E08
100
AcDbEntity
  8
240
100
AcDbLine
 10
-11.88367513
 20
-16.0
 30
0.0
 11
-13.03837566999999
 21
-14.0
 31
0.0
  0
LINE
  5
E14
330
E08
100
AcDbEntity
  8
240
100
AcDbLine
 10
-3.116324869999999
 20
-16.0
 30
0.0
 11
-1.961624330000006
 21
-14.0
 31
0.0
  0
ARC
  5
E15
330
E08
100
AcDbEntity
  8
240
100
AcDbCircle
 10
-3.982350269999997
 20
-15.5
 30
0.0
 40
1.0
100
AcDbArc
 50
270.0
 51
329.9999999999999
  0
LINE
  5
E16
330
E08
100
AcDbEntity
  8
240
100
AcDbLine
 10
-11.01764973
 20
-16.5
 30
0.0
 11
-3.982350269999997
 21
-16.5
 31
0.0
  0
ARC
  5
E17
330
E08
100
AcDbEntity
  8
240
100
AcDbCircle
 10
-11.01764973
 20
-15.5
 30
0.0
 40
1.0
100
AcDbArc
 50
210.0000000000001
 51
270.0
  0
LINE
  5
E18
330
E08
100
AcDbEntity
  8
241
100
AcDbLine
 10
0.0
 20
0.0
 30
0.0
 11
0.0
 21
14.0
 31
0.0
  0
LINE
  5
E19
330
E08
100
AcDbEntity
  8
241
  6
Continuous
100
AcDbLine
 10
-13.03837566999999
 20
-14.0
 30
0.0
 11
-1.961624330000006
 21
-14.0
 31
0.0
  0
LINE
  5
E1A
330
E08
100
AcDbEntity
  8
245
  6
CENTER2
100
AcDbLine
 10
-12.5
 20
6.0
 30
0.0
 11
-12.5
 21
-6.0
 31
0.0
  0
LINE
  5
E1B
330
E08
100
AcDbEntity
  8
241
  6
Continuous
100
AcDbLine
 10
-7.200000000000002
 20
-5.470235799999997
 30
0.0
 11
-7.200000000000002
 21
0.0
 31
0.0
  0
CIRCLE
  5
E1C
330
E08
100
AcDbEntity
  8
241
100
AcDbCircle
 10
-12.5
 20
0.0
 30
0.0
 40
4.0
  0
CIRCLE
  5
E1D
330
E08
100
AcDbEntity
  8
241
100
AcDbCircle
 10
-12.5
 20
0.0
 30
0.0
 40
5.0
  0
LINE
  5
E1E
330
E08
100
AcDbEntity
  8
241
  6
Continuous
100
AcDbLine
 10
-7.200000000000002
 20
5.470235800000011
 30
0.0
 11
-7.200000000000002
 21
0.0
 31
0.0
  0
LINE
  5
E1F
330
E08
100
AcDbEntity
  8
241
100
AcDbLine
 10
0.0
 20
0.0
 30
0.0
 11
0.0
 21
-14.0
 31
0.0
  0
LINE
  5
E20
330
E08
100
AcDbEntity
  8
240
  6
Continuous
100
AcDbLine
 10
0.0
 20
-14.0
 30
0.0
 11
-1.961624330000006
 21
-14.0
 31
0.0
  0
ARC
  5
E21
330
E08
100
AcDbEntity
  8
240
100
AcDbCircle
 10
-3.982350269999997
 20
15.5
 30
0.0
 40
1.0
100
AcDbArc
 50
30.00000000000014
 51
90.0
  0
LINE
  5
E22
330
E08
100
AcDbEntity
  8
241
  6
Continuous
100
AcDbLine
 10
-13.03837566999999
 20
14.0
 30
0.0
 11
-1.961624330000006
 21
14.0
 31
0.0
  0
LINE
  5
E23
330
E08
100
AcDbEntity
  8
240
100
AcDbLine
 10
-11.88367513
 20
16.0
 30
0.0
 11
-13.03837566999999
 21
14.0
 31
0.0
  0
ARC
  5
E24
330
E08
100
AcDbEntity
  8
240
100
AcDbCircle
 10
-11.01764973
 20
15.5
 30
0.0
 40
1.0
100
AcDbArc
 50
90.0
 51
149.9999999999998
  0
LINE
  5
E25
330
E08
100
AcDbEntity
  8
240
100
AcDbLine
 10
-11.01764973
 20
16.5
 30
0.0
 11
-3.982350269999997
 21
16.5
 31
0.0
  0
LINE
  5
E26
330
E08
100
AcDbEntity
  8
240
  6
Continuous
100
AcDbLine
 10
0.0
 20
14.0
 30
0.0
 11
0.0
 21
24.99999999999983
 31
0.0
  0
LINE
  5
E27
330
E08
100
AcDbEntity
  8
240
  6
Continuous
100
AcDbLine
 10
0.0
 20
14.0
 30
0.0
 11
-1.961624330000006
 21
14.0
 31
0.0
  0
LINE
  5
E28
330
E08
100
AcDbEntity
  8
240
100
AcDbLine
 10
-3.116324869999999
 20
16.0
 30
0.0
 11
-1.961624330000006
 21
14.0
 31
0.0
  0
LINE
  5
E29
330
E08
100
AcDbEntity
  8
240
100
AcDbLine
 10
10.00000000000045
 20
-24.0
 30
0.0
 11
10.00000000000044
 21
-23.00000000000011
 31
0.0
  0
ARC
  5
E2A
330
E08
100
AcDbEntity
  8
240
100
AcDbCircle
 10
12.00000000000044
 20
-23.00000000000011
 30
0.0
 40
2.0
100
AcDbArc
 50
90.0
 51
180.0
  0
LINE
  5
E2B
330
E08
100
AcDbEntity
  8
240
100
AcDbLine
 10
0.0
 20
-24.99999999999959
 30
0.0
 11
9.000000000000454
 21
-25.0
 31
0.0
  0
LINE
  5
E2C
330
E08
100
AcDbEntity
  8
240
100
AcDbLine
 10
0.0
 20
24.99999999999983
 30
0.0
 11
9.000000000000454
 21
25.00000000000003
 31
0.0
  0
ARC
  5
E2D
330
E08
100
AcDbEntity
  8
240
100
AcDbCircle
 10
9.000000000000454
 20
24.00000000000003
 30
0.0
 40
1.0
100
AcDbArc
 50
0.0
 51
90.0
  0
ARC
  5
E2E
330
E08
100
AcDbEntity
  8
240
100
AcDbCircle
 10
9.000000000000454
 20
-24.0
 30
0.0
 40
1.0
100
AcDbArc
 50
270.0
 51
0.0
  0
LINE
  5
E2F
330
E08
100
AcDbEntity
  8
240
100
AcDbLine
 10
10.00000000000045
 20
24.00000000000003
 30
0.0
 11
10.00000000000045
 21
23.0000000000002
 31
0.0
  0
LINE
  5
E30
330
E08
100
AcDbEntity
  8
240
100
AcDbLine
 10
49.49999999999977
 20
19.99999999999997
 30
0.0
 11
49.49999999999909
 21
16.74999999999053
 31
0.0
  0
LINE
  5
E31
330
E08
100
AcDbEntity
  8
241
  6
HIDDEN2
100
AcDbLine
 10
35.8000000000005
 20
8.650000000000034
 30
0.0
 11
6.000000000000056
 21
8.650000000000204
 31
0.0
  0
LINE
  5
E32
330
E08
100
AcDbEntity
  8
242
  6
HIDDEN2
100
AcDbLine
 10
35.80000000000016
 20
9.000000000000056
 30
0.0
 11
13.80000000000049
 21
8.999999999999772
 31
0.0
  0
LINE
  5
E33
330
E08
100
AcDbEntity
  8
240
100
AcDbLine
 10
48.49999999999977
 20
21.00000000000017
 30
0.0
 11
12.00000000000045
 21
21.0000000000002
 31
0.0
  0
ARC
  5
E34
330
E08
100
AcDbEntity
  8
240
100
AcDbCircle
 10
48.49999999999977
 20
20.00000000000017
 30
0.0
 40
1.0
100
AcDbArc
 50
359.9999999999886
 51
90.0
  0
ARC
  5
E35
330
E08
100
AcDbEntity
  8
240
100
AcDbCircle
 10
12.00000000000045
 20
23.0000000000002
 30
0.0
 40
2.0
100
AcDbArc
 50
180.0
 51
270.0
  0
LINE
  5
E36
330
E08
100
AcDbEntity
  8
240
100
AcDbLine
 10
49.49999999999977
 20
-19.9999999999999
 30
0.0
 11
49.49999999999935
 21
-16.74999999999144
 31
0.0
  0
LINE
  5
E37
330
E08
100
AcDbEntity
  8
240
100
AcDbLine
 10
48.49999999999977
 20
-21.00000000000004
 30
0.0
 11
12.00000000000044
 21
-21.00000000000012
 31
0.0
  0
ARC
  5
E38
330
E08
100
AcDbEntity
  8
240
100
AcDbCircle
 10
48.49999999999977
 20
-20.00000000000004
 30
0.0
 40
1.0
100
AcDbArc
 50
270.0
 51
0.0000000000081422
  0
LINE
  5
E39
330
E08
100
AcDbEntity
  8
242
  6
HIDDEN2
100
AcDbLine
 10
13.80000000000041
 20
8.999999999999886
 30
0.0
 11
13.80000000000021
 21
0.0000000000000284
 31
0.0
  0
LINE
  5
E3A
330
E08
100
AcDbEntity
  8
241
  6
HIDDEN2
100
AcDbLine
 10
67.89474411167415
 20
15.9999999999998
 30
0.0
 11
55.90033756728795
 21
15.99999999999983
 31
0.0
  0
LINE
  5
E3B
330
E08
100
AcDbEntity
  8
240
100
AcDbLine
 10
49.49999999999909
 20
16.74999999999053
 30
0.0
 11
52.5
 21
16.74999999999619
 31
0.0
  0
LINE
  5
E3C
330
E08
100
AcDbEntity
  8
241
  6
HIDDEN2
100
AcDbLine
 10
53.70000000000016
 20
15.76967746271626
 30
0.0
 11
53.69999999999777
 21
16.7499999999969
 31
0.0
1001
GRPNAME
1000
PASTMD0T
  0
LINE
  5
E3D
330
E08
100
AcDbEntity
  8
241
  6
HIDDEN2
100
AcDbLine
 10
54.79999999999492
 20
16.74999999999821
 30
0.0
 11
55.46732486539807
 21
16.74999999999954
 31
0.0
  0
LINE
  5
E3E
330
E08
100
AcDbEntity
  8
241
  6
HIDDEN2
100
AcDbLine
 10
54.80000000000399
 20
15.76967746271597
 30
0.0
 11
54.79999999999492
 21
16.74999999999821
 31
0.0
1001
GRPNAME
1000
PASTMD0T
  0
LINE
  5
E3F
330
E08
100
AcDbEntity
  8
242
  6
HIDDEN2
100
AcDbLine
 10
57.80000000000169
 20
15.25
 30
0.0
 11
56.50096189432659
 21
15.99999999999988
 31
0.0
  0
LINE
  5
E40
330
E08
100
AcDbEntity
  8
241
  6
HIDDEN2
100
AcDbLine
 10
55.90033756728795
 20
15.99999999999983
 30
0.0
 11
55.46732486539807
 21
16.74999999999954
 31
0.0
  0
LINE
  5
E41
330
E08
100
AcDbEntity
  8
242
  6
HIDDEN2
100
AcDbLine
 10
57.80000000000169
 20
15.25
 30
0.0
 11
69.19378221735124
 21
15.24999999999977
 31
0.0
  0
LINE
  5
E42
330
E08
100
AcDbEntity
  8
241
  6
HIDDEN2
100
AcDbLine
 10
45.80000000000032
 20
9.600000000000051
 30
0.0
 11
35.80000000000055
 21
9.599999999999965
 31
0.0
  0
LINE
  5
E43
330
E08
100
AcDbEntity
  8
241
  6
HIDDEN2
100
AcDbLine
 10
35.80000000000055
 20
9.599999999999965
 30
0.0
 11
35.8000000000001
 21
0.0000000000000284
 31
0.0
  0
LINE
  5
E44
330
E08
100
AcDbEntity
  8
241
  6
HIDDEN2
100
AcDbLine
 10
45.80000000000032
 20
9.600000000000051
 30
0.0
 11
45.79999999997474
 21
0.0
 31
0.0
  0
LINE
  5
E45
330
E08
100
AcDbEntity
  8
240
100
AcDbLine
 10
49.49999999999935
 20
-16.74999999999144
 30
0.0
 11
52.50000000000006
 21
-16.74999999999718
 31
0.0
  0
LINE
  5
E46
330
E08
100
AcDbEntity
  8
241
  6
HIDDEN2
100
AcDbLine
 10
69.80000000000052
 20
14.89999999999944
 30
0.0
 11
67.89474411167415
 21
15.9999999999998
 31
0.0
  0
LINE
  5
E47
330
E08
100
AcDbEntity
  8
240
  6
Continuous
100
AcDbLine
 10
79.99999999999994
 20
-19.00000000000001
 30
0.0
 11
80.00000000000003
 21
19.0
 31
0.0
1001
GRPNAME
1000
PASTMD01
  0
LINE
  5
E48
330
E08
100
AcDbEntity
  8
240
  6
Continuous
100
AcDbLine
 10
52.50000000000025
 20
21.24999999999809
 30
0.0
 11
52.5
 21
16.74999999999619
 31
0.0
1001
GRPNAME
1000
PASTMD01
  0
LINE
  5
E49
330
E08
100
AcDbEntity
  8
240
  6
Continuous
100
AcDbLine
 10
54.59348674295748
 20
-21.00000000000001
 30
0.0
 11
77.99999999999994
 21
-21.00000000000001
 31
0.0
  0
ARC
  5
E4A
330
E08
100
AcDbEntity
  8
240
  6
Continuous
100
AcDbCircle
 10
77.99999999999994
 20
-19.00000000000001
 30
0.0
 40
2.0
100
AcDbArc
 50
270.0
 51
0.0
  0
LINE
  5
E4B
330
E08
100
AcDbEntity
  8
240
  6
Continuous
100
AcDbLine
 10
52.50000000000096
 20
-21.25000000000061
 30
0.0
 11
54.16047404107425
 21
-21.25000000000026
 31
0.0
  0
LINE
  5
E4C
330
E08
100
AcDbEntity
  8
240
  6
Continuous
100
AcDbLine
 10
54.59348674297086
 20
21.00000000000012
 30
0.0
 11
78.00000000000003
 21
21.0
 31
0.0
1001
GRPNAME
1000
PASTMD01
  0
ARC
  5
E4D
330
E08
100
AcDbEntity
  8
240
  6
Continuous
100
AcDbCircle
 10
78.00000000000003
 20
19.0
 30
0.0
 40
2.0
100
AcDbArc
 50
0.0
 51
90.0
1001
GRPNAME
1000
PASTMD01
  0
LINE
  5
E4E
330
E08
100
AcDbEntity
  8
240
  6
Continuous
100
AcDbLine
 10
52.50000000000025
 20
21.24999999999809
 30
0.0
 11
54.16047404107207
 21
21.25000000000054
 31
0.0
  0
LINE
  5
E4F
330
E08
100
AcDbEntity
  8
240
100
AcDbLine
 10
54.59348674295748
 20
-21.00000000000001
 30
0.0
 11
54.16047404107425
 21
-21.25000000000026
 31
0.0
  0
LINE
  5
E50
330
E08
100
AcDbEntity
  8
241
100
AcDbLine
 10
58.55000000000029
 20
-20.99999999999999
 30
0.0
 11
58.55000000000027
 21
0.0000000000000142
 31
0.0
  0
LINE
  5
E51
330
E08
100
AcDbEntity
  8
241
100
AcDbLine
 10
57.25000000000145
 20
-20.99999999999932
 30
0.0
 11
57.25000000000145
 21
0.0
 31
0.0
  0
LINE
  5
E52
330
E08
100
AcDbEntity
  8
241
  6
Continuous
100
AcDbLine
 10
55.39191835884557
 20
-21.00000000000125
 30
0.0
 11
55.39191835884557
 21
0.0
 31
0.0
  0
LINE
  5
E53
330
E08
100
AcDbEntity
  8
241
  6
Continuous
100
AcDbLine
 10
54.16047404107351
 20
-21.25000000000019
 30
0.0
 11
54.16047404107349
 21
-0.0000000000022453
 31
0.0
  0
LINE
  5
E54
330
E08
100
AcDbEntity
  8
240
100
AcDbLine
 10
54.59348674297086
 20
21.00000000000012
 30
0.0
 11
54.16047404107207
 21
21.25000000000054
 31
0.0
  0
LINE
  5
E55
330
E08
100
AcDbEntity
  8
241
  6
HIDDEN2
100
AcDbLine
 10
69.80000000000052
 20
14.89999999999944
 30
0.0
 11
69.79999999999998
 21
12.75002214493582
 31
0.0
  0
LINE
  5
E56
330
E08
100
AcDbEntity
  8
241
  6
HIDDEN2
100
AcDbLine
 10
52.50000000000003
 20
16.74999999999667
 30
0.0
 11
53.69999999999777
 21
16.7499999999969
 31
0.0
  0
LINE
  5
E57
330
E08
100
AcDbEntity
  8
241
  6
HIDDEN2
100
AcDbLine
 10
74.68099999999421
 20
11.00000000000008
 30
0.0
 11
74.68099999999899
 21
13.14999999999719
 31
0.0
  0
LINE
  5
E58
330
E08
100
AcDbEntity
  8
241
  6
HIDDEN2
100
AcDbLine
 10
74.68099999999899
 20
13.14999999999719
 30
0.0
 11
80.0
 21
10.0790739181773
 31
0.0
  0
LINE
  5
E59
330
E08
100
AcDbEntity
  8
241
  6
HIDDEN2
100
AcDbLine
 10
71.58099999999646
 20
11.00000000000128
 30
0.0
 11
71.58099999999317
 21
13.0003253715397
 31
0.0
  0
LINE
  5
E5A
330
E08
100
AcDbEntity
  8
241
  6
HIDDEN2
100
AcDbLine
 10
74.68099999999421
 20
11.00000000000008
 30
0.0
 11
71.58099999999646
 21
11.00000000000128
 31
0.0
  0
LINE
  5
E5B
330
E08
100
AcDbEntity
  8
241
  6
HIDDEN2
100
AcDbLine
 10
71.58099999999317
 20
13.0003253715397
 30
0.0
 11
45.80935717759922
 21
9.378357177628771
 31
0.0
  0
LINE
  5
E5C
330
E08
100
AcDbEntity
  8
241
  6
HIDDEN2
100
AcDbLine
 10
45.79999999999623
 20
8.000000000000028
 30
0.0
 11
80.0
 21
8.0
 31
0.0
  0
LINE
  5
E5D
330
E08
100
AcDbEntity
  8
241
100
AcDbLine
 10
58.55000000000024
 20
20.99999999999992
 30
0.0
 11
58.55000000000027
 21
-0.0000000000000995
 31
0.0
  0
LINE
  5
E5E
330
E08
100
AcDbEntity
  8
241
100
AcDbLine
 10
57.25000000000139
 20
20.99999999999923
 30
0.0
 11
57.25000000000145
 21
-0.0000000000000995
 31
0.0
  0
LINE
  5
E5F
330
E08
100
AcDbEntity
  8
241
  6
Continuous
100
AcDbLine
 10
55.39191835884551
 20
21.00000000000116
 30
0.0
 11
55.39191835884557
 21
-0.0000000000000995
 31
0.0
  0
LINE
  5
E60
330
E08
100
AcDbEntity
  8
241
  6
Continuous
100
AcDbLine
 10
54.16047404107345
 20
21.25000000000008
 30
0.0
 11
54.16047404107349
 21
0.0000000000021316
 31
0.0
  0
LINE
  5
E61
330
E08
100
AcDbEntity
  8
241
100
AcDbLine
 10
53.70000000000016
 20
15.76967746271626
 30
0.0
 11
54.80000000000399
 21
15.76967746271597
 31
0.0
  0
LINE
  5
E62
330
E08
100
AcDbEntity
  8
241
100
AcDbLine
 10
49.49999999999917
 20
0.0
 30
0.0
 11
49.49999999999917
 21
16.74999999998968
 31
0.0
  0
LINE
  5
E63
330
E08
100
AcDbEntity
  8
241
100
AcDbLine
 10
52.50000000000003
 20
0.0
 30
0.0
 11
52.50000000000003
 21
16.74999999999534
 31
0.0
  0
LINE
  5
E64
330
E08
100
AcDbEntity
  8
240
  6
Continuous
100
AcDbLine
 10
52.50000000000096
 20
-21.25000000000061
 30
0.0
 11
52.5
 21
-16.74999999999619
 31
0.0
1001
GRPNAME
1000
PASTMD01
  0
LINE
  5
E65
330
E08
100
AcDbEntity
  8
241
100
AcDbLine
 10
49.49999999999917
 20
0.0
 30
0.0
 11
49.49999999999917
 21
-16.74999999998968
 31
0.0
  0
LINE
  5
E66
330
E08
100
AcDbEntity
  8
241
100
AcDbLine
 10
52.50000000000003
 20
0.0
 30
0.0
 11
52.50000000000003
 21
-16.74999999999534
 31
0.0
  0
LINE
  5
E67
330
E08
100
AcDbEntity
  8
241
100
AcDbLine
 10
10.00000000000045
 20
-23.00000000000011
 30
0.0
 11
10.00000000000044
 21
0.0
 31
0.0
  0
LINE
  5
E68
330
E08
100
AcDbEntity
  8
241
100
AcDbLine
 10
10.00000000000045
 20
23.00000000000011
 30
0.0
 11
10.00000000000044
 21
0.0
 31
0.0
  0
ENDBLK
  5
E0A
330
E08
100
AcDbEntity
  8
0
100
AcDbBlockEnd
  0
ENDSEC
  0
SECTION
  2
ENTITIES
  0
INSERT
  5
6E6
330
1A
100
AcDbEntity
  8
245
100
AcDbBlockReference
  2
矢印なし
 10
175.6238269664377
 20
90.55123571690598
 30
0.0
  0
LEADER
  5
7ED
330
1A
100
AcDbEntity
  8
250
  6
Continuous
100
AcDbLeader
  3
BIGT
 76
     2
 10
-16.09650705
 20
-14.0
 30
0.0
 10
-22.32307953
 20
-24.78473990000001
 30
0.0
1001
ACAD
1000
DSTYLE
1002
{
1070
     6
1000
OPEN
1070
   343
1005
594
1002
}
  0
MTEXT
  5
7EE
330
1A
100
AcDbEntity
  8
250
  6
Continuous
 62
    40
100
AcDbMText
 10
-32.58974620000001
 20
-23.78473990000001
 30
0.0
 40
2.799999999999999
 41
0.0
 71
     7
 72
     1
  1
CK5
  7
YOKO
 73
     1
 44
1.0
1001
ITEMNAME
1000
LNSP3
1001
ACAD
1000
MTEXTBEGIN
1070
    73
1070
     1
1070
    44
1040
1.0
1070
    74
1070
     0
1000
MTEXTEND
  0
LINE
  5
7EF
330
1A
100
AcDbEntity
  8
250
  6
Continuous
100
AcDbLine
 10
-22.32307953
 20
-24.78473990000001
 30
0.0
 11
-35.38974620000001
 21
-24.78473990000001
 31
0.0
1001
ITEMNAME
1000
LNSP2
  0
DIMENSION
  5
7F1
330
1A
100
AcDbEntity
  8
250
  6
Continuous
100
AcDbDimension
  2
*D16
 10
80.00000000000005
 20
42.0
 30
0.0
 11
40.00000000000002
 21
44.4
 31
0.0
 70
    32
 71
     5
 42
80.00000000000005
  3
BIGT
100
AcDbAlignedDimension
 13
0.0
 23
24.99999999999983
 33
0.0
 14
80.00000000000005
 24
19.0
 34
0.0
100
AcDbRotatedDimension
  0
TEXT
  5
7F5
330
1A
100
AcDbEntity
  8
241
100
AcDbText
 10
-30.0
 20
56.0
 30
0.0
 40
5.0
  1
CK5-MEGA ER25-80
  7
YOKO
 11
-30.0
 21
56.0
 31
0.0
100
AcDbText
 73
     1
  0
DIMENSION
  5
CF3
330
1A
100
AcDbEntity
  8
250
  6
Continuous
370
    -3
100
AcDbDimension
  2
*D34
 10
94.47131655101362
 20
7.999999999999996
 30
0.0
 11
94.47131655101362
 21
-2.404431296177847
 31
0.0
 70
   160
  1
max.{\H3;%%C}<>
 71
     5
 42
16.0
  3
BIGT$0
100
AcDbAlignedDimension
 13
80.0
 23
-8.0
 33
0.0
 14
80.0
 24
8.0
 34
0.0
 50
90.0
100
AcDbRotatedDimension
1001
ACAD
1000
DSTYLE
1002
{
1070
   342
1005
0
1070
   173
1070
     1
1070
   344
1005
594
1070
    41
1040
2.0
1070
    75
1070
     1
1070
   343
1005
BC7
1002
}
  0
DIMENSION
  5
CF8
330
1A
100
AcDbEntity
  8
250
  6
Continuous
370
    -3
100
AcDbDimension
  2
*D35
 10
101.5
 20
20.99999999999997
 30
0.0
 11
101.5
 21
0.0
 31
0.0
 70
   160
  1
{\H3;%%C}<>
 71
     5
 42
41.99999999999998
  3
BIGT$0
100
AcDbAlignedDimension
 13
77.99999999999994
 23
-21.00000000000001
 33
0.0
 14
78.00000000000003
 24
20.99999999999997
 34
0.0
 50
90.0
100
AcDbRotatedDimension
1001
ACAD
1000
DSTYLE
1002
{
1070
    41
1040
2.0
1002
}
  0
DIMENSION
  5
D79
330
1A
100
AcDbEntity
  8
250
  6
Continuous
370
    -3
100
AcDbDimension
  2
*D36
 10
80.00000000000005
 20
35.0
 30
0.0
 11
43.00000000000005
 21
37.5
 31
0.0
 70
    32
  1
（max.<>）
 71
     5
 42
74.00000000000002
  3
BIGT$0
100
AcDbAlignedDimension
 13
6.000000000000042
 23
8.650000000000204
 33
0.0
 14
80.00000000000005
 24
19.0
 34
0.0
100
AcDbRotatedDimension
1001
ACAD
1000
DSTYLE
1002
{
1070
    41
1040
2.0
1002
}
  0
INSERT
  5
E69
330
1A
100
AcDbEntity
  8
245
100
AcDbBlockReference
  2
1
 10
0.0
 20
0.0
 30
0.0
  0
VIEWPORT
  5
22
102
{ACAD_XDICTIONARY
360
E6E
102
}
330
17
100
AcDbEntity
 67
     1
  8
0
100
AcDbViewport
 10
261.5176991150442
 20
148.5
 30
0.0
 40
523.0353982300885
 41
297.0
 68
     1
 69
     1
 12
261.5176991150442
 22
148.5
 13
0.0
 23
0.0
 14
1.0
 24
1.0
 15
10.0
 25
10.0
 16
0.0
 26
0.0
 36
1.0
 17
0.0
 27
0.0
 37
0.0
 42
50.0
 43
0.0
 44
0.0
 45
297.0
 50
0.0
 51
0.0
 72
   100
 90
    32800
  1

281
     0
 71
     1
 74
     0
110
0.0
120
0.0
130
0.0
111
1.0
121
0.0
131
0.0
112
0.0
122
1.0
132
0.0
 79
     0
146
0.0
  0
ENDSEC
  0
SECTION
  2
OBJECTS
  0
DICTIONARY
  5
C
330
0
100
AcDbDictionary
281
     1
  3
ACAD_COLOR
350
791
  3
ACAD_GROUP
350
D
  3
ACAD_LAYOUT
350
565
  3
ACAD_MATERIAL
350
77C
  3
ACAD_MLINESTYLE
350
E
  3
ACAD_PLOTSETTINGS
350
566
  3
ACAD_PLOTSTYLENAME
350
563
  3
ACAD_TABLESTYLE
350
792
  3
ACAD_VISUALSTYLE
350
780
  3
AcDbVariableDictionary
350
DBF
  3
DWGPROPS
350
E6D
  3
GRADE_DWG
350
540
  0
DICTIONARY
  5
95F
330
2
100
AcDbDictionary
280
     1
281
     1
  3
ACAD_LAYERSTATES
360
960
  0
DICTIONARY
  5
92C
330
1A
100
AcDbDictionary
280
     1
281
     1
  3
ACAD_SORTENTS
360
92D
  0
DICTIONARY
  5
E6E
330
22
100
AcDbDictionary
280
     1
281
     1
  3
ACAD_XREC_ROUNDTRIP
360
E6F
  0
DICTIONARY
  5
791
102
{ACAD_REACTORS
330
C
102
}
330
C
100
AcDbDictionary
281
     1
  0
DICTIONARY
  5
D
102
{ACAD_REACTORS
330
C
102
}
330
C
100
AcDbDictionary
281
     1
  3
*A1
350
6C7
  3
*A2
350
6C8
  3
*A3
350
6D4
  3
*A4
350
6D5
  3
DREC-1
350
5FC
  3
DREC-2
350
654
  3
DREC-3
350
673
  0
DICTIONARY
  5
565
102
{ACAD_REACTORS
330
C
102
}
330
C
100
AcDbDictionary
281
     1
  3
Model
350
567
  3
ﾚｲｱｳﾄ1
350
568
  0
DICTIONARY
  5
77C
102
{ACAD_REACTORS
330
C
102
}
330
C
100
AcDbDictionary
281
     1
  3
ByBlock
350
77E
  3
ByLayer
350
77D
  3
Global
350
77F
  0
DICTIONARY
  5
E
102
{ACAD_REACTORS
330
C
102
}
330
C
100
AcDbDictionary
281
     1
  3
STANDARD
350
13
  0
DICTIONARY
  5
566
102
{ACAD_REACTORS
330
C
102
}
330
C
100
AcDbDictionary
281
     1
  3
A3(0.5倍)
350
772
  3
A3(1倍)
350
773
  3
A3(1倍)(2000)
350
774
  3
A3(2倍)
350
775
  3
A4(0.5倍)
350
776
  3
A4(1倍)
350
777
  3
A4(1倍)(2000)
350
778
  3
A4(2倍)
350
779
  0
ACDBDICTIONARYWDFLT
  5
563
102
{ACAD_REACTORS
330
C
102
}
330
C
100
AcDbDictionary
281
     1
  3
Normal
350
564
100
AcDbDictionaryWithDefault
340
564
  0
DICTIONARY
  5
792
102
{ACAD_REACTORS
330
C
102
}
330
C
100
AcDbDictionary
281
     1
  3
Standard
350
793
  0
DICTIONARY
  5
780
102
{ACAD_REACTORS
330
C
102
}
330
C
100
AcDbDictionary
281
     1
  3
2dWireframe
350
786
  3
3D Hidden
350
788
  3
3dWireframe
350
787
  3
Basic
350
785
  3
Brighten
350
78C
  3
ColorChange
350
790
  3
Conceptual
350
789
  3
Dim
350
78B
  3
Facepattern
350
78F
  3
Flat
350
781
  3
FlatWithEdges
350
782
  3
Gouraud
350
783
  3
GouraudWithEdges
350
784
  3
Linepattern
350
78E
  3
Realistic
350
78A
  3
Thicken
350
78D
  0
DICTIONARY
  5
DBF
102
{ACAD_REACTORS
330
C
102
}
330
C
100
AcDbDictionary
281
     1
  3
CTABLESTYLE
350
DC0
  3
DIMASSOC
350
E6C
  3
INDEXCTL
350
E6B
  3
SORTENTS
350
E6A
  0
XRECORD
  5
E6D
102
{ACAD_REACTORS
330
C
102
}
330
C
100
AcDbXrecord
280
     1
  1
DWGPROPS COOKIE
  2

  3

  4

  6

  7

  8
AWTEC
  9

300
=
301
=
302
=
303
=
304
=
305
=
306
=
307
=
308
=
309
=
 40
0.0088462152777778
 41
2456997.676739537
 42
2456997.685581053
  1

 90
        0
  0
DICTIONARY
  5
540
102
{ACAD_REACTORS
330
C
102
}
330
C
100
AcDbDictionary
281
     1
  3
VERSION
350
560
  0
DICTIONARY
  5
960
102
{ACAD_REACTORS
330
95F
102
}
330
95F
100
AcDbDictionary
281
     1
  0
SORTENTSTABLE
  5
92D
102
{ACAD_REACTORS
330
92C
102
}
330
92C
100
AcDbSortentsTable
330
1A
331
7EE
  5
7EE
331
7F5
  5
7F5
331
CF8
  5
D69
331
7F1
  5
7F1
331
6E6
  5
6E6
331
7EF
  5
7EF
331
7ED
  5
7ED
331
CF3
  5
CF7
  0
XRECORD
  5
E6F
102
{ACAD_REACTORS
330
E6E
102
}
330
E6E
100
AcDbXrecord
280
     1
102
SHADEPLOT
 70
     0
  0
GROUP
  5
6C7
102
{ACAD_REACTORS
330
D
102
}
330
D
100
AcDbGroup
300

 70
     0
 71
     1
1001
GRPNAME
1000
DMA00
  0
GROUP
  5
6C8
102
{ACAD_REACTORS
330
D
102
}
330
D
100
AcDbGroup
300

 70
     0
 71
     1
1001
GRPNAME
1000
DMA00
  0
GROUP
  5
6D4
102
{ACAD_REACTORS
330
D
102
}
330
D
100
AcDbGroup
300

 70
     0
 71
     1
1001
GRPNAME
1000
DMA00
  0
GROUP
  5
6D5
102
{ACAD_REACTORS
330
D
102
}
330
D
100
AcDbGroup
300

 70
     0
 71
     1
1001
GRPNAME
1000
DMA00
  0
GROUP
  5
5FC
102
{ACAD_REACTORS
330
D
102
}
330
D
100
AcDbGroup
300

 70
     0
 71
     1
1001
GRPNAME
1000
DREC-
1001
GPARA
1000
xsiz
1000
44.182
1000
ysiz
1000
40.677
1000
angl
1000
0
1000
ctyp
1000
0
1000
csiz
1000
5
1000
lfnt
1000
cont
1000
hcnt
1000
hoff
1000
vcnt
1000
voff
1000
opnt
1000
4
1000
dxpt
1000
0
1000
dypt
1000
0
  0
GROUP
  5
654
102
{ACAD_REACTORS
330
D
102
}
330
D
100
AcDbGroup
300

 70
     0
 71
     1
1001
GRPNAME
1000
DREC-
1001
GPARA
1000
xsiz
1000
54.592
1000
ysiz
1000
53.036
1000
angl
1000
0
1000
ctyp
1000
0
1000
csiz
1000
5
1000
lfnt
1000
cont
1000
hcnt
1000
hoff
1000
vcnt
1000
voff
1000
opnt
1000
4
1000
dxpt
1000
0
1000
dypt
1000
0
  0
GROUP
  5
673
102
{ACAD_REACTORS
330
D
102
}
330
D
100
AcDbGroup
300

 70
     0
 71
     1
1001
GRPNAME
1000
DREC-
1001
GPARA
1000
xsiz
1000
30.363
1000
ysiz
1000
36.175
1000
angl
1000
0
1000
ctyp
1000
0
1000
csiz
1000
5
1000
lfnt
1000
cont
1000
hcnt
1000
hoff
1000
vcnt
1000
voff
1000
opnt
1000
4
1000
dxpt
1000
0
1000
dypt
1000
0
  0
LAYOUT
  5
567
102
{ACAD_XDICTIONARY
360
E70
102
}
102
{ACAD_REACTORS
330
565
102
}
330
565
100
AcDbPlotSettings
  1
A3(1倍)
  2
Canon LBP5600.pc3
  4
A3
  6

 40
5.873749732971191
 41
5.873747825622558
 42
5.873748779296875
 43
5.873748779296875
 44
296.9259948730469
 45
419.9466552734374
 46
37.59
 47
55.6
 48
0.0
 49
0.0
140
0.0
141
0.0
142
1.0
143
1.0
 70
 11956
 72
     1
 73
     1
 74
     2
  7
big.ctb
 75
    16
147
1.0
148
0.0
149
0.0
100
AcDbLayout
  1
Model
 70
     1
 71
     0
 10
0.0
 20
0.0
 11
12.0
 21
9.0
 12
0.0
 22
0.0
 32
0.0
 14
0.0
 24
0.0
 34
0.0
 15
0.0
 25
0.0
 35
0.0
146
0.0
 13
0.0
 23
0.0
 33
0.0
 16
1.0
 26
0.0
 36
0.0
 17
0.0
 27
1.0
 37
0.0
 76
     0
330
1A
331
77A
  0
LAYOUT
  5
568
102
{ACAD_XDICTIONARY
360
E72
102
}
102
{ACAD_REACTORS
330
565
102
}
330
565
100
AcDbPlotSettings
  1

  2
\\ICHIRO\FX Able Model-PRII ART4-ADV
  4

  6

 40
0.0
 41
0.0
 42
0.0
 43
0.0
 44
0.0
 45
0.0
 46
0.0
 47
0.0
 48
0.0
 49
0.0
140
0.0
141
0.0
142
1.0
143
1.0
 70
   688
 72
     0
 73
     0
 74
     5
  7
big.ctb
 75
    16
147
1.0
148
0.0
149
0.0
100
AcDbLayout
  1
ﾚｲｱｳﾄ1
 70
     1
 71
     1
 10
0.0
 20
0.0
 11
420.0
 21
297.0
 12
0.0
 22
0.0
 32
0.0
 14
1.000000000000000E+20
 24
1.000000000000000E+20
 34
1.000000000000000E+20
 15
-1.000000000000000E+20
 25
-1.000000000000000E+20
 35
-1.000000000000000E+20
146
0.0
 13
0.0
 23
0.0
 33
0.0
 16
1.0
 26
0.0
 36
0.0
 17
0.0
 27
1.0
 37
0.0
 76
     0
330
17
331
22
  0
MATERIAL
  5
77E
102
{ACAD_XDICTIONARY
360
E86
102
}
102
{ACAD_REACTORS
330
77C
102
}
330
77C
100
AcDbMaterial
  1
ByBlock
  0
MATERIAL
  5
77D
102
{ACAD_XDICTIONARY
360
E84
102
}
102
{ACAD_REACTORS
330
77C
102
}
330
77C
100
AcDbMaterial
  1
ByLayer
  0
MATERIAL
  5
77F
102
{ACAD_XDICTIONARY
360
E88
102
}
102
{ACAD_REACTORS
330
77C
102
}
330
77C
100
AcDbMaterial
  1
Global
  0
MLINESTYLE
  5
13
102
{ACAD_REACTORS
330
E
102
}
330
E
100
AcDbMlineStyle
  2
STANDARD
 70
     0
  3

 62
     0
 51
90.0
 52
90.0
 71
     2
 49
0.5
 62
   256
  6
BYLAYER
 49
-0.5
 62
   256
  6
BYLAYER
  0
PLOTSETTINGS
  5
772
102
{ACAD_XDICTIONARY
360
E74
102
}
102
{ACAD_REACTORS
330
566
102
}
330
566
100
AcDbPlotSettings
  1
A3(0.5倍)
  2
Canon LBP5600.pc3
  4
A3
  6

 40
5.873749732971191
 41
5.873747825622558
 42
5.873748779296875
 43
5.873748779296875
 44
296.9259948730469
 45
419.9466552734374
 46
90.09
 47
129.85
 48
0.0
 49
0.0
140
0.0
141
0.0
142
1.0
143
2.0
 70
  1716
 72
     1
 73
     1
 74
     2
  7
big.ctb
 75
    17
147
0.5
148
0.0
149
0.0
  0
PLOTSETTINGS
  5
773
102
{ACAD_XDICTIONARY
360
E76
102
}
102
{ACAD_REACTORS
330
566
102
}
330
566
100
AcDbPlotSettings
  1
A3(1倍)
  2
Canon LBP5600.pc3
  4
A3
  6

 40
5.873749732971191
 41
5.873747825622558
 42
5.873748779296875
 43
5.873748779296875
 44
296.9259948730469
 45
419.9466552734374
 46
37.59
 47
55.6
 48
0.0
 49
0.0
140
0.0
141
0.0
142
1.0
143
1.0
 70
  1716
 72
     1
 73
     1
 74
     2
  7
big.ctb
 75
    16
147
1.0
148
0.0
149
0.0
  0
PLOTSETTINGS
  5
774
102
{ACAD_XDICTIONARY
360
E78
102
}
102
{ACAD_REACTORS
330
566
102
}
330
566
100
AcDbPlotSettings
  1
A3(1倍)(2000)
  2
Canon LBP5600.pc3
  4
A3
  6

 40
5.873749732971191
 41
5.873747825622558
 42
5.873748779296875
 43
5.873748779296875
 44
296.9259948730469
 45
419.9466552734374
 46
37.59
 47
55.6
 48
0.0
 49
0.0
140
0.0
141
0.0
142
1.0
143
1.0
 70
  1716
 72
     1
 73
     1
 74
     2
  7
big.ctb
 75
    16
147
1.0
148
0.0
149
0.0
  0
PLOTSETTINGS
  5
775
102
{ACAD_XDICTIONARY
360
E7A
102
}
102
{ACAD_REACTORS
330
566
102
}
330
566
100
AcDbPlotSettings
  1
A3(2倍)
  2
Canon LBP5600.pc3
  4
A3
  6

 40
5.873749732971191
 41
5.873747825622558
 42
5.873748779296875
 43
5.873748779296875
 44
296.9259948730469
 45
419.9466552734374
 46
-67.40999999999999
 47
-92.9
 48
0.0
 49
0.0
140
0.0
141
0.0
142
1.0
143
0.5
 70
  1716
 72
     1
 73
     1
 74
     2
  7
big.ctb
 75
    27
147
2.0
148
0.0
149
0.0
  0
PLOTSETTINGS
  5
776
102
{ACAD_XDICTIONARY
360
E7C
102
}
102
{ACAD_REACTORS
330
566
102
}
330
566
100
AcDbPlotSettings
  1
A4(0.5倍)
  2
Canon LBP5600.pc3
  4
A3
  6

 40
5.873749732971191
 41
5.873747825622558
 42
5.873748779296875
 43
5.873748779296875
 44
296.9259948730469
 45
419.9466552734374
 46
90.09
 47
129.85
 48
0.0
 49
0.0
140
0.0
141
0.0
142
1.0
143
2.0
 70
  1716
 72
     1
 73
     1
 74
     2
  7
big.ctb
 75
    17
147
0.5
148
0.0
149
0.0
  0
PLOTSETTINGS
  5
777
102
{ACAD_XDICTIONARY
360
E7E
102
}
102
{ACAD_REACTORS
330
566
102
}
330
566
100
AcDbPlotSettings
  1
A4(1倍)
  2
Canon LBP5600.pc3
  4
A3
  6

 40
5.873749732971191
 41
5.873747825622558
 42
5.873748779296875
 43
5.873748779296875
 44
296.9259948730469
 45
419.9466552734374
 46
37.59
 47
55.6
 48
0.0
 49
0.0
140
0.0
141
0.0
142
1.0
143
1.0
 70
  1716
 72
     1
 73
     1
 74
     2
  7
big.ctb
 75
    16
147
1.0
148
0.0
149
0.0
  0
PLOTSETTINGS
  5
778
102
{ACAD_XDICTIONARY
360
E80
102
}
102
{ACAD_REACTORS
330
566
102
}
330
566
100
AcDbPlotSettings
  1
A4(1倍)(2000)
  2
Canon LBP5600.pc3
  4
A3
  6

 40
5.873749732971191
 41
5.873747825622558
 42
5.873748779296875
 43
5.873748779296875
 44
296.9259948730469
 45
419.9466552734374
 46
37.59
 47
55.6
 48
0.0
 49
0.0
140
0.0
141
0.0
142
1.0
143
1.0
 70
  1716
 72
     1
 73
     1
 74
     2
  7
big.ctb
 75
    16
147
1.0
148
0.0
149
0.0
  0
PLOTSETTINGS
  5
779
102
{ACAD_XDICTIONARY
360
E82
102
}
102
{ACAD_REACTORS
330
566
102
}
330
566
100
AcDbPlotSettings
  1
A4(2倍)
  2
Canon LBP5600.pc3
  4
A3
  6

 40
5.873749732971191
 41
5.873747825622558
 42
5.873748779296875
 43
5.873748779296875
 44
296.9259948730469
 45
419.9466552734374
 46
-67.40999999999999
 47
-92.9
 48
0.0
 49
0.0
140
0.0
141
0.0
142
1.0
143
0.5
 70
  1716
 72
     1
 73
     1
 74
     2
  7
big.ctb
 75
    27
147
2.0
148
0.0
149
0.0
  0
ACDBPLACEHOLDER
  5
564
102
{ACAD_REACTORS
330
563
102
}
330
563
  0
TABLESTYLE
  5
793
102
{ACAD_XDICTIONARY
360
E8A
102
}
102
{ACAD_REACTORS
330
792
102
}
330
792
100
AcDbTableStyle
  3
Standard
 70
     0
 71
     0
 40
1.5
 41
1.5
280
     0
281
     0
  7
STANDARD
140
4.5
170
     2
 62
     0
 63
     7
283
     0
274
    -2
284
     1
 64
     0
275
    -2
285
     1
 65
     0
276
    -2
286
     1
 66
     0
277
    -2
287
     1
 67
     0
278
    -2
288
     1
 68
     0
279
    -2
289
     1
 69
     0
  7
STANDARD
140
6.0
170
     5
 62
     0
 63
     7
283
     0
274
    -2
284
     1
 64
     0
275
    -2
285
     1
 65
     0
276
    -2
286
     1
 66
     0
277
    -2
287
     1
 67
     0
278
    -2
288
     1
 68
     0
279
    -2
289
     1
 69
     0
  7
STANDARD
140
4.5
170
     5
 62
     0
 63
     7
283
     0
274
    -2
284
     1
 64
     0
275
    -2
285
     1
 65
     0
276
    -2
286
     1
 66
     0
277
    -2
287
     1
 67
     0
278
    -2
288
     1
 68
     0
279
    -2
289
     1
 69
     0
  0
VISUALSTYLE
  5
786
102
{ACAD_REACTORS
330
780
102
}
330
780
100
AcDbVisualStyle
  2
2dWireframe
 70
     4
 71
     0
 72
     2
 73
     0
 90
        0
 40
-0.6
 41
-30.0
 62
     5
 63
     7
 74
     1
 91
        4
 64
     7
 65
   257
 75
     1
175
     1
 42
1.0
 92
        0
 66
   257
 43
1.0
 76
     1
 77
     6
 78
     2
 67
     7
 79
     5
170
     0
171
     0
290
     0
174
     0
 93
        1
 44
0.0
173
     0
291
     0
 45
0.0
1001
ACAD
1000
AcDbSavedByObjectVersion
1070
     0
  0
VISUALSTYLE
  5
788
102
{ACAD_REACTORS
330
780
102
}
330
780
100
AcDbVisualStyle
  2
3D Hidden
 70
     6
 71
     1
 72
     2
 73
     2
 90
        0
 40
-0.6
 41
-30.0
 62
     5
 63
     7
 74
     2
 91
        2
 64
     7
 65
   257
 75
     2
175
     1
 42
40.0
 92
        0
 66
   257
 43
1.0
 76
     1
 77
     6
 78
     2
 67
     7
 79
     3
170
     0
171
     0
290
     0
174
     0
 93
        1
 44
0.0
173
     0
291
     0
 45
0.0
1001
ACAD
1000
AcDbSavedByObjectVersion
1070
     0
  0
VISUALSTYLE
  5
787
102
{ACAD_REACTORS
330
780
102
}
330
780
100
AcDbVisualStyle
  2
3dWireframe
 70
     5
 71
     0
 72
     2
 73
     0
 90
        0
 40
-0.6
 41
-30.0
 62
     5
 63
     7
 74
     1
 91
        4
 64
     7
 65
   257
 75
     1
175
     1
 42
1.0
 92
        0
 66
   257
 43
1.0
 76
     1
 77
     6
 78
     2
 67
     7
 79
     5
170
     0
171
     0
290
     0
174
     0
 93
        1
 44
0.0
173
     0
291
     0
 45
0.0
1001
ACAD
1000
AcDbSavedByObjectVersion
1070
     0
  0
VISUALSTYLE
  5
785
102
{ACAD_REACTORS
330
780
102
}
330
780
100
AcDbVisualStyle
  2
Basic
 70
     7
 71
     1
 72
     0
 73
     1
 90
        0
 40
-0.6
 41
-30.0
 62
     5
 63
     7
 74
     0
 91
        4
 64
     7
 65
   257
 75
     1
175
     1
 42
1.0
 92
        8
 66
     7
 43
1.0
 76
     1
 77
     6
 78
     2
 67
     7
 79
     5
170
     0
171
     0
290
     0
174
     0
 93
        1
 44
0.0
173
     0
291
     1
 45
0.0
1001
ACAD
1000
AcDbSavedByObjectVersion
1070
     0
  0
VISUALSTYLE
  5
78C
102
{ACAD_REACTORS
330
780
102
}
330
780
100
AcDbVisualStyle
  2
Brighten
 70
    12
 71
     2
 72
     2
 73
     0
 90
        0
 40
-0.6
 41
-30.0
 62
     5
 63
     7
 74
     1
 91
        4
 64
     7
 65
   257
 75
     1
175
     1
 42
1.0
 92
        8
 66
     7
 43
1.0
 76
     1
 77
     6
 78
     2
 67
     7
 79
     5
170
     0
171
     0
290
     0
174
     0
 93
        1
 44
50.0
173
     0
291
     1
 45
0.0
1001
ACAD
1000
AcDbSavedByObjectVersion
1070
     0
  0
VISUALSTYLE
  5
790
102
{ACAD_REACTORS
330
780
102
}
330
780
100
AcDbVisualStyle
  2
ColorChange
 70
    16
 71
     2
 72
     2
 73
     3
 90
        0
 40
-0.6
 41
-30.0
 62
     5
 63
     8
 74
     1
 91
        4
 64
     7
 65
   257
 75
     1
175
     1
 42
1.0
 92
        8
 66
     8
 43
1.0
 76
     1
 77
     6
 78
     2
 67
     7
 79
     5
170
     0
171
     0
290
     0
174
     0
 93
        1
 44
0.0
173
     0
291
     1
 45
0.0
1001
ACAD
1000
AcDbSavedByObjectVersion
1070
     0
  0
VISUALSTYLE
  5
789
102
{ACAD_REACTORS
330
780
102
}
330
780
100
AcDbVisualStyle
  2
Conceptual
 70
     9
 71
     3
 72
     2
 73
     0
 90
        0
 40
-0.6
 41
-30.0
 62
     5
 63
     7
 74
     2
 91
        2
 64
     7
 65
   257
 75
     1
175
     1
 42
40.0
 92
        8
 66
     7
 43
1.0
 76
     1
 77
     6
 78
     2
 67
     7
 79
     3
170
     0
171
     0
290
     0
174
     0
 93
        1
 44
0.0
173
     0
291
     0
 45
0.0
1001
ACAD
1000
AcDbSavedByObjectVersion
1070
     0
  0
VISUALSTYLE
  5
78B
102
{ACAD_REACTORS
330
780
102
}
330
780
100
AcDbVisualStyle
  2
Dim
 70
    11
 71
     2
 72
     2
 73
     0
 90
        0
 40
-0.6
 41
-30.0
 62
     5
 63
     7
 74
     1
 91
        4
 64
     7
 65
   257
 75
     1
175
     1
 42
1.0
 92
        8
 66
     7
 43
1.0
 76
     1
 77
     6
 78
     2
 67
     7
 79
     5
170
     0
171
     0
290
     0
174
     0
 93
        1
 44
-50.0
173
     0
291
     1
 45
0.0
1001
ACAD
1000
AcDbSavedByObjectVersion
1070
     0
  0
VISUALSTYLE
  5
78F
102
{ACAD_REACTORS
330
780
102
}
330
780
100
AcDbVisualStyle
  2
Facepattern
 70
    15
 71
     2
 72
     2
 73
     0
 90
        0
 40
-0.6
 41
-30.0
 62
     5
 63
     7
 74
     1
 91
        4
 64
     7
 65
   257
 75
     1
175
     1
 42
1.0
 92
        8
 66
     7
 43
1.0
 76
     1
 77
     6
 78
     2
 67
     7
 79
     5
170
     0
171
     0
290
     0
174
     0
 93
        1
 44
0.0
173
     0
291
     1
 45
0.0
1001
ACAD
1000
AcDbSavedByObjectVersion
1070
     0
  0
VISUALSTYLE
  5
781
102
{ACAD_REACTORS
330
780
102
}
330
780
100
AcDbVisualStyle
  2
Flat
 70
     0
 71
     2
 72
     1
 73
     1
 90
        2
 40
-0.6
 41
30.0
 62
     5
 63
     7
 74
     0
 91
        4
 64
     7
 65
   257
 75
     1
175
     1
 42
1.0
 92
        8
 66
     7
 43
1.0
 76
     1
 77
     6
 78
     2
 67
     7
 79
     5
170
     0
171
     0
290
     0
174
     0
 93
       13
 44
0.0
173
     0
291
     1
 45
0.0
1001
ACAD
1000
AcDbSavedByObjectVersion
1070
     0
  0
VISUALSTYLE
  5
782
102
{ACAD_REACTORS
330
780
102
}
330
780
100
AcDbVisualStyle
  2
FlatWithEdges
 70
     1
 71
     2
 72
     1
 73
     1
 90
        2
 40
-0.6
 41
30.0
 62
     5
 63
     7
 74
     1
 91
        4
 64
     7
 65
   257
 75
     1
175
     1
 42
1.0
 92
        0
 66
   257
 43
1.0
 76
     1
 77
     6
 78
     2
 67
     7
 79
     5
170
     0
171
     0
290
     0
174
     0
 93
       13
 44
0.0
173
     0
291
     1
 45
0.0
1001
ACAD
1000
AcDbSavedByObjectVersion
1070
     0
  0
VISUALSTYLE
  5
783
102
{ACAD_REACTORS
330
780
102
}
330
780
100
AcDbVisualStyle
  2
Gouraud
 70
     2
 71
     2
 72
     2
 73
     1
 90
        2
 40
-0.6
 41
30.0
 62
     5
 63
     7
 74
     0
 91
        4
 64
     7
 65
   257
 75
     1
175
     1
 42
1.0
 92
        0
 66
     7
 43
1.0
 76
     1
 77
     6
 78
     2
 67
     7
 79
     5
170
     0
171
     0
290
     0
174
     0
 93
       13
 44
0.0
173
     0
291
     1
 45
0.0
1001
ACAD
1000
AcDbSavedByObjectVersion
1070
     0
  0
VISUALSTYLE
  5
784
102
{ACAD_REACTORS
330
780
102
}
330
780
100
AcDbVisualStyle
  2
GouraudWithEdges
 70
     3
 71
     2
 72
     2
 73
     1
 90
        2
 40
-0.6
 41
30.0
 62
     5
 63
     7
 74
     1
 91
        4
 64
     7
 65
   257
 75
     1
175
     1
 42
1.0
 92
        0
 66
   257
 43
1.0
 76
     1
 77
     6
 78
     2
 67
     7
 79
     5
170
     0
171
     0
290
     0
174
     0
 93
       13
 44
0.0
173
     0
291
     1
 45
0.0
1001
ACAD
1000
AcDbSavedByObjectVersion
1070
     0
  0
VISUALSTYLE
  5
78E
102
{ACAD_REACTORS
330
780
102
}
330
780
100
AcDbVisualStyle
  2
Linepattern
 70
    14
 71
     2
 72
     2
 73
     0
 90
        0
 40
-0.6
 41
-30.0
 62
     5
 63
     7
 74
     1
 91
        4
 64
     7
 65
   257
 75
     7
175
     7
 42
1.0
 92
        8
 66
     7
 43
1.0
 76
     1
 77
     6
 78
     2
 67
     7
 79
     5
170
     0
171
     0
290
     0
174
     0
 93
        1
 44
0.0
173
     0
291
     1
 45
0.0
1001
ACAD
1000
AcDbSavedByObjectVersion
1070
     0
  0
VISUALSTYLE
  5
78A
102
{ACAD_REACTORS
330
780
102
}
330
780
100
AcDbVisualStyle
  2
Realistic
 70
     8
 71
     2
 72
     2
 73
     0
 90
        0
 40
-0.6
 41
-30.0
 62
     5
 63
     7
 74
     1
 91
        0
 64
     7
 65
   257
 75
     1
175
     1
 42
1.0
 92
        8
 66
     8
 43
1.0
 76
     1
 77
     6
 78
     2
 67
     7
 79
     5
170
     0
171
     0
290
     0
174
     0
 93
       13
 44
0.0
173
     0
291
     0
 45
0.0
1001
ACAD
1000
AcDbSavedByObjectVersion
1070
     0
  0
VISUALSTYLE
  5
78D
102
{ACAD_REACTORS
330
780
102
}
330
780
100
AcDbVisualStyle
  2
Thicken
 70
    13
 71
     2
 72
     2
 73
     0
 90
        0
 40
-0.6
 41
-30.0
 62
     5
 63
     7
 74
     1
 91
        4
 64
     7
 65
   257
 75
     1
175
     1
 42
1.0
 92
       12
 66
     7
 43
1.0
 76
     1
 77
     6
 78
     2
 67
     7
 79
     5
170
     0
171
     0
290
     0
174
     0
 93
        1
 44
0.0
173
     0
291
     1
 45
0.0
1001
ACAD
1000
AcDbSavedByObjectVersion
1070
     0
  0
DICTIONARYVAR
  5
DC0
102
{ACAD_REACTORS
330
DBF
102
}
330
DBF
100
DictionaryVariables
280
     0
  1
STANDARD
  0
DICTIONARYVAR
  5
E6C
102
{ACAD_REACTORS
330
DBF
102
}
330
DBF
100
DictionaryVariables
280
     0
  1
1
  0
DICTIONARYVAR
  5
E6B
102
{ACAD_REACTORS
330
DBF
102
}
330
DBF
100
DictionaryVariables
280
     0
  1
0
  0
DICTIONARYVAR
  5
E6A
102
{ACAD_REACTORS
330
DBF
102
}
330
DBF
100
DictionaryVariables
280
     0
  1
127
  0
XRECORD
  5
560
102
{ACAD_REACTORS
330
540
102
}
330
540
100
AcDbXrecord
280
     1
  1
2.0.0
  0
DICTIONARY
  5
E70
330
567
100
AcDbDictionary
280
     1
281
     1
  3
ACAD_XREC_ROUNDTRIP
360
E71
  0
DICTIONARY
  5
E72
330
568
100
AcDbDictionary
280
     1
281
     1
  3
ACAD_XREC_ROUNDTRIP
360
E73
  0
DICTIONARY
  5
E86
330
77E
100
AcDbDictionary
280
     1
281
     1
  3
ACAD_XREC_ROUNDTRIP
360
E87
  0
DICTIONARY
  5
E84
330
77D
100
AcDbDictionary
280
     1
281
     1
  3
ACAD_XREC_ROUNDTRIP
360
E85
  0
DICTIONARY
  5
E88
330
77F
100
AcDbDictionary
280
     1
281
     1
  3
ACAD_XREC_ROUNDTRIP
360
E89
  0
DICTIONARY
  5
E74
330
772
100
AcDbDictionary
280
     1
281
     1
  3
ACAD_XREC_ROUNDTRIP
360
E75
  0
DICTIONARY
  5
E76
330
773
100
AcDbDictionary
280
     1
281
     1
  3
ACAD_XREC_ROUNDTRIP
360
E77
  0
DICTIONARY
  5
E78
330
774
100
AcDbDictionary
280
     1
281
     1
  3
ACAD_XREC_ROUNDTRIP
360
E79
  0
DICTIONARY
  5
E7A
330
775
100
AcDbDictionary
280
     1
281
     1
  3
ACAD_XREC_ROUNDTRIP
360
E7B
  0
DICTIONARY
  5
E7C
330
776
100
AcDbDictionary
280
     1
281
     1
  3
ACAD_XREC_ROUNDTRIP
360
E7D
  0
DICTIONARY
  5
E7E
330
777
100
AcDbDictionary
280
     1
281
     1
  3
ACAD_XREC_ROUNDTRIP
360
E7F
  0
DICTIONARY
  5
E80
330
778
100
AcDbDictionary
280
     1
281
     1
  3
ACAD_XREC_ROUNDTRIP
360
E81
  0
DICTIONARY
  5
E82
330
779
100
AcDbDictionary
280
     1
281
     1
  3
ACAD_XREC_ROUNDTRIP
360
E83
  0
DICTIONARY
  5
E8A
330
793
100
AcDbDictionary
280
     1
281
     1
  3
ACAD_XREC_ROUNDTRIP
360
E8B
  0
XRECORD
  5
E71
102
{ACAD_REACTORS
330
E70
102
}
330
E70
100
AcDbXrecord
280
     1
102
SHADEPLOT
 70
     0
102
SHADEPLOTRESLEVEL
 70
     2
102
SHADEPLOTCUSTOMDPI
 70
   300
  0
XRECORD
  5
E73
102
{ACAD_REACTORS
330
E72
102
}
330
E72
100
AcDbXrecord
280
     1
102
SHADEPLOT
 70
     0
102
SHADEPLOTRESLEVEL
 70
     2
102
SHADEPLOTCUSTOMDPI
 70
   300
  0
XRECORD
  5
E87
102
{ACAD_REACTORS
330
E86
102
}
330
E86
100
AcDbXrecord
280
     1
102
MATERIAL
148
0.0
149
0.0
149
0.0
 93
        0
 94
       63
282
     0
 72
     1
 77
     1
171
     1
175
     1
179
     1
273
     0
  0
XRECORD
  5
E85
102
{ACAD_REACTORS
330
E84
102
}
330
E84
100
AcDbXrecord
280
     1
102
MATERIAL
148
0.0
149
0.0
149
0.0
 93
        0
 94
       63
282
     0
 72
     1
 77
     1
171
     1
175
     1
179
     1
273
     0
  0
XRECORD
  5
E89
102
{ACAD_REACTORS
330
E88
102
}
330
E88
100
AcDbXrecord
280
     1
102
MATERIAL
148
0.0
149
0.0
149
0.0
 93
        0
 94
       63
282
     0
 72
     1
 77
     1
171
     1
175
     1
179
     1
273
     0
  0
XRECORD
  5
E75
102
{ACAD_REACTORS
330
E74
102
}
330
E74
100
AcDbXrecord
280
     1
102
SHADEPLOT
 70
     0
102
SHADEPLOTRESLEVEL
 70
     2
102
SHADEPLOTCUSTOMDPI
 70
   300
  0
XRECORD
  5
E77
102
{ACAD_REACTORS
330
E76
102
}
330
E76
100
AcDbXrecord
280
     1
102
SHADEPLOT
 70
     0
102
SHADEPLOTRESLEVEL
 70
     2
102
SHADEPLOTCUSTOMDPI
 70
   300
  0
XRECORD
  5
E79
102
{ACAD_REACTORS
330
E78
102
}
330
E78
100
AcDbXrecord
280
     1
102
SHADEPLOT
 70
     0
102
SHADEPLOTRESLEVEL
 70
     2
102
SHADEPLOTCUSTOMDPI
 70
   300
  0
XRECORD
  5
E7B
102
{ACAD_REACTORS
330
E7A
102
}
330
E7A
100
AcDbXrecord
280
     1
102
SHADEPLOT
 70
     0
102
SHADEPLOTRESLEVEL
 70
     2
102
SHADEPLOTCUSTOMDPI
 70
   300
  0
XRECORD
  5
E7D
102
{ACAD_REACTORS
330
E7C
102
}
330
E7C
100
AcDbXrecord
280
     1
102
SHADEPLOT
 70
     0
102
SHADEPLOTRESLEVEL
 70
     2
102
SHADEPLOTCUSTOMDPI
 70
   300
  0
XRECORD
  5
E7F
102
{ACAD_REACTORS
330
E7E
102
}
330
E7E
100
AcDbXrecord
280
     1
102
SHADEPLOT
 70
     0
102
SHADEPLOTRESLEVEL
 70
     2
102
SHADEPLOTCUSTOMDPI
 70
   300
  0
XRECORD
  5
E81
102
{ACAD_REACTORS
330
E80
102
}
330
E80
100
AcDbXrecord
280
     1
102
SHADEPLOT
 70
     0
102
SHADEPLOTRESLEVEL
 70
     2
102
SHADEPLOTCUSTOMDPI
 70
   300
  0
XRECORD
  5
E83
102
{ACAD_REACTORS
330
E82
102
}
330
E82
100
AcDbXrecord
280
     1
102
SHADEPLOT
 70
     0
102
SHADEPLOTRESLEVEL
 70
     2
102
SHADEPLOTCUSTOMDPI
 70
   300
  0
XRECORD
  5
E8B
102
{ACAD_REACTORS
330
E8A
102
}
330
E8A
100
AcDbXrecord
280
     1
102
ACAD_ROUNDTRIP_PRE2007_TABLESTYLE
 90
      512
 91
        0
  1

 92
      512
 93
        0
  2

 94
      512
 95
        0
  3

  0
ENDSEC
  0
EOF
