  0
SECTION
  2
HEADER
  9
$ACADVER
  1
AC1014
  9
$ACADMAINTVER
 70
     9
  9
$DWGCODEPAGE
  3
ANSI_932
  9
$INSBASE
 10
0.0
 20
0.0
 30
0.0
  9
$EXTMIN
 10
-35.47027058214257
 20
-30.82303361774222
 30
0.0
  9
$EXTMAX
 10
102.4537198051472
 20
61.00000000000001
 30
0.0
  9
$LIMMIN
 10
0.0
 20
0.0
  9
$LIMMAX
 10
297.0
 20
210.0
  9
$ORTHOMODE
 70
     0
  9
$REGENMODE
 70
     1
  9
$FILLMODE
 70
     1
  9
$QTEXTMODE
 70
     0
  9
$MIRRTEXT
 70
     1
  9
$DRAGMODE
 70
     2
  9
$LTSCALE
 40
10.0
  9
$OSMODE
 70
   613
  9
$ATTMODE
 70
     1
  9
$TEXTSIZE
 40
3.0
  9
$TRACEWID
 40
1.0
  9
$TEXTSTYLE
  7
YOKO
  9
$CLAYER
  8
240
  9
$CELTYPE
  6
BYLAYER
  9
$CECOLOR
 62
   256
  9
$CELTSCALE
 40
1.0
  9
$DELOBJ
 70
     1
  9
$DISPSILH
 70
     0
  9
$DIMSCALE
 40
1.0
  9
$DIMASZ
 40
2.229999999999999
  9
$DIMEXO
 40
0.5
  9
$DIMDLI
 40
2.5
  9
$DIMRND
 40
0.0
  9
$DIMDLE
 40
0.0
  9
$DIMEXE
 40
1.0
  9
$DIMTP
 40
0.0
  9
$DIMTM
 40
0.0
  9
$DIMTXT
 40
3.0
  9
$DIMCEN
 40
0.0
  9
$DIMTSZ
 40
0.0
  9
$DIMTOL
 70
     0
  9
$DIMLIM
 70
     0
  9
$DIMTIH
 70
     0
  9
$DIMTOH
 70
     0
  9
$DIMSE1
 70
     0
  9
$DIMSE2
 70
     0
  9
$DIMTAD
 70
     3
  9
$DIMZIN
 70
     8
  9
$DIMBLK
  1
OPEN
  9
$DIMASO
 70
     1
  9
$DIMSHO
 70
     1
  9
$DIMPOST
  1

  9
$DIMAPOST
  1

  9
$DIMALT
 70
     0
  9
$DIMALTD
 70
     2
  9
$DIMALTF
 40
25.4
  9
$DIMLFAC
 40
1.0
  9
$DIMTOFL
 70
     1
  9
$DIMTVP
 40
0.0
  9
$DIMTIX
 70
     0
  9
$DIMSOXD
 70
     0
  9
$DIMSAH
 70
     0
  9
$DIMBLK1
  1

  9
$DIMBLK2
  1

  9
$DIMSTYLE
  2
BIGT
  9
$DIMCLRD
 70
   256
  9
$DIMCLRE
 70
   256
  9
$DIMCLRT
 70
    40
  9
$DIMTFAC
 40
1.0
  9
$DIMGAP
 40
1.0
  9
$DIMJUST
 70
     0
  9
$DIMSD1
 70
     0
  9
$DIMSD2
 70
     0
  9
$DIMTOLJ
 70
     1
  9
$DIMTZIN
 70
     8
  9
$DIMALTZ
 70
     0
  9
$DIMALTTZ
 70
     0
  9
$DIMFIT
 70
     2
  9
$DIMUPT
 70
     0
  9
$DIMUNIT
 70
     2
  9
$DIMDEC
 70
     3
  9
$DIMTDEC
 70
     3
  9
$DIMALTU
 70
     2
  9
$DIMALTTD
 70
     2
  9
$DIMTXSTY
  7
STANDARD
  9
$DIMAUNIT
 70
     0
  9
$LUNITS
 70
     2
  9
$LUPREC
 70
     3
  9
$SKETCHINC
 40
1.0
  9
$FILLETRAD
 40
0.0
  9
$AUNITS
 70
     0
  9
$AUPREC
 70
     3
  9
$MENU
  1
.
  9
$ELEVATION
 40
0.0
  9
$PELEVATION
 40
0.0
  9
$THICKNESS
 40
0.0
  9
$LIMCHECK
 70
     0
  9
$BLIPMODE
 70
     0
  9
$CHAMFERA
 40
10.0
  9
$CHAMFERB
 40
10.0
  9
$CHAMFERC
 40
0.0
  9
$CHAMFERD
 40
0.0
  9
$SKPOLY
 70
     0
  9
$TDCREATE
 40
2452308.712503970
  9
$TDUPDATE
 40
2452668.644238090
  9
$TDINDWG
 40
0.0228915278
  9
$TDUSRTIMER
 40
0.0228913542
  9
$USRTIMER
 70
     1
  9
$ANGBASE
 50
0.0
  9
$ANGDIR
 70
     0
  9
$PDMODE
 70
    35
  9
$PDSIZE
 40
-5.0
  9
$PLINEWID
 40
0.0
  9
$COORDS
 70
     0
  9
$SPLFRAME
 70
     0
  9
$SPLINETYPE
 70
     6
  9
$SPLINESEGS
 70
     8
  9
$ATTDIA
 70
     1
  9
$ATTREQ
 70
     0
  9
$HANDLING
 70
-16383
  9
$HANDSEED
  5
12A6
  9
$SURFTAB1
 70
     6
  9
$SURFTAB2
 70
     6
  9
$SURFTYPE
 70
     6
  9
$SURFU
 70
     6
  9
$SURFV
 70
     6
  9
$UCSNAME
  2

  9
$UCSORG
 10
0.0
 20
0.0
 30
0.0
  9
$UCSXDIR
 10
1.0
 20
0.0
 30
0.0
  9
$UCSYDIR
 10
0.0
 20
1.0
 30
0.0
  9
$PUCSNAME
  2

  9
$PUCSORG
 10
0.0
 20
0.0
 30
0.0
  9
$PUCSXDIR
 10
1.0
 20
0.0
 30
0.0
  9
$PUCSYDIR
 10
0.0
 20
1.0
 30
0.0
  9
$USERI1
 70
     1
  9
$USERI2
 70
     0
  9
$USERI3
 70
     0
  9
$USERI4
 70
     0
  9
$USERI5
 70
     0
  9
$USERR1
 40
0.0
  9
$USERR2
 40
0.0
  9
$USERR3
 40
0.0
  9
$USERR4
 40
0.0
  9
$USERR5
 40
0.0
  9
$WORLDVIEW
 70
     1
  9
$SHADEDGE
 70
     3
  9
$SHADEDIF
 70
    70
  9
$TILEMODE
 70
     1
  9
$MAXACTVP
 70
    16
  9
$PINSBASE
 10
0.0
 20
0.0
 30
0.0
  9
$PLIMCHECK
 70
     0
  9
$PEXTMIN
 10
1.000000000000000E+20
 20
1.000000000000000E+20
 30
1.000000000000000E+20
  9
$PEXTMAX
 10
-1.000000000000000E+20
 20
-1.000000000000000E+20
 30
-1.000000000000000E+20
  9
$PLIMMIN
 10
0.0
 20
0.0
  9
$PLIMMAX
 10
420.0
 20
297.0
  9
$UNITMODE
 70
     0
  9
$VISRETAIN
 70
     0
  9
$PLINEGEN
 70
     0
  9
$PSLTSCALE
 70
     1
  9
$TREEDEPTH
 70
  3020
  9
$PICKSTYLE
 70
     0
  9
$CMLSTYLE
  2
STANDARD
  9
$CMLJUST
 70
     0
  9
$CMLSCALE
 40
1.0
  9
$PROXYGRAPHICS
 70
     1
  9
$MEASUREMENT
 70
     1
  0
ENDSEC
  0
SECTION
  2
CLASSES
  0
CLASS
  1
XRECORD
  2
AcDbXrecord
  3
AutoCAD 2000
 90
        0
280
     0
281
     0
  0
CLASS
  1
ACDBDICTIONARYWDFLT
  2
AcDbDictionaryWithDefault
  3
AutoCAD 2000
 90
        0
280
     0
281
     0
  0
CLASS
  1
ACDBPLACEHOLDER
  2
AcDbPlaceHolder
  3
AutoCAD 2000
 90
        0
280
     0
281
     0
  0
CLASS
  1
LAYOUT
  2
AcDbLayout
  3
AutoCAD 2000
 90
        0
280
     0
281
     0
  0
CLASS
  1
DICTIONARYVAR
  2
AcDbDictionaryVar
  3
AutoCAD 2000
 90
        0
280
     0
281
     0
  0
CLASS
  1
LONG_TRANSACTION
  2
AcDbLongTransaction
  3
AutoCAD 2000
 90
        0
280
     0
281
     0
  0
CLASS
  1
LWPOLYLINE
  2
AcDbPolyline
  3
AutoCAD 2000
 90
        0
280
     0
281
     1
  0
CLASS
  1
HATCH
  2
AcDbHatch
  3
AutoCAD 2000
 90
        0
280
     0
281
     1
  0
CLASS
  1
XRECORD
  2
AcDbXrecord
  3
AutoCAD 2000
 90
        0
280
     0
281
     0
  0
ENDSEC
  0
SECTION
  2
TABLES
  0
TABLE
  2
VPORT
  5
8
330
0
100
AcDbSymbolTable
 70
     2
  0
VPORT
  5
1280
330
8
100
AcDbSymbolTableRecord
100
AcDbViewportTableRecord
  2
*ACTIVE
 70
     0
 10
0.0
 20
0.0
 11
1.0
 21
1.0
 12
33.48781778261536
 22
15.08634932820405
 13
0.0
 23
0.0
 14
7.0
 24
7.0
 15
7.0
 25
7.0
 16
0.0
 26
0.0
 36
1.0
 17
0.0
 27
0.0
 37
0.0
 40
92.59731637400056
 41
1.53185955786736
 42
50.0
 43
0.0
 44
0.0
 50
0.0
 51
0.0
 71
     0
 72
  2000
 73
     1
 74
     0
 75
     0
 76
     0
 77
     0
 78
     0
  0
ENDTAB
  0
TABLE
  2
LTYPE
  5
5
330
0
100
AcDbSymbolTable
 70
     2
  0
LTYPE
  5
14
330
5
100
AcDbSymbolTableRecord
100
AcDbLinetypeTableRecord
  2
BYBLOCK
 70
     0
  3

 72
    65
 73
     0
 40
0.0
  0
LTYPE
  5
15
330
5
100
AcDbSymbolTableRecord
100
AcDbLinetypeTableRecord
  2
BYLAYER
 70
     0
  3

 72
    65
 73
     0
 40
0.0
  0
LTYPE
  5
16
330
5
100
AcDbSymbolTableRecord
100
AcDbLinetypeTableRecord
  2
CONTINUOUS
 70
     0
  3
Solid line
 72
    65
 73
     0
 40
0.0
  0
LTYPE
  5
258
330
5
100
AcDbSymbolTableRecord
100
AcDbLinetypeTableRecord
  2
CENTER2
 70
     0
  3
___ _ ___ _ ___ _ ___ _ ___ _ ___ _ ___ _ ___ _
 72
    65
 73
     4
 40
1.125
 49
0.75
 74
     0
 49
-0.125
 74
     0
 49
0.125
 74
     0
 49
-0.125
 74
     0
  0
ENDTAB
  0
TABLE
  2
LAYER
  5
2
330
0
100
AcDbSymbolTable
 70
     7
  0
LAYER
  5
F
330
2
100
AcDbSymbolTableRecord
100
AcDbLayerTableRecord
  2
0
 70
     0
 62
     7
  6
CONTINUOUS
  0
LAYER
  5
1AA
330
2
100
AcDbSymbolTableRecord
100
AcDbLayerTableRecord
  2
240
 70
     0
 62
     4
  6
CONTINUOUS
  0
LAYER
  5
1AB
330
2
100
AcDbSymbolTableRecord
100
AcDbLayerTableRecord
  2
241
 70
     0
 62
   211
  6
CONTINUOUS
  0
LAYER
  5
1AF
330
2
100
AcDbSymbolTableRecord
100
AcDbLayerTableRecord
  2
245
 70
     0
 62
     2
  6
CENTER2
  0
LAYER
  5
21B
330
2
100
AcDbSymbolTableRecord
100
AcDbLayerTableRecord
  2
247
 70
     0
 62
    60
  6
CONTINUOUS
  0
LAYER
  5
21E
330
2
100
AcDbSymbolTableRecord
100
AcDbLayerTableRecord
  2
250
 70
     0
 62
     3
  6
CONTINUOUS
  0
LAYER
  5
5C4
330
2
100
AcDbSymbolTableRecord
100
AcDbLayerTableRecord
  2
DEFPOINTS
 70
     0
 62
     7
  6
CONTINUOUS
  0
ENDTAB
  0
TABLE
  2
STYLE
  5
3
330
0
100
AcDbSymbolTable
 70
     2
  0
STYLE
  5
10
330
3
100
AcDbSymbolTableRecord
100
AcDbTextStyleTableRecord
  2
STANDARD
 70
     0
 40
0.0
 41
1.0
 50
0.0
 71
     0
 42
3.0
  3
romans.shx
  4
BIGFONT.SHX
  0
STYLE
  5
339
330
3
100
AcDbSymbolTableRecord
100
AcDbTextStyleTableRecord
  2
YOKO
 70
     0
 40
0.0
 41
1.0
 50
0.0
 71
     0
 42
3.0
  3
romans.shx
  4
extfont.shx
  0
ENDTAB
  0
TABLE
  2
VIEW
  5
6
330
0
100
AcDbSymbolTable
 70
     0
  0
ENDTAB
  0
TABLE
  2
UCS
  5
7
330
0
100
AcDbSymbolTable
 70
     0
  0
ENDTAB
  0
TABLE
  2
APPID
  5
9
330
0
100
AcDbSymbolTable
 70
     9
  0
APPID
  5
11
330
9
100
AcDbSymbolTableRecord
100
AcDbRegAppTableRecord
  2
ACAD
 70
     0
  0
APPID
  5
1B1
330
9
100
AcDbSymbolTableRecord
100
AcDbRegAppTableRecord
  2
GLOBAL
 70
     0
  0
APPID
  5
2A4
330
9
100
AcDbSymbolTableRecord
100
AcDbRegAppTableRecord
  2
DETAIL
 70
     0
  0
APPID
  5
5FD
330
9
100
AcDbSymbolTableRecord
100
AcDbRegAppTableRecord
  2
GRPNAME
 70
     0
  0
APPID
  5
5FE
330
9
100
AcDbSymbolTableRecord
100
AcDbRegAppTableRecord
  2
GPARA
 70
     0
  0
APPID
  5
81D
330
9
100
AcDbSymbolTableRecord
100
AcDbRegAppTableRecord
  2
HATCH_TYPE
 70
     0
  0
APPID
  5
81E
330
9
100
AcDbSymbolTableRecord
100
AcDbRegAppTableRecord
  2
HATCH_DISPLAY
 70
     0
  0
APPID
  5
81F
330
9
100
AcDbSymbolTableRecord
100
AcDbRegAppTableRecord
  2
HATCH_DISTANCE
 70
     0
  0
APPID
  5
AF4
330
9
100
AcDbSymbolTableRecord
100
AcDbRegAppTableRecord
  2
ITEMNAME
 70
     0
  0
ENDTAB
  0
TABLE
  2
DIMSTYLE
  5
A
330
0
100
AcDbSymbolTable
 70
     2
  0
DIMSTYLE
105
48F
330
A
100
AcDbSymbolTableRecord
100
AcDbDimStyleTableRecord
  2
STANDARD
 70
     0
  3

  4

  5

  6

  7

 40
1.0
 41
2.0
 42
2.0
 43
3.75
 44
2.0
 45
0.0
 46
0.0
 47
0.0
 48
0.0
140
4.0
141
0.09
142
0.0
143
25.4
144
1.0
145
0.0
146
1.0
147
1.0
 71
     0
 72
     0
 73
     1
 74
     1
 75
     0
 76
     0
 77
     0
 78
     8
170
     0
171
     2
172
     0
173
     1
174
     0
175
     0
176
   256
177
   256
178
   256
270
     2
271
     3
272
     4
273
     2
274
     2
340
10
275
     0
280
     0
281
     0
282
     0
283
     1
284
     8
285
     0
286
     0
287
     3
288
     0
  0
DIMSTYLE
105
59A
102
{ACAD_REACTORS
330
1214
330
1215
330
121A
330
121F
102
}
330
A
100
AcDbSymbolTableRecord
100
AcDbDimStyleTableRecord
  2
BIGT
 70
     0
  3

  4

  5
OPEN
  6

  7

 40
1.0
 41
2.229999999999999
 42
0.5
 43
2.5
 44
1.0
 45
0.0
 46
0.0
 47
0.0
 48
0.0
140
3.5
141
0.0
142
0.0
143
25.4
144
1.0
145
0.0
146
1.0
147
1.0
 71
     0
 72
     0
 73
     0
 74
     0
 75
     0
 76
     0
 77
     3
 78
     9
170
     0
171
     2
172
     1
173
     0
174
     0
175
     0
176
   256
177
   256
178
    40
270
     2
271
     3
272
     3
273
     2
274
     2
340
10
275
     0
280
     0
281
     0
282
     0
283
     1
284
     8
285
     0
286
     0
287
     2
288
     0
  0
ENDTAB
  0
TABLE
  2
BLOCK_RECORD
  5
1
330
0
100
AcDbSymbolTable
 70
     6
  0
BLOCK_RECORD
  5
1A
102
{ACAD_XDICTIONARY
360
12A4
102
}
330
1
100
AcDbSymbolTableRecord
100
AcDbBlockTableRecord
  2
*MODEL_SPACE
  0
BLOCK_RECORD
  5
17
102
{ACAD_XDICTIONARY
360
12A2
102
}
330
1
100
AcDbSymbolTableRecord
100
AcDbBlockTableRecord
  2
*PAPER_SPACE
  0
BLOCK_RECORD
  5
594
330
1
100
AcDbSymbolTableRecord
100
AcDbBlockTableRecord
  2
_OPEN
  0
BLOCK_RECORD
  5
105A
330
1
100
AcDbSymbolTableRecord
100
AcDbBlockTableRecord
  2
A$C148B3362
  0
BLOCK_RECORD
  5
1220
330
1
100
AcDbSymbolTableRecord
100
AcDbBlockTableRecord
  2
*D2
  0
BLOCK_RECORD
  5
122C
330
1
100
AcDbSymbolTableRecord
100
AcDbBlockTableRecord
  2
*D3
  0
BLOCK_RECORD
  5
1238
330
1
100
AcDbSymbolTableRecord
100
AcDbBlockTableRecord
  2
*D4
  0
BLOCK_RECORD
  5
1244
330
1
100
AcDbSymbolTableRecord
100
AcDbBlockTableRecord
  2
*D5
  0
ENDTAB
  0
ENDSEC
  0
SECTION
  2
BLOCKS
  0
BLOCK
  5
1B
330
1A
100
AcDbEntity
  8
0
100
AcDbBlockBegin
  2
*MODEL_SPACE
 70
     0
 10
0.0
 20
0.0
 30
0.0
  3
*MODEL_SPACE
  1

  0
ENDBLK
  5
1C
330
1A
100
AcDbEntity
  8
0
100
AcDbBlockEnd
  0
BLOCK
  5
18
330
17
100
AcDbEntity
 67
     1
  8
0
100
AcDbBlockBegin
  2
*PAPER_SPACE
 70
     0
 10
0.0
 20
0.0
 30
0.0
  3
*PAPER_SPACE
  1

  0
ENDBLK
  5
19
330
17
100
AcDbEntity
 67
     1
  8
0
100
AcDbBlockEnd
  0
BLOCK
  5
598
330
594
100
AcDbEntity
  8
0
100
AcDbBlockBegin
  2
_OPEN
 70
     0
 10
0.0
 20
0.0
 30
0.0
  3
_OPEN
  1

  0
LINE
  5
595
330
594
100
AcDbEntity
  8
0
  6
BYBLOCK
 62
     0
100
AcDbLine
 10
-1.0
 20
0.1666666666666666
 30
0.0
 11
0.0
 21
0.0
 31
0.0
  0
LINE
  5
596
330
594
100
AcDbEntity
  8
0
  6
BYBLOCK
 62
     0
100
AcDbLine
 10
-1.0
 20
-0.1666666666666666
 30
0.0
 11
0.0
 21
0.0
 31
0.0
  0
LINE
  5
597
330
594
100
AcDbEntity
  8
0
  6
BYBLOCK
 62
     0
100
AcDbLine
 10
0.0
 20
0.0
 30
0.0
 11
-1.0
 21
0.0
 31
0.0
  0
ENDBLK
  5
599
330
594
100
AcDbEntity
  8
0
100
AcDbBlockEnd
  0
BLOCK
  5
1136
330
105A
100
AcDbEntity
  8
0
100
AcDbBlockBegin
  2
A$C148B3362
 70
     0
 10
0.0
 20
0.0
 30
0.0
  3
A$C148B3362
  1

  0
LINE
  5
105B
330
105A
100
AcDbEntity
  8
245
100
AcDbLine
 10
-27.11980715584786
 20
0.0
 30
0.0
 11
78.40163207428407
 21
0.0
 31
0.0
  0
LINE
  5
105C
330
105A
100
AcDbEntity
  8
240
100
AcDbLine
 10
43.26053100000001
 20
-21.50000000000001
 30
0.0
 11
44.5
 21
-21.50000000000001
 31
0.0
  0
LINE
  5
105D
330
105A
100
AcDbEntity
  8
240
100
AcDbLine
 10
43.26053100000001
 20
21.49999999999999
 30
0.0
 11
44.5
 21
21.49999999999999
 31
0.0
  0
LINE
  5
105E
330
105A
100
AcDbEntity
  8
240
100
AcDbLine
 10
-24.0
 20
10.74640999999996
 30
0.0
 11
-24.0
 21
-10.74641000000002
 31
0.0
  0
LINE
  5
105F
330
105A
100
AcDbEntity
  8
245
100
AcDbLine
 10
-10.00000000000007
 20
4.845667999999989
 30
0.0
 11
-10.00000000000007
 21
-5.035691000000014
 31
0.0
  0
TEXT
  5
1060
330
105A
100
AcDbEntity
  8
247
100
AcDbText
 10
3.595728413923382
 20
-4.766061219601667
 30
0.0
 40
2.0
  1
CK4-STC20-72
 50
90.0
 41
0.7
  7
YOKO
 11
3.595728413923382
 21
-4.766061219601667
 31
0.0
100
AcDbText
 73
     1
  0
CIRCLE
  5
1061
330
105A
100
AcDbEntity
  8
241
100
AcDbCircle
 10
-10.00000000000007
 20
0.0
 30
0.0
 40
4.046999999999999
  0
CIRCLE
  5
1062
330
105A
100
AcDbEntity
  8
241
100
AcDbCircle
 10
-10.00000000000007
 20
0.0
 30
0.0
 40
3.0
  0
LINE
  5
1063
330
105A
100
AcDbEntity
  8
241
100
AcDbLine
 10
43.26053100000001
 20
0.0
 30
0.0
 11
43.26053100000001
 21
21.49999999999999
 31
0.0
  0
LINE
  5
1064
330
105A
100
AcDbEntity
  8
241
100
AcDbLine
 10
38.14342900000002
 20
0.0
 30
0.0
 11
38.14342900000002
 21
22.0
 31
0.0
  0
LINE
  5
1065
330
105A
100
AcDbEntity
  8
241
100
AcDbLine
 10
36.856571
 20
0.0
 30
0.0
 11
36.856571
 21
22.0
 31
0.0
  0
LINE
  5
1066
330
105A
100
AcDbEntity
  8
241
100
AcDbLine
 10
31.14342900000002
 20
0.0
 30
0.0
 11
31.14342900000002
 21
22.0
 31
0.0
  0
LINE
  5
1067
330
105A
100
AcDbEntity
  8
241
100
AcDbLine
 10
-21.64101699999999
 20
10.69909999999998
 30
0.0
 11
-21.6410169999999
 21
0.0
 31
0.0
  0
LINE
  5
1068
330
105A
100
AcDbEntity
  8
241
100
AcDbLine
 10
-19.5
 20
11.0
 30
0.0
 11
-19.5
 21
0.0
 31
0.0
  0
LINE
  5
1069
330
105A
100
AcDbEntity
  8
241
100
AcDbLine
 10
9.0
 20
19.0
 30
0.0
 11
9.0
 21
0.0
 31
0.0
  0
LINE
  5
106A
330
105A
100
AcDbEntity
  8
241
100
AcDbLine
 10
0.0
 20
11.00000000000004
 30
0.0
 11
0.0
 21
0.0
 31
0.0
  0
ARC
  5
106B
330
105A
100
AcDbEntity
  8
240
100
AcDbCircle
 10
-3.441879999999997
 20
-12.47500000000002
 30
0.0
 40
0.8
100
AcDbArc
 50
270.0
 51
329.9999999999998
  0
LINE
  5
106C
330
105A
100
AcDbEntity
  8
241
100
AcDbLine
 10
-10.24695074755888
 20
-10.9999998455283
 30
0.0
 11
-1.753049252441115
 21
-10.9999998455283
 31
0.0
  0
LINE
  5
106D
330
105A
100
AcDbEntity
  8
240
100
AcDbLine
 10
-19.5
 20
-11.0
 30
0.0
 11
-10.24695073403316
 21
-11.00000000000002
 31
0.0
  0
LINE
  5
106E
330
105A
100
AcDbEntity
  8
241
100
AcDbLine
 10
-21.64101699999999
 20
-10.69910000000001
 30
0.0
 11
-21.64101699999983
 21
0.0
 31
0.0
  0
LINE
  5
106F
330
105A
100
AcDbEntity
  8
241
100
AcDbLine
 10
-19.5
 20
-11.0
 30
0.0
 11
-19.5
 21
0.0
 31
0.0
  0
LINE
  5
1070
330
105A
100
AcDbEntity
  8
240
100
AcDbLine
 10
-21.64101699999999
 20
-10.69910000000001
 30
0.0
 11
-19.5
 21
-11.0
 31
0.0
  0
LINE
  5
1071
330
105A
100
AcDbEntity
  8
240
100
AcDbLine
 10
-21.64101699999999
 20
-10.69910000000001
 30
0.0
 11
-23.29581099999999
 21
-10.99088500000002
 31
0.0
  0
LINE
  5
1072
330
105A
100
AcDbEntity
  8
240
100
AcDbLine
 10
-24.0
 20
-10.74641000000002
 30
0.0
 11
-23.69999999999998
 21
-10.91961500000002
 31
0.0
  0
ARC
  5
1073
330
105A
100
AcDbEntity
  8
240
100
AcDbCircle
 10
-23.4
 20
-10.4
 30
0.0
 40
0.6
100
AcDbArc
 50
239.9999999999998
 51
280.0000000000001
  0
ARC
  5
1074
330
105A
100
AcDbEntity
  8
240
100
AcDbCircle
 10
-8.558119999999988
 20
-12.47500000000002
 30
0.0
 40
0.8
100
AcDbArc
 50
210.0000000000001
 51
270.0
  0
LINE
  5
1075
330
105A
100
AcDbEntity
  8
240
100
AcDbLine
 10
-10.14282
 20
-11.33021800000003
 30
0.0
 11
-9.250939999999985
 21
-12.875
 31
0.0
  0
ARC
  5
1076
330
105A
100
AcDbEntity
  8
240
100
AcDbCircle
 10
-9.450000000000002
 20
-10.93021800000002
 30
0.0
 40
0.8
100
AcDbArc
 50
185.0041160000005
 51
210.0000000000001
  0
LINE
  5
1077
330
105A
100
AcDbEntity
  8
240
100
AcDbLine
 10
-8.558119999999988
 20
-13.275
 30
0.0
 11
-3.441879999999997
 21
-13.275
 31
0.0
  0
LINE
  5
1078
330
105A
100
AcDbEntity
  8
240
100
AcDbLine
 10
10.0
 20
-22.00000000000001
 30
0.0
 11
31.14342900000002
 21
-22.00000000000001
 31
0.0
  0
LINE
  5
1079
330
105A
100
AcDbEntity
  8
240
100
AcDbLine
 10
-0.0000000000000142
 20
-11.00000000000002
 30
0.0
 11
0.0
 21
-18.50000000000001
 31
0.0
  0
LINE
  5
107A
330
105A
100
AcDbEntity
  8
241
100
AcDbLine
 10
9.0
 20
-19.0
 30
0.0
 11
9.0
 21
0.0
 31
0.0
  0
LINE
  5
107B
330
105A
100
AcDbEntity
  8
240
100
AcDbLine
 10
0.5
 20
-19.00000000000001
 30
0.0
 11
9.0
 21
-19.00000000000001
 31
0.0
  0
LINE
  5
107C
330
105A
100
AcDbEntity
  8
240
100
AcDbLine
 10
0.5
 20
-19.00000000000001
 30
0.0
 11
0.0
 21
-18.50000000000001
 31
0.0
  0
LINE
  5
107D
330
105A
100
AcDbEntity
  8
240
100
AcDbLine
 10
9.0
 20
-21.00000000000001
 30
0.0
 11
9.0
 21
-19.0
 31
0.0
  0
ARC
  5
107E
330
105A
100
AcDbEntity
  8
240
100
AcDbCircle
 10
10.0
 20
-21.00000000000001
 30
0.0
 40
1.0
100
AcDbArc
 50
180.0
 51
270.0
  0
LINE
  5
107F
102
{ACAD_REACTORS
330
1083
102
}
330
105A
100
AcDbEntity
  8
247
100
AcDbLine
 10
3.671472544292413
 20
-11.2521172468403
 30
0.0
 11
3.671472544292413
 21
-6.657487119887179
 31
0.0
  0
LINE
  5
1080
102
{ACAD_REACTORS
330
1083
102
}
330
105A
100
AcDbEntity
  8
247
100
AcDbLine
 10
3.897810429092373
 20
-11.2521172468403
 30
0.0
 11
3.897810429092373
 21
-6.657487119887179
 31
0.0
  0
ARC
  5
1081
102
{ACAD_REACTORS
330
1084
102
}
330
105A
100
AcDbEntity
  8
247
100
AcDbCircle
 10
2.822713732341725
 20
-7.826158994887165
 30
0.0
 40
0.7355981445312501
100
AcDbArc
 50
253.9997507017275
 51
34.96387329163082
  0
ARC
  5
1082
102
{ACAD_REACTORS
330
1084
102
}
330
105A
100
AcDbEntity
  8
247
100
AcDbCircle
 10
2.256869005779236
 20
-7.663908018324676
 30
0.0
 40
0.7355906677246093
100
AcDbArc
 50
143.4440121970578
 51
254.0001843876854
  0
HATCH
  5
1083
330
105A
100
AcDbEntity
  8
247
100
AcDbHatch
 10
0.0
 20
0.0
 30
0.0
210
0.0
220
0.0
230
1.0
  2
ANSI31
 70
     0
 71
     1
 91
        1
 92
       33
 93
       10
 72
     1
 10
1.521279406169867
 20
-10.78470147535593
 11
1.747617296794885
 21
-10.84960015699655
 72
     1
 10
1.521279406169867
 20
-11.2521172468403
 11
1.521279406169867
 21
-10.78470147535593
 72
     1
 10
1.747617296794885
 20
-11.2521172468403
 11
1.747617296794885
 21
-10.84960015699655
 72
     2
 10
2.709544787029244
 20
-11.2521172468403
 40
0.9619274902343747
 50
180.0
 51
360.0
 73
     1
 72
     2
 10
2.709544787029244
 20
-11.2521172468403
 40
1.188265380859374
 50
180.0
 51
360.0
 73
     1
 72
     1
 10
3.897810429092373
 20
-11.2521172468403
 11
3.897810429092373
 21
-6.657487119887179
 72
     1
 10
3.671472544292413
 20
-11.2521172468403
 11
3.671472544292413
 21
-6.657487119887179
 72
     2
 10
2.709544787029244
 20
-6.657487119887179
 40
1.188265380859374
 50
0.0
 51
194.7707939660941
 73
     1
 72
     2
 10
2.709544787029244
 20
-6.657487119887179
 40
0.9619274902343747
 50
0.0
 51
194.1274364964119
 73
     1
 72
     1
 10
1.77670421085736
 20
-6.892275938246555
 11
1.56054332218548
 21
-6.960438780043418
 97
       10
330
10A9
330
10AC
330
10AF
330
1097
330
1098
330
1080
330
107F
330
10C4
330
10C6
330
10C7
 75
     0
 76
     1
 52
90.0
 41
0.056
 77
     0
 78
     1
 53
135.0
 43
12.71780482731244
 44
-79.52837515089298
 45
-0.1257235856949681
 46
-0.1257235856949681
 79
     0
 98
        1
 10
12.71780482731244
 20
-79.52837515089298
  0
HATCH
  5
1084
330
105A
100
AcDbEntity
  8
247
100
AcDbHatch
 10
0.0
 20
0.0
 30
0.0
210
0.0
220
0.0
230
1.0
  2
ANSI31
 70
     0
 71
     1
 91
        1
 92
       33
 93
       15
 72
     1
 10
1.810738634685492
 20
-7.000206846449671
 11
1.594577746013612
 21
-7.068369688246548
 72
     2
 10
2.709544787029244
 20
-6.657487119887179
 40
0.9619301605224604
 50
200.8721834020736
 51
222.5419489373881
 73
     1
 72
     2
 10
2.007904162029234
 20
-7.545424131605926
 40
0.2376546716690064
 50
91.71012138206437
 51
253.9983983544486
 73
     1
 72
     1
 10
3.006173204997992
 20
-8.078909239027808
 11
1.942390246013616
 21
-7.773872617934046
 72
     2
 10
3.071678576091755
 20
-7.850460752699675
 40
0.2376545047760009
 50
254.000273057184
 51
434.000273057184
 73
     1
 72
     1
 10
3.137183947185491
 20
-7.622012266371555
 11
2.630324816326094
 21
-7.476671690199665
 72
     1
 10
2.630324816326094
 20
-7.665035948012175
 11
2.630324816326094
 21
-7.476671690199665
 72
     1
 10
2.630324816326094
 20
-7.665035948012175
 11
2.403986925701104
 21
-7.600137266371561
 72
     1
 10
2.403986925701104
 20
-7.600137266371561
 11
2.403986925701104
 21
-6.940853819105925
 72
     1
 10
3.558303598979932
 20
-7.271849912855927
 11
2.403986925701104
 21
-6.940853819105925
 72
     1
 10
3.425541147808047
 20
-7.404620908949681
 11
3.558303598979932
 21
-7.271849912855927
 72
     2
 10
2.822713732341725
 20
-7.826158994887165
 40
0.7355981445312501
 50
253.9997507017275
 51
394.9638732916308
 73
     1
 72
     2
 10
2.861388048747983
 20
-6.623495420668433
 40
1.924965820312499
 50
245.2051773698423
 51
262.7948259620505
 73
     1
 72
     2
 10
2.256869005779236
 20
-7.663908018324676
 40
0.7355906677246093
 50
143.4440121970578
 51
254.0001843876854
 73
     1
 72
     2
 10
2.709544787029244
 20
-6.657487119887179
 40
1.188265914916992
 50
200.2296450633201
 51
208.5716889237166
 73
     1
 97
       15
330
10E0
330
10E6
330
10E3
330
10C3
330
10E7
330
10C2
330
10E2
330
10E1
330
10E4
330
10C5
330
10E8
330
1081
330
10BB
330
1082
330
10E5
 75
     0
 76
     1
 52
90.0
 41
0.056
 77
     0
 78
     1
 53
135.0
 43
12.71780482731244
 44
-79.52837515089298
 45
-0.1257235856949681
 46
-0.1257235856949681
 79
     0
 98
        1
 10
12.71780482731244
 20
-79.52837515089298
  0
LINE
  5
1085
330
105A
100
AcDbEntity
  8
241
100
AcDbLine
 10
0.0
 20
0.0
 30
0.0
 11
-0.0000000000000142
 21
-11.00000000000002
 31
0.0
  0
POLYLINE
  5
1086
102
{ACAD_REACTORS
330
10A2
102
}
330
105A
100
AcDbEntity
  8
247
100
AcDb2dPolyline
 66
     1
 10
0.0
 20
0.0
 30
0.0
 70
     1
  0
VERTEX
  5
1087
330
1086
100
AcDbEntity
  8
247
100
AcDbVertex
100
AcDb2dVertex
 10
1.521279406169867
 20
-9.006998838637173
 30
0.0
  0
VERTEX
  5
1088
330
1086
100
AcDbEntity
  8
247
100
AcDbVertex
100
AcDb2dVertex
 10
1.770244249919869
 20
-9.078391660902795
 30
0.0
  0
VERTEX
  5
1089
330
1086
100
AcDbEntity
  8
247
100
AcDbVertex
100
AcDb2dVertex
 10
1.770244249919869
 20
-8.995975889418431
 30
0.0
  0
VERTEX
  5
108A
330
1086
100
AcDbEntity
  8
247
100
AcDbVertex
100
AcDb2dVertex
 10
3.558303598979932
 20
-9.508696836684052
 30
0.0
  0
VERTEX
  5
108B
330
1086
100
AcDbEntity
  8
247
100
AcDbVertex
100
AcDb2dVertex
 10
3.558303598979932
 20
-9.002461485121543
 30
0.0
  0
VERTEX
  5
108C
330
1086
100
AcDbEntity
  8
247
100
AcDbVertex
100
AcDb2dVertex
 10
1.521279406169867
 20
-8.418356260512183
 30
0.0
  0
SEQEND
  5
108D
330
1086
100
AcDbEntity
  8
247
  0
POLYLINE
  5
108E
330
105A
100
AcDbEntity
  8
247
100
AcDb2dPolyline
 66
     1
 10
0.0
 20
0.0
 30
0.0
 70
     1
1001
HATCH_DISTANCE
1040
1.0
1001
HATCH_DISPLAY
1070
     0
1001
HATCH_TYPE
1070
     7
  0
VERTEX
  5
108F
330
108E
100
AcDbEntity
  8
247
100
AcDbVertex
100
AcDb2dVertex
 10
1.521279406169867
 20
-9.006998838637173
 30
0.0
  0
VERTEX
  5
1090
330
108E
100
AcDbEntity
  8
247
100
AcDbVertex
100
AcDb2dVertex
 10
1.770244249919869
 20
-9.078391660902795
 30
0.0
  0
VERTEX
  5
1091
330
108E
100
AcDbEntity
  8
247
100
AcDbVertex
100
AcDb2dVertex
 10
1.770244249919869
 20
-8.995975889418431
 30
0.0
  0
VERTEX
  5
1092
330
108E
100
AcDbEntity
  8
247
100
AcDbVertex
100
AcDb2dVertex
 10
3.558303598979932
 20
-9.508696836684052
 30
0.0
  0
VERTEX
  5
1093
330
108E
100
AcDbEntity
  8
247
100
AcDbVertex
100
AcDb2dVertex
 10
3.558303598979932
 20
-9.002461485121543
 30
0.0
  0
VERTEX
  5
1094
330
108E
100
AcDbEntity
  8
247
100
AcDbVertex
100
AcDb2dVertex
 10
1.521279406169867
 20
-8.418356260512183
 30
0.0
  0
SEQEND
  5
1095
330
108E
100
AcDbEntity
  8
247
  0
LINE
  5
1096
330
105A
100
AcDbEntity
  8
247
100
AcDbLine
 10
3.558303598979932
 20
-9.508696836684052
 30
0.0
 11
1.770244249919869
 21
-8.995975889418431
 31
0.0
  0
ARC
  5
1097
102
{ACAD_REACTORS
330
1083
102
}
330
105A
100
AcDbEntity
  8
247
100
AcDbCircle
 10
2.709544787029244
 20
-11.2521172468403
 30
0.0
 40
0.9619274902343747
100
AcDbArc
 50
180.0
 51
0.0
  0
ARC
  5
1098
102
{ACAD_REACTORS
330
1083
102
}
330
105A
100
AcDbEntity
  8
247
100
AcDbCircle
 10
2.709544787029244
 20
-11.2521172468403
 30
0.0
 40
1.188265380859374
100
AcDbArc
 50
180.0
 51
0.0
  0
LINE
  5
1099
330
105A
100
AcDbEntity
  8
247
100
AcDbLine
 10
2.658866793566062
 20
-10.31034778305282
 30
0.0
 11
3.305750823762508
 21
-10.49583219132007
 31
0.0
  0
ARC
  5
109A
330
105A
100
AcDbEntity
  8
247
100
AcDbCircle
 10
2.969831652263621
 20
-10.44660455152779
 30
0.0
 40
0.3395070695877076
100
AcDbArc
 50
351.6628542111489
 51
156.3381921591137
  0
ARC
  5
109B
330
105A
100
AcDbEntity
  8
247
100
AcDbCircle
 10
2.992467150310488
 20
-10.19409356519968
 30
0.0
 40
0.5658361816406247
100
AcDbArc
 50
0.0
 51
130.3298406541676
  0
LINE
  5
109C
330
105A
100
AcDbEntity
  8
247
100
AcDbLine
 10
3.558303598979932
 20
-10.52444713175569
 30
0.0
 11
2.727818417219481
 21
-9.693961949995255
 31
0.0
  0
LINE
  5
109D
330
105A
100
AcDbEntity
  8
247
100
AcDbLine
 10
3.001861879135446
 20
-10.97379409747093
 30
0.0
 11
2.209581939954773
 21
-10.18151415829027
 31
0.0
  0
LINE
  5
109E
330
105A
100
AcDbEntity
  8
247
100
AcDbLine
 10
3.354396981377533
 20
-11.07488202832311
 30
0.0
 11
2.396737642715436
 21
-10.11722268966097
 31
0.0
  0
LINE
  5
109F
330
105A
100
AcDbEntity
  8
247
100
AcDbLine
 10
2.89733694480418
 20
-10.11492764896989
 30
0.0
 11
2.155165453442066
 21
-9.372756157607767
 31
0.0
  0
LINE
  5
10A0
330
105A
100
AcDbEntity
  8
247
100
AcDbLine
 10
3.558303598979932
 20
-11.13335137769964
 30
0.0
 11
1.747617296795539
 21
-10.61414483473117
 31
0.0
  0
LINE
  5
10A1
330
105A
100
AcDbEntity
  8
247
100
AcDbLine
 10
3.558303598979932
 20
-9.002461485121543
 30
0.0
 11
1.521279406169867
 21
-8.418356260512183
 31
0.0
  0
HATCH
  5
10A2
330
105A
100
AcDbEntity
  8
247
100
AcDbHatch
 10
0.0
 20
0.0
 30
0.0
210
0.0
220
0.0
230
1.0
  2
ANSI31
 70
     0
 71
     1
 91
        1
 92
        7
 72
     0
 73
     1
 93
        6
 10
1.521279406169867
 20
-8.418356260512183
 10
1.521279406169867
 20
-9.006998838637175
 10
1.770244249919869
 20
-9.078391660902795
 10
1.770244249919869
 20
-8.995975889418433
 10
3.558303598979933
 20
-9.508696836684052
 10
3.558303598979932
 20
-9.002461485121543
 97
        1
330
1086
 75
     0
 76
     1
 52
90.0
 41
0.056
 77
     0
 78
     1
 53
135.0
 43
12.71780482731244
 44
-79.52837515089298
 45
-0.1257235856949681
 46
-0.1257235856949681
 79
     0
 47
0.0134348504236232
 98
        1
 10
2.486453062702224
 20
-8.947546328877905
  0
LINE
  5
10A3
330
105A
100
AcDbEntity
  8
240
100
AcDbLine
 10
-1.857179999999985
 20
-11.33021800000003
 30
0.0
 11
-2.74906
 21
-12.875
 31
0.0
  0
LINE
  5
10A4
330
105A
100
AcDbEntity
  8
240
100
AcDbLine
 10
-1.753049265966836
 20
-11.00000000000002
 30
0.0
 11
0.0
 21
-11.00000000000001
 31
0.0
  0
ARC
  5
10A5
330
105A
100
AcDbEntity
  8
240
100
AcDbCircle
 10
-2.549999999999997
 20
-10.93021800000002
 30
0.0
 40
0.8
100
AcDbArc
 50
329.9999999999998
 51
354.9958839999995
  0
LINE
  5
10A6
330
105A
100
AcDbEntity
  8
240
100
AcDbLine
 10
0.0
 20
-10.92131600000001
 30
0.0
 11
0.0
 21
-11.58301300000002
 31
0.0
  0
LINE
  5
10A7
330
105A
100
AcDbEntity
  8
247
100
AcDbLine
 10
1.521279406169867
 20
-10.66697808668392
 30
0.0
 11
1.747617296794885
 21
-10.73187676832492
 31
0.0
  0
LINE
  5
10A8
330
105A
100
AcDbEntity
  8
247
100
AcDbLine
 10
2.296791674651274
 20
-10.77161823576665
 30
0.0
 11
1.521279406169924
 21
-9.996105967285302
 31
0.0
  0
LINE
  5
10A9
102
{ACAD_REACTORS
330
1083
102
}
330
105A
100
AcDbEntity
  8
247
100
AcDbLine
 10
1.521279406169867
 20
-10.78470147535593
 30
0.0
 11
1.747617296794885
 21
-10.84960015699655
 31
0.0
  0
LINE
  5
10AA
330
105A
100
AcDbEntity
  8
247
100
AcDbLine
 10
1.747617296794885
 20
-10.72533820069015
 30
0.0
 11
1.521279406169867
 21
-10.49900031006512
 31
0.0
  0
LINE
  5
10AB
330
105A
100
AcDbEntity
  8
247
100
AcDbLine
 10
1.944256572409187
 20
-10.67053030491452
 30
0.0
 11
1.521279406169895
 21
-10.24755313867521
 31
0.0
  0
LINE
  5
10AC
102
{ACAD_REACTORS
330
1083
102
}
330
105A
100
AcDbEntity
  8
247
100
AcDbLine
 10
1.521279406169867
 20
-11.2521172468403
 30
0.0
 11
1.521279406169867
 21
-10.78470147535593
 31
0.0
  0
LINE
  5
10AD
330
105A
100
AcDbEntity
  8
247
100
AcDbLine
 10
1.521279406169867
 20
-10.66697808668392
 30
0.0
 11
1.521279406169924
 21
-9.93682255171943
 31
0.0
  0
LINE
  5
10AE
330
105A
100
AcDbEntity
  8
247
100
AcDbLine
 10
1.747617296794885
 20
-10.73187676832492
 30
0.0
 11
1.747617296795539
 21
-10.61414483473117
 31
0.0
  0
LINE
  5
10AF
102
{ACAD_REACTORS
330
1083
102
}
330
105A
100
AcDbEntity
  8
247
100
AcDbLine
 10
1.747617296794885
 20
-11.2521172468403
 30
0.0
 11
1.747617296794885
 21
-10.84960015699655
 31
0.0
  0
LINE
  5
10B0
330
105A
100
AcDbEntity
  8
247
100
AcDbLine
 10
1.779351827340491
 20
-10.00273121706592
 30
0.0
 11
1.54592330921352
 21
-9.769302698938972
 31
0.0
  0
LINE
  5
10B1
330
105A
100
AcDbEntity
  8
247
100
AcDbLine
 10
2.134267225067929
 20
-9.854752272013499
 30
0.0
 11
1.755512615685319
 21
-9.475997662630888
 31
0.0
  0
LINE
  5
10B2
330
105A
100
AcDbEntity
  8
247
100
AcDbLine
 10
1.911830145073054
 20
-9.883762363408578
 30
0.0
 11
1.629603522694253
 21
-9.601535741029763
 31
0.0
  0
LINE
  5
10B3
330
105A
100
AcDbEntity
  8
247
100
AcDbLine
 10
2.64932677689336
 20
-10.87270616661879
 30
0.0
 11
1.857050174347307
 21
-10.08042956407275
 31
0.0
  0
LINE
  5
10B4
330
105A
100
AcDbEntity
  8
247
100
AcDbLine
 10
2.73366256794543
 20
-10.20270044350104
 30
0.0
 11
1.923717239604286
 21
-9.392755115159914
 31
0.0
  0
ARC
  5
10B5
330
105A
100
AcDbEntity
  8
247
100
AcDbCircle
 10
2.064488634685488
 20
-10.18700128004341
 30
0.0
 40
0.3394973564147949
100
AcDbArc
 50
351.6626016879293
 51
156.3381550951899
  0
LINE
  5
10B6
330
105A
100
AcDbEntity
  8
247
100
AcDbLine
 10
1.753533197019862
 20
-10.0507472129526
 30
0.0
 11
2.400398040558826
 21
-10.23622856981712
 31
0.0
  0
ARC
  5
10B7
330
105A
100
AcDbEntity
  8
247
100
AcDbCircle
 10
2.087115587810501
 20
-9.934490293715299
 30
0.0
 40
0.5658409881591795
100
AcDbArc
 50
17.66957754739792
 51
180.2361598426716
  0
LINE
  5
10B8
330
105A
100
AcDbEntity
  8
247
100
AcDbLine
 10
1.521279406169867
 20
-9.006998838637173
 30
0.0
 11
1.521279406169867
 21
-8.418356260512183
 31
0.0
  0
LINE
  5
10B9
330
105A
100
AcDbEntity
  8
247
100
AcDbLine
 10
1.770244249919869
 20
-9.078391660902795
 30
0.0
 11
1.521279406169867
 21
-9.006998838637173
 31
0.0
  0
LINE
  5
10BA
330
105A
100
AcDbEntity
  8
247
100
AcDbLine
 10
1.770244249919869
 20
-9.078391660902795
 30
0.0
 11
1.770244249919869
 21
-8.995975889418431
 31
0.0
  0
ARC
  5
10BB
102
{ACAD_REACTORS
330
1084
102
}
330
105A
100
AcDbEntity
  8
247
100
AcDbCircle
 10
2.861388048747983
 20
-6.623495420668433
 30
0.0
 40
1.924965820312499
100
AcDbArc
 50
245.2051773698423
 51
262.7948259620505
  0
LINE
  5
10BC
330
105A
100
AcDbEntity
  8
247
100
AcDbLine
 10
3.558303598979932
 20
-9.508696836684052
 30
0.0
 11
3.558303598979932
 21
-9.002461485121543
 31
0.0
  0
LINE
  5
10BD
330
105A
100
AcDbEntity
  8
247
100
AcDbLine
 10
3.558303598979932
 20
-11.13335137769964
 30
0.0
 11
3.558303598979932
 21
-10.19409356519968
 31
0.0
  0
LINE
  5
10BE
330
105A
100
AcDbEntity
  8
247
100
AcDbLine
 10
3.558303598979932
 20
-10.27299996036573
 30
0.0
 11
2.9184261566852
 21
-9.633122518071019
 31
0.0
  0
LINE
  5
10BF
330
105A
100
AcDbEntity
  8
247
100
AcDbLine
 10
3.558303598979932
 20
-10.77589430314563
 30
0.0
 11
3.267182628889088
 21
-10.4847733330548
 31
0.0
  0
LINE
  5
10C0
330
105A
100
AcDbEntity
  8
247
100
AcDbLine
 10
3.558303598979932
 20
-11.02734147453554
 30
0.0
 11
2.914652735322817
 21
-10.38369061087841
 31
0.0
  0
LINE
  5
10C1
330
105A
100
AcDbEntity
  8
247
100
AcDbLine
 10
3.515879822704164
 20
-9.979129012700028
 30
0.0
 11
3.20743170281014
 21
-9.670680892806018
 31
0.0
  0
LINE
  5
10C2
102
{ACAD_REACTORS
330
1084
102
}
330
105A
100
AcDbEntity
  8
247
100
AcDbLine
 10
3.137183947185491
 20
-7.622012266371555
 30
0.0
 11
2.630324816326094
 21
-7.476671690199665
 31
0.0
  0
LINE
  5
10C3
102
{ACAD_REACTORS
330
1084
102
}
330
105A
100
AcDbEntity
  8
247
100
AcDbLine
 10
3.006173204997992
 20
-8.078909239027808
 30
0.0
 11
1.942390246013616
 21
-7.773872617934046
 31
0.0
  0
ARC
  5
10C4
102
{ACAD_REACTORS
330
1083
102
}
330
105A
100
AcDbEntity
  8
247
100
AcDbCircle
 10
2.709544787029244
 20
-6.657487119887179
 30
0.0
 40
1.188265380859374
100
AcDbArc
 50
0.0
 51
194.7707939660941
  0
LINE
  5
10C5
102
{ACAD_REACTORS
330
1084
102
}
330
105A
100
AcDbEntity
  8
247
100
AcDbLine
 10
3.558303598979932
 20
-7.271849912855927
 30
0.0
 11
2.403986925701104
 21
-6.940853819105925
 31
0.0
  0
ARC
  5
10C6
102
{ACAD_REACTORS
330
1083
102
}
330
105A
100
AcDbEntity
  8
247
100
AcDbCircle
 10
2.709544787029244
 20
-6.657487119887179
 30
0.0
 40
0.9619274902343747
100
AcDbArc
 50
0.0
 51
194.1274364964119
  0
LINE
  5
10C7
102
{ACAD_REACTORS
330
1083
102
}
330
105A
100
AcDbEntity
  8
247
100
AcDbLine
 10
1.77670421085736
 20
-6.892275938246555
 30
0.0
 11
1.56054332218548
 21
-6.960438780043418
 31
0.0
  0
POLYLINE
  5
10C8
330
105A
100
AcDbEntity
  8
247
100
AcDb2dPolyline
 66
     1
 10
0.0
 20
0.0
 30
0.0
 70
     1
  0
VERTEX
  5
10C9
330
10C8
100
AcDbEntity
  8
247
100
AcDbVertex
100
AcDb2dVertex
 10
1.77670421085736
 20
-6.892275938246555
 30
0.0
  0
VERTEX
  5
10CA
330
10C8
100
AcDbEntity
  8
247
100
AcDbVertex
100
AcDb2dVertex
 10
1.56054332218548
 20
-6.960438780043418
 30
0.0
  0
VERTEX
  5
10CB
330
10C8
100
AcDbEntity
  8
247
100
AcDbVertex
100
AcDb2dVertex
 10
1.56054332218548
 20
-6.960438780043418
 30
0.0
  0
VERTEX
  5
10CC
330
10C8
100
AcDbEntity
  8
247
100
AcDbVertex
100
AcDb2dVertex
 10
1.77670421085736
 20
-6.892275938246555
 30
0.0
  0
SEQEND
  5
10CD
330
10C8
100
AcDbEntity
  8
247
  0
POLYLINE
  5
10CE
330
105A
100
AcDbEntity
  8
247
100
AcDb2dPolyline
 66
     1
 10
0.0
 20
0.0
 30
0.0
 70
     1
1001
HATCH_DISTANCE
1040
1.0
1001
HATCH_DISPLAY
1070
     0
1001
HATCH_TYPE
1070
     7
  0
VERTEX
  5
10CF
330
10CE
100
AcDbEntity
  8
247
100
AcDbVertex
100
AcDb2dVertex
 10
1.77670421085736
 20
-6.892275938246555
 30
0.0
  0
VERTEX
  5
10D0
330
10CE
100
AcDbEntity
  8
247
100
AcDbVertex
100
AcDb2dVertex
 10
1.56054332218548
 20
-6.960438780043418
 30
0.0
  0
VERTEX
  5
10D1
330
10CE
100
AcDbEntity
  8
247
100
AcDbVertex
100
AcDb2dVertex
 10
1.56054332218548
 20
-6.960438780043418
 30
0.0
  0
VERTEX
  5
10D2
330
10CE
100
AcDbEntity
  8
247
100
AcDbVertex
100
AcDb2dVertex
 10
1.77670421085736
 20
-6.892275938246555
 30
0.0
  0
SEQEND
  5
10D3
330
10CE
100
AcDbEntity
  8
247
  0
POLYLINE
  5
10D4
330
105A
100
AcDbEntity
  8
247
100
AcDb2dPolyline
 66
     1
 10
0.0
 20
0.0
 30
0.0
 70
     1
  0
VERTEX
  5
10D5
330
10D4
100
AcDbEntity
  8
247
100
AcDbVertex
100
AcDb2dVertex
 10
1.77670421085736
 20
-6.892275938246555
 30
0.0
  0
VERTEX
  5
10D6
330
10D4
100
AcDbEntity
  8
247
100
AcDbVertex
100
AcDb2dVertex
 10
1.56054332218548
 20
-6.960438780043418
 30
0.0
  0
VERTEX
  5
10D7
330
10D4
100
AcDbEntity
  8
247
100
AcDbVertex
100
AcDb2dVertex
 10
1.56054332218548
 20
-6.960438780043418
 30
0.0
  0
VERTEX
  5
10D8
330
10D4
100
AcDbEntity
  8
247
100
AcDbVertex
100
AcDb2dVertex
 10
1.77670421085736
 20
-6.892275938246555
 30
0.0
  0
SEQEND
  5
10D9
330
10D4
100
AcDbEntity
  8
247
  0
POLYLINE
  5
10DA
330
105A
100
AcDbEntity
  8
247
100
AcDb2dPolyline
 66
     1
 10
0.0
 20
0.0
 30
0.0
 70
     1
1001
HATCH_DISTANCE
1040
1.0
1001
HATCH_DISPLAY
1070
     0
1001
HATCH_TYPE
1070
     7
  0
VERTEX
  5
10DB
330
10DA
100
AcDbEntity
  8
247
100
AcDbVertex
100
AcDb2dVertex
 10
1.77670421085736
 20
-6.892275938246555
 30
0.0
  0
VERTEX
  5
10DC
330
10DA
100
AcDbEntity
  8
247
100
AcDbVertex
100
AcDb2dVertex
 10
1.56054332218548
 20
-6.960438780043418
 30
0.0
  0
VERTEX
  5
10DD
330
10DA
100
AcDbEntity
  8
247
100
AcDbVertex
100
AcDb2dVertex
 10
1.56054332218548
 20
-6.960438780043418
 30
0.0
  0
VERTEX
  5
10DE
330
10DA
100
AcDbEntity
  8
247
100
AcDbVertex
100
AcDb2dVertex
 10
1.77670421085736
 20
-6.892275938246555
 30
0.0
  0
SEQEND
  5
10DF
330
10DA
100
AcDbEntity
  8
247
  0
LINE
  5
10E0
102
{ACAD_REACTORS
330
1084
102
}
330
105A
100
AcDbEntity
  8
247
100
AcDbLine
 10
1.810738634685492
 20
-7.000206846449671
 30
0.0
 11
1.594577746013612
 21
-7.068369688246548
 31
0.0
  0
LINE
  5
10E1
102
{ACAD_REACTORS
330
1084
102
}
330
105A
100
AcDbEntity
  8
247
100
AcDbLine
 10
2.630324816326094
 20
-7.665035948012175
 30
0.0
 11
2.403986925701104
 21
-7.600137266371561
 31
0.0
  0
LINE
  5
10E2
102
{ACAD_REACTORS
330
1084
102
}
330
105A
100
AcDbEntity
  8
247
100
AcDbLine
 10
2.630324816326094
 20
-7.665035948012175
 30
0.0
 11
2.630324816326094
 21
-7.476671690199665
 31
0.0
  0
ARC
  5
10E3
102
{ACAD_REACTORS
330
1084
102
}
330
105A
100
AcDbEntity
  8
247
100
AcDbCircle
 10
2.007904162029234
 20
-7.545424131605926
 30
0.0
 40
0.2376546716690064
100
AcDbArc
 50
91.71012138206437
 51
253.9983983544486
  0
LINE
  5
10E4
102
{ACAD_REACTORS
330
1084
102
}
330
105A
100
AcDbEntity
  8
247
100
AcDbLine
 10
2.403986925701104
 20
-7.600137266371561
 30
0.0
 11
2.403986925701104
 21
-6.940853819105925
 31
0.0
  0
ARC
  5
10E5
102
{ACAD_REACTORS
330
1084
102
}
330
105A
100
AcDbEntity
  8
247
100
AcDbCircle
 10
2.709544787029244
 20
-6.657487119887179
 30
0.0
 40
1.188265914916992
100
AcDbArc
 50
200.2296450633201
 51
208.5716889237166
  0
ARC
  5
10E6
102
{ACAD_REACTORS
330
1084
102
}
330
105A
100
AcDbEntity
  8
247
100
AcDbCircle
 10
2.709544787029244
 20
-6.657487119887179
 30
0.0
 40
0.9619301605224604
100
AcDbArc
 50
200.8721834020736
 51
222.5419489373881
  0
ARC
  5
10E7
102
{ACAD_REACTORS
330
1084
102
}
330
105A
100
AcDbEntity
  8
247
100
AcDbCircle
 10
3.071678576091755
 20
-7.850460752699675
 30
0.0
 40
0.2376545047760009
100
AcDbArc
 50
254.000273057184
 51
74.00027305718406
  0
LINE
  5
10E8
102
{ACAD_REACTORS
330
1084
102
}
330
105A
100
AcDbEntity
  8
247
100
AcDbLine
 10
3.425541147808047
 20
-7.404620908949681
 30
0.0
 11
3.558303598979932
 21
-7.271849912855927
 31
0.0
  0
LINE
  5
10E9
330
105A
100
AcDbEntity
  8
241
100
AcDbLine
 10
43.26053100000001
 20
0.0
 30
0.0
 11
43.26053100000001
 21
-21.50000000000001
 31
0.0
  0
LINE
  5
10EA
330
105A
100
AcDbEntity
  8
241
100
AcDbLine
 10
38.14342900000002
 20
0.0
 30
0.0
 11
38.14342900000002
 21
-22.00000000000001
 31
0.0
  0
LINE
  5
10EB
330
105A
100
AcDbEntity
  8
241
100
AcDbLine
 10
36.856571
 20
0.0
 30
0.0
 11
36.856571
 21
-22.00000000000001
 31
0.0
  0
LINE
  5
10EC
330
105A
100
AcDbEntity
  8
241
100
AcDbLine
 10
31.14342900000002
 20
0.0
 30
0.0
 11
31.14342900000002
 21
-22.00000000000001
 31
0.0
  0
ARC
  5
10ED
330
105A
100
AcDbEntity
  8
240
100
AcDbCircle
 10
34.0
 20
-24.80000000000001
 30
0.0
 40
4.0
100
AcDbArc
 50
44.42700399999967
 51
135.5729960000003
  0
LINE
  5
10EE
330
105A
100
AcDbEntity
  8
240
100
AcDbLine
 10
36.856571
 20
-22.00000000000001
 30
0.0
 11
38.14342900000002
 21
-22.00000000000001
 31
0.0
  0
ARC
  5
10EF
330
105A
100
AcDbEntity
  8
240
100
AcDbCircle
 10
41.0
 20
-24.80000000000001
 30
0.0
 40
4.0
100
AcDbArc
 50
55.58849100000035
 51
135.5729960000003
  0
ARC
  5
10F0
330
105A
100
AcDbEntity
  8
240
100
AcDbCircle
 10
-3.441879999999997
 20
12.47499999999999
 30
0.0
 40
0.8
100
AcDbArc
 50
30.00000000000014
 51
90.0
  0
LINE
  5
10F1
330
105A
100
AcDbEntity
  8
241
100
AcDbLine
 10
-10.24695074755888
 20
10.99999984552829
 30
0.0
 11
-1.753049252441115
 21
10.99999984552829
 31
0.0
  0
LINE
  5
10F2
330
105A
100
AcDbEntity
  8
240
100
AcDbLine
 10
-19.5
 20
11.0
 30
0.0
 11
-10.24695073403316
 21
11.00000000000002
 31
0.0
  0
LINE
  5
10F3
330
105A
100
AcDbEntity
  8
240
100
AcDbLine
 10
-21.64101699999999
 20
10.69909999999998
 30
0.0
 11
-19.5
 21
11.0
 31
0.0
  0
LINE
  5
10F4
330
105A
100
AcDbEntity
  8
240
100
AcDbLine
 10
-21.64101699999999
 20
10.69910000000001
 30
0.0
 11
-23.29581099999999
 21
10.99088500000002
 31
0.0
  0
ARC
  5
10F5
330
105A
100
AcDbEntity
  8
240
100
AcDbCircle
 10
-23.4
 20
10.4
 30
0.0
 40
0.6
100
AcDbArc
 50
79.9999999999998
 51
120.0000000000001
  0
LINE
  5
10F6
330
105A
100
AcDbEntity
  8
240
100
AcDbLine
 10
-24.0
 20
10.74641000000002
 30
0.0
 11
-23.69999999999998
 21
10.91961500000002
 31
0.0
  0
ARC
  5
10F7
330
105A
100
AcDbEntity
  8
240
100
AcDbCircle
 10
-8.558119999999988
 20
12.47499999999999
 30
0.0
 40
0.8
100
AcDbArc
 50
90.0
 51
149.9999999999998
  0
LINE
  5
10F8
330
105A
100
AcDbEntity
  8
240
100
AcDbLine
 10
-10.14282
 20
11.33021799999997
 30
0.0
 11
-9.250939999999985
 21
12.875
 31
0.0
  0
ARC
  5
10F9
330
105A
100
AcDbEntity
  8
240
100
AcDbCircle
 10
-9.450000000000002
 20
10.93021799999999
 30
0.0
 40
0.8
100
AcDbArc
 50
149.9999999999998
 51
174.9958839999994
  0
LINE
  5
10FA
330
105A
100
AcDbEntity
  8
240
100
AcDbLine
 10
-8.558119999999988
 20
13.27499999999997
 30
0.0
 11
-3.441879999999997
 21
13.27499999999997
 31
0.0
  0
LINE
  5
10FB
330
105A
100
AcDbEntity
  8
240
100
AcDbLine
 10
10.0
 20
22.0
 30
0.0
 11
31.14342900000002
 21
22.0
 31
0.0
  0
LINE
  5
10FC
330
105A
100
AcDbEntity
  8
240
100
AcDbLine
 10
0.0
 20
18.5
 30
0.0
 11
0.0
 21
11.00000000000004
 31
0.0
  0
LINE
  5
10FD
330
105A
100
AcDbEntity
  8
240
100
AcDbLine
 10
-1.857179999999985
 20
11.33021799999997
 30
0.0
 11
-2.74906
 21
12.875
 31
0.0
  0
LINE
  5
10FE
330
105A
100
AcDbEntity
  8
240
100
AcDbLine
 10
-1.753049265966836
 20
11.00000000000004
 30
0.0
 11
0.0
 21
11.00000000000004
 31
0.0
  0
ARC
  5
10FF
330
105A
100
AcDbEntity
  8
240
100
AcDbCircle
 10
-2.549999999999997
 20
10.93021799999999
 30
0.0
 40
0.8
100
AcDbArc
 50
5.004116000000569
 51
30.00000000000014
  0
LINE
  5
1100
330
105A
100
AcDbEntity
  8
240
100
AcDbLine
 10
0.5
 20
19.0
 30
0.0
 11
9.0
 21
19.0
 31
0.0
  0
LINE
  5
1101
330
105A
100
AcDbEntity
  8
240
100
AcDbLine
 10
0.5
 20
19.0
 30
0.0
 11
0.0
 21
18.5
 31
0.0
  0
LINE
  5
1102
330
105A
100
AcDbEntity
  8
240
100
AcDbLine
 10
9.0
 20
21.0
 30
0.0
 11
9.0
 21
19.0
 31
0.0
  0
ARC
  5
1103
330
105A
100
AcDbEntity
  8
240
100
AcDbCircle
 10
10.0
 20
21.0
 30
0.0
 40
1.0
100
AcDbArc
 50
90.0
 51
180.0
  0
ARC
  5
1104
330
105A
100
AcDbEntity
  8
240
100
AcDbCircle
 10
34.0
 20
24.79999999999998
 30
0.0
 40
4.0
100
AcDbArc
 50
224.4270039999996
 51
315.5729960000003
  0
LINE
  5
1105
330
105A
100
AcDbEntity
  8
240
100
AcDbLine
 10
36.856571
 20
22.0
 30
0.0
 11
38.14342900000002
 21
22.0
 31
0.0
  0
ARC
  5
1106
330
105A
100
AcDbEntity
  8
240
100
AcDbCircle
 10
41.0
 20
24.79999999999998
 30
0.0
 40
4.0
100
AcDbArc
 50
224.4270039999996
 51
304.4115089999996
  0
LINE
  5
1107
330
105A
100
AcDbEntity
  8
240
100
AcDbLine
 10
72.0
 20
12.5
 30
0.0
 11
72.0
 21
0.0
 31
0.0
  0
LINE
  5
1108
330
105A
100
AcDbEntity
  8
241
100
AcDbLine
 10
50.5
 20
11.0
 30
0.0
 11
50.5
 21
0.0
 31
0.0
  0
LINE
  5
1109
330
105A
100
AcDbEntity
  8
241
100
AcDbLine
 10
47.0
 20
12.0
 30
0.0
 11
47.0
 21
0.0
 31
0.0
  0
LINE
  5
110A
330
105A
100
AcDbEntity
  8
241
100
AcDbLine
 10
52.5
 20
13.70000000000001
 30
0.0
 11
52.5
 21
0.0
 31
0.0
  0
ARC
  5
110B
330
105A
100
AcDbEntity
  8
241
100
AcDbCircle
 10
54.69855700000002
 20
0.0
 30
0.0
 40
14.301443
100
AcDbArc
 50
329.3338749999989
 51
30.66612500000096
  0
ARC
  5
110C
330
105A
100
AcDbEntity
  8
241
100
AcDbCircle
 10
66.80144199999998
 20
0.0
 30
0.0
 40
14.301443
100
AcDbArc
 50
149.333874999999
 51
210.6661250000009
  0
LINE
  5
110D
330
105A
100
AcDbEntity
  8
241
100
AcDbLine
 10
48.0
 20
-10.99999999999998
 30
0.0
 11
48.0
 21
11.0
 31
0.0
  0
LINE
  5
110E
330
105A
100
AcDbEntity
  8
241
100
AcDbLine
 10
54.5
 20
-8.294227999999989
 30
0.0
 11
67.0
 21
-8.294227999999989
 31
0.0
  0
LINE
  5
110F
330
105A
100
AcDbEntity
  8
241
100
AcDbLine
 10
54.5
 20
-7.294228000000003
 30
0.0
 11
67.0
 21
-7.294228000000003
 31
0.0
  0
LINE
  5
1110
330
105A
100
AcDbEntity
  8
240
100
AcDbLine
 10
53.5
 20
-15.29999999999998
 30
0.0
 11
67.0
 21
-15.29999999999998
 31
0.0
  0
LINE
  5
1111
330
105A
100
AcDbEntity
  8
240
100
AcDbLine
 10
47.0
 20
-19.00000000000001
 30
0.0
 11
47.0
 21
-12.0
 31
0.0
  0
ARC
  5
1112
330
105A
100
AcDbEntity
  8
240
100
AcDbCircle
 10
44.5
 20
-19.00000000000001
 30
0.0
 40
2.5
100
AcDbArc
 50
270.0
 51
0.0
  0
LINE
  5
1113
330
105A
100
AcDbEntity
  8
241
100
AcDbLine
 10
47.0
 20
-12.0
 30
0.0
 11
47.0
 21
0.0
 31
0.0
  0
LINE
  5
1114
330
105A
100
AcDbEntity
  8
241
100
AcDbLine
 10
54.5
 20
-8.294227999999989
 30
0.0
 11
54.5
 21
-7.294228000000003
 31
0.0
  0
LINE
  5
1115
330
105A
100
AcDbEntity
  8
241
100
AcDbLine
 10
52.5
 20
-13.69999999999998
 30
0.0
 11
52.5
 21
0.0
 31
0.0
  0
LINE
  5
1116
330
105A
100
AcDbEntity
  8
241
100
AcDbLine
 10
50.5
 20
-10.99999999999998
 30
0.0
 11
50.5
 21
0.0
 31
0.0
  0
LINE
  5
1117
330
105A
100
AcDbEntity
  8
240
100
AcDbLine
 10
48.0
 20
-10.99999999999998
 30
0.0
 11
50.5
 21
-10.99999999999998
 31
0.0
  0
LINE
  5
1118
330
105A
100
AcDbEntity
  8
240
100
AcDbLine
 10
48.0
 20
-10.99999999999998
 30
0.0
 11
47.0
 21
-11.99999999999998
 31
0.0
  0
ARC
  5
1119
330
105A
100
AcDbEntity
  8
241
100
AcDbCircle
 10
56.567552
 20
-11.79711399999997
 30
0.0
 40
4.067552
100
AcDbArc
 50
120.5509110000007
 51
239.4490899999996
  0
LINE
  5
111A
330
105A
100
AcDbEntity
  8
240
100
AcDbLine
 10
50.5
 20
-13.29999999999998
 30
0.0
 11
50.5
 21
-10.99999999999998
 31
0.0
  0
LINE
  5
111B
330
105A
100
AcDbEntity
  8
240
100
AcDbLine
 10
50.69999999999999
 20
-13.49999999999998
 30
0.0
 11
52.29999999999998
 21
-13.49999999999998
 31
0.0
  0
ARC
  5
111C
330
105A
100
AcDbEntity
  8
240
100
AcDbCircle
 10
50.69999999999999
 20
-13.29999999999998
 30
0.0
 40
0.2
100
AcDbArc
 50
180.0
 51
270.0
  0
LINE
  5
111D
330
105A
100
AcDbEntity
  8
240
100
AcDbLine
 10
52.5
 20
-13.69999999999998
 30
0.0
 11
52.5
 21
-14.29999999999998
 31
0.0
  0
ARC
  5
111E
330
105A
100
AcDbEntity
  8
240
100
AcDbCircle
 10
52.29999999999998
 20
-13.69999999999998
 30
0.0
 40
0.2
100
AcDbArc
 50
0.0
 51
90.0
  0
ARC
  5
111F
330
105A
100
AcDbEntity
  8
240
100
AcDbCircle
 10
53.5
 20
-14.29999999999998
 30
0.0
 40
1.0
100
AcDbArc
 50
180.0
 51
270.0
  0
LINE
  5
1120
330
105A
100
AcDbEntity
  8
241
100
AcDbLine
 10
67.0
 20
-8.294227999999989
 30
0.0
 11
67.0
 21
-7.294228000000003
 31
0.0
  0
LINE
  5
1121
330
105A
100
AcDbEntity
  8
240
100
AcDbLine
 10
72.0
 20
-12.49999999999998
 30
0.0
 11
72.0
 21
0.0
 31
0.0
  0
ARC
  5
1122
330
105A
100
AcDbEntity
  8
241
100
AcDbCircle
 10
64.93244799999999
 20
-11.79711399999997
 30
0.0
 40
4.067552
100
AcDbArc
 50
300.5509110000008
 51
59.44908999999968
  0
LINE
  5
1123
330
105A
100
AcDbEntity
  8
240
100
AcDbLine
 10
67.0
 20
-15.29999999999998
 30
0.0
 11
72.0
 21
-12.49999999999998
 31
0.0
  0
LINE
  5
1124
330
105A
100
AcDbEntity
  8
240
100
AcDbLine
 10
53.5
 20
15.30000000000001
 30
0.0
 11
67.0
 21
15.30000000000001
 31
0.0
  0
LINE
  5
1125
330
105A
100
AcDbEntity
  8
241
100
AcDbLine
 10
54.5
 20
7.294229000000029
 30
0.0
 11
67.0
 21
7.294229000000029
 31
0.0
  0
LINE
  5
1126
330
105A
100
AcDbEntity
  8
241
100
AcDbLine
 10
54.5
 20
8.294229000000029
 30
0.0
 11
67.0
 21
8.294229000000029
 31
0.0
  0
LINE
  5
1127
330
105A
100
AcDbEntity
  8
240
100
AcDbLine
 10
47.0
 20
19.0
 30
0.0
 11
47.0
 21
11.99999999999998
 31
0.0
  0
LINE
  5
1128
330
105A
100
AcDbEntity
  8
241
100
AcDbLine
 10
54.5
 20
8.294229000000029
 30
0.0
 11
54.5
 21
7.294229000000029
 31
0.0
  0
LINE
  5
1129
330
105A
100
AcDbEntity
  8
240
100
AcDbLine
 10
48.0
 20
11.0
 30
0.0
 11
50.5
 21
11.0
 31
0.0
  0
LINE
  5
112A
330
105A
100
AcDbEntity
  8
240
100
AcDbLine
 10
48.0
 20
11.0
 30
0.0
 11
47.0
 21
12.0
 31
0.0
  0
ARC
  5
112B
330
105A
100
AcDbEntity
  8
241
100
AcDbCircle
 10
56.567552
 20
11.79711500000002
 30
0.0
 40
4.067552
100
AcDbArc
 50
120.5509110000007
 51
239.4490899999996
  0
LINE
  5
112C
330
105A
100
AcDbEntity
  8
240
100
AcDbLine
 10
50.5
 20
13.30000000000001
 30
0.0
 11
50.5
 21
11.0
 31
0.0
  0
LINE
  5
112D
330
105A
100
AcDbEntity
  8
240
100
AcDbLine
 10
50.69999999999999
 20
13.5
 30
0.0
 11
52.29999999999998
 21
13.5
 31
0.0
  0
ARC
  5
112E
330
105A
100
AcDbEntity
  8
240
100
AcDbCircle
 10
50.69999999999999
 20
13.30000000000001
 30
0.0
 40
0.2
100
AcDbArc
 50
90.0
 51
180.0
  0
LINE
  5
112F
330
105A
100
AcDbEntity
  8
240
100
AcDbLine
 10
52.5
 20
13.70000000000001
 30
0.0
 11
52.5
 21
14.30000000000001
 31
0.0
  0
ARC
  5
1130
330
105A
100
AcDbEntity
  8
240
100
AcDbCircle
 10
52.29999999999998
 20
13.70000000000001
 30
0.0
 40
0.2
100
AcDbArc
 50
270.0
 51
0.0
  0
ARC
  5
1131
330
105A
100
AcDbEntity
  8
240
100
AcDbCircle
 10
53.5
 20
14.30000000000001
 30
0.0
 40
1.0
100
AcDbArc
 50
90.0
 51
180.0
  0
ARC
  5
1132
330
105A
100
AcDbEntity
  8
240
100
AcDbCircle
 10
44.5
 20
19.0
 30
0.0
 40
2.5
100
AcDbArc
 50
0.0
 51
90.0
  0
LINE
  5
1133
330
105A
100
AcDbEntity
  8
241
100
AcDbLine
 10
67.0
 20
8.294229000000029
 30
0.0
 11
67.0
 21
7.294229000000029
 31
0.0
  0
ARC
  5
1134
330
105A
100
AcDbEntity
  8
241
100
AcDbCircle
 10
64.93244799999999
 20
11.79711500000002
 30
0.0
 40
4.067552
100
AcDbArc
 50
300.5509110000008
 51
59.44908999999968
  0
LINE
  5
1135
330
105A
100
AcDbEntity
  8
240
100
AcDbLine
 10
67.0
 20
15.30000000000001
 30
0.0
 11
72.0
 21
12.5
 31
0.0
  0
ENDBLK
  5
1137
330
105A
100
AcDbEntity
  8
0
100
AcDbBlockEnd
  0
BLOCK
  5
122A
330
1220
100
AcDbEntity
  8
0
100
AcDbBlockBegin
  2
*D2
 70
     1
 10
0.0
 20
0.0
 30
0.0
  3
*D2
  1

  0
LINE
  5
1250
330
1220
100
AcDbEntity
  8
250
  6
CONTINUOUS
100
AcDbLine
 10
0.0
 20
19.0
 30
0.0
 11
0.0000000000000015
 21
43.0
 31
0.0
  0
LINE
  5
1251
330
1220
100
AcDbEntity
  8
250
  6
CONTINUOUS
100
AcDbLine
 10
72.0
 20
13.5
 30
0.0
 11
72.0
 21
43.0
 31
0.0
  0
LINE
  5
1252
330
1220
100
AcDbEntity
  8
250
  6
CONTINUOUS
100
AcDbLine
 10
2.230000000000001
 20
42.0
 30
0.0
 11
69.77
 21
42.0
 31
0.0
  0
INSERT
  5
1253
330
1220
100
AcDbEntity
  8
250
  6
CONTINUOUS
100
AcDbBlockReference
  2
_OPEN
 10
0.0000000000000014
 20
42.0
 30
0.0
 41
2.229999999999999
 42
2.229999999999999
 43
2.229999999999999
 50
180.0
  0
INSERT
  5
1254
330
1220
100
AcDbEntity
  8
250
  6
CONTINUOUS
100
AcDbBlockReference
  2
_OPEN
 10
72.0
 20
42.0
 30
0.0
 41
2.229999999999999
 42
2.229999999999999
 43
2.229999999999999
  0
MTEXT
  5
1255
330
1220
100
AcDbEntity
  8
250
  6
CONTINUOUS
 62
    40
100
AcDbMText
 10
36.0
 20
44.5
 30
0.0
 40
3.0
 41
0.0
 71
     5
 72
     1
  1
\A1;72
1001
ACAD
1000
MTEXTBEGIN
1070
    73
1070
     1
1070
    44
1040
1.0
1070
    74
1070
     0
1000
MTEXTEND
  0
POINT
  5
1256
330
1220
100
AcDbEntity
  8
DEFPOINTS
  6
CONTINUOUS
 62
     0
100
AcDbPoint
 10
0.0
 20
18.5
 30
0.0
  0
POINT
  5
1257
330
1220
100
AcDbEntity
  8
DEFPOINTS
  6
CONTINUOUS
 62
     0
100
AcDbPoint
 10
72.0
 20
13.0
 30
0.0
  0
POINT
  5
1258
330
1220
100
AcDbEntity
  8
DEFPOINTS
  6
CONTINUOUS
 62
     0
100
AcDbPoint
 10
72.0
 20
42.0
 30
0.0
  0
ENDBLK
  5
122B
330
1220
100
AcDbEntity
  8
0
100
AcDbBlockEnd
  0
BLOCK
  5
1236
330
122C
100
AcDbEntity
  8
0
100
AcDbBlockBegin
  2
*D3
 70
     1
 10
0.0
 20
0.0
 30
0.0
  3
*D3
  1

  0
LINE
  5
1259
330
122C
100
AcDbEntity
  8
250
  6
CONTINUOUS
100
AcDbLine
 10
0.0
 20
19.0
 30
0.0
 11
0.0000000000000011
 21
36.0
 31
0.0
  0
LINE
  5
125A
330
122C
100
AcDbEntity
  8
250
  6
CONTINUOUS
100
AcDbLine
 10
47.0
 20
19.5
 30
0.0
 11
47.0
 21
36.0
 31
0.0
  0
LINE
  5
125B
330
122C
100
AcDbEntity
  8
250
  6
CONTINUOUS
100
AcDbLine
 10
2.23
 20
35.0
 30
0.0
 11
44.77
 21
35.0
 31
0.0
  0
INSERT
  5
125C
330
122C
100
AcDbEntity
  8
250
  6
CONTINUOUS
100
AcDbBlockReference
  2
_OPEN
 10
0.000000000000001
 20
35.0
 30
0.0
 41
2.229999999999999
 42
2.229999999999999
 43
2.229999999999999
 50
180.0
  0
INSERT
  5
125D
330
122C
100
AcDbEntity
  8
250
  6
CONTINUOUS
100
AcDbBlockReference
  2
_OPEN
 10
47.0
 20
35.0
 30
0.0
 41
2.229999999999999
 42
2.229999999999999
 43
2.229999999999999
  0
MTEXT
  5
125E
330
122C
100
AcDbEntity
  8
250
  6
CONTINUOUS
 62
    40
100
AcDbMText
 10
23.5
 20
37.5
 30
0.0
 40
3.0
 41
0.0
 71
     5
 72
     1
  1
\A1;47
1001
ACAD
1000
MTEXTBEGIN
1070
    73
1070
     1
1070
    44
1040
1.0
1070
    74
1070
     0
1000
MTEXTEND
  0
POINT
  5
125F
330
122C
100
AcDbEntity
  8
DEFPOINTS
  6
CONTINUOUS
 62
     0
100
AcDbPoint
 10
0.0
 20
18.5
 30
0.0
  0
POINT
  5
1260
330
122C
100
AcDbEntity
  8
DEFPOINTS
  6
CONTINUOUS
 62
     0
100
AcDbPoint
 10
47.0
 20
19.0
 30
0.0
  0
POINT
  5
1261
330
122C
100
AcDbEntity
  8
DEFPOINTS
  6
CONTINUOUS
 62
     0
100
AcDbPoint
 10
47.0
 20
35.0
 30
0.0
  0
ENDBLK
  5
1237
330
122C
100
AcDbEntity
  8
0
100
AcDbBlockEnd
  0
BLOCK
  5
1242
330
1238
100
AcDbEntity
  8
0
100
AcDbBlockBegin
  2
*D4
 70
     1
 10
0.0
 20
0.0
 30
0.0
  3
*D4
  1

  0
LINE
  5
1262
330
1238
100
AcDbEntity
  8
250
  6
CONTINUOUS
100
AcDbLine
 10
67.50000003923827
 20
-15.29999964440027
 30
0.0
 11
92.0
 21
-15.29999964440028
 31
0.0
  0
LINE
  5
1263
330
1238
100
AcDbEntity
  8
250
  6
CONTINUOUS
100
AcDbLine
 10
67.49999997810135
 20
15.30000068048592
 30
0.0
 11
92.0
 21
15.30000068048591
 31
0.0
  0
LINE
  5
1264
330
1238
100
AcDbEntity
  8
250
  6
CONTINUOUS
100
AcDbLine
 10
91.0
 20
-13.06999964440028
 30
0.0
 11
91.0
 21
13.07000068048591
 31
0.0
  0
INSERT
  5
1265
330
1238
100
AcDbEntity
  8
250
  6
CONTINUOUS
100
AcDbBlockReference
  2
_OPEN
 10
91.0
 20
-15.29999964440028
 30
0.0
 41
2.229999999999999
 42
2.229999999999999
 43
2.229999999999999
 50
270.0
  0
INSERT
  5
1266
330
1238
100
AcDbEntity
  8
250
  6
CONTINUOUS
100
AcDbBlockReference
  2
_OPEN
 10
91.0
 20
15.30000068048591
 30
0.0
 41
2.229999999999999
 42
2.229999999999999
 43
2.229999999999999
 50
90.0
  0
MTEXT
  5
1267
330
1238
100
AcDbEntity
  8
250
  6
CONTINUOUS
 62
    40
100
AcDbMText
 10
88.49999999999999
 20
0.0000005180428318
 30
0.0
 40
3.0
 41
0.0
 71
     5
 72
     1
  1
\A1;{\H3;\U+2205}31
 11
0.0000000000000001
 21
1.0
 31
0.0
1001
ACAD
1000
MTEXTBEGIN
1070
    73
1070
     1
1070
    44
1040
1.0
1070
    74
1070
     0
1000
MTEXTEND
  0
POINT
  5
1268
330
1238
100
AcDbEntity
  8
DEFPOINTS
  6
CONTINUOUS
 62
     0
100
AcDbPoint
 10
67.00000003923827
 20
-15.29999964440027
 30
0.0
  0
POINT
  5
1269
330
1238
100
AcDbEntity
  8
DEFPOINTS
  6
CONTINUOUS
 62
     0
100
AcDbPoint
 10
66.99999997810135
 20
15.30000068048592
 30
0.0
  0
POINT
  5
126A
330
1238
100
AcDbEntity
  8
DEFPOINTS
  6
CONTINUOUS
 62
     0
100
AcDbPoint
 10
91.0
 20
15.30000068048591
 30
0.0
  0
ENDBLK
  5
1243
330
1238
100
AcDbEntity
  8
0
100
AcDbBlockEnd
  0
BLOCK
  5
124E
330
1244
100
AcDbEntity
  8
0
100
AcDbBlockBegin
  2
*D5
 70
     1
 10
0.0
 20
0.0
 30
0.0
  3
*D5
  1

  0
LINE
  5
126B
330
1244
100
AcDbEntity
  8
250
  6
CONTINUOUS
100
AcDbLine
 10
47.0
 20
20.0
 30
0.0
 11
47.0
 21
36.0
 31
0.0
  0
LINE
  5
126C
330
1244
100
AcDbEntity
  8
250
  6
CONTINUOUS
100
AcDbLine
 10
72.0
 20
13.0
 30
0.0
 11
72.0
 21
36.0
 31
0.0
  0
LINE
  5
126D
330
1244
100
AcDbEntity
  8
250
  6
CONTINUOUS
100
AcDbLine
 10
49.23
 20
35.0
 30
0.0
 11
69.77
 21
35.0
 31
0.0
  0
INSERT
  5
126E
330
1244
100
AcDbEntity
  8
250
  6
CONTINUOUS
100
AcDbBlockReference
  2
_OPEN
 10
47.0
 20
35.0
 30
0.0
 41
2.229999999999999
 42
2.229999999999999
 43
2.229999999999999
 50
180.0
  0
INSERT
  5
126F
330
1244
100
AcDbEntity
  8
250
  6
CONTINUOUS
100
AcDbBlockReference
  2
_OPEN
 10
72.0
 20
35.0
 30
0.0
 41
2.229999999999999
 42
2.229999999999999
 43
2.229999999999999
  0
MTEXT
  5
1270
330
1244
100
AcDbEntity
  8
250
  6
CONTINUOUS
 62
    40
100
AcDbMText
 10
59.5
 20
37.5
 30
0.0
 40
3.0
 41
0.0
 71
     5
 72
     1
  1
\A1;25
1001
ACAD
1000
MTEXTBEGIN
1070
    73
1070
     1
1070
    44
1040
1.0
1070
    74
1070
     0
1000
MTEXTEND
  0
POINT
  5
1271
330
1244
100
AcDbEntity
  8
DEFPOINTS
  6
CONTINUOUS
 62
     0
100
AcDbPoint
 10
47.0
 20
19.5
 30
0.0
  0
POINT
  5
1272
330
1244
100
AcDbEntity
  8
DEFPOINTS
  6
CONTINUOUS
 62
     0
100
AcDbPoint
 10
72.0
 20
12.5
 30
0.0
  0
POINT
  5
1273
330
1244
100
AcDbEntity
  8
DEFPOINTS
  6
CONTINUOUS
 62
     0
100
AcDbPoint
 10
72.0
 20
35.0
 30
0.0
  0
ENDBLK
  5
124F
330
1244
100
AcDbEntity
  8
0
100
AcDbBlockEnd
  0
ENDSEC
  0
SECTION
  2
ENTITIES
  0
INSERT
  5
1213
330
1A
100
AcDbEntity
  8
240
100
AcDbBlockReference
  2
A$C148B3362
 10
0.0
 20
0.0
 30
0.0
  0
DIMENSION
  5
1214
330
1A
100
AcDbEntity
  8
250
  6
CONTINUOUS
100
AcDbDimension
  2
*D2
 10
72.0
 20
42.0
 30
0.0
 11
36.0
 21
44.5
 31
0.0
 70
    32
  3
BIGT
100
AcDbAlignedDimension
 13
0.0
 23
18.5
 33
0.0
 14
72.0
 24
13.0
 34
0.0
100
AcDbRotatedDimension
1001
ACAD
1000
DSTYLE
1002
{
1070
    78
1070
     8
1070
   140
1040
3.0
1002
}
  0
DIMENSION
  5
1215
330
1A
100
AcDbEntity
  8
250
  6
CONTINUOUS
100
AcDbDimension
  2
*D3
 10
47.0
 20
35.0
 30
0.0
 11
23.5
 21
37.5
 31
0.0
 70
    32
  3
BIGT
100
AcDbAlignedDimension
 13
0.0
 23
18.5
 33
0.0
 14
47.0
 24
19.0
 34
0.0
100
AcDbRotatedDimension
1001
ACAD
1000
DSTYLE
1002
{
1070
    78
1070
     8
1070
   140
1040
3.0
1002
}
  0
LINE
  5
1216
330
1A
100
AcDbEntity
  8
250
  6
CONTINUOUS
100
AcDbLine
 10
-21.32741343928543
 20
-21.8720668114048
 30
0.0
 11
-35.47027058214257
 21
-21.8720668114048
 31
0.0
1001
ITEMNAME
1000
LNSP2
  0
MTEXT
  5
1217
330
1A
100
AcDbEntity
  8
250
  6
CONTINUOUS
 62
    40
100
AcDbMText
 10
-32.47027058214257
 20
-20.8720668114048
 30
0.0
 40
3.0
 41
0.0
 71
     7
 72
     1
  1
CK4
  7
YOKO
1001
ITEMNAME
1000
LNSP3
1001
ACAD
1000
MTEXTBEGIN
1070
    73
1070
     1
1070
    44
1040
1.0
1070
    74
1070
     0
1000
MTEXTEND
  0
LEADER
  5
1218
330
1A
100
AcDbEntity
  8
250
  6
CONTINUOUS
100
AcDbLeader
  3
BIGT
 76
     2
 10
-15.05042273907327
 20
-11.00000000000002
 30
0.0
 10
-21.32741343928543
 20
-21.8720668114048
 30
0.0
1001
ACAD
1000
DSTYLE
1002
{
1070
     5
1000
OPEN
1070
    78
1070
     8
1070
   140
1040
3.0
1002
}
  0
TEXT
  5
1219
330
1A
100
AcDbEntity
  8
241
100
AcDbText
 10
-21.0
 20
56.0
 30
0.0
 40
5.0
  1
CK4-STC20-72
  7
YOKO
 11
-21.0
 21
56.0
 31
0.0
100
AcDbText
 73
     1
  0
DIMENSION
  5
121A
330
1A
100
AcDbEntity
  8
250
  6
CONTINUOUS
100
AcDbDimension
  2
*D4
 10
91.0
 20
15.30000068048591
 30
0.0
 11
88.49999999999999
 21
0.0000005180428318
 31
0.0
 70
    32
  1
{\H3;\U+2205}31
  3
BIGT
100
AcDbAlignedDimension
 13
67.00000003923827
 23
-15.29999964440027
 33
0.0
 14
66.99999997810135
 24
15.30000068048592
 34
0.0
 50
90.0
100
AcDbRotatedDimension
1001
ACAD
1000
DSTYLE
1002
{
1070
    78
1070
     8
1070
   140
1040
3.0
1002
}
  0
LINE
  5
121B
330
1A
100
AcDbEntity
  8
250
  6
CONTINUOUS
100
AcDbLine
 10
68.99657694800438
 20
-26.82303361774222
 30
0.0
 11
102.4537198051472
 21
-26.82303361774222
 31
0.0
1001
ITEMNAME
1000
LNSP2
  0
MTEXT
  5
121C
330
1A
100
AcDbEntity
  8
250
  6
CONTINUOUS
 62
    40
100
AcDbMText
 10
71.99657694800439
 20
-27.82303361774222
 30
0.0
 40
3.0
 41
0.0
 71
     1
 72
     1
  1
d=M14～M20
  7
YOKO
1001
ITEMNAME
1000
LNSP4
1001
ACAD
1000
MTEXTBEGIN
1070
    73
1070
     1
1070
    44
1040
1.0
1070
    74
1070
     0
1000
MTEXTEND
  0
LEADER
  5
121D
330
1A
100
AcDbEntity
  8
250
  6
CONTINUOUS
100
AcDbLeader
  3
BIGT
 76
     2
 10
62.34375038691979
 20
-15.29999999999998
 30
0.0
 10
68.99657694800438
 20
-26.82303361774222
 30
0.0
1001
ACAD
1000
DSTYLE
1002
{
1070
     5
1000
OPEN
1070
    78
1070
     8
1070
   140
1040
3.0
1002
}
  0
MTEXT
  5
121E
330
1A
100
AcDbEntity
  8
250
  6
CONTINUOUS
 62
    40
100
AcDbMText
 10
71.99657694800439
 20
-25.82303361774222
 30
0.0
 40
3.0
 41
0.0
 71
     7
 72
     1
  1
TC20-d
  7
YOKO
1001
ITEMNAME
1000
LNSP3
1001
ACAD
1000
MTEXTBEGIN
1070
    73
1070
     1
1070
    44
1040
1.0
1070
    74
1070
     0
1000
MTEXTEND
  0
DIMENSION
  5
121F
330
1A
100
AcDbEntity
  8
250
  6
CONTINUOUS
100
AcDbDimension
  2
*D5
 10
72.0
 20
35.0
 30
0.0
 11
59.5
 21
37.5
 31
0.0
 70
    32
  3
BIGT
100
AcDbAlignedDimension
 13
47.0
 23
19.5
 33
0.0
 14
72.0
 24
12.5
 34
0.0
100
AcDbRotatedDimension
1001
ACAD
1000
DSTYLE
1002
{
1070
    78
1070
     8
1070
   140
1040
3.0
1002
}
  0
VIEWPORT
  5
22
330
17
100
AcDbEntity
 67
     1
  8
0
100
AcDbViewport
 10
261.5176991150442
 20
148.5
 30
0.0
 40
523.0353982300885
 41
297.0
 68
     1
 69
     1
1001
ACAD
1000
MVIEW
1002
{
1070
    16
1010
0.0
1020
0.0
1030
0.0
1010
0.0
1020
0.0
1030
1.0
1040
0.0
1040
297.0
1040
261.5176991150442
1040
148.5
1040
50.0
1040
0.0
1040
0.0
1070
     0
1070
   100
1070
     1
1070
     1
1070
     0
1070
     0
1070
     0
1070
     0
1040
0.0
1040
0.0
1040
0.0
1040
1.0
1040
1.0
1040
10.0
1040
10.0
1070
     0
1002
{
1002
}
1002
}
  0
ENDSEC
  0
SECTION
  2
OBJECTS
  0
DICTIONARY
  5
C
330
0
100
AcDbDictionary
  3
ACAD_GROUP
350
D
  3
ACAD_LAYOUT
350
565
  3
ACAD_MLINESTYLE
350
E
  3
ACAD_PLOTSETTINGS
350
566
  3
ACAD_PLOTSTYLENAME
350
563
  3
ACDBHEADERROUNDTRIPXREC
350
1281
  3
ACDBVARIABLEDICTIONARY
350
FFF
  3
GRADE_DWG
350
540
  0
DICTIONARY
  5
12A4
330
1A
100
AcDbDictionary
280
     1
  3
ACAD_LAYOUTSELFREF
360
12A5
  0
DICTIONARY
  5
12A2
330
17
100
AcDbDictionary
280
     1
  3
ACAD_LAYOUTSELFREF
360
12A3
  0
DICTIONARY
  5
D
102
{ACAD_REACTORS
330
C
102
}
330
C
100
AcDbDictionary
  3
DREC-1
350
5FC
  3
DREC-2
350
654
  3
DREC-3
350
673
  3
LNSP-1
350
AF7
  3
LNSP-2
350
B01
  3
LNSP-3
350
1027
  0
DICTIONARY
  5
565
102
{ACAD_REACTORS
330
C
102
}
330
C
100
AcDbDictionary
  0
DICTIONARY
  5
E
102
{ACAD_REACTORS
330
C
102
}
330
C
100
AcDbDictionary
  3
STANDARD
350
13
  0
DICTIONARY
  5
566
102
{ACAD_REACTORS
330
C
102
}
330
C
100
AcDbDictionary
  0
ACDBDICTIONARYWDFLT
  5
563
102
{ACAD_REACTORS
330
C
102
}
330
C
100
AcDbDictionary
281
     1
  3
Normal
350
564
100
AcDbDictionaryWithDefault
340
564
  0
DICTIONARY
  5
1281
102
{ACAD_REACTORS
330
C
102
}
330
C
100
AcDbDictionary
  3
CEPSNTYPE
350
128B
  3
DIMSTYLEDATA
350
128F
  3
FINGERPRINTGUID
350
128C
  3
HYPERLINKBASE
350
1284
  3
INSUNITS
350
128A
  3
LAYOUTDICT
350
1286
  3
LWETCUNION
350
1289
  3
PLOTSETDICT
350
1287
  3
PLOTSTYLNAMDICT
350
1288
  3
PSVPSCALE
350
128E
  3
PUCSBASE
350
1292
  3
PUCSORGBACK
350
1298
  3
PUCSORGBOTTOM
350
1294
  3
PUCSORGFRONT
350
1297
  3
PUCSORGLEFT
350
1295
  3
PUCSORGRIGHT
350
1296
  3
PUCSORGTOP
350
1293
  3
PUCSORTHOREF
350
1290
  3
PUCSORTHOVIEW
350
1291
  3
STYLESHEET
350
1285
  3
TSTACKALIGN
350
1282
  3
TSTACKSIZE
350
1283
  3
UCSBASE
350
129B
  3
UCSORGBACK
350
12A1
  3
UCSORGBOTTOM
350
129D
  3
UCSORGFRONT
350
12A0
  3
UCSORGLEFT
350
129E
  3
UCSORGRIGHT
350
129F
  3
UCSORGTOP
350
129C
  3
UCSORTHOREF
350
1299
  3
UCSORTHOVIEW
350
129A
  3
VERSIONGUID
350
128D
  0
DICTIONARY
  5
FFF
102
{ACAD_REACTORS
330
C
102
}
330
C
100
AcDbDictionary
  3
SORTENTS
350
1000
  0
DICTIONARY
  5
540
102
{ACAD_REACTORS
330
C
102
}
330
C
100
AcDbDictionary
  3
VERSION
350
560
  0
XRECORD
  5
12A5
102
{ACAD_REACTORS
330
12A4
102
}
330
12A4
100
AcDbXrecord
340
1A
  0
XRECORD
  5
12A3
102
{ACAD_REACTORS
330
12A2
102
}
330
12A2
100
AcDbXrecord
340
17
  0
GROUP
  5
5FC
102
{ACAD_REACTORS
330
D
102
}
330
D
100
AcDbGroup
300

 70
     0
 71
     1
1001
GRPNAME
1000
DREC-
1001
GPARA
1000
xsiz
1000
44.182
1000
ysiz
1000
40.677
1000
angl
1000
0
1000
ctyp
1000
0
1000
csiz
1000
5
1000
lfnt
1000
cont
1000
hcnt
1000
hoff
1000
vcnt
1000
voff
1000
opnt
1000
4
1000
dxpt
1000
0
1000
dypt
1000
0
  0
GROUP
  5
654
102
{ACAD_REACTORS
330
D
102
}
330
D
100
AcDbGroup
300

 70
     0
 71
     1
1001
GRPNAME
1000
DREC-
1001
GPARA
1000
xsiz
1000
54.592
1000
ysiz
1000
53.036
1000
angl
1000
0
1000
ctyp
1000
0
1000
csiz
1000
5
1000
lfnt
1000
cont
1000
hcnt
1000
hoff
1000
vcnt
1000
voff
1000
opnt
1000
4
1000
dxpt
1000
0
1000
dypt
1000
0
  0
GROUP
  5
673
102
{ACAD_REACTORS
330
D
102
}
330
D
100
AcDbGroup
300

 70
     0
 71
     1
1001
GRPNAME
1000
DREC-
1001
GPARA
1000
xsiz
1000
30.363
1000
ysiz
1000
36.175
1000
angl
1000
0
1000
ctyp
1000
0
1000
csiz
1000
5
1000
lfnt
1000
cont
1000
hcnt
1000
hoff
1000
vcnt
1000
voff
1000
opnt
1000
4
1000
dxpt
1000
0
1000
dypt
1000
0
  0
GROUP
  5
AF7
102
{ACAD_REACTORS
330
D
102
}
330
D
100
AcDbGroup
300

 70
     0
 71
     1
1001
GRPNAME
1000
LNSP
  0
GROUP
  5
B01
102
{ACAD_REACTORS
330
D
102
}
330
D
100
AcDbGroup
300

 70
     0
 71
     1
1001
GRPNAME
1000
LNSP
  0
GROUP
  5
1027
102
{ACAD_REACTORS
330
D
102
}
330
D
100
AcDbGroup
300

 70
     0
 71
     1
1001
GRPNAME
1000
LNSP
  0
MLINESTYLE
  5
13
102
{ACAD_REACTORS
330
E
102
}
330
E
100
AcDbMlineStyle
  2
STANDARD
 70
     0
  3

 62
     0
 51
90.0
 52
90.0
 71
     2
 49
0.5
 62
   256
  6
BYLAYER
 49
-0.5
 62
   256
  6
BYLAYER
  0
ACDBPLACEHOLDER
  5
564
102
{ACAD_REACTORS
330
563
102
}
330
563
100
AcDbPlaceHolder
280
     0
  0
XRECORD
  5
128B
102
{ACAD_REACTORS
330
1281
102
}
330
1281
100
AcDbXrecord
 90
        0
  0
XRECORD
  5
128F
102
{ACAD_REACTORS
330
1281
102
}
330
1281
100
AcDbXrecord
1000
DSTYLE
1002
{
1070
    79
 70
     2
1070
   179
 70
     3
1070
   289
 70
     2
1070
   341
340
594
1070
   342
340
594
1070
   371
 70
    -1
1070
   372
 70
    -1
1002
}
  0
XRECORD
  5
128C
102
{ACAD_REACTORS
330
1281
102
}
330
1281
100
AcDbXrecord
  1
{51294030-9CB4-11D3-8E18-00A0C925D94D}
  0
XRECORD
  5
1284
102
{ACAD_REACTORS
330
1281
102
}
330
1281
100
AcDbXrecord
  1

  0
XRECORD
  5
128A
102
{ACAD_REACTORS
330
1281
102
}
330
1281
100
AcDbXrecord
 90
        0
  0
XRECORD
  5
1286
102
{ACAD_REACTORS
330
1281
102
}
330
1281
100
AcDbXrecord
340
565
  0
XRECORD
  5
1289
102
{ACAD_REACTORS
330
1281
102
}
330
1281
100
AcDbXrecord
 90
    10781
  0
XRECORD
  5
1287
102
{ACAD_REACTORS
330
1281
102
}
330
1281
100
AcDbXrecord
340
566
  0
XRECORD
  5
1288
102
{ACAD_REACTORS
330
1281
102
}
330
1281
100
AcDbXrecord
340
563
  0
XRECORD
  5
128E
102
{ACAD_REACTORS
330
1281
102
}
330
1281
100
AcDbXrecord
 40
0.0
  0
XRECORD
  5
1292
102
{ACAD_REACTORS
330
1281
102
}
330
1281
100
AcDbXrecord
340
0
  0
XRECORD
  5
1298
102
{ACAD_REACTORS
330
1281
102
}
330
1281
100
AcDbXrecord
 10
0.0
 20
0.0
 30
0.0
  0
XRECORD
  5
1294
102
{ACAD_REACTORS
330
1281
102
}
330
1281
100
AcDbXrecord
 10
0.0
 20
0.0
 30
0.0
  0
XRECORD
  5
1297
102
{ACAD_REACTORS
330
1281
102
}
330
1281
100
AcDbXrecord
 10
0.0
 20
0.0
 30
0.0
  0
XRECORD
  5
1295
102
{ACAD_REACTORS
330
1281
102
}
330
1281
100
AcDbXrecord
 10
0.0
 20
0.0
 30
0.0
  0
XRECORD
  5
1296
102
{ACAD_REACTORS
330
1281
102
}
330
1281
100
AcDbXrecord
 10
0.0
 20
0.0
 30
0.0
  0
XRECORD
  5
1293
102
{ACAD_REACTORS
330
1281
102
}
330
1281
100
AcDbXrecord
 10
0.0
 20
0.0
 30
0.0
  0
XRECORD
  5
1290
102
{ACAD_REACTORS
330
1281
102
}
330
1281
100
AcDbXrecord
340
0
  0
XRECORD
  5
1291
102
{ACAD_REACTORS
330
1281
102
}
330
1281
100
AcDbXrecord
 70
     0
  0
XRECORD
  5
1285
102
{ACAD_REACTORS
330
1281
102
}
330
1281
100
AcDbXrecord
  1
big.ctb
  0
XRECORD
  5
1282
102
{ACAD_REACTORS
330
1281
102
}
330
1281
100
AcDbXrecord
 90
        1
  0
XRECORD
  5
1283
102
{ACAD_REACTORS
330
1281
102
}
330
1281
100
AcDbXrecord
 90
       70
  0
XRECORD
  5
129B
102
{ACAD_REACTORS
330
1281
102
}
330
1281
100
AcDbXrecord
340
0
  0
XRECORD
  5
12A1
102
{ACAD_REACTORS
330
1281
102
}
330
1281
100
AcDbXrecord
 10
0.0
 20
0.0
 30
0.0
  0
XRECORD
  5
129D
102
{ACAD_REACTORS
330
1281
102
}
330
1281
100
AcDbXrecord
 10
0.0
 20
0.0
 30
0.0
  0
XRECORD
  5
12A0
102
{ACAD_REACTORS
330
1281
102
}
330
1281
100
AcDbXrecord
 10
0.0
 20
0.0
 30
0.0
  0
XRECORD
  5
129E
102
{ACAD_REACTORS
330
1281
102
}
330
1281
100
AcDbXrecord
 10
0.0
 20
0.0
 30
0.0
  0
XRECORD
  5
129F
102
{ACAD_REACTORS
330
1281
102
}
330
1281
100
AcDbXrecord
 10
0.0
 20
0.0
 30
0.0
  0
XRECORD
  5
129C
102
{ACAD_REACTORS
330
1281
102
}
330
1281
100
AcDbXrecord
 10
0.0
 20
0.0
 30
0.0
  0
XRECORD
  5
1299
102
{ACAD_REACTORS
330
1281
102
}
330
1281
100
AcDbXrecord
340
0
  0
XRECORD
  5
129A
102
{ACAD_REACTORS
330
1281
102
}
330
1281
100
AcDbXrecord
 70
     0
  0
XRECORD
  5
128D
102
{ACAD_REACTORS
330
1281
102
}
330
1281
100
AcDbXrecord
  1
{CA454548-324D-11D7-96A2-006094EB2375}
  0
DICTIONARYVAR
  5
1000
102
{ACAD_REACTORS
330
FFF
102
}
330
FFF
100
DictionaryVariables
280
     0
  1
96
  0
XRECORD
  5
560
102
{ACAD_REACTORS
330
540
102
}
330
540
100
AcDbXrecord
  1
2.0.0
  0
ENDSEC
  0
EOF
