  0
SECTION
  2
HEADER
  9
$ACADVER
  1
AC1015
  9
$ACADMAINTVER
 70
    20
  9
$DWGCODEPAGE
  3
ANSI_932
  9
$INSBASE
 10
0.0
 20
0.0
 30
0.0
  9
$EXTMIN
 10
-33.46529737374635
 20
-21.03460762301722
 30
-0.0000000349181948
  9
$EXTMAX
 10
92.00691400821165
 20
54.01574901774512
 30
0.0000000814935746
  9
$LIMMIN
 10
0.0
 20
0.0
  9
$LIMMAX
 10
297.0
 20
210.0
  9
$ORTHOMODE
 70
     1
  9
$REGENMODE
 70
     1
  9
$FILLMODE
 70
     1
  9
$QTEXTMODE
 70
     0
  9
$MIRRTEXT
 70
     1
  9
$LTSCALE
 40
10.0
  9
$ATTMODE
 70
     1
  9
$TEXTSIZE
 40
3.0
  9
$TRACEWID
 40
1.0
  9
$TEXTSTYLE
  7
YOKO
  9
$CLAYER
  8
245
  9
$CELTYPE
  6
BYLAYER
  9
$CECOLOR
 62
   256
  9
$CELTSCALE
 40
1.0
  9
$DISPSILH
 70
     0
  9
$DIMSCALE
 40
1.0
  9
$DIMASZ
 40
2.0
  9
$DIMEXO
 40
0.5
  9
$DIMDLI
 40
2.5
  9
$DIMRND
 40
0.0
  9
$DIMDLE
 40
0.0
  9
$DIMEXE
 40
1.0
  9
$DIMTP
 40
0.0
  9
$DIMTM
 40
0.0
  9
$DIMTXT
 40
2.799999999999999
  9
$DIMCEN
 40
0.0
  9
$DIMTSZ
 40
0.0
  9
$DIMTOL
 70
     0
  9
$DIMLIM
 70
     0
  9
$DIMTIH
 70
     0
  9
$DIMTOH
 70
     0
  9
$DIMSE1
 70
     0
  9
$DIMSE2
 70
     0
  9
$DIMTAD
 70
     3
  9
$DIMZIN
 70
     8
  9
$DIMBLK
  1

  9
$DIMASO
 70
     1
  9
$DIMSHO
 70
     1
  9
$DIMPOST
  1

  9
$DIMAPOST
  1

  9
$DIMALT
 70
     0
  9
$DIMALTD
 70
     2
  9
$DIMALTF
 40
25.4
  9
$DIMLFAC
 40
1.0
  9
$DIMTOFL
 70
     1
  9
$DIMTVP
 40
0.0
  9
$DIMTIX
 70
     1
  9
$DIMSOXD
 70
     0
  9
$DIMSAH
 70
     1
  9
$DIMBLK1
  1
Open
  9
$DIMBLK2
  1
Open
  9
$DIMSTYLE
  2
BIGT
  9
$DIMCLRD
 70
   256
  9
$DIMCLRE
 70
   256
  9
$DIMCLRT
 70
    40
  9
$DIMTFAC
 40
1.0
  9
$DIMGAP
 40
1.0
  9
$DIMJUST
 70
     0
  9
$DIMSD1
 70
     0
  9
$DIMSD2
 70
     0
  9
$DIMTOLJ
 70
     1
  9
$DIMTZIN
 70
     8
  9
$DIMALTZ
 70
     0
  9
$DIMALTTZ
 70
     0
  9
$DIMUPT
 70
     0
  9
$DIMDEC
 70
     3
  9
$DIMTDEC
 70
     3
  9
$DIMALTU
 70
     2
  9
$DIMALTTD
 70
     2
  9
$DIMTXSTY
  7
STANDARD
  9
$DIMAUNIT
 70
     0
  9
$DIMADEC
 70
     3
  9
$DIMALTRND
 40
0.0
  9
$DIMAZIN
 70
     2
  9
$DIMDSEP
 70
    46
  9
$DIMATFIT
 70
     2
  9
$DIMFRAC
 70
     0
  9
$DIMLDRBLK
  1
Open
  9
$DIMLUNIT
 70
     2
  9
$DIMLWD
 70
    -1
  9
$DIMLWE
 70
    -1
  9
$DIMTMOVE
 70
     0
  9
$LUNITS
 70
     2
  9
$LUPREC
 70
     3
  9
$SKETCHINC
 40
1.0
  9
$FILLETRAD
 40
1.0
  9
$AUNITS
 70
     0
  9
$AUPREC
 70
     3
  9
$MENU
  1
.
  9
$ELEVATION
 40
0.0
  9
$PELEVATION
 40
0.0
  9
$THICKNESS
 40
0.0
  9
$LIMCHECK
 70
     0
  9
$CHAMFERA
 40
10.0
  9
$CHAMFERB
 40
10.0
  9
$CHAMFERC
 40
0.0
  9
$CHAMFERD
 40
0.0
  9
$SKPOLY
 70
     0
  9
$TDCREATE
 40
2456997.629010417
  9
$TDUCREATE
 40
2456997.254010417
  9
$TDUPDATE
 40
2456997.672562569
  9
$TDUUPDATE
 40
2456997.297562570
  9
$TDINDWG
 40
0.0435572106
  9
$TDUSRTIMER
 40
0.0435572106
  9
$USRTIMER
 70
     1
  9
$ANGBASE
 50
0.0
  9
$ANGDIR
 70
     0
  9
$PDMODE
 70
     1
  9
$PDSIZE
 40
-5.0
  9
$PLINEWID
 40
0.0
  9
$SPLFRAME
 70
     0
  9
$SPLINETYPE
 70
     6
  9
$SPLINESEGS
 70
     8
  9
$HANDSEED
  5
E65
  9
$SURFTAB1
 70
     6
  9
$SURFTAB2
 70
     6
  9
$SURFTYPE
 70
     6
  9
$SURFU
 70
     6
  9
$SURFV
 70
     6
  9
$UCSBASE
  2

  9
$UCSNAME
  2

  9
$UCSORG
 10
0.0
 20
0.0
 30
0.0
  9
$UCSXDIR
 10
1.0
 20
0.0
 30
0.0
  9
$UCSYDIR
 10
0.0
 20
1.0
 30
0.0
  9
$UCSORTHOREF
  2

  9
$UCSORTHOVIEW
 70
     0
  9
$UCSORGTOP
 10
0.0
 20
0.0
 30
0.0
  9
$UCSORGBOTTOM
 10
0.0
 20
0.0
 30
0.0
  9
$UCSORGLEFT
 10
0.0
 20
0.0
 30
0.0
  9
$UCSORGRIGHT
 10
0.0
 20
0.0
 30
0.0
  9
$UCSORGFRONT
 10
0.0
 20
0.0
 30
0.0
  9
$UCSORGBACK
 10
0.0
 20
0.0
 30
0.0
  9
$PUCSBASE
  2

  9
$PUCSNAME
  2

  9
$PUCSORG
 10
0.0
 20
0.0
 30
0.0
  9
$PUCSXDIR
 10
1.0
 20
0.0
 30
0.0
  9
$PUCSYDIR
 10
0.0
 20
1.0
 30
0.0
  9
$PUCSORTHOREF
  2

  9
$PUCSORTHOVIEW
 70
     0
  9
$PUCSORGTOP
 10
0.0
 20
0.0
 30
0.0
  9
$PUCSORGBOTTOM
 10
0.0
 20
0.0
 30
0.0
  9
$PUCSORGLEFT
 10
0.0
 20
0.0
 30
0.0
  9
$PUCSORGRIGHT
 10
0.0
 20
0.0
 30
0.0
  9
$PUCSORGFRONT
 10
0.0
 20
0.0
 30
0.0
  9
$PUCSORGBACK
 10
0.0
 20
0.0
 30
0.0
  9
$USERI1
 70
     1
  9
$USERI2
 70
     0
  9
$USERI3
 70
     0
  9
$USERI4
 70
     0
  9
$USERI5
 70
     0
  9
$USERR1
 40
0.0
  9
$USERR2
 40
0.0
  9
$USERR3
 40
0.0
  9
$USERR4
 40
0.0
  9
$USERR5
 40
0.0
  9
$WORLDVIEW
 70
     1
  9
$SHADEDGE
 70
     3
  9
$SHADEDIF
 70
    70
  9
$TILEMODE
 70
     1
  9
$MAXACTVP
 70
    16
  9
$PINSBASE
 10
0.0
 20
0.0
 30
0.0
  9
$PLIMCHECK
 70
     0
  9
$PEXTMIN
 10
1.000000000000000E+20
 20
1.000000000000000E+20
 30
1.000000000000000E+20
  9
$PEXTMAX
 10
-1.000000000000000E+20
 20
-1.000000000000000E+20
 30
-1.000000000000000E+20
  9
$PLIMMIN
 10
0.0
 20
0.0
  9
$PLIMMAX
 10
420.0
 20
297.0
  9
$UNITMODE
 70
     0
  9
$VISRETAIN
 70
     0
  9
$PLINEGEN
 70
     0
  9
$PSLTSCALE
 70
     1
  9
$TREEDEPTH
 70
  3020
  9
$CMLSTYLE
  2
STANDARD
  9
$CMLJUST
 70
     0
  9
$CMLSCALE
 40
1.0
  9
$PROXYGRAPHICS
 70
     1
  9
$MEASUREMENT
 70
     1
  9
$CELWEIGHT
370
    -1
  9
$ENDCAPS
280
     0
  9
$JOINSTYLE
280
     0
  9
$LWDISPLAY
290
     0
  9
$INSUNITS
 70
     0
  9
$HYPERLINKBASE
  1

  9
$STYLESHEET
  1
big.ctb
  9
$XEDIT
290
     1
  9
$CEPSNTYPE
380
     0
  9
$PSTYLEMODE
290
     1
  9
$FINGERPRINTGUID
  2
{7017BC76-7DB2-4C14-9DC7-D1948B616B80}
  9
$VERSIONGUID
  2
{091158AC-A1B7-45C5-A829-1F32B6405214}
  9
$EXTNAMES
290
     1
  9
$PSVPSCALE
 40
0.0
  9
$OLESTARTUP
290
     0
  0
ENDSEC
  0
SECTION
  2
CLASSES
  0
CLASS
  1
ACDBDICTIONARYWDFLT
  2
AcDbDictionaryWithDefault
  3
ObjectDBX Classes
 90
        0
280
     0
281
     0
  0
CLASS
  1
ACDBPLACEHOLDER
  2
AcDbPlaceHolder
  3
ObjectDBX Classes
 90
        0
280
     0
281
     0
  0
CLASS
  1
LAYOUT
  2
AcDbLayout
  3
ObjectDBX Classes
 90
        0
280
     0
281
     0
  0
CLASS
  1
PLOTSETTINGS
  2
AcDbPlotSettings
  3
ObjectDBX Classes
 90
        0
280
     0
281
     0
  0
CLASS
  1
MATERIAL
  2
AcDbMaterial
  3
ObjectDBX Classes
 90
     1024
280
     0
281
     0
  0
CLASS
  1
VISUALSTYLE
  2
AcDbVisualStyle
  3
ObjectDBX Classes
 90
     4095
280
     0
281
     0
  0
CLASS
  1
TABLESTYLE
  2
AcDbTableStyle
  3
ObjectDBX Classes
 90
     4095
280
     0
281
     0
  0
CLASS
  1
SORTENTSTABLE
  2
AcDbSortentsTable
  3
ObjectDBX Classes
 90
        0
280
     0
281
     0
  0
CLASS
  1
DICTIONARYVAR
  2
AcDbDictionaryVar
  3
ObjectDBX Classes
 90
        0
280
     0
281
     0
  0
ENDSEC
  0
SECTION
  2
TABLES
  0
TABLE
  2
VPORT
  5
8
330
0
100
AcDbSymbolTable
 70
     1
  0
VPORT
  5
77A
330
8
100
AcDbSymbolTableRecord
100
AcDbViewportTableRecord
  2
*Active
 70
     0
 10
0.0
 20
0.0
 11
1.0
 21
1.0
 12
29.27080831723264
 22
16.49057069736395
 13
0.0
 23
0.0
 14
7.0
 24
7.0
 15
7.0
 25
7.0
 16
0.0
 26
0.0
 36
1.0
 17
0.0
 27
0.0
 37
0.0
 40
75.49931191478485
 41
1.755489021956087
 42
50.0
 43
0.0
 44
0.0
 50
0.0
 51
0.0
 71
     0
 72
 20000
 73
     1
 74
     0
 75
     0
 76
     0
 77
     0
 78
     0
281
     0
 65
     1
110
0.0
120
0.0
130
0.0
111
1.0
121
0.0
131
0.0
112
0.0
122
1.0
132
0.0
 79
     0
146
0.0
  0
ENDTAB
  0
TABLE
  2
LTYPE
  5
5
330
0
100
AcDbSymbolTable
 70
    39
  0
LTYPE
  5
14
330
5
100
AcDbSymbolTableRecord
100
AcDbLinetypeTableRecord
  2
BYBLOCK
 70
     0
  3

 72
    65
 73
     0
 40
0.0
  0
LTYPE
  5
15
330
5
100
AcDbSymbolTableRecord
100
AcDbLinetypeTableRecord
  2
BYLAYER
 70
     0
  3

 72
    65
 73
     0
 40
0.0
  0
LTYPE
  5
16
330
5
100
AcDbSymbolTableRecord
100
AcDbLinetypeTableRecord
  2
CONTINUOUS
 70
     0
  3
Solid line
 72
    65
 73
     0
 40
0.0
  0
LTYPE
  5
258
330
5
100
AcDbSymbolTableRecord
100
AcDbLinetypeTableRecord
  2
CENTER2
 70
     0
  3
___ _ ___ _ ___ _ ___ _ ___ _ ___ _ ___ _ ___ _
 72
    65
 73
     4
 40
1.125
 49
0.75
 74
     0
 49
-0.125
 74
     0
 49
0.125
 74
     0
 49
-0.125
 74
     0
  0
LTYPE
  5
25C
330
5
100
AcDbSymbolTableRecord
100
AcDbLinetypeTableRecord
  2
HIDDEN2
 70
     0
  3
_ _ _ _ _ _ _ _ _ _ _ _ _ _ _ _ _ _ _ _ _ _ _ _
 72
    65
 73
     2
 40
0.1875
 49
0.125
 74
     0
 49
-0.0625
 74
     0
  0
ENDTAB
  0
TABLE
  2
LAYER
  5
2
102
{ACAD_XDICTIONARY
360
9FF
102
}
330
0
100
AcDbSymbolTable
 70
    32
  0
LAYER
  5
F
330
2
100
AcDbSymbolTableRecord
100
AcDbLayerTableRecord
  2
0
 70
     0
 62
     7
  6
CONTINUOUS
370
    -3
390
564
  0
LAYER
  5
1AA
330
2
100
AcDbSymbolTableRecord
100
AcDbLayerTableRecord
  2
240
 70
     0
 62
     4
  6
CONTINUOUS
370
    -3
390
564
  0
LAYER
  5
1AB
330
2
100
AcDbSymbolTableRecord
100
AcDbLayerTableRecord
  2
241
 70
     0
 62
   211
  6
CONTINUOUS
370
    -3
390
564
  0
LAYER
  5
1AC
330
2
100
AcDbSymbolTableRecord
100
AcDbLayerTableRecord
  2
242
 70
     0
 62
     3
  6
CONTINUOUS
370
    -3
390
564
  0
LAYER
  5
1AF
330
2
100
AcDbSymbolTableRecord
100
AcDbLayerTableRecord
  2
245
 70
     0
 62
     2
  6
CENTER2
370
    -3
390
564
  0
LAYER
  5
21E
330
2
100
AcDbSymbolTableRecord
100
AcDbLayerTableRecord
  2
250
 70
     0
 62
     3
  6
CONTINUOUS
370
    -3
390
564
  0
LAYER
  5
5C4
330
2
100
AcDbSymbolTableRecord
100
AcDbLayerTableRecord
  2
Defpoints
 70
     0
 62
     7
  6
CONTINUOUS
290
     0
370
    -3
390
564
  0
LAYER
  5
6BF
330
2
100
AcDbSymbolTableRecord
100
AcDbLayerTableRecord
  2
252
 70
     0
 62
     3
  6
CONTINUOUS
370
    -3
390
564
  0
ENDTAB
  0
TABLE
  2
STYLE
  5
3
330
0
100
AcDbSymbolTable
 70
     3
  0
STYLE
  5
10
330
3
100
AcDbSymbolTableRecord
100
AcDbTextStyleTableRecord
  2
STANDARD
 70
     0
 40
0.0
 41
1.0
 50
0.0
 71
     0
 42
2.799999999999999
  3
romans.shx
  4
BIGFONT.SHX
  0
STYLE
  5
339
330
3
100
AcDbSymbolTableRecord
100
AcDbTextStyleTableRecord
  2
YOKO
 70
     0
 40
0.0
 41
1.0
 50
0.0
 71
     0
 42
3.0
  3
romans.shx
  4
extfont.shx
  0
ENDTAB
  0
TABLE
  2
VIEW
  5
6
330
0
100
AcDbSymbolTable
 70
     0
  0
ENDTAB
  0
TABLE
  2
UCS
  5
7
330
0
100
AcDbSymbolTable
 70
     0
  0
ENDTAB
  0
TABLE
  2
APPID
  5
9
330
0
100
AcDbSymbolTable
 70
     9
  0
APPID
  5
11
330
9
100
AcDbSymbolTableRecord
100
AcDbRegAppTableRecord
  2
ACAD
 70
     0
  0
APPID
  5
1B1
330
9
100
AcDbSymbolTableRecord
100
AcDbRegAppTableRecord
  2
GLOBAL
 70
     0
  0
APPID
  5
2A4
330
9
100
AcDbSymbolTableRecord
100
AcDbRegAppTableRecord
  2
DETAIL
 70
     0
  0
APPID
  5
5FD
330
9
100
AcDbSymbolTableRecord
100
AcDbRegAppTableRecord
  2
GRPNAME
 70
     0
  0
APPID
  5
5FE
330
9
100
AcDbSymbolTableRecord
100
AcDbRegAppTableRecord
  2
GPARA
 70
     0
  0
APPID
  5
6C4
330
9
100
AcDbSymbolTableRecord
100
AcDbRegAppTableRecord
  2
DCO15
 70
     0
  0
APPID
  5
6C5
330
9
100
AcDbSymbolTableRecord
100
AcDbRegAppTableRecord
  2
ITEMNAME
 70
     0
  0
APPID
  5
6C6
330
9
100
AcDbSymbolTableRecord
100
AcDbRegAppTableRecord
  2
GRADE_0
 70
     0
  0
APPID
  5
9FE
330
9
100
AcDbSymbolTableRecord
100
AcDbRegAppTableRecord
  2
ACAD_PSEXT
 70
     0
  0
ENDTAB
  0
TABLE
  2
DIMSTYLE
  5
A
330
0
100
AcDbSymbolTable
 70
    12
100
AcDbDimStyleTable
 71
     1
340
725
  0
DIMSTYLE
105
725
330
A
100
AcDbSymbolTableRecord
100
AcDbDimStyleTableRecord
  2
BIGT
 70
     0
 41
2.229999999999999
 42
0.5
 43
2.5
 44
1.0
 73
     0
 74
     0
 77
     3
 78
     8
 79
     2
140
2.799999999999999
141
0.0
147
1.0
172
     1
173
     1
174
     1
176
   256
177
   256
178
    40
179
     3
271
     3
272
     3
284
     8
289
     2
340
10
341
594
343
594
344
594
371
    -1
372
    -1
  0
DIMSTYLE
105
8E2
102
{ACAD_REACTORS
330
8E5
330
8E6
330
8E7
330
94A
330
AA3
330
AA4
330
D4D
102
}
330
A
100
AcDbSymbolTableRecord
100
AcDbDimStyleTableRecord
  2
BIGT$0
 70
     0
  4
"
 41
2.229999999999999
 42
0.5
 43
7.0
 44
1.0
 47
0.1
 48
0.1
 73
     0
 74
     0
 77
     3
 78
     8
 79
     2
140
3.0
141
0.0
143
0.0393701
146
0.71
147
1.0
172
     1
176
     3
177
     3
178
    40
179
     3
271
     3
272
     3
284
     8
289
     2
340
10
341
594
342
594
371
    -1
372
    -1
  0
ENDTAB
  0
TABLE
  2
BLOCK_RECORD
  5
1
330
0
100
AcDbSymbolTable
 70
    33
  0
BLOCK_RECORD
  5
1A
102
{ACAD_XDICTIONARY
360
D13
102
}
330
1
100
AcDbSymbolTableRecord
100
AcDbBlockTableRecord
  2
*MODEL_SPACE
340
567
  0
BLOCK_RECORD
  5
17
330
1
100
AcDbSymbolTableRecord
100
AcDbBlockTableRecord
  2
*PAPER_SPACE
340
568
  0
BLOCK_RECORD
  5
594
330
1
100
AcDbSymbolTableRecord
100
AcDbBlockTableRecord
  2
_Open
340
0
102
{BLKREFS
331
8C4
331
8CF
331
8D0
331
8DB
331
8DC
331
9C9
331
9D1
331
9D2
331
9EC
331
9F7
331
9F8
331
C4F
331
C50
331
C5B
331
CEF
331
CF0
331
CF8
331
DC4
331
DC5
331
DCC
331
DD4
331
DD5
331
DDD
331
DDE
102
}
  0
BLOCK_RECORD
  5
6E3
330
1
100
AcDbSymbolTableRecord
100
AcDbBlockTableRecord
  2
矢印なし
340
0
102
{BLKREFS
331
6E6
331
C5A
331
CF7
102
}
  0
BLOCK_RECORD
  5
8BD
330
1
100
AcDbSymbolTableRecord
100
AcDbBlockTableRecord
  2
_None
340
0
  0
BLOCK_RECORD
  5
9BB
330
1
100
AcDbSymbolTableRecord
100
AcDbBlockTableRecord
  2
*D19
340
0
  0
BLOCK_RECORD
  5
AA5
330
1
100
AcDbSymbolTableRecord
100
AcDbBlockTableRecord
  2
*D23
340
0
  0
BLOCK_RECORD
  5
AAF
330
1
100
AcDbSymbolTableRecord
100
AcDbBlockTableRecord
  2
*D24
340
0
  0
BLOCK_RECORD
  5
D4E
330
1
100
AcDbSymbolTableRecord
100
AcDbBlockTableRecord
  2
*D31
340
0
  0
BLOCK_RECORD
  5
DE3
330
1
100
AcDbSymbolTableRecord
100
AcDbBlockTableRecord
  2
1
340
0
310
2800000020000000200000000100080000000000000400000000000000000000000000000000000000000000000080000080000000808000800000008000800080800000C0C0C000C0DCC000F0CAA6000020400000206000002080000020A0000020C0000020E00000400000004020000040400000406000004080000040A0
310
000040C0000040E00000600000006020000060400000606000006080000060A0000060C0000060E00000800000008020000080400000806000008080000080A0000080C0000080E00000A0000000A0200000A0400000A0600000A0800000A0A00000A0C00000A0E00000C0000000C0200000C0400000C0600000C0800000C0
310
A00000C0C00000C0E00000E0000000E0200000E0400000E0600000E0800000E0A00000E0C00000E0E00040000000400020004000400040006000400080004000A0004000C0004000E00040200000402020004020400040206000402080004020A0004020C0004020E000404000004040200040404000404060004040800040
310
40A0004040C0004040E00040600000406020004060400040606000406080004060A0004060C0004060E00040800000408020004080400040806000408080004080A0004080C0004080E00040A0000040A0200040A0400040A0600040A0800040A0A00040A0C00040A0E00040C0000040C0200040C0400040C0600040C08000
310
40C0A00040C0C00040C0E00040E0000040E0200040E0400040E0600040E0800040E0A00040E0C00040E0E00080000000800020008000400080006000800080008000A0008000C0008000E00080200000802020008020400080206000802080008020A0008020C0008020E00080400000804020008040400080406000804080
310
008040A0008040C0008040E00080600000806020008060400080606000806080008060A0008060C0008060E00080800000808020008080400080806000808080008080A0008080C0008080E00080A0000080A0200080A0400080A0600080A0800080A0A00080A0C00080A0E00080C0000080C0200080C0400080C0600080C0
310
800080C0A00080C0C00080C0E00080E0000080E0200080E0400080E0600080E0800080E0A00080E0C00080E0E000C0000000C0002000C0004000C0006000C0008000C000A000C000C000C000E000C0200000C0202000C0204000C0206000C0208000C020A000C020C000C020E000C0400000C0402000C0404000C0406000C0
310
408000C040A000C040C000C040E000C0600000C0602000C0604000C0606000C0608000C060A000C060C000C060E000C0800000C0802000C0804000C0806000C0808000C080A000C080C000C080E000C0A00000C0A02000C0A04000C0A06000C0A08000C0A0A000C0A0C000C0A0E000C0C00000C0C02000C0C04000C0C06000
310
C0C08000C0C0A000F0FBFF00A4A0A000808080000000FF0000FF000000FFFF00FF000000FF00FF00FFFF0000FFFFFF0000000000000000000000000000000000000000000000000000000000000000000000000000000000000000000000000000000000000000000000000000000000000000000000000000000000000000
310
00000000000000000000000000000000000000000000000000000000000000000000000000000000000000000000000000000000000000000000000000000000000000000000000000000000000000000000000000000000000000000000000000000000000000000000000000000000000000000000000000000000000000
310
000000000000000000000000000000000000000000000000000000000000000000000000000000000000000000000000000000000000000000000000000000000000000000000000000000000000000000000000000000000000000000000000000000000000000000000000000000000000000000000000000000FEFEFEFE
310
FEFEFEFEFEFEFEFE00E7E7FEFEFEFEFEFE0000000000000000000000FE0000E70000000000000000FEE7E70000000000FE00000000FEFEFEFEFEFEFEFE0000E70000000000000000E7E7E70000000000FE00000000FE000000000000E70000E70000000000000000E7E7E70000000000FE00000000FEE7E7E7E7E700E70000
310
E70000000000000000E7E7E70000000000FE00000000FE0000E7E7E700E70000E700000000000000E7E7E7E70000000000FE000000FBFEFBFBE7E7E7FBE7FBFBFAFBFBFBFBE7FBFBE7E7E7E7FBFBFBFBFBFEFB000000FEE7E7E7E7E700E7E7E7FAE7E7E7E7E70000E7E7E7E7E7E7E7E7E7FE00000000FE000000000000E700
310
00FAFAFAFAFAE7E7E7E7E7E7E7000000E7E7FE00000000FEFEFEFEFEFEFEFE0000E70000000000000000E7FEE7E7E7E7E7E7FE0000000000000000000000FE0000E70000000000000000FEFEE70000000000FE0000000000000000000000FEFEFEFEFEFEFEFEFEFEFEFE00FEE7FEFEFEFEFEFE000000000000000000000000
310
00000000000000000000000000000000000000000000000000000000000000000000000000000000000000000000000000000000000000000000000000000000000000000000000000000000000000000000000000000000000000000000000000000000000000000000000000000000000000000000000000000000000000
310
00000000000000000000000000000000000000000000000000000000000000000000000000000000000000000000000000000000000000000000000000000000000000000000000000000000000000000000000000000000000000000000000000000000000000000000000000000000000000000000000000000000000000
310
0000000000000000000000000000000000000000000000000000000000000000000000000000000000000000000000000000000000000000
102
{BLKREFS
331
E42
102
}
  0
ENDTAB
  0
ENDSEC
  0
SECTION
  2
BLOCKS
  0
BLOCK
  5
1B
330
1A
100
AcDbEntity
  8
0
100
AcDbBlockBegin
  2
*MODEL_SPACE
 70
     0
 10
0.0
 20
0.0
 30
0.0
  3
*MODEL_SPACE
  1

  0
ENDBLK
  5
1C
330
1A
100
AcDbEntity
  8
0
100
AcDbBlockEnd
  0
BLOCK
  5
18
330
17
100
AcDbEntity
 67
     1
  8
0
100
AcDbBlockBegin
  2
*PAPER_SPACE
 70
     0
 10
0.0
 20
0.0
 30
0.0
  3
*PAPER_SPACE
  1

  0
ENDBLK
  5
19
330
17
100
AcDbEntity
 67
     1
  8
0
100
AcDbBlockEnd
  0
BLOCK
  5
598
330
594
100
AcDbEntity
  8
0
100
AcDbBlockBegin
  2
_Open
 70
     0
 10
0.0
 20
0.0
 30
0.0
  3
_Open
  1

  0
LINE
  5
595
330
594
100
AcDbEntity
  8
0
  6
ByBlock
 62
     0
370
    -2
100
AcDbLine
 10
-1.0
 20
0.1666666666666666
 30
0.0
 11
0.0
 21
0.0
 31
0.0
  0
LINE
  5
596
330
594
100
AcDbEntity
  8
0
  6
ByBlock
 62
     0
370
    -2
100
AcDbLine
 10
-1.0
 20
-0.1666666666666666
 30
0.0
 11
0.0
 21
0.0
 31
0.0
  0
LINE
  5
597
330
594
100
AcDbEntity
  8
0
  6
ByBlock
 62
     0
370
    -2
100
AcDbLine
 10
0.0
 20
0.0
 30
0.0
 11
-1.0
 21
0.0
 31
0.0
  0
ENDBLK
  5
599
330
594
100
AcDbEntity
  8
0
100
AcDbBlockEnd
  0
BLOCK
  5
6E4
330
6E3
100
AcDbEntity
  8
0
100
AcDbBlockBegin
  2
矢印なし
 70
     0
 10
0.0
 20
0.0
 30
0.0
  3
矢印なし
  1

  0
ENDBLK
  5
6E5
330
6E3
100
AcDbEntity
  8
0
100
AcDbBlockEnd
  0
BLOCK
  5
8BE
330
8BD
100
AcDbEntity
  8
0
100
AcDbBlockBegin
  2
_None
 70
     0
 10
0.0
 20
0.0
 30
0.0
  3
_None
  1

  0
ENDBLK
  5
8BF
330
8BD
100
AcDbEntity
  8
0
100
AcDbBlockEnd
  0
BLOCK
  5
9C5
330
9BB
100
AcDbEntity
  8
0
100
AcDbBlockBegin
  2
*D19
 70
     1
 10
0.0
 20
0.0
 30
0.0
  3
*D19
  1

  0
LINE
  5
DC1
330
9BB
100
AcDbEntity
  8
252
  6
Continuous
 62
     3
100
AcDbLine
 10
0.0000000000000853
 20
20.00000000000017
 30
0.0
 11
0.0000000000000863
 21
36.0
 31
0.0
  0
LINE
  5
DC2
330
9BB
100
AcDbEntity
  8
252
  6
Continuous
 62
     3
100
AcDbLine
 10
70.00000000000006
 20
17.00000000000005
 30
0.0
 11
70.00000000000006
 21
36.0
 31
0.0
  0
LINE
  5
DC3
330
9BB
100
AcDbEntity
  8
252
  6
Continuous
 62
     3
100
AcDbLine
 10
2.000000000000086
 20
35.0
 30
0.0
 11
68.00000000000006
 21
35.0
 31
0.0
  0
INSERT
  5
DC4
330
9BB
100
AcDbEntity
  8
252
  6
Continuous
 62
     3
100
AcDbBlockReference
  2
_Open
 10
0.0000000000000862
 20
35.0
 30
0.0
 41
2.0
 42
2.0
 43
2.0
 50
180.0
  0
INSERT
  5
DC5
330
9BB
100
AcDbEntity
  8
252
  6
Continuous
 62
     3
100
AcDbBlockReference
  2
_Open
 10
70.00000000000006
 20
35.0
 30
0.0
 41
2.0
 42
2.0
 43
2.0
  0
MTEXT
  5
DC6
330
9BB
100
AcDbEntity
  8
252
  6
Continuous
 62
    40
370
    -3
100
AcDbMText
 10
35.00000000000007
 20
37.5
 30
0.0
 40
3.0
 41
0.0
 71
     5
 72
     1
  1
\A1;70
 73
     1
 44
1.0
1001
ACAD
1000
MTEXTBEGIN
1070
    73
1070
     1
1070
    44
1040
1.0
1070
    74
1070
     0
1000
MTEXTEND
  0
POINT
  5
DC7
330
9BB
100
AcDbEntity
  8
Defpoints
  6
Continuous
 62
     0
100
AcDbPoint
 10
0.0000000000000853
 20
19.50000000000017
 30
0.0
  0
POINT
  5
DC8
330
9BB
100
AcDbEntity
  8
Defpoints
  6
Continuous
 62
     0
100
AcDbPoint
 10
70.00000000000006
 20
16.50000000000005
 30
0.0
  0
POINT
  5
DC9
330
9BB
100
AcDbEntity
  8
Defpoints
  6
Continuous
 62
     0
100
AcDbPoint
 10
70.00000000000006
 20
35.0
 30
0.0
  0
ENDBLK
  5
9C6
330
9BB
100
AcDbEntity
  8
0
100
AcDbBlockEnd
  0
BLOCK
  5
AAD
330
AA5
100
AcDbEntity
  8
0
100
AcDbBlockBegin
  2
*D23
 70
     1
 10
0.0
 20
0.0
 30
0.0
  3
*D23
  1

  0
LINE
  5
DCA
330
AA5
100
AcDbEntity
  8
250
  6
Continuous
 62
     3
100
AcDbLine
 10
70.5
 20
6.500000000000039
 30
0.0
 11
85.0080119931697
 21
6.500000000000035
 31
0.0
  0
LINE
  5
DCB
330
AA5
100
AcDbEntity
  8
250
  6
Continuous
 62
     3
100
AcDbLine
 10
84.00801199316971
 20
-6.499999999999979
 30
0.0
 11
84.00801199316971
 21
4.500000000000035
 31
0.0
  0
INSERT
  5
DCC
330
AA5
100
AcDbEntity
  8
250
  6
Continuous
 62
     3
100
AcDbBlockReference
  2
_Open
 10
84.00801199316971
 20
6.500000000000035
 30
0.0
 41
2.0
 42
2.0
 43
2.0
 50
90.0
  0
MTEXT
  5
DCD
330
AA5
100
AcDbEntity
  8
250
  6
Continuous
 62
    40
370
    -3
100
AcDbMText
 10
81.0080119931697
 20
-5.158915253206547
 30
0.0
 40
3.0
 41
0.0
 71
     5
 72
     1
  1
\A1;max.φ13
 11
0.0000000000000001
 21
1.0
 31
0.0
 73
     1
 44
1.0
1001
ACAD
1000
MTEXTBEGIN
1070
    73
1070
     1
1070
    44
1040
1.0
1070
    74
1070
     0
1000
MTEXTEND
  0
POINT
  5
DCE
330
AA5
100
AcDbEntity
  8
Defpoints
  6
Continuous
 62
     0
100
AcDbPoint
 10
69.39837169
 20
-6.499999999999975
 30
0.0
  0
POINT
  5
DCF
330
AA5
100
AcDbEntity
  8
Defpoints
  6
Continuous
 62
     0
100
AcDbPoint
 10
70.0
 20
6.500000000000039
 30
0.0
  0
POINT
  5
DD0
330
AA5
100
AcDbEntity
  8
Defpoints
  6
Continuous
 62
     0
100
AcDbPoint
 10
84.00801199316971
 20
6.500000000000035
 30
0.0
  0
ENDBLK
  5
AAE
330
AA5
100
AcDbEntity
  8
0
100
AcDbBlockEnd
  0
BLOCK
  5
AB9
330
AAF
100
AcDbEntity
  8
0
100
AcDbBlockBegin
  2
*D24
 70
     1
 10
0.0
 20
0.0
 30
0.0
  3
*D24
  1

  0
LINE
  5
DD1
330
AAF
100
AcDbEntity
  8
250
  6
Continuous
 62
     3
100
AcDbLine
 10
69.33811978464871
 20
-17.49999999999993
 30
0.0
 11
92.0
 21
-17.49999999999994
 31
0.0
  0
LINE
  5
DD2
330
AAF
100
AcDbEntity
  8
250
  6
Continuous
 62
     3
100
AcDbLine
 10
69.33811978464825
 20
17.50000000000005
 30
0.0
 11
92.0
 21
17.50000000000004
 31
0.0
  0
LINE
  5
DD3
330
AAF
100
AcDbEntity
  8
250
  6
Continuous
 62
     3
100
AcDbLine
 10
91.0
 20
-15.49999999999994
 30
0.0
 11
91.0
 21
15.50000000000005
 31
0.0
  0
INSERT
  5
DD4
330
AAF
100
AcDbEntity
  8
250
  6
Continuous
 62
     3
100
AcDbBlockReference
  2
_Open
 10
91.0
 20
-17.49999999999994
 30
0.0
 41
2.0
 42
2.0
 43
2.0
 50
270.0
  0
INSERT
  5
DD5
330
AAF
100
AcDbEntity
  8
250
  6
Continuous
 62
     3
100
AcDbBlockReference
  2
_Open
 10
91.0
 20
17.50000000000004
 30
0.0
 41
2.0
 42
2.0
 43
2.0
 50
90.0
  0
MTEXT
  5
DD6
330
AAF
100
AcDbEntity
  8
250
  6
Continuous
 62
    40
370
    -3
100
AcDbMText
 10
88.49999999999999
 20
-0.0000000000000032
 30
0.0
 40
3.0
 41
0.0
 71
     5
 72
     1
  1
\A1;{\H3;%%C}35
 11
0.0000000000000001
 21
1.0
 31
0.0
 73
     1
 44
1.0
1001
ACAD
1000
MTEXTBEGIN
1070
    73
1070
     1
1070
    44
1040
1.0
1070
    74
1070
     0
1000
MTEXTEND
  0
POINT
  5
DD7
330
AAF
100
AcDbEntity
  8
Defpoints
  6
Continuous
 62
     0
100
AcDbPoint
 10
68.83811978464871
 20
-17.49999999999993
 30
0.0
  0
POINT
  5
DD8
330
AAF
100
AcDbEntity
  8
Defpoints
  6
Continuous
 62
     0
100
AcDbPoint
 10
68.83811978464826
 20
17.50000000000005
 30
0.0
  0
POINT
  5
DD9
330
AAF
100
AcDbEntity
  8
Defpoints
  6
Continuous
 62
     0
100
AcDbPoint
 10
91.0
 20
17.50000000000004
 30
0.0
  0
ENDBLK
  5
ABA
330
AAF
100
AcDbEntity
  8
0
100
AcDbBlockEnd
  0
BLOCK
  5
D58
330
D4E
100
AcDbEntity
  8
0
370
    -3
100
AcDbBlockBegin
  2
*D31
 70
     1
 10
0.0
 20
0.0
 30
0.0
  3
*D31
  1

  0
LINE
  5
DDA
330
D4E
100
AcDbEntity
  8
250
  6
Continuous
 62
     3
100
AcDbLine
 10
5.000000000000099
 20
7.149999999999916
 30
0.0
 11
5.000000000000101
 21
29.0
 31
0.0
  0
LINE
  5
DDB
330
D4E
100
AcDbEntity
  8
250
  6
Continuous
 62
     3
100
AcDbLine
 10
70.00000000000006
 20
17.00000000000005
 30
0.0
 11
70.00000000000006
 21
29.0
 31
0.0
  0
LINE
  5
DDC
330
D4E
100
AcDbEntity
  8
250
  6
Continuous
 62
     3
100
AcDbLine
 10
7.0000000000001
 20
28.0
 30
0.0
 11
68.00000000000006
 21
28.0
 31
0.0
  0
INSERT
  5
DDD
330
D4E
100
AcDbEntity
  8
250
  6
Continuous
 62
     3
100
AcDbBlockReference
  2
_Open
 10
5.0000000000001
 20
28.0
 30
0.0
 41
2.0
 42
2.0
 43
2.0
 50
180.0
  0
INSERT
  5
DDE
330
D4E
100
AcDbEntity
  8
250
  6
Continuous
 62
     3
100
AcDbBlockReference
  2
_Open
 10
70.00000000000006
 20
28.0
 30
0.0
 41
2.0
 42
2.0
 43
2.0
  0
MTEXT
  5
DDF
330
D4E
100
AcDbEntity
  8
250
  6
Continuous
 62
    40
370
    -3
100
AcDbMText
 10
37.50000000000008
 20
30.5
 30
0.0
 40
3.0
 41
0.0
 71
     5
 72
     1
  1
\A1;（max.65）
 73
     1
 44
1.0
1001
ACAD
1000
MTEXTBEGIN
1070
    73
1070
     1
1070
    44
1040
1.0
1070
    74
1070
     0
1000
MTEXTEND
  0
POINT
  5
DE0
330
D4E
100
AcDbEntity
  8
Defpoints
  6
Continuous
 62
     0
100
AcDbPoint
 10
5.000000000000099
 20
6.649999999999916
 30
0.0
  0
POINT
  5
DE1
330
D4E
100
AcDbEntity
  8
Defpoints
  6
Continuous
 62
     0
100
AcDbPoint
 10
70.00000000000006
 20
16.50000000000005
 30
0.0
  0
POINT
  5
DE2
330
D4E
100
AcDbEntity
  8
Defpoints
  6
Continuous
 62
     0
100
AcDbPoint
 10
70.00000000000006
 20
28.0
 30
0.0
  0
ENDBLK
  5
D59
330
D4E
100
AcDbEntity
  8
0
370
    -3
100
AcDbBlockEnd
  0
BLOCK
  5
DE4
330
DE3
100
AcDbEntity
  8
0
100
AcDbBlockBegin
  2
1
 70
     0
 10
0.0
 20
0.0
 30
0.0
  3
1
  1

  0
LINE
  5
DE6
330
DE3
100
AcDbEntity
  8
245
  6
CENTER2
100
AcDbLine
 10
-25.0
 20
-0.0000000000000036
 30
0.0
 11
71.0
 21
0.0000000000000107
 31
0.0
  0
LINE
  5
DE7
330
DE3
100
AcDbEntity
  8
240
  6
Continuous
100
AcDbLine
 10
-24.0
 20
10.99999999999999
 30
0.0
 11
-10.33347186
 21
10.99999999999999
 31
0.0
  0
LINE
  5
DE8
330
DE3
100
AcDbEntity
  8
240
  6
Continuous
100
AcDbLine
 10
-10.33347186
 20
-11.0
 30
0.0
 11
-24.0
 21
-11.0
 31
0.0
  0
LINE
  5
DE9
330
DE3
100
AcDbEntity
  8
241
  6
Continuous
100
AcDbLine
 10
-5.5
 20
-4.298042409999997
 30
0.0
 11
-24.0
 21
-4.298042409999997
 31
0.0
  0
LINE
  5
DEA
330
DE3
100
AcDbEntity
  8
241
  6
Continuous
100
AcDbLine
 10
-5.5
 20
4.29804240999999
 30
0.0
 11
-24.0
 21
4.29804240999999
 31
0.0
  0
LINE
  5
DEB
330
DE3
100
AcDbEntity
  8
240
  6
Continuous
100
AcDbLine
 10
-24.0
 20
-11.0
 30
0.0
 11
-24.0
 21
-0.0000000000000036
 31
0.0
  0
LINE
  5
DEC
330
DE3
100
AcDbEntity
  8
240
  6
Continuous
100
AcDbLine
 10
-24.0
 20
10.99999999999999
 30
0.0
 11
-24.0
 21
-0.0000000000000036
 31
0.0
  0
LINE
  5
DED
330
DE3
100
AcDbEntity
  8
241
100
AcDbLine
 10
0.0
 20
-11.0
 30
0.0
 11
0.0
 21
-0.0000000000000036
 31
0.0
  0
LINE
  5
DEE
330
DE3
100
AcDbEntity
  8
241
  6
Continuous
100
AcDbLine
 10
-1.666528139999996
 20
-11.0
 30
0.0
 11
-10.33347186
 21
-11.0
 31
0.0
  0
LINE
  5
DEF
330
DE3
100
AcDbEntity
  8
240
100
AcDbLine
 10
-1.666528139999996
 20
-11.0
 30
0.0
 11
-2.980000000000003
 21
-13.27500000000001
 31
0.0
  0
LINE
  5
DF0
330
DE3
100
AcDbEntity
  8
240
100
AcDbLine
 10
-9.019999999999996
 20
-13.27500000000001
 30
0.0
 11
-2.980000000000003
 21
-13.27500000000001
 31
0.0
  0
LINE
  5
DF1
330
DE3
100
AcDbEntity
  8
240
100
AcDbLine
 10
-10.33347186
 20
-11.0
 30
0.0
 11
-9.019999999999996
 21
-13.27500000000001
 31
0.0
  0
LINE
  5
DF2
330
DE3
100
AcDbEntity
  8
240
  6
Continuous
100
AcDbLine
 10
0.0000000000000568
 20
-10.99999999999955
 30
0.0
 11
-1.666528139999996
 21
-11.0
 31
0.0
  0
LINE
  5
DF3
330
DE3
100
AcDbEntity
  8
241
  6
Continuous
100
AcDbLine
 10
-1.666528139999996
 20
10.99999999999999
 30
0.0
 11
-10.33347186
 21
10.99999999999999
 31
0.0
  0
LINE
  5
DF4
330
DE3
100
AcDbEntity
  8
240
100
AcDbLine
 10
-1.666528139999996
 20
10.99999999999999
 30
0.0
 11
-2.980000000000003
 21
13.275
 31
0.0
  0
LINE
  5
DF5
330
DE3
100
AcDbEntity
  8
241
  6
Continuous
100
AcDbLine
 10
-5.5
 20
4.29804240999999
 30
0.0
 11
-5.5
 21
-0.0000000000000036
 31
0.0
  0
LINE
  5
DF6
330
DE3
100
AcDbEntity
  8
245
  6
CENTER2
100
AcDbLine
 10
-9.650000000000005
 20
4.999999999999996
 30
0.0
 11
-9.650000000000005
 21
-5.000000000000003
 31
0.0
  0
CIRCLE
  5
DF7
330
DE3
100
AcDbEntity
  8
241
100
AcDbCircle
 10
-9.650000000000005
 20
-0.0000000000000036
 30
0.0
 40
4.0
  0
CIRCLE
  5
DF8
330
DE3
100
AcDbEntity
  8
241
100
AcDbCircle
 10
-9.650000000000005
 20
-0.0000000000000036
 30
0.0
 40
3.0
  0
LINE
  5
DF9
330
DE3
100
AcDbEntity
  8
241
  6
Continuous
100
AcDbLine
 10
-5.5
 20
-4.298042409999997
 30
0.0
 11
-5.5
 21
-0.0000000000000036
 31
0.0
  0
LINE
  5
DFA
330
DE3
100
AcDbEntity
  8
240
100
AcDbLine
 10
-9.019999999999996
 20
13.275
 30
0.0
 11
-2.980000000000003
 21
13.275
 31
0.0
  0
LINE
  5
DFB
330
DE3
100
AcDbEntity
  8
240
100
AcDbLine
 10
-10.33347186
 20
10.99999999999999
 30
0.0
 11
-9.019999999999996
 21
13.275
 31
0.0
  0
LINE
  5
DFC
330
DE3
100
AcDbEntity
  8
241
100
AcDbLine
 10
0.0
 20
10.99999999999999
 30
0.0
 11
0.0
 21
-0.0000000000000036
 31
0.0
  0
LINE
  5
DFD
330
DE3
100
AcDbEntity
  8
240
  6
Continuous
100
AcDbLine
 10
-0.0000000000000426
 20
11.00000000000048
 30
0.0
 11
-1.666528139999996
 21
10.99999999999999
 31
0.0
  0
LINE
  5
DFE
330
DE3
100
AcDbEntity
  8
240
  6
Continuous
100
AcDbLine
 10
0.0000000000000568
 20
-10.99999999999955
 30
0.0
 11
0.0000000000001421
 21
-19.50000000000036
 31
0.0
  0
LINE
  5
DFF
330
DE3
100
AcDbEntity
  8
240
  6
Continuous
100
AcDbLine
 10
-0.0000000000000426
 20
11.00000000000048
 30
0.0
 11
0.0000000000000853
 21
19.50000000000017
 31
0.0
  0
LINE
  5
E00
330
DE3
100
AcDbEntity
  8
240
100
AcDbLine
 10
10.00000000000035
 20
-19.5000000000001
 30
0.0
 11
10.00000000000035
 21
-18.4999999999996
 31
0.0
  0
ARC
  5
E01
330
DE3
100
AcDbEntity
  8
240
100
AcDbCircle
 10
11.00000000000035
 20
-18.49999999999958
 30
0.0
 40
1.0
100
AcDbArc
 50
89.9999999999992
 51
180.0000000000016
  0
LINE
  5
E02
330
DE3
100
AcDbEntity
  8
240
100
AcDbLine
 10
0.0000000000001421
 20
-19.50000000000036
 30
0.0
 11
10.00000000000035
 21
-19.5000000000001
 31
0.0
  0
LINE
  5
E03
330
DE3
100
AcDbEntity
  8
240
100
AcDbLine
 10
0.0000000000000853
 20
19.50000000000017
 30
0.0
 11
10.00000000000092
 21
19.50000000000028
 31
0.0
  0
LINE
  5
E04
330
DE3
100
AcDbEntity
  8
240
100
AcDbLine
 10
10.00000000000092
 20
19.50000000000028
 30
0.0
 11
10.00000000000068
 21
18.50000000000008
 31
0.0
  0
ARC
  5
E05
330
DE3
100
AcDbEntity
  8
240
100
AcDbCircle
 10
11.00000000000068
 20
18.49999999999985
 30
0.0
 40
1.0
100
AcDbArc
 50
179.9999999999861
 51
270.0
  0
LINE
  5
E06
330
DE3
100
AcDbEntity
  8
241
100
AcDbLine
 10
10.0000000000003
 20
-0.0000000000000036
 30
0.0
 11
10.0000000000003
 21
-18.49999999999958
 31
0.0
  0
LINE
  5
E07
330
DE3
100
AcDbEntity
  8
241
100
AcDbLine
 10
10.0000000000003
 20
-0.0000000000000036
 30
0.0
 11
10.0000000000003
 21
18.49999999999985
 31
0.0
  0
LINE
  5
E08
330
DE3
100
AcDbEntity
  8
240
  6
Continuous
100
AcDbLine
 10
70.00000000000006
 20
-16.49999999999992
 30
0.0
 11
70.0
 21
-0.0000000000000036
 31
0.0
1001
GRPNAME
1000
PASTMD01
  0
ARC
  5
E09
330
DE3
100
AcDbEntity
  8
240
  6
Continuous
100
AcDbCircle
 10
69.00000000000005
 20
-16.49999999999992
 30
0.0
 40
1.0
100
AcDbArc
 50
270.0
 51
0.0
1001
GRPNAME
1000
PASTMD01
  0
LINE
  5
E0A
330
DE3
100
AcDbEntity
  8
240
  6
Continuous
100
AcDbLine
 10
43.50001525878903
 20
-13.49999999999643
 30
0.0
 11
43.50001525878878
 21
-17.64999999999884
 31
0.0
1001
GRPNAME
1000
PASTMD01
  0
LINE
  5
E0B
330
DE3
100
AcDbEntity
  8
240
  6
Continuous
100
AcDbLine
 10
45.22407717114876
 20
-17.4999999999999
 30
0.0
 11
69.00000000000005
 21
-17.49999999999992
 31
0.0
  0
LINE
  5
E0C
330
DE3
100
AcDbEntity
  8
240
  6
Continuous
100
AcDbLine
 10
43.50001525878878
 20
-17.64999999999884
 30
0.0
 11
44.96426955000702
 21
-17.65000000000048
 31
0.0
  0
LINE
  5
E0D
330
DE3
100
AcDbEntity
  8
240
  6
Continuous
100
AcDbLine
 10
45.22407717115757
 20
17.50000000000017
 30
0.0
 11
69.00000000000005
 21
17.50000000000005
 31
0.0
1001
GRPNAME
1000
PASTMD01
  0
ARC
  5
E0E
330
DE3
100
AcDbEntity
  8
240
  6
Continuous
100
AcDbCircle
 10
69.00000000000005
 20
16.50000000000005
 30
0.0
 40
1.0
100
AcDbArc
 50
0.0
 51
90.0
1001
GRPNAME
1000
PASTMD01
  0
LINE
  5
E0F
330
DE3
100
AcDbEntity
  8
240
  6
Continuous
100
AcDbLine
 10
43.50001525878878
 20
17.6499999999994
 30
0.0
 11
44.96426955000646
 21
17.65000000000082
 31
0.0
  0
LINE
  5
E10
330
DE3
100
AcDbEntity
  8
240
100
AcDbLine
 10
44.96426955000702
 20
-17.65000000000048
 30
0.0
 11
45.22407717114876
 21
-17.4999999999999
 31
0.0
  0
LINE
  5
E11
330
DE3
100
AcDbEntity
  8
241
100
AcDbLine
 10
48.80001525879428
 20
-17.49999999999997
 30
0.0
 11
48.80001525879439
 21
-0.0000000000000462
 31
0.0
  0
LINE
  5
E12
330
DE3
100
AcDbEntity
  8
241
100
AcDbLine
 10
47.60001525878758
 20
-17.49999986610276
 30
0.0
 11
47.6000152587876
 21
0.0000000000000391
 31
0.0
  0
LINE
  5
E13
330
DE3
100
AcDbEntity
  8
241
  6
Continuous
100
AcDbLine
 10
46.1748463758793
 20
-17.49999986610375
 30
0.0
 11
46.17484637587932
 21
0.0000000000000391
 31
0.0
  0
LINE
  5
E14
330
DE3
100
AcDbEntity
  8
241
  6
Continuous
100
AcDbLine
 10
44.9642695500093
 20
-17.65000000000023
 30
0.0
 11
44.9642695500093
 21
-0.0000000000014104
 31
0.0
  0
LINE
  5
E15
330
DE3
100
AcDbEntity
  8
240
100
AcDbLine
 10
44.96426955000646
 20
17.65000000000082
 30
0.0
 11
45.22407717115757
 21
17.50000000000017
 31
0.0
  0
LINE
  5
E16
330
DE3
100
AcDbEntity
  8
241
  6
HIDDEN2
100
AcDbLine
 10
64.89837169000068
 20
8.699999999999658
 30
0.0
 11
62.09837168999965
 21
8.699999999999914
 31
0.0
  0
LINE
  5
E17
330
DE3
100
AcDbEntity
  8
241
  6
HIDDEN2
100
AcDbLine
 10
38.20000000000147
 20
6.499999999999953
 30
0.0
 11
70.0
 21
6.50000000000011
 31
0.0
  0
LINE
  5
E18
330
DE3
100
AcDbEntity
  8
241
  6
HIDDEN2
100
AcDbLine
 10
62.09837168999965
 20
8.699999999999914
 30
0.0
 11
62.09837168999886
 21
10.51682088682341
 31
0.0
  0
LINE
  5
E19
330
DE3
100
AcDbEntity
  8
241
  6
HIDDEN2
100
AcDbLine
 10
64.8983716900016
 20
10.65000000040408
 30
0.0
 11
70.0
 21
7.704573521384173
 31
0.0
  0
LINE
  5
E1A
330
DE3
100
AcDbEntity
  8
241
  6
HIDDEN2
100
AcDbLine
 10
64.89837169000068
 20
8.699999999999658
 30
0.0
 11
64.8983716900016
 21
10.65000000040408
 31
0.0
  0
LINE
  5
E1B
330
DE3
100
AcDbEntity
  8
241
100
AcDbLine
 10
48.80001525879425
 20
17.50000000000005
 30
0.0
 11
48.80001525879439
 21
0.0000000000001243
 31
0.0
  0
LINE
  5
E1C
330
DE3
100
AcDbEntity
  8
241
100
AcDbLine
 10
47.60001525878755
 20
17.49999986610282
 30
0.0
 11
47.6000152587876
 21
0.0000000000000391
 31
0.0
  0
LINE
  5
E1D
330
DE3
100
AcDbEntity
  8
241
  6
Continuous
100
AcDbLine
 10
46.17484637587927
 20
17.49999986610379
 30
0.0
 11
46.17484637587932
 21
0.0000000000000391
 31
0.0
  0
LINE
  5
E1E
330
DE3
100
AcDbEntity
  8
241
  6
Continuous
100
AcDbLine
 10
44.96426955000927
 20
17.65000000000031
 30
0.0
 11
44.9642695500093
 21
0.0000000000014886
 31
0.0
  0
LINE
  5
E1F
330
DE3
100
AcDbEntity
  8
242
  6
HIDDEN2
100
AcDbLine
 10
48.69999999999999
 20
11.74999999999988
 30
0.0
 11
59.59378221734851
 21
11.74999999999982
 31
0.0
  0
LINE
  5
E20
330
DE3
100
AcDbEntity
  8
241
  6
HIDDEN2
100
AcDbLine
 10
58.29474411167229
 20
12.49999999999953
 30
0.0
 11
46.89967513459598
 21
12.4999999999997
 31
0.0
  0
LINE
  5
E21
330
DE3
100
AcDbEntity
  8
241
  6
HIDDEN2
100
AcDbLine
 10
44.59999999999669
 20
13.49999999999782
 30
0.0
 11
43.5000152587892
 21
13.49999999999592
 31
0.0
  0
LINE
  5
E22
330
DE3
100
AcDbEntity
  8
240
100
AcDbLine
 10
40.49999999999892
 20
16.49999999999974
 30
0.0
 11
40.49999999999869
 21
13.49999999999073
 31
0.0
  0
ARC
  5
E23
330
DE3
100
AcDbEntity
  8
240
100
AcDbCircle
 10
39.49999999999892
 20
16.4999999999998
 30
0.0
 40
1.0
100
AcDbArc
 50
359.9999999999968
 51
74.99999999999883
  0
LINE
  5
E24
330
DE3
100
AcDbEntity
  8
241
  6
HIDDEN2
100
AcDbLine
 10
45.70000000000374
 20
13.50000000000271
 30
0.0
 11
46.32232486541016
 21
13.49999999999728
 31
0.0
  0
LINE
  5
E25
330
DE3
100
AcDbEntity
  8
241
  6
HIDDEN2
100
AcDbLine
 10
44.60000000000124
 20
12.51967746271574
 30
0.0
 11
44.59999999999669
 21
13.49999999999782
 31
0.0
1001
GRPNAME
1000
PASTMD0T
  0
LINE
  5
E26
330
DE3
100
AcDbEntity
  8
241
  6
HIDDEN2
100
AcDbLine
 10
45.69999999999597
 20
12.5196774627163
 30
0.0
 11
45.70000000000374
 21
13.50000000000271
 31
0.0
1001
GRPNAME
1000
PASTMD0T
  0
LINE
  5
E27
330
DE3
100
AcDbEntity
  8
242
  6
HIDDEN2
100
AcDbLine
 10
48.69999999999999
 20
11.74999999999988
 30
0.0
 11
47.40096189432358
 21
12.49999999999985
 31
0.0
  0
LINE
  5
E28
330
DE3
100
AcDbEntity
  8
241
  6
HIDDEN2
100
AcDbLine
 10
46.89967513459598
 20
12.4999999999997
 30
0.0
 11
46.32232486541016
 21
13.49999999999728
 31
0.0
  0
LINE
  5
E29
330
DE3
100
AcDbEntity
  8
241
  6
HIDDEN2
100
AcDbLine
 10
62.09837168999886
 20
10.51682088682341
 30
0.0
 11
38.20000000000067
 21
7.158123781482967
 31
0.0
  0
LINE
  5
E2A
330
DE3
100
AcDbEntity
  8
241
  6
HIDDEN2
100
AcDbLine
 10
28.19999999999925
 20
7.399999999999945
 30
0.0
 11
28.19999999999902
 21
-0.000000000000032
 31
0.0
  0
LINE
  5
E2B
330
DE3
100
AcDbEntity
  8
242
  6
HIDDEN2
100
AcDbLine
 10
28.19999999999908
 20
6.999999999999939
 30
0.0
 11
11.19999999999929
 21
7.000000000000024
 31
0.0
  0
LINE
  5
E2C
330
DE3
100
AcDbEntity
  8
241
  6
HIDDEN2
100
AcDbLine
 10
28.19999999999934
 20
6.649999999999888
 30
0.0
 11
5.000000000000028
 21
6.649999999999916
 31
0.0
  0
LINE
  5
E2D
330
DE3
100
AcDbEntity
  8
241
  6
HIDDEN2
100
AcDbLine
 10
38.20000000000067
 20
7.400000000000058
 30
0.0
 11
38.20000000000232
 21
-0.0000000000000604
 31
0.0
  0
LINE
  5
E2E
330
DE3
100
AcDbEntity
  8
240
100
AcDbLine
 10
39.63165249758617
 20
17.49999999999974
 30
0.0
 11
11.00000000000068
 21
17.49999999999985
 31
0.0
  0
LINE
  5
E2F
330
DE3
100
AcDbEntity
  8
240
100
AcDbLine
 10
39.75881904510146
 20
17.46592582628886
 30
0.0
 11
39.63165249758617
 21
17.49999999999974
 31
0.0
  0
LINE
  5
E30
330
DE3
100
AcDbEntity
  8
240
100
AcDbLine
 10
40.49999999999866
 20
-13.49999999999065
 30
0.0
 11
43.50001525878903
 21
-13.49999999999643
 31
0.0
  0
LINE
  5
E31
330
DE3
100
AcDbEntity
  8
240
100
AcDbLine
 10
40.49999999999892
 20
-16.49999999999983
 30
0.0
 11
40.49999999999866
 21
-13.49999999999065
 31
0.0
  0
ARC
  5
E32
330
DE3
100
AcDbEntity
  8
240
100
AcDbCircle
 10
39.49999999999892
 20
-16.49999999999989
 30
0.0
 40
1.0
100
AcDbArc
 50
284.9999999999996
 51
0.0000000000032569
  0
LINE
  5
E33
330
DE3
100
AcDbEntity
  8
240
100
AcDbLine
 10
39.63165249758617
 20
-17.49999999999983
 30
0.0
 11
11.00000000000037
 21
-17.49999999999958
 31
0.0
  0
LINE
  5
E34
330
DE3
100
AcDbEntity
  8
240
100
AcDbLine
 10
39.75881904510146
 20
-17.46592582628895
 30
0.0
 11
39.63165249758617
 21
-17.49999999999983
 31
0.0
  0
LINE
  5
E35
330
DE3
100
AcDbEntity
  8
241
  6
HIDDEN2
100
AcDbLine
 10
38.20000000000067
 20
7.400000000000058
 30
0.0
 11
28.19999999999925
 21
7.399999999999945
 31
0.0
  0
LINE
  5
E36
330
DE3
100
AcDbEntity
  8
242
  6
HIDDEN2
100
AcDbLine
 10
11.19999999999977
 20
6.999999999999939
 30
0.0
 11
11.1999999999996
 21
0.0000000000000249
 31
0.0
  0
LINE
  5
E37
330
DE3
100
AcDbEntity
  8
242
  6
HIDDEN2
100
AcDbLine
 10
10.59378221735069
 20
6.649999999999945
 30
0.0
 11
11.19999999999977
 21
6.999999999999939
 31
0.0
  0
LINE
  5
E38
330
DE3
100
AcDbEntity
  8
241
  6
HIDDEN2
100
AcDbLine
 10
60.19999999999931
 20
11.39999999999913
 30
0.0
 11
58.29474411167229
 21
12.49999999999953
 31
0.0
  0
LINE
  5
E39
330
DE3
100
AcDbEntity
  8
241
100
AcDbLine
 10
43.50001525878903
 20
-13.49999999999649
 30
0.0
 11
43.50001525878903
 21
0.0000000000000107
 31
0.0
  0
LINE
  5
E3A
330
DE3
100
AcDbEntity
  8
241
100
AcDbLine
 10
40.49999999999866
 20
-13.49999999999071
 30
0.0
 11
40.49999999999866
 21
0.0000000000000107
 31
0.0
  0
LINE
  5
E3B
330
DE3
100
AcDbEntity
  8
241
  6
HIDDEN2
100
AcDbLine
 10
60.19999999999931
 20
11.39999999999913
 30
0.0
 11
60.19999999999922
 21
10.25002214493549
 31
0.0
  0
LINE
  5
E3C
330
DE3
100
AcDbEntity
  8
240
  6
Continuous
100
AcDbLine
 10
70.00000000000006
 20
16.50000000000005
 30
0.0
 11
70.0
 21
0.0000000000000249
 31
0.0
1001
GRPNAME
1000
PASTMD01
  0
LINE
  5
E3D
330
DE3
100
AcDbEntity
  8
241
  6
HIDDEN2
100
AcDbLine
 10
44.60000000000124
 20
12.51967746271574
 30
0.0
 11
45.69999999999597
 21
12.5196774627163
 31
0.0
  0
LINE
  5
E3E
330
DE3
100
AcDbEntity
  8
240
100
AcDbLine
 10
40.49999999999869
 20
13.49999999999073
 30
0.0
 11
43.50001525878903
 21
13.49999999999644
 31
0.0
  0
LINE
  5
E3F
330
DE3
100
AcDbEntity
  8
241
100
AcDbLine
 10
43.50001525878903
 20
13.4999999999965
 30
0.0
 11
43.50001525878903
 21
-0.0000000000000036
 31
0.0
  0
LINE
  5
E40
330
DE3
100
AcDbEntity
  8
241
100
AcDbLine
 10
40.49999999999866
 20
13.49999999999071
 30
0.0
 11
40.49999999999866
 21
-0.0000000000000036
 31
0.0
  0
LINE
  5
E41
330
DE3
100
AcDbEntity
  8
240
  6
Continuous
100
AcDbLine
 10
43.50001525878903
 20
13.49999999999644
 30
0.0
 11
43.50001525878878
 21
17.6499999999994
 31
0.0
1001
GRPNAME
1000
PASTMD01
  0
ENDBLK
  5
DE5
330
DE3
100
AcDbEntity
  8
0
100
AcDbBlockEnd
  0
ENDSEC
  0
SECTION
  2
ENTITIES
  0
INSERT
  5
6E6
330
1A
100
AcDbEntity
  8
245
100
AcDbBlockReference
  2
矢印なし
 10
175.6238269664377
 20
90.55123571690598
 30
0.0
  0
TEXT
  5
947
330
1A
100
AcDbEntity
  8
241
100
AcDbText
 10
-24.0
 20
49.0
 30
0.0
 40
5.0
  1
CK4-MEGA ER20-70
  7
YOKO
 11
-24.0
 21
49.0
 31
0.0
100
AcDbText
 73
     1
  0
DIMENSION
  5
94A
330
1A
100
AcDbEntity
  8
252
  6
Continuous
370
    -3
100
AcDbDimension
  2
*D19
 10
70.00000000000006
 20
35.0
 30
0.0
 11
35.00000000000007
 21
37.5
 31
0.0
 70
    32
 71
     5
 42
69.99999999999997
  3
BIGT$0
100
AcDbAlignedDimension
 13
0.0000000000000853
 23
19.50000000000017
 33
0.0
 14
70.00000000000006
 24
16.50000000000005
 34
0.0
100
AcDbRotatedDimension
1001
ACAD
1000
DSTYLE
1002
{
1070
    41
1040
2.0
1002
}
  0
LEADER
  5
94B
330
1A
100
AcDbEntity
  8
250
  6
Continuous
370
    -3
100
AcDbLeader
  3
BIGT
 76
     2
 10
-14.47022960071159
 20
-10.99999999999999
 30
0.0
 10
-20.2580136295435
 20
-21.02473600117253
 30
0.0
1001
ACAD
1000
DSTYLE
1002
{
1070
    41
1040
2.0
1002
}
  0
MTEXT
  5
94C
330
1A
100
AcDbEntity
  8
250
  6
Continuous
 62
    40
370
    -3
100
AcDbMText
 10
-30.65801362954351
 20
-20.02473600117253
 30
0.0
 40
2.799999999999999
 41
0.0
 71
     7
 72
     1
  1
CK4
  7
YOKO
 73
     1
 44
1.0
1001
ITEMNAME
1000
LNSP3
1001
ACAD
1000
MTEXTBEGIN
1070
    73
1070
     1
1070
    44
1040
1.0
1070
    74
1070
     0
1000
MTEXTEND
  0
LINE
  5
94D
330
1A
100
AcDbEntity
  8
250
  6
Continuous
370
    -3
100
AcDbLine
 10
-20.2580136295435
 20
-21.02473600117253
 30
0.0
 11
-33.4580136295435
 21
-21.02473600117253
 31
0.0
1001
ITEMNAME
1000
LNSP2
  0
DIMENSION
  5
AA3
330
1A
100
AcDbEntity
  8
250
  6
Continuous
370
    -3
100
AcDbDimension
  2
*D23
 10
84.00801199316971
 20
6.500000000000035
 30
0.0
 11
84.00801199316971
 21
-5.158915253206547
 31
0.0
 70
   160
  1
max.φ13
 71
     5
 42
13.00000000000001
  3
BIGT$0
100
AcDbAlignedDimension
 13
69.39837169
 23
-6.499999999999975
 33
0.0
 14
70.0
 24
6.500000000000039
 34
0.0
 50
90.0
100
AcDbRotatedDimension
1001
ACAD
1000
DSTYLE
1002
{
1070
   342
1005
0
1070
   173
1070
     1
1070
   344
1005
594
1070
    41
1040
2.0
1070
    75
1070
     1
1070
   343
1005
8BD
1002
}
  0
DIMENSION
  5
AA4
330
1A
100
AcDbEntity
  8
250
  6
Continuous
370
    -3
100
AcDbDimension
  2
*D24
 10
91.0
 20
17.50000000000004
 30
0.0
 11
91.0
 21
-0.0000000000000036
 31
0.0
 70
   160
  1
{\H3;%%C}<>
 71
     5
 42
34.99999999999999
  3
BIGT$0
100
AcDbAlignedDimension
 13
68.83811978464871
 23
-17.49999999999993
 33
0.0
 14
68.83811978464826
 24
17.50000000000005
 34
0.0
 50
90.0
100
AcDbRotatedDimension
1001
ACAD
1000
DSTYLE
1002
{
1070
    41
1040
2.0
1002
}
  0
DIMENSION
  5
D4D
330
1A
100
AcDbEntity
  8
250
  6
Continuous
370
    -3
100
AcDbDimension
  2
*D31
 10
70.00000000000006
 20
28.0
 30
0.0
 11
37.50000000000008
 21
30.5
 31
0.0
 70
    32
  1
（max.<>）
 71
     5
 42
64.99999999999996
  3
BIGT$0
100
AcDbAlignedDimension
 13
5.000000000000099
 23
6.649999999999916
 33
0.0
 14
70.00000000000006
 24
16.50000000000005
 34
0.0
100
AcDbRotatedDimension
1001
ACAD
1000
DSTYLE
1002
{
1070
    41
1040
2.0
1002
}
  0
INSERT
  5
E42
330
1A
100
AcDbEntity
  8
245
100
AcDbBlockReference
  2
1
 10
0.0
 20
0.0
 30
0.0
  0
VIEWPORT
  5
22
102
{ACAD_XDICTIONARY
360
E47
102
}
330
17
100
AcDbEntity
 67
     1
  8
0
100
AcDbViewport
 10
261.5176991150442
 20
148.5
 30
0.0
 40
523.0353982300885
 41
297.0
 68
     1
 69
     1
 12
261.5176991150442
 22
148.5
 13
0.0
 23
0.0
 14
1.0
 24
1.0
 15
10.0
 25
10.0
 16
0.0
 26
0.0
 36
1.0
 17
0.0
 27
0.0
 37
0.0
 42
50.0
 43
0.0
 44
0.0
 45
297.0
 50
0.0
 51
0.0
 72
   100
 90
    32800
  1

281
     0
 71
     1
 74
     0
110
0.0
120
0.0
130
0.0
111
1.0
121
0.0
131
0.0
112
0.0
122
1.0
132
0.0
 79
     0
146
0.0
  0
ENDSEC
  0
SECTION
  2
OBJECTS
  0
DICTIONARY
  5
C
330
0
100
AcDbDictionary
281
     1
  3
ACAD_COLOR
350
791
  3
ACAD_GROUP
350
D
  3
ACAD_LAYOUT
350
565
  3
ACAD_MATERIAL
350
77C
  3
ACAD_MLINESTYLE
350
E
  3
ACAD_PLOTSETTINGS
350
566
  3
ACAD_PLOTSTYLENAME
350
563
  3
ACAD_TABLESTYLE
350
792
  3
ACAD_VISUALSTYLE
350
780
  3
AcDbVariableDictionary
350
9E4
  3
DWGPROPS
350
E46
  3
GRADE_DWG
350
540
  0
DICTIONARY
  5
9FF
330
2
100
AcDbDictionary
280
     1
281
     1
  3
ACAD_LAYERSTATES
360
A00
  0
DICTIONARY
  5
D13
330
1A
100
AcDbDictionary
280
     1
281
     1
  3
ACAD_SORTENTS
360
D14
  0
DICTIONARY
  5
E47
330
22
100
AcDbDictionary
280
     1
281
     1
  3
ACAD_XREC_ROUNDTRIP
360
E48
  0
DICTIONARY
  5
791
102
{ACAD_REACTORS
330
C
102
}
330
C
100
AcDbDictionary
281
     1
  0
DICTIONARY
  5
D
102
{ACAD_REACTORS
330
C
102
}
330
C
100
AcDbDictionary
281
     1
  3
*A1
350
6C7
  3
*A2
350
6C8
  3
*A3
350
6D4
  3
*A4
350
6D5
  3
DM500-1
350
D00
  3
DREC-1
350
5FC
  3
DREC-2
350
654
  3
DREC-3
350
673
  0
DICTIONARY
  5
565
102
{ACAD_REACTORS
330
C
102
}
330
C
100
AcDbDictionary
281
     1
  3
Model
350
567
  3
ﾚｲｱｳﾄ1
350
568
  0
DICTIONARY
  5
77C
102
{ACAD_REACTORS
330
C
102
}
330
C
100
AcDbDictionary
281
     1
  3
ByBlock
350
77E
  3
ByLayer
350
77D
  3
Global
350
77F
  0
DICTIONARY
  5
E
102
{ACAD_REACTORS
330
C
102
}
330
C
100
AcDbDictionary
281
     1
  3
STANDARD
350
13
  0
DICTIONARY
  5
566
102
{ACAD_REACTORS
330
C
102
}
330
C
100
AcDbDictionary
281
     1
  3
A3(0.5倍)
350
772
  3
A3(1倍)
350
773
  3
A3(1倍)(2000)
350
774
  3
A3(2倍)
350
775
  3
A4(0.5倍)
350
776
  3
A4(1倍)
350
777
  3
A4(1倍)(2000)
350
778
  3
A4(2倍)
350
779
  0
ACDBDICTIONARYWDFLT
  5
563
102
{ACAD_REACTORS
330
C
102
}
330
C
100
AcDbDictionary
281
     1
  3
Normal
350
564
100
AcDbDictionaryWithDefault
340
564
  0
DICTIONARY
  5
792
102
{ACAD_REACTORS
330
C
102
}
330
C
100
AcDbDictionary
281
     1
  3
Standard
350
793
  0
DICTIONARY
  5
780
102
{ACAD_REACTORS
330
C
102
}
330
C
100
AcDbDictionary
281
     1
  3
2dWireframe
350
786
  3
3D Hidden
350
788
  3
3dWireframe
350
787
  3
Basic
350
785
  3
Brighten
350
78C
  3
ColorChange
350
790
  3
Conceptual
350
789
  3
Dim
350
78B
  3
Facepattern
350
78F
  3
Flat
350
781
  3
FlatWithEdges
350
782
  3
Gouraud
350
783
  3
GouraudWithEdges
350
784
  3
Linepattern
350
78E
  3
Realistic
350
78A
  3
Thicken
350
78D
  0
DICTIONARY
  5
9E4
102
{ACAD_REACTORS
330
C
102
}
330
C
100
AcDbDictionary
281
     1
  3
CTABLESTYLE
350
9E5
  3
DIMASSOC
350
E45
  3
INDEXCTL
350
E44
  3
SORTENTS
350
E43
  0
XRECORD
  5
E46
102
{ACAD_REACTORS
330
C
102
}
330
C
100
AcDbXrecord
280
     1
  1
DWGPROPS COOKIE
  2

  3

  4

  6

  7

  8
AWTEC
  9

300
=
301
=
302
=
303
=
304
=
305
=
306
=
307
=
308
=
309
=
 40
0.0435566666666667
 41
2456997.629010417
 42
2456997.672562569
  1

 90
        0
  0
DICTIONARY
  5
540
102
{ACAD_REACTORS
330
C
102
}
330
C
100
AcDbDictionary
281
     1
  3
VERSION
350
560
  0
DICTIONARY
  5
A00
102
{ACAD_REACTORS
330
9FF
102
}
330
9FF
100
AcDbDictionary
281
     1
  0
SORTENTSTABLE
  5
D14
102
{ACAD_REACTORS
330
D13
102
}
330
D13
100
AcDbSortentsTable
330
1A
331
947
  5
947
331
AA3
  5
BD9
331
94C
  5
94C
331
94A
  5
94A
331
D4D
  5
D75
331
6E6
  5
6E6
331
AA4
  5
BDA
331
94D
  5
94D
331
94B
  5
94B
  0
XRECORD
  5
E48
102
{ACAD_REACTORS
330
E47
102
}
330
E47
100
AcDbXrecord
280
     1
102
SHADEPLOT
 70
     0
  0
GROUP
  5
6C7
102
{ACAD_REACTORS
330
D
102
}
330
D
100
AcDbGroup
300

 70
     0
 71
     1
1001
GRPNAME
1000
DMA00
  0
GROUP
  5
6C8
102
{ACAD_REACTORS
330
D
102
}
330
D
100
AcDbGroup
300

 70
     0
 71
     1
1001
GRPNAME
1000
DMA00
  0
GROUP
  5
6D4
102
{ACAD_REACTORS
330
D
102
}
330
D
100
AcDbGroup
300

 70
     0
 71
     1
1001
GRPNAME
1000
DMA00
  0
GROUP
  5
6D5
102
{ACAD_REACTORS
330
D
102
}
330
D
100
AcDbGroup
300

 70
     0
 71
     1
1001
GRPNAME
1000
DMA00
  0
GROUP
  5
D00
102
{ACAD_REACTORS
330
D
102
}
330
D
100
AcDbGroup
300

 70
     0
 71
     1
  0
GROUP
  5
5FC
102
{ACAD_REACTORS
330
D
102
}
330
D
100
AcDbGroup
300

 70
     0
 71
     1
1001
GRPNAME
1000
DREC-
1001
GPARA
1000
xsiz
1000
44.182
1000
ysiz
1000
40.677
1000
angl
1000
0
1000
ctyp
1000
0
1000
csiz
1000
5
1000
lfnt
1000
cont
1000
hcnt
1000
hoff
1000
vcnt
1000
voff
1000
opnt
1000
4
1000
dxpt
1000
0
1000
dypt
1000
0
  0
GROUP
  5
654
102
{ACAD_REACTORS
330
D
102
}
330
D
100
AcDbGroup
300

 70
     0
 71
     1
1001
GRPNAME
1000
DREC-
1001
GPARA
1000
xsiz
1000
54.592
1000
ysiz
1000
53.036
1000
angl
1000
0
1000
ctyp
1000
0
1000
csiz
1000
5
1000
lfnt
1000
cont
1000
hcnt
1000
hoff
1000
vcnt
1000
voff
1000
opnt
1000
4
1000
dxpt
1000
0
1000
dypt
1000
0
  0
GROUP
  5
673
102
{ACAD_REACTORS
330
D
102
}
330
D
100
AcDbGroup
300

 70
     0
 71
     1
1001
GRPNAME
1000
DREC-
1001
GPARA
1000
xsiz
1000
30.363
1000
ysiz
1000
36.175
1000
angl
1000
0
1000
ctyp
1000
0
1000
csiz
1000
5
1000
lfnt
1000
cont
1000
hcnt
1000
hoff
1000
vcnt
1000
voff
1000
opnt
1000
4
1000
dxpt
1000
0
1000
dypt
1000
0
  0
LAYOUT
  5
567
102
{ACAD_XDICTIONARY
360
E49
102
}
102
{ACAD_REACTORS
330
565
102
}
330
565
100
AcDbPlotSettings
  1
A3(1倍)
  2
Canon LBP5600.pc3
  4
A3
  6

 40
5.873749732971191
 41
5.873747825622558
 42
5.873748779296875
 43
5.873748779296875
 44
296.9259948730469
 45
419.9466552734374
 46
37.59
 47
55.6
 48
0.0
 49
0.0
140
0.0
141
0.0
142
1.0
143
1.0
 70
 11956
 72
     1
 73
     1
 74
     2
  7
big.ctb
 75
    16
147
1.0
148
0.0
149
0.0
100
AcDbLayout
  1
Model
 70
     1
 71
     0
 10
0.0
 20
0.0
 11
12.0
 21
9.0
 12
0.0
 22
0.0
 32
0.0
 14
0.0
 24
0.0
 34
0.0
 15
0.0
 25
0.0
 35
0.0
146
0.0
 13
0.0
 23
0.0
 33
0.0
 16
1.0
 26
0.0
 36
0.0
 17
0.0
 27
1.0
 37
0.0
 76
     0
330
1A
331
77A
  0
LAYOUT
  5
568
102
{ACAD_XDICTIONARY
360
E4B
102
}
102
{ACAD_REACTORS
330
565
102
}
330
565
100
AcDbPlotSettings
  1

  2
\\ICHIRO\FX Able Model-PRII ART4-ADV
  4

  6

 40
0.0
 41
0.0
 42
0.0
 43
0.0
 44
0.0
 45
0.0
 46
0.0
 47
0.0
 48
0.0
 49
0.0
140
0.0
141
0.0
142
1.0
143
1.0
 70
   688
 72
     0
 73
     0
 74
     5
  7
big.ctb
 75
    16
147
1.0
148
0.0
149
0.0
100
AcDbLayout
  1
ﾚｲｱｳﾄ1
 70
     1
 71
     1
 10
0.0
 20
0.0
 11
420.0
 21
297.0
 12
0.0
 22
0.0
 32
0.0
 14
1.000000000000000E+20
 24
1.000000000000000E+20
 34
1.000000000000000E+20
 15
-1.000000000000000E+20
 25
-1.000000000000000E+20
 35
-1.000000000000000E+20
146
0.0
 13
0.0
 23
0.0
 33
0.0
 16
1.0
 26
0.0
 36
0.0
 17
0.0
 27
1.0
 37
0.0
 76
     0
330
17
331
22
  0
MATERIAL
  5
77E
102
{ACAD_XDICTIONARY
360
E5F
102
}
102
{ACAD_REACTORS
330
77C
102
}
330
77C
100
AcDbMaterial
  1
ByBlock
  0
MATERIAL
  5
77D
102
{ACAD_XDICTIONARY
360
E5D
102
}
102
{ACAD_REACTORS
330
77C
102
}
330
77C
100
AcDbMaterial
  1
ByLayer
  0
MATERIAL
  5
77F
102
{ACAD_XDICTIONARY
360
E61
102
}
102
{ACAD_REACTORS
330
77C
102
}
330
77C
100
AcDbMaterial
  1
Global
  0
MLINESTYLE
  5
13
102
{ACAD_REACTORS
330
E
102
}
330
E
100
AcDbMlineStyle
  2
STANDARD
 70
     0
  3

 62
     0
 51
90.0
 52
90.0
 71
     2
 49
0.5
 62
   256
  6
BYLAYER
 49
-0.5
 62
   256
  6
BYLAYER
  0
PLOTSETTINGS
  5
772
102
{ACAD_XDICTIONARY
360
E4D
102
}
102
{ACAD_REACTORS
330
566
102
}
330
566
100
AcDbPlotSettings
  1
A3(0.5倍)
  2
Canon LBP5600.pc3
  4
A3
  6

 40
5.873749732971191
 41
5.873747825622558
 42
5.873748779296875
 43
5.873748779296875
 44
296.9259948730469
 45
419.9466552734374
 46
90.09
 47
129.85
 48
0.0
 49
0.0
140
0.0
141
0.0
142
1.0
143
2.0
 70
  1716
 72
     1
 73
     1
 74
     2
  7
big.ctb
 75
    17
147
0.5
148
0.0
149
0.0
  0
PLOTSETTINGS
  5
773
102
{ACAD_XDICTIONARY
360
E4F
102
}
102
{ACAD_REACTORS
330
566
102
}
330
566
100
AcDbPlotSettings
  1
A3(1倍)
  2
Canon LBP5600.pc3
  4
A3
  6

 40
5.873749732971191
 41
5.873747825622558
 42
5.873748779296875
 43
5.873748779296875
 44
296.9259948730469
 45
419.9466552734374
 46
37.59
 47
55.6
 48
0.0
 49
0.0
140
0.0
141
0.0
142
1.0
143
1.0
 70
  1716
 72
     1
 73
     1
 74
     2
  7
big.ctb
 75
    16
147
1.0
148
0.0
149
0.0
  0
PLOTSETTINGS
  5
774
102
{ACAD_XDICTIONARY
360
E51
102
}
102
{ACAD_REACTORS
330
566
102
}
330
566
100
AcDbPlotSettings
  1
A3(1倍)(2000)
  2
Canon LBP5600.pc3
  4
A3
  6

 40
5.873749732971191
 41
5.873747825622558
 42
5.873748779296875
 43
5.873748779296875
 44
296.9259948730469
 45
419.9466552734374
 46
37.59
 47
55.6
 48
0.0
 49
0.0
140
0.0
141
0.0
142
1.0
143
1.0
 70
  1716
 72
     1
 73
     1
 74
     2
  7
big.ctb
 75
    16
147
1.0
148
0.0
149
0.0
  0
PLOTSETTINGS
  5
775
102
{ACAD_XDICTIONARY
360
E53
102
}
102
{ACAD_REACTORS
330
566
102
}
330
566
100
AcDbPlotSettings
  1
A3(2倍)
  2
Canon LBP5600.pc3
  4
A3
  6

 40
5.873749732971191
 41
5.873747825622558
 42
5.873748779296875
 43
5.873748779296875
 44
296.9259948730469
 45
419.9466552734374
 46
-67.40999999999999
 47
-92.9
 48
0.0
 49
0.0
140
0.0
141
0.0
142
1.0
143
0.5
 70
  1716
 72
     1
 73
     1
 74
     2
  7
big.ctb
 75
    27
147
2.0
148
0.0
149
0.0
  0
PLOTSETTINGS
  5
776
102
{ACAD_XDICTIONARY
360
E55
102
}
102
{ACAD_REACTORS
330
566
102
}
330
566
100
AcDbPlotSettings
  1
A4(0.5倍)
  2
Canon LBP5600.pc3
  4
A3
  6

 40
5.873749732971191
 41
5.873747825622558
 42
5.873748779296875
 43
5.873748779296875
 44
296.9259948730469
 45
419.9466552734374
 46
90.09
 47
129.85
 48
0.0
 49
0.0
140
0.0
141
0.0
142
1.0
143
2.0
 70
  1716
 72
     1
 73
     1
 74
     2
  7
big.ctb
 75
    17
147
0.5
148
0.0
149
0.0
  0
PLOTSETTINGS
  5
777
102
{ACAD_XDICTIONARY
360
E57
102
}
102
{ACAD_REACTORS
330
566
102
}
330
566
100
AcDbPlotSettings
  1
A4(1倍)
  2
Canon LBP5600.pc3
  4
A3
  6

 40
5.873749732971191
 41
5.873747825622558
 42
5.873748779296875
 43
5.873748779296875
 44
296.9259948730469
 45
419.9466552734374
 46
37.59
 47
55.6
 48
0.0
 49
0.0
140
0.0
141
0.0
142
1.0
143
1.0
 70
  1716
 72
     1
 73
     1
 74
     2
  7
big.ctb
 75
    16
147
1.0
148
0.0
149
0.0
  0
PLOTSETTINGS
  5
778
102
{ACAD_XDICTIONARY
360
E59
102
}
102
{ACAD_REACTORS
330
566
102
}
330
566
100
AcDbPlotSettings
  1
A4(1倍)(2000)
  2
Canon LBP5600.pc3
  4
A3
  6

 40
5.873749732971191
 41
5.873747825622558
 42
5.873748779296875
 43
5.873748779296875
 44
296.9259948730469
 45
419.9466552734374
 46
37.59
 47
55.6
 48
0.0
 49
0.0
140
0.0
141
0.0
142
1.0
143
1.0
 70
  1716
 72
     1
 73
     1
 74
     2
  7
big.ctb
 75
    16
147
1.0
148
0.0
149
0.0
  0
PLOTSETTINGS
  5
779
102
{ACAD_XDICTIONARY
360
E5B
102
}
102
{ACAD_REACTORS
330
566
102
}
330
566
100
AcDbPlotSettings
  1
A4(2倍)
  2
Canon LBP5600.pc3
  4
A3
  6

 40
5.873749732971191
 41
5.873747825622558
 42
5.873748779296875
 43
5.873748779296875
 44
296.9259948730469
 45
419.9466552734374
 46
-67.40999999999999
 47
-92.9
 48
0.0
 49
0.0
140
0.0
141
0.0
142
1.0
143
0.5
 70
  1716
 72
     1
 73
     1
 74
     2
  7
big.ctb
 75
    27
147
2.0
148
0.0
149
0.0
  0
ACDBPLACEHOLDER
  5
564
102
{ACAD_REACTORS
330
563
102
}
330
563
  0
TABLESTYLE
  5
793
102
{ACAD_XDICTIONARY
360
E63
102
}
102
{ACAD_REACTORS
330
792
102
}
330
792
100
AcDbTableStyle
  3
Standard
 70
     0
 71
     0
 40
1.5
 41
1.5
280
     0
281
     0
  7
STANDARD
140
4.5
170
     2
 62
     0
 63
     7
283
     0
274
    -2
284
     1
 64
     0
275
    -2
285
     1
 65
     0
276
    -2
286
     1
 66
     0
277
    -2
287
     1
 67
     0
278
    -2
288
     1
 68
     0
279
    -2
289
     1
 69
     0
  7
STANDARD
140
6.0
170
     5
 62
     0
 63
     7
283
     0
274
    -2
284
     1
 64
     0
275
    -2
285
     1
 65
     0
276
    -2
286
     1
 66
     0
277
    -2
287
     1
 67
     0
278
    -2
288
     1
 68
     0
279
    -2
289
     1
 69
     0
  7
STANDARD
140
4.5
170
     5
 62
     0
 63
     7
283
     0
274
    -2
284
     1
 64
     0
275
    -2
285
     1
 65
     0
276
    -2
286
     1
 66
     0
277
    -2
287
     1
 67
     0
278
    -2
288
     1
 68
     0
279
    -2
289
     1
 69
     0
  0
VISUALSTYLE
  5
786
102
{ACAD_REACTORS
330
780
102
}
330
780
100
AcDbVisualStyle
  2
2dWireframe
 70
     4
 71
     0
 72
     2
 73
     0
 90
        0
 40
-0.6
 41
-30.0
 62
     5
 63
     7
 74
     1
 91
        4
 64
     7
 65
   257
 75
     1
175
     1
 42
1.0
 92
        0
 66
   257
 43
1.0
 76
     1
 77
     6
 78
     2
 67
     7
 79
     5
170
     0
171
     0
290
     0
174
     0
 93
        1
 44
0.0
173
     0
291
     0
 45
0.0
1001
ACAD
1000
AcDbSavedByObjectVersion
1070
     0
  0
VISUALSTYLE
  5
788
102
{ACAD_REACTORS
330
780
102
}
330
780
100
AcDbVisualStyle
  2
3D Hidden
 70
     6
 71
     1
 72
     2
 73
     2
 90
        0
 40
-0.6
 41
-30.0
 62
     5
 63
     7
 74
     2
 91
        2
 64
     7
 65
   257
 75
     2
175
     1
 42
40.0
 92
        0
 66
   257
 43
1.0
 76
     1
 77
     6
 78
     2
 67
     7
 79
     3
170
     0
171
     0
290
     0
174
     0
 93
        1
 44
0.0
173
     0
291
     0
 45
0.0
1001
ACAD
1000
AcDbSavedByObjectVersion
1070
     0
  0
VISUALSTYLE
  5
787
102
{ACAD_REACTORS
330
780
102
}
330
780
100
AcDbVisualStyle
  2
3dWireframe
 70
     5
 71
     0
 72
     2
 73
     0
 90
        0
 40
-0.6
 41
-30.0
 62
     5
 63
     7
 74
     1
 91
        4
 64
     7
 65
   257
 75
     1
175
     1
 42
1.0
 92
        0
 66
   257
 43
1.0
 76
     1
 77
     6
 78
     2
 67
     7
 79
     5
170
     0
171
     0
290
     0
174
     0
 93
        1
 44
0.0
173
     0
291
     0
 45
0.0
1001
ACAD
1000
AcDbSavedByObjectVersion
1070
     0
  0
VISUALSTYLE
  5
785
102
{ACAD_REACTORS
330
780
102
}
330
780
100
AcDbVisualStyle
  2
Basic
 70
     7
 71
     1
 72
     0
 73
     1
 90
        0
 40
-0.6
 41
-30.0
 62
     5
 63
     7
 74
     0
 91
        4
 64
     7
 65
   257
 75
     1
175
     1
 42
1.0
 92
        8
 66
     7
 43
1.0
 76
     1
 77
     6
 78
     2
 67
     7
 79
     5
170
     0
171
     0
290
     0
174
     0
 93
        1
 44
0.0
173
     0
291
     1
 45
0.0
1001
ACAD
1000
AcDbSavedByObjectVersion
1070
     0
  0
VISUALSTYLE
  5
78C
102
{ACAD_REACTORS
330
780
102
}
330
780
100
AcDbVisualStyle
  2
Brighten
 70
    12
 71
     2
 72
     2
 73
     0
 90
        0
 40
-0.6
 41
-30.0
 62
     5
 63
     7
 74
     1
 91
        4
 64
     7
 65
   257
 75
     1
175
     1
 42
1.0
 92
        8
 66
     7
 43
1.0
 76
     1
 77
     6
 78
     2
 67
     7
 79
     5
170
     0
171
     0
290
     0
174
     0
 93
        1
 44
50.0
173
     0
291
     1
 45
0.0
1001
ACAD
1000
AcDbSavedByObjectVersion
1070
     0
  0
VISUALSTYLE
  5
790
102
{ACAD_REACTORS
330
780
102
}
330
780
100
AcDbVisualStyle
  2
ColorChange
 70
    16
 71
     2
 72
     2
 73
     3
 90
        0
 40
-0.6
 41
-30.0
 62
     5
 63
     8
 74
     1
 91
        4
 64
     7
 65
   257
 75
     1
175
     1
 42
1.0
 92
        8
 66
     8
 43
1.0
 76
     1
 77
     6
 78
     2
 67
     7
 79
     5
170
     0
171
     0
290
     0
174
     0
 93
        1
 44
0.0
173
     0
291
     1
 45
0.0
1001
ACAD
1000
AcDbSavedByObjectVersion
1070
     0
  0
VISUALSTYLE
  5
789
102
{ACAD_REACTORS
330
780
102
}
330
780
100
AcDbVisualStyle
  2
Conceptual
 70
     9
 71
     3
 72
     2
 73
     0
 90
        0
 40
-0.6
 41
-30.0
 62
     5
 63
     7
 74
     2
 91
        2
 64
     7
 65
   257
 75
     1
175
     1
 42
40.0
 92
        8
 66
     7
 43
1.0
 76
     1
 77
     6
 78
     2
 67
     7
 79
     3
170
     0
171
     0
290
     0
174
     0
 93
        1
 44
0.0
173
     0
291
     0
 45
0.0
1001
ACAD
1000
AcDbSavedByObjectVersion
1070
     0
  0
VISUALSTYLE
  5
78B
102
{ACAD_REACTORS
330
780
102
}
330
780
100
AcDbVisualStyle
  2
Dim
 70
    11
 71
     2
 72
     2
 73
     0
 90
        0
 40
-0.6
 41
-30.0
 62
     5
 63
     7
 74
     1
 91
        4
 64
     7
 65
   257
 75
     1
175
     1
 42
1.0
 92
        8
 66
     7
 43
1.0
 76
     1
 77
     6
 78
     2
 67
     7
 79
     5
170
     0
171
     0
290
     0
174
     0
 93
        1
 44
-50.0
173
     0
291
     1
 45
0.0
1001
ACAD
1000
AcDbSavedByObjectVersion
1070
     0
  0
VISUALSTYLE
  5
78F
102
{ACAD_REACTORS
330
780
102
}
330
780
100
AcDbVisualStyle
  2
Facepattern
 70
    15
 71
     2
 72
     2
 73
     0
 90
        0
 40
-0.6
 41
-30.0
 62
     5
 63
     7
 74
     1
 91
        4
 64
     7
 65
   257
 75
     1
175
     1
 42
1.0
 92
        8
 66
     7
 43
1.0
 76
     1
 77
     6
 78
     2
 67
     7
 79
     5
170
     0
171
     0
290
     0
174
     0
 93
        1
 44
0.0
173
     0
291
     1
 45
0.0
1001
ACAD
1000
AcDbSavedByObjectVersion
1070
     0
  0
VISUALSTYLE
  5
781
102
{ACAD_REACTORS
330
780
102
}
330
780
100
AcDbVisualStyle
  2
Flat
 70
     0
 71
     2
 72
     1
 73
     1
 90
        2
 40
-0.6
 41
30.0
 62
     5
 63
     7
 74
     0
 91
        4
 64
     7
 65
   257
 75
     1
175
     1
 42
1.0
 92
        8
 66
     7
 43
1.0
 76
     1
 77
     6
 78
     2
 67
     7
 79
     5
170
     0
171
     0
290
     0
174
     0
 93
       13
 44
0.0
173
     0
291
     1
 45
0.0
1001
ACAD
1000
AcDbSavedByObjectVersion
1070
     0
  0
VISUALSTYLE
  5
782
102
{ACAD_REACTORS
330
780
102
}
330
780
100
AcDbVisualStyle
  2
FlatWithEdges
 70
     1
 71
     2
 72
     1
 73
     1
 90
        2
 40
-0.6
 41
30.0
 62
     5
 63
     7
 74
     1
 91
        4
 64
     7
 65
   257
 75
     1
175
     1
 42
1.0
 92
        0
 66
   257
 43
1.0
 76
     1
 77
     6
 78
     2
 67
     7
 79
     5
170
     0
171
     0
290
     0
174
     0
 93
       13
 44
0.0
173
     0
291
     1
 45
0.0
1001
ACAD
1000
AcDbSavedByObjectVersion
1070
     0
  0
VISUALSTYLE
  5
783
102
{ACAD_REACTORS
330
780
102
}
330
780
100
AcDbVisualStyle
  2
Gouraud
 70
     2
 71
     2
 72
     2
 73
     1
 90
        2
 40
-0.6
 41
30.0
 62
     5
 63
     7
 74
     0
 91
        4
 64
     7
 65
   257
 75
     1
175
     1
 42
1.0
 92
        0
 66
     7
 43
1.0
 76
     1
 77
     6
 78
     2
 67
     7
 79
     5
170
     0
171
     0
290
     0
174
     0
 93
       13
 44
0.0
173
     0
291
     1
 45
0.0
1001
ACAD
1000
AcDbSavedByObjectVersion
1070
     0
  0
VISUALSTYLE
  5
784
102
{ACAD_REACTORS
330
780
102
}
330
780
100
AcDbVisualStyle
  2
GouraudWithEdges
 70
     3
 71
     2
 72
     2
 73
     1
 90
        2
 40
-0.6
 41
30.0
 62
     5
 63
     7
 74
     1
 91
        4
 64
     7
 65
   257
 75
     1
175
     1
 42
1.0
 92
        0
 66
   257
 43
1.0
 76
     1
 77
     6
 78
     2
 67
     7
 79
     5
170
     0
171
     0
290
     0
174
     0
 93
       13
 44
0.0
173
     0
291
     1
 45
0.0
1001
ACAD
1000
AcDbSavedByObjectVersion
1070
     0
  0
VISUALSTYLE
  5
78E
102
{ACAD_REACTORS
330
780
102
}
330
780
100
AcDbVisualStyle
  2
Linepattern
 70
    14
 71
     2
 72
     2
 73
     0
 90
        0
 40
-0.6
 41
-30.0
 62
     5
 63
     7
 74
     1
 91
        4
 64
     7
 65
   257
 75
     7
175
     7
 42
1.0
 92
        8
 66
     7
 43
1.0
 76
     1
 77
     6
 78
     2
 67
     7
 79
     5
170
     0
171
     0
290
     0
174
     0
 93
        1
 44
0.0
173
     0
291
     1
 45
0.0
1001
ACAD
1000
AcDbSavedByObjectVersion
1070
     0
  0
VISUALSTYLE
  5
78A
102
{ACAD_REACTORS
330
780
102
}
330
780
100
AcDbVisualStyle
  2
Realistic
 70
     8
 71
     2
 72
     2
 73
     0
 90
        0
 40
-0.6
 41
-30.0
 62
     5
 63
     7
 74
     1
 91
        0
 64
     7
 65
   257
 75
     1
175
     1
 42
1.0
 92
        8
 66
     8
 43
1.0
 76
     1
 77
     6
 78
     2
 67
     7
 79
     5
170
     0
171
     0
290
     0
174
     0
 93
       13
 44
0.0
173
     0
291
     0
 45
0.0
1001
ACAD
1000
AcDbSavedByObjectVersion
1070
     0
  0
VISUALSTYLE
  5
78D
102
{ACAD_REACTORS
330
780
102
}
330
780
100
AcDbVisualStyle
  2
Thicken
 70
    13
 71
     2
 72
     2
 73
     0
 90
        0
 40
-0.6
 41
-30.0
 62
     5
 63
     7
 74
     1
 91
        4
 64
     7
 65
   257
 75
     1
175
     1
 42
1.0
 92
       12
 66
     7
 43
1.0
 76
     1
 77
     6
 78
     2
 67
     7
 79
     5
170
     0
171
     0
290
     0
174
     0
 93
        1
 44
0.0
173
     0
291
     1
 45
0.0
1001
ACAD
1000
AcDbSavedByObjectVersion
1070
     0
  0
DICTIONARYVAR
  5
9E5
102
{ACAD_REACTORS
330
9E4
102
}
330
9E4
100
DictionaryVariables
280
     0
  1
STANDARD
  0
DICTIONARYVAR
  5
E45
102
{ACAD_REACTORS
330
9E4
102
}
330
9E4
100
DictionaryVariables
280
     0
  1
1
  0
DICTIONARYVAR
  5
E44
102
{ACAD_REACTORS
330
9E4
102
}
330
9E4
100
DictionaryVariables
280
     0
  1
0
  0
DICTIONARYVAR
  5
E43
102
{ACAD_REACTORS
330
9E4
102
}
330
9E4
100
DictionaryVariables
280
     0
  1
127
  0
XRECORD
  5
560
102
{ACAD_REACTORS
330
540
102
}
330
540
100
AcDbXrecord
280
     1
  1
2.0.0
  0
DICTIONARY
  5
E49
330
567
100
AcDbDictionary
280
     1
281
     1
  3
ACAD_XREC_ROUNDTRIP
360
E4A
  0
DICTIONARY
  5
E4B
330
568
100
AcDbDictionary
280
     1
281
     1
  3
ACAD_XREC_ROUNDTRIP
360
E4C
  0
DICTIONARY
  5
E5F
330
77E
100
AcDbDictionary
280
     1
281
     1
  3
ACAD_XREC_ROUNDTRIP
360
E60
  0
DICTIONARY
  5
E5D
330
77D
100
AcDbDictionary
280
     1
281
     1
  3
ACAD_XREC_ROUNDTRIP
360
E5E
  0
DICTIONARY
  5
E61
330
77F
100
AcDbDictionary
280
     1
281
     1
  3
ACAD_XREC_ROUNDTRIP
360
E62
  0
DICTIONARY
  5
E4D
330
772
100
AcDbDictionary
280
     1
281
     1
  3
ACAD_XREC_ROUNDTRIP
360
E4E
  0
DICTIONARY
  5
E4F
330
773
100
AcDbDictionary
280
     1
281
     1
  3
ACAD_XREC_ROUNDTRIP
360
E50
  0
DICTIONARY
  5
E51
330
774
100
AcDbDictionary
280
     1
281
     1
  3
ACAD_XREC_ROUNDTRIP
360
E52
  0
DICTIONARY
  5
E53
330
775
100
AcDbDictionary
280
     1
281
     1
  3
ACAD_XREC_ROUNDTRIP
360
E54
  0
DICTIONARY
  5
E55
330
776
100
AcDbDictionary
280
     1
281
     1
  3
ACAD_XREC_ROUNDTRIP
360
E56
  0
DICTIONARY
  5
E57
330
777
100
AcDbDictionary
280
     1
281
     1
  3
ACAD_XREC_ROUNDTRIP
360
E58
  0
DICTIONARY
  5
E59
330
778
100
AcDbDictionary
280
     1
281
     1
  3
ACAD_XREC_ROUNDTRIP
360
E5A
  0
DICTIONARY
  5
E5B
330
779
100
AcDbDictionary
280
     1
281
     1
  3
ACAD_XREC_ROUNDTRIP
360
E5C
  0
DICTIONARY
  5
E63
330
793
100
AcDbDictionary
280
     1
281
     1
  3
ACAD_XREC_ROUNDTRIP
360
E64
  0
XRECORD
  5
E4A
102
{ACAD_REACTORS
330
E49
102
}
330
E49
100
AcDbXrecord
280
     1
102
SHADEPLOT
 70
     0
102
SHADEPLOTRESLEVEL
 70
     2
102
SHADEPLOTCUSTOMDPI
 70
   300
  0
XRECORD
  5
E4C
102
{ACAD_REACTORS
330
E4B
102
}
330
E4B
100
AcDbXrecord
280
     1
102
SHADEPLOT
 70
     0
102
SHADEPLOTRESLEVEL
 70
     2
102
SHADEPLOTCUSTOMDPI
 70
   300
  0
XRECORD
  5
E60
102
{ACAD_REACTORS
330
E5F
102
}
330
E5F
100
AcDbXrecord
280
     1
102
MATERIAL
148
0.0
149
0.0
149
0.0
 93
        0
 94
       63
282
     0
 72
     1
 77
     1
171
     1
175
     1
179
     1
273
     0
  0
XRECORD
  5
E5E
102
{ACAD_REACTORS
330
E5D
102
}
330
E5D
100
AcDbXrecord
280
     1
102
MATERIAL
148
0.0
149
0.0
149
0.0
 93
        0
 94
       63
282
     0
 72
     1
 77
     1
171
     1
175
     1
179
     1
273
     0
  0
XRECORD
  5
E62
102
{ACAD_REACTORS
330
E61
102
}
330
E61
100
AcDbXrecord
280
     1
102
MATERIAL
148
0.0
149
0.0
149
0.0
 93
        0
 94
       63
282
     0
 72
     1
 77
     1
171
     1
175
     1
179
     1
273
     0
  0
XRECORD
  5
E4E
102
{ACAD_REACTORS
330
E4D
102
}
330
E4D
100
AcDbXrecord
280
     1
102
SHADEPLOT
 70
     0
102
SHADEPLOTRESLEVEL
 70
     2
102
SHADEPLOTCUSTOMDPI
 70
   300
  0
XRECORD
  5
E50
102
{ACAD_REACTORS
330
E4F
102
}
330
E4F
100
AcDbXrecord
280
     1
102
SHADEPLOT
 70
     0
102
SHADEPLOTRESLEVEL
 70
     2
102
SHADEPLOTCUSTOMDPI
 70
   300
  0
XRECORD
  5
E52
102
{ACAD_REACTORS
330
E51
102
}
330
E51
100
AcDbXrecord
280
     1
102
SHADEPLOT
 70
     0
102
SHADEPLOTRESLEVEL
 70
     2
102
SHADEPLOTCUSTOMDPI
 70
   300
  0
XRECORD
  5
E54
102
{ACAD_REACTORS
330
E53
102
}
330
E53
100
AcDbXrecord
280
     1
102
SHADEPLOT
 70
     0
102
SHADEPLOTRESLEVEL
 70
     2
102
SHADEPLOTCUSTOMDPI
 70
   300
  0
XRECORD
  5
E56
102
{ACAD_REACTORS
330
E55
102
}
330
E55
100
AcDbXrecord
280
     1
102
SHADEPLOT
 70
     0
102
SHADEPLOTRESLEVEL
 70
     2
102
SHADEPLOTCUSTOMDPI
 70
   300
  0
XRECORD
  5
E58
102
{ACAD_REACTORS
330
E57
102
}
330
E57
100
AcDbXrecord
280
     1
102
SHADEPLOT
 70
     0
102
SHADEPLOTRESLEVEL
 70
     2
102
SHADEPLOTCUSTOMDPI
 70
   300
  0
XRECORD
  5
E5A
102
{ACAD_REACTORS
330
E59
102
}
330
E59
100
AcDbXrecord
280
     1
102
SHADEPLOT
 70
     0
102
SHADEPLOTRESLEVEL
 70
     2
102
SHADEPLOTCUSTOMDPI
 70
   300
  0
XRECORD
  5
E5C
102
{ACAD_REACTORS
330
E5B
102
}
330
E5B
100
AcDbXrecord
280
     1
102
SHADEPLOT
 70
     0
102
SHADEPLOTRESLEVEL
 70
     2
102
SHADEPLOTCUSTOMDPI
 70
   300
  0
XRECORD
  5
E64
102
{ACAD_REACTORS
330
E63
102
}
330
E63
100
AcDbXrecord
280
     1
102
ACAD_ROUNDTRIP_PRE2007_TABLESTYLE
 90
      512
 91
        0
  1

 92
      512
 93
        0
  2

 94
      512
 95
        0
  3

  0
ENDSEC
  0
EOF
