  0
SECTION
  2
HEADER
  9
$ACADVER
  1
AC1014
  9
$ACADMAINTVER
 70
     9
  9
$DWGCODEPAGE
  3
ANSI_932
  9
$INSBASE
 10
0.0
 20
0.0
 30
0.0
  9
$EXTMIN
 10
-34.71362535641442
 20
-28.62660599536843
 30
0.0
  9
$EXTMAX
 10
93.75554763919698
 20
61.00000000000001
 30
0.0
  9
$LIMMIN
 10
0.0
 20
0.0
  9
$LIMMAX
 10
297.0
 20
210.0
  9
$ORTHOMODE
 70
     0
  9
$REGENMODE
 70
     1
  9
$FILLMODE
 70
     1
  9
$QTEXTMODE
 70
     0
  9
$MIRRTEXT
 70
     1
  9
$DRAGMODE
 70
     2
  9
$LTSCALE
 40
10.0
  9
$OSMODE
 70
   613
  9
$ATTMODE
 70
     1
  9
$TEXTSIZE
 40
3.0
  9
$TRACEWID
 40
1.0
  9
$TEXTSTYLE
  7
YOKO
  9
$CLAYER
  8
240
  9
$CELTYPE
  6
BYLAYER
  9
$CECOLOR
 62
   256
  9
$CELTSCALE
 40
1.0
  9
$DELOBJ
 70
     1
  9
$DISPSILH
 70
     0
  9
$DIMSCALE
 40
1.0
  9
$DIMASZ
 40
2.229999999999999
  9
$DIMEXO
 40
0.5
  9
$DIMDLI
 40
2.5
  9
$DIMRND
 40
0.0
  9
$DIMDLE
 40
0.0
  9
$DIMEXE
 40
1.0
  9
$DIMTP
 40
0.0
  9
$DIMTM
 40
0.0
  9
$DIMTXT
 40
3.0
  9
$DIMCEN
 40
0.0
  9
$DIMTSZ
 40
0.0
  9
$DIMTOL
 70
     0
  9
$DIMLIM
 70
     0
  9
$DIMTIH
 70
     0
  9
$DIMTOH
 70
     0
  9
$DIMSE1
 70
     0
  9
$DIMSE2
 70
     0
  9
$DIMTAD
 70
     3
  9
$DIMZIN
 70
     8
  9
$DIMBLK
  1
OPEN
  9
$DIMASO
 70
     1
  9
$DIMSHO
 70
     1
  9
$DIMPOST
  1

  9
$DIMAPOST
  1

  9
$DIMALT
 70
     0
  9
$DIMALTD
 70
     2
  9
$DIMALTF
 40
25.4
  9
$DIMLFAC
 40
1.0
  9
$DIMTOFL
 70
     1
  9
$DIMTVP
 40
0.0
  9
$DIMTIX
 70
     0
  9
$DIMSOXD
 70
     0
  9
$DIMSAH
 70
     0
  9
$DIMBLK1
  1

  9
$DIMBLK2
  1

  9
$DIMSTYLE
  2
BIGT
  9
$DIMCLRD
 70
   256
  9
$DIMCLRE
 70
   256
  9
$DIMCLRT
 70
    40
  9
$DIMTFAC
 40
1.0
  9
$DIMGAP
 40
1.0
  9
$DIMJUST
 70
     0
  9
$DIMSD1
 70
     0
  9
$DIMSD2
 70
     0
  9
$DIMTOLJ
 70
     1
  9
$DIMTZIN
 70
     8
  9
$DIMALTZ
 70
     0
  9
$DIMALTTZ
 70
     0
  9
$DIMFIT
 70
     2
  9
$DIMUPT
 70
     0
  9
$DIMUNIT
 70
     2
  9
$DIMDEC
 70
     3
  9
$DIMTDEC
 70
     3
  9
$DIMALTU
 70
     2
  9
$DIMALTTD
 70
     2
  9
$DIMTXSTY
  7
STANDARD
  9
$DIMAUNIT
 70
     0
  9
$LUNITS
 70
     2
  9
$LUPREC
 70
     3
  9
$SKETCHINC
 40
1.0
  9
$FILLETRAD
 40
0.0
  9
$AUNITS
 70
     0
  9
$AUPREC
 70
     3
  9
$MENU
  1
.
  9
$ELEVATION
 40
0.0
  9
$PELEVATION
 40
0.0
  9
$THICKNESS
 40
0.0
  9
$LIMCHECK
 70
     0
  9
$BLIPMODE
 70
     0
  9
$CHAMFERA
 40
10.0
  9
$CHAMFERB
 40
10.0
  9
$CHAMFERC
 40
0.0
  9
$CHAMFERD
 40
0.0
  9
$SKPOLY
 70
     0
  9
$TDCREATE
 40
2452308.701753645
  9
$TDUPDATE
 40
2452668.644325080
  9
$TDINDWG
 40
0.0175365278
  9
$TDUSRTIMER
 40
0.0175365278
  9
$USRTIMER
 70
     1
  9
$ANGBASE
 50
0.0
  9
$ANGDIR
 70
     0
  9
$PDMODE
 70
    35
  9
$PDSIZE
 40
-5.0
  9
$PLINEWID
 40
0.0
  9
$COORDS
 70
     0
  9
$SPLFRAME
 70
     0
  9
$SPLINETYPE
 70
     6
  9
$SPLINESEGS
 70
     8
  9
$ATTDIA
 70
     1
  9
$ATTREQ
 70
     0
  9
$HANDLING
 70
-16383
  9
$HANDSEED
  5
10C2
  9
$SURFTAB1
 70
     6
  9
$SURFTAB2
 70
     6
  9
$SURFTYPE
 70
     6
  9
$SURFU
 70
     6
  9
$SURFV
 70
     6
  9
$UCSNAME
  2

  9
$UCSORG
 10
0.0
 20
0.0
 30
0.0
  9
$UCSXDIR
 10
1.0
 20
0.0
 30
0.0
  9
$UCSYDIR
 10
0.0
 20
1.0
 30
0.0
  9
$PUCSNAME
  2

  9
$PUCSORG
 10
0.0
 20
0.0
 30
0.0
  9
$PUCSXDIR
 10
1.0
 20
0.0
 30
0.0
  9
$PUCSYDIR
 10
0.0
 20
1.0
 30
0.0
  9
$USERI1
 70
     1
  9
$USERI2
 70
     0
  9
$USERI3
 70
     0
  9
$USERI4
 70
     0
  9
$USERI5
 70
     0
  9
$USERR1
 40
0.0
  9
$USERR2
 40
0.0
  9
$USERR3
 40
0.0
  9
$USERR4
 40
0.0
  9
$USERR5
 40
0.0
  9
$WORLDVIEW
 70
     1
  9
$SHADEDGE
 70
     3
  9
$SHADEDIF
 70
    70
  9
$TILEMODE
 70
     1
  9
$MAXACTVP
 70
    16
  9
$PINSBASE
 10
0.0
 20
0.0
 30
0.0
  9
$PLIMCHECK
 70
     0
  9
$PEXTMIN
 10
1.000000000000000E+20
 20
1.000000000000000E+20
 30
1.000000000000000E+20
  9
$PEXTMAX
 10
-1.000000000000000E+20
 20
-1.000000000000000E+20
 30
-1.000000000000000E+20
  9
$PLIMMIN
 10
0.0
 20
0.0
  9
$PLIMMAX
 10
420.0
 20
297.0
  9
$UNITMODE
 70
     0
  9
$VISRETAIN
 70
     0
  9
$PLINEGEN
 70
     0
  9
$PSLTSCALE
 70
     1
  9
$TREEDEPTH
 70
  3020
  9
$PICKSTYLE
 70
     0
  9
$CMLSTYLE
  2
STANDARD
  9
$CMLJUST
 70
     0
  9
$CMLSCALE
 40
1.0
  9
$PROXYGRAPHICS
 70
     1
  9
$MEASUREMENT
 70
     1
  0
ENDSEC
  0
SECTION
  2
CLASSES
  0
CLASS
  1
XRECORD
  2
AcDbXrecord
  3
AutoCAD 2000
 90
        0
280
     0
281
     0
  0
CLASS
  1
ACDBDICTIONARYWDFLT
  2
AcDbDictionaryWithDefault
  3
AutoCAD 2000
 90
        0
280
     0
281
     0
  0
CLASS
  1
ACDBPLACEHOLDER
  2
AcDbPlaceHolder
  3
AutoCAD 2000
 90
        0
280
     0
281
     0
  0
CLASS
  1
LAYOUT
  2
AcDbLayout
  3
AutoCAD 2000
 90
        0
280
     0
281
     0
  0
CLASS
  1
DICTIONARYVAR
  2
AcDbDictionaryVar
  3
AutoCAD 2000
 90
        0
280
     0
281
     0
  0
CLASS
  1
LONG_TRANSACTION
  2
AcDbLongTransaction
  3
AutoCAD 2000
 90
        0
280
     0
281
     0
  0
CLASS
  1
LWPOLYLINE
  2
AcDbPolyline
  3
AutoCAD 2000
 90
        0
280
     0
281
     1
  0
CLASS
  1
HATCH
  2
AcDbHatch
  3
AutoCAD 2000
 90
        0
280
     0
281
     1
  0
CLASS
  1
XRECORD
  2
AcDbXrecord
  3
AutoCAD 2000
 90
        0
280
     0
281
     0
  0
ENDSEC
  0
SECTION
  2
TABLES
  0
TABLE
  2
VPORT
  5
8
330
0
100
AcDbSymbolTable
 70
     2
  0
VPORT
  5
109C
330
8
100
AcDbSymbolTableRecord
100
AcDbViewportTableRecord
  2
*ACTIVE
 70
     0
 10
0.0
 20
0.0
 11
1.0
 21
1.0
 12
29.51230248505901
 22
16.1800716359121
 13
0.0
 23
0.0
 14
7.0
 24
7.0
 15
7.0
 25
7.0
 16
0.0
 26
0.0
 36
1.0
 17
0.0
 27
0.0
 37
0.0
 40
90.36895629476566
 41
1.531859557867359
 42
50.0
 43
0.0
 44
0.0
 50
0.0
 51
0.0
 71
     0
 72
  2000
 73
     1
 74
     0
 75
     0
 76
     0
 77
     0
 78
     0
  0
ENDTAB
  0
TABLE
  2
LTYPE
  5
5
330
0
100
AcDbSymbolTable
 70
     2
  0
LTYPE
  5
14
330
5
100
AcDbSymbolTableRecord
100
AcDbLinetypeTableRecord
  2
BYBLOCK
 70
     0
  3

 72
    65
 73
     0
 40
0.0
  0
LTYPE
  5
15
330
5
100
AcDbSymbolTableRecord
100
AcDbLinetypeTableRecord
  2
BYLAYER
 70
     0
  3

 72
    65
 73
     0
 40
0.0
  0
LTYPE
  5
16
330
5
100
AcDbSymbolTableRecord
100
AcDbLinetypeTableRecord
  2
CONTINUOUS
 70
     0
  3
Solid line
 72
    65
 73
     0
 40
0.0
  0
LTYPE
  5
258
330
5
100
AcDbSymbolTableRecord
100
AcDbLinetypeTableRecord
  2
CENTER2
 70
     0
  3
___ _ ___ _ ___ _ ___ _ ___ _ ___ _ ___ _ ___ _
 72
    65
 73
     4
 40
1.125
 49
0.75
 74
     0
 49
-0.125
 74
     0
 49
0.125
 74
     0
 49
-0.125
 74
     0
  0
ENDTAB
  0
TABLE
  2
LAYER
  5
2
330
0
100
AcDbSymbolTable
 70
     7
  0
LAYER
  5
F
330
2
100
AcDbSymbolTableRecord
100
AcDbLayerTableRecord
  2
0
 70
     0
 62
     7
  6
CONTINUOUS
  0
LAYER
  5
1AA
330
2
100
AcDbSymbolTableRecord
100
AcDbLayerTableRecord
  2
240
 70
     0
 62
     4
  6
CONTINUOUS
  0
LAYER
  5
1AB
330
2
100
AcDbSymbolTableRecord
100
AcDbLayerTableRecord
  2
241
 70
     0
 62
   211
  6
CONTINUOUS
  0
LAYER
  5
1AF
330
2
100
AcDbSymbolTableRecord
100
AcDbLayerTableRecord
  2
245
 70
     0
 62
     2
  6
CENTER2
  0
LAYER
  5
21B
330
2
100
AcDbSymbolTableRecord
100
AcDbLayerTableRecord
  2
247
 70
     0
 62
    60
  6
CONTINUOUS
  0
LAYER
  5
21E
330
2
100
AcDbSymbolTableRecord
100
AcDbLayerTableRecord
  2
250
 70
     0
 62
     3
  6
CONTINUOUS
  0
LAYER
  5
5C4
330
2
100
AcDbSymbolTableRecord
100
AcDbLayerTableRecord
  2
DEFPOINTS
 70
     0
 62
     7
  6
CONTINUOUS
  0
ENDTAB
  0
TABLE
  2
STYLE
  5
3
330
0
100
AcDbSymbolTable
 70
     2
  0
STYLE
  5
10
330
3
100
AcDbSymbolTableRecord
100
AcDbTextStyleTableRecord
  2
STANDARD
 70
     0
 40
0.0
 41
1.0
 50
0.0
 71
     0
 42
3.0
  3
romans.shx
  4
BIGFONT.SHX
  0
STYLE
  5
339
330
3
100
AcDbSymbolTableRecord
100
AcDbTextStyleTableRecord
  2
YOKO
 70
     0
 40
0.0
 41
1.0
 50
0.0
 71
     0
 42
3.0
  3
romans.shx
  4
extfont.shx
  0
ENDTAB
  0
TABLE
  2
VIEW
  5
6
330
0
100
AcDbSymbolTable
 70
     0
  0
ENDTAB
  0
TABLE
  2
UCS
  5
7
330
0
100
AcDbSymbolTable
 70
     0
  0
ENDTAB
  0
TABLE
  2
APPID
  5
9
330
0
100
AcDbSymbolTable
 70
     9
  0
APPID
  5
11
330
9
100
AcDbSymbolTableRecord
100
AcDbRegAppTableRecord
  2
ACAD
 70
     0
  0
APPID
  5
1B1
330
9
100
AcDbSymbolTableRecord
100
AcDbRegAppTableRecord
  2
GLOBAL
 70
     0
  0
APPID
  5
2A4
330
9
100
AcDbSymbolTableRecord
100
AcDbRegAppTableRecord
  2
DETAIL
 70
     0
  0
APPID
  5
5FD
330
9
100
AcDbSymbolTableRecord
100
AcDbRegAppTableRecord
  2
GRPNAME
 70
     0
  0
APPID
  5
5FE
330
9
100
AcDbSymbolTableRecord
100
AcDbRegAppTableRecord
  2
GPARA
 70
     0
  0
APPID
  5
A0A
330
9
100
AcDbSymbolTableRecord
100
AcDbRegAppTableRecord
  2
HATCH_TYPE
 70
     0
  0
APPID
  5
A0B
330
9
100
AcDbSymbolTableRecord
100
AcDbRegAppTableRecord
  2
HATCH_DISPLAY
 70
     0
  0
APPID
  5
A0C
330
9
100
AcDbSymbolTableRecord
100
AcDbRegAppTableRecord
  2
HATCH_DISTANCE
 70
     0
  0
APPID
  5
B0C
330
9
100
AcDbSymbolTableRecord
100
AcDbRegAppTableRecord
  2
ITEMNAME
 70
     0
  0
ENDTAB
  0
TABLE
  2
DIMSTYLE
  5
A
330
0
100
AcDbSymbolTable
 70
     2
  0
DIMSTYLE
105
48F
330
A
100
AcDbSymbolTableRecord
100
AcDbDimStyleTableRecord
  2
STANDARD
 70
     0
  3

  4

  5

  6

  7

 40
1.0
 41
2.0
 42
2.0
 43
3.75
 44
2.0
 45
0.0
 46
0.0
 47
0.0
 48
0.0
140
4.0
141
0.09
142
0.0
143
25.4
144
1.0
145
0.0
146
1.0
147
1.0
 71
     0
 72
     0
 73
     1
 74
     1
 75
     0
 76
     0
 77
     0
 78
     8
170
     0
171
     2
172
     0
173
     1
174
     0
175
     0
176
   256
177
   256
178
   256
270
     2
271
     3
272
     4
273
     2
274
     2
340
10
275
     0
280
     0
281
     0
282
     0
283
     1
284
     8
285
     0
286
     0
287
     3
288
     0
  0
DIMSTYLE
105
59A
102
{ACAD_REACTORS
330
1030
330
1031
330
1036
330
1037
102
}
330
A
100
AcDbSymbolTableRecord
100
AcDbDimStyleTableRecord
  2
BIGT
 70
     0
  3

  4

  5
OPEN
  6

  7

 40
1.0
 41
2.229999999999999
 42
0.5
 43
2.5
 44
1.0
 45
0.0
 46
0.0
 47
0.0
 48
0.0
140
3.5
141
0.0
142
0.0
143
25.4
144
1.0
145
0.0
146
1.0
147
1.0
 71
     0
 72
     0
 73
     0
 74
     0
 75
     0
 76
     0
 77
     3
 78
     9
170
     0
171
     2
172
     1
173
     0
174
     0
175
     0
176
   256
177
   256
178
    40
270
     2
271
     3
272
     3
273
     2
274
     2
340
10
275
     0
280
     0
281
     0
282
     0
283
     1
284
     8
285
     0
286
     0
287
     2
288
     0
  0
ENDTAB
  0
TABLE
  2
BLOCK_RECORD
  5
1
330
0
100
AcDbSymbolTable
 70
     6
  0
BLOCK_RECORD
  5
1A
102
{ACAD_XDICTIONARY
360
10C0
102
}
330
1
100
AcDbSymbolTableRecord
100
AcDbBlockTableRecord
  2
*MODEL_SPACE
  0
BLOCK_RECORD
  5
17
102
{ACAD_XDICTIONARY
360
10BE
102
}
330
1
100
AcDbSymbolTableRecord
100
AcDbBlockTableRecord
  2
*PAPER_SPACE
  0
BLOCK_RECORD
  5
594
330
1
100
AcDbSymbolTableRecord
100
AcDbBlockTableRecord
  2
_OPEN
  0
BLOCK_RECORD
  5
EF3
330
1
100
AcDbSymbolTableRecord
100
AcDbBlockTableRecord
  2
A$C43116C3D
  0
BLOCK_RECORD
  5
103C
330
1
100
AcDbSymbolTableRecord
100
AcDbBlockTableRecord
  2
*D2
  0
BLOCK_RECORD
  5
1048
330
1
100
AcDbSymbolTableRecord
100
AcDbBlockTableRecord
  2
*D3
  0
BLOCK_RECORD
  5
1054
330
1
100
AcDbSymbolTableRecord
100
AcDbBlockTableRecord
  2
*D4
  0
BLOCK_RECORD
  5
1060
330
1
100
AcDbSymbolTableRecord
100
AcDbBlockTableRecord
  2
*D5
  0
ENDTAB
  0
ENDSEC
  0
SECTION
  2
BLOCKS
  0
BLOCK
  5
1B
330
1A
100
AcDbEntity
  8
0
100
AcDbBlockBegin
  2
*MODEL_SPACE
 70
     0
 10
0.0
 20
0.0
 30
0.0
  3
*MODEL_SPACE
  1

  0
ENDBLK
  5
1C
330
1A
100
AcDbEntity
  8
0
100
AcDbBlockEnd
  0
BLOCK
  5
18
330
17
100
AcDbEntity
 67
     1
  8
0
100
AcDbBlockBegin
  2
*PAPER_SPACE
 70
     0
 10
0.0
 20
0.0
 30
0.0
  3
*PAPER_SPACE
  1

  0
ENDBLK
  5
19
330
17
100
AcDbEntity
 67
     1
  8
0
100
AcDbBlockEnd
  0
BLOCK
  5
598
330
594
100
AcDbEntity
  8
0
100
AcDbBlockBegin
  2
_OPEN
 70
     0
 10
0.0
 20
0.0
 30
0.0
  3
_OPEN
  1

  0
LINE
  5
595
330
594
100
AcDbEntity
  8
0
  6
BYBLOCK
 62
     0
100
AcDbLine
 10
-1.0
 20
0.1666666666666666
 30
0.0
 11
0.0
 21
0.0
 31
0.0
  0
LINE
  5
596
330
594
100
AcDbEntity
  8
0
  6
BYBLOCK
 62
     0
100
AcDbLine
 10
-1.0
 20
-0.1666666666666666
 30
0.0
 11
0.0
 21
0.0
 31
0.0
  0
LINE
  5
597
330
594
100
AcDbEntity
  8
0
  6
BYBLOCK
 62
     0
100
AcDbLine
 10
0.0
 20
0.0
 30
0.0
 11
-1.0
 21
0.0
 31
0.0
  0
ENDBLK
  5
599
330
594
100
AcDbEntity
  8
0
100
AcDbBlockEnd
  0
BLOCK
  5
FE1
330
EF3
100
AcDbEntity
  8
0
100
AcDbBlockBegin
  2
A$C43116C3D
 70
     0
 10
0.0
 20
0.0
 30
0.0
  3
A$C43116C3D
  1

  0
LINE
  5
EF4
330
EF3
100
AcDbEntity
  8
245
100
AcDbLine
 10
68.57852564856057
 20
0.0
 30
0.0
 11
-23.65313875909373
 21
0.0
 31
0.0
  0
LINE
  5
EF5
330
EF3
100
AcDbEntity
  8
240
100
AcDbLine
 10
36.25
 20
-9.249999999999985
 30
0.0
 11
44.0
 21
-9.249999999999985
 31
0.0
  0
LINE
  5
EF6
330
EF3
100
AcDbEntity
  8
240
100
AcDbLine
 10
36.25
 20
9.25
 30
0.0
 11
44.0
 21
9.25
 31
0.0
  0
LINE
  5
EF7
330
EF3
100
AcDbEntity
  8
241
100
AcDbLine
 10
36.0
 20
0.0
 30
0.0
 11
36.0
 21
9.5
 31
0.0
  0
LINE
  5
EF8
330
EF3
100
AcDbEntity
  8
245
100
AcDbLine
 10
-7.999999999999971
 20
4.047611999999986
 30
0.0
 11
-7.999999999999971
 21
-3.988156000000003
 31
0.0
  0
CIRCLE
  5
EF9
330
EF3
100
AcDbEntity
  8
241
100
AcDbCircle
 10
-7.999999999999971
 20
0.0
 30
0.0
 40
2.25
  0
CIRCLE
  5
EFA
330
EF3
100
AcDbEntity
  8
241
100
AcDbCircle
 10
-7.999999999999971
 20
0.0
 30
0.0
 40
2.990499999999999
  0
TEXT
  5
EFB
330
EF3
100
AcDbEntity
  8
247
100
AcDbText
 10
3.595728413923382
 20
-4.766061219601667
 30
0.0
 40
2.0
  1
CK3-STC12-66
 50
90.0
 41
0.7
  7
YOKO
 11
3.595728413923382
 21
-4.766061219601667
 31
0.0
100
AcDbText
 73
     1
  0
LINE
  5
EFC
330
EF3
100
AcDbEntity
  8
241
100
AcDbLine
 10
-17.60312799999999
 20
8.673242999999956
 30
0.0
 11
-17.60312800000019
 21
0.0000000000000142
 31
0.0
  0
LINE
  5
EFD
330
EF3
100
AcDbEntity
  8
241
100
AcDbLine
 10
-15.75
 20
9.0
 30
0.0
 11
-15.75
 21
0.0000000000000142
 31
0.0
  0
LINE
  5
EFE
330
EF3
100
AcDbEntity
  8
241
100
AcDbLine
 10
24.26393200000001
 20
0.0
 30
0.0
 11
24.26393200000001
 21
16.0
 31
0.0
  0
LINE
  5
EFF
330
EF3
100
AcDbEntity
  8
241
100
AcDbLine
 10
29.76393200000001
 20
0.0
 30
0.0
 11
29.76393200000001
 21
16.0
 31
0.0
  0
LINE
  5
F00
330
EF3
100
AcDbEntity
  8
241
100
AcDbLine
 10
28.73606799999999
 20
0.0
 30
0.0
 11
28.73606799999999
 21
16.0
 31
0.0
  0
LINE
  5
F01
330
EF3
100
AcDbEntity
  8
241
100
AcDbLine
 10
33.65831200000002
 20
0.0
 30
0.0
 11
33.65831200000002
 21
15.5
 31
0.0
  0
LINE
  5
F02
330
EF3
100
AcDbEntity
  8
241
100
AcDbLine
 10
5.0
 20
0.0
 30
0.0
 11
5.0
 21
14.5
 31
0.0
  0
LINE
  5
F03
330
EF3
100
AcDbEntity
  8
241
100
AcDbLine
 10
0.0
 20
8.999999999999616
 30
0.0
 11
0.0
 21
0.0
 31
0.0
  0
LINE
  5
F04
330
EF3
100
AcDbEntity
  8
241
100
AcDbLine
 10
11.0
 20
14.5
 30
0.0
 11
11.0
 21
0.0
 31
0.0
  0
LINE
  5
F05
330
EF3
100
AcDbEntity
  8
240
100
AcDbLine
 10
-20.0
 20
8.633973999999966
 30
0.0
 11
-20.0
 21
-8.63397500000002
 31
0.0
  0
LINE
  5
F06
330
EF3
100
AcDbEntity
  8
241
100
AcDbLine
 10
-8.493432878682895
 20
-8.999999999999914
 30
0.0
 11
-1.506567121317104
 21
-8.999999999999914
 31
0.0
  0
ARC
  5
F07
330
EF3
100
AcDbEntity
  8
240
100
AcDbCircle
 10
-3.051879999999997
 20
-10.20000000000001
 30
0.0
 40
0.8
100
AcDbArc
 50
270.0
 51
329.9999999999998
  0
LINE
  5
F08
330
EF3
100
AcDbEntity
  8
240
100
AcDbLine
 10
-15.75
 20
-9.0
 30
0.0
 11
-8.493432878682895
 21
-8.999999999999914
 31
0.0
  0
LINE
  5
F09
330
EF3
100
AcDbEntity
  8
241
100
AcDbLine
 10
-17.60312799999999
 20
-8.673244000000011
 30
0.0
 11
-17.60312799999981
 21
0.0000000000000142
 31
0.0
  0
LINE
  5
F0A
330
EF3
100
AcDbEntity
  8
241
100
AcDbLine
 10
-15.75
 20
-9.0
 30
0.0
 11
-15.75
 21
0.0000000000000142
 31
0.0
  0
LINE
  5
F0B
330
EF3
100
AcDbEntity
  8
240
100
AcDbLine
 10
-17.60312799999999
 20
-8.673244000000011
 30
0.0
 11
-15.75
 21
-9.0
 31
0.0
  0
LINE
  5
F0C
330
EF3
100
AcDbEntity
  8
240
100
AcDbLine
 10
-20.0
 20
-8.63397500000002
 30
0.0
 11
-19.93301299999998
 21
-8.75
 31
0.0
  0
ARC
  5
F0D
330
EF3
100
AcDbEntity
  8
240
100
AcDbCircle
 10
-19.5
 20
-8.5
 30
0.0
 40
0.5
100
AcDbArc
 50
210.0000000000001
 51
280.0000000000001
  0
LINE
  5
F0E
330
EF3
100
AcDbEntity
  8
240
100
AcDbLine
 10
-17.60312799999999
 20
-8.673244000000011
 30
0.0
 11
-19.41317599999999
 21
-8.992404000000021
 31
0.0
  0
LINE
  5
F0F
330
EF3
100
AcDbEntity
  8
240
100
AcDbLine
 10
-6.948119999999988
 20
-11.0
 30
0.0
 11
-3.051879999999997
 21
-11.0
 31
0.0
  0
LINE
  5
F10
330
EF3
100
AcDbEntity
  8
240
100
AcDbLine
 10
-8.39282
 20
-9.297705000000036
 30
0.0
 11
-7.640939999999986
 21
-10.60000000000002
 31
0.0
  0
ARC
  5
F11
330
EF3
100
AcDbEntity
  8
240
100
AcDbCircle
 10
-7.700000000000002
 20
-8.89770500000003
 30
0.0
 40
0.8
100
AcDbArc
 50
187.3464340000004
 51
210.0000000000001
  0
ARC
  5
F12
330
EF3
100
AcDbEntity
  8
240
100
AcDbCircle
 10
-6.948119999999988
 20
-10.20000000000001
 30
0.0
 40
0.8
100
AcDbArc
 50
210.0000000000001
 51
270.0
  0
LINE
  5
F13
330
EF3
100
AcDbEntity
  8
240
100
AcDbLine
 10
24.26393200000001
 20
-16.0
 30
0.0
 11
12.0
 21
-16.0
 31
0.0
  0
LINE
  5
F14
330
EF3
100
AcDbEntity
  8
240
100
AcDbLine
 10
5.0
 20
-14.5
 30
0.0
 11
11.0
 21
-14.5
 31
0.0
  0
HATCH
  5
F15
330
EF3
100
AcDbEntity
  8
247
100
AcDbHatch
 10
0.0
 20
0.0
 30
0.0
210
0.0
220
0.0
230
1.0
  2
ANSI31
 70
     0
 71
     1
 91
        1
 92
       33
 93
       15
 72
     1
 10
1.810738634685492
 20
-7.000206846449671
 11
1.594577746013612
 21
-7.068369688246548
 72
     2
 10
2.709544787029244
 20
-6.657487119887179
 40
0.9619301605224604
 50
200.8721834020736
 51
222.5419489373881
 73
     1
 72
     2
 10
2.007904162029234
 20
-7.545424131605926
 40
0.2376546716690064
 50
91.71012138206437
 51
253.9983983544486
 73
     1
 72
     1
 10
3.006173204997992
 20
-8.078909239027808
 11
1.942390246013616
 21
-7.773872617934046
 72
     2
 10
3.071678576091755
 20
-7.850460752699675
 40
0.2376545047760009
 50
254.000273057184
 51
434.000273057184
 73
     1
 72
     1
 10
3.137183947185491
 20
-7.622012266371555
 11
2.630324816326094
 21
-7.476671690199665
 72
     1
 10
2.630324816326094
 20
-7.665035948012175
 11
2.630324816326094
 21
-7.476671690199665
 72
     1
 10
2.630324816326094
 20
-7.665035948012175
 11
2.403986925701104
 21
-7.600137266371561
 72
     1
 10
2.403986925701104
 20
-7.600137266371561
 11
2.403986925701104
 21
-6.940853819105925
 72
     1
 10
3.558303598979932
 20
-7.271849912855927
 11
2.403986925701104
 21
-6.940853819105925
 72
     1
 10
3.425541147808047
 20
-7.404620908949681
 11
3.558303598979932
 21
-7.271849912855927
 72
     2
 10
2.822713732341725
 20
-7.826158994887165
 40
0.7355981445312501
 50
253.9997507017275
 51
394.9638732916308
 73
     1
 72
     2
 10
2.861388048747983
 20
-6.623495420668433
 40
1.924965820312499
 50
245.2051773698423
 51
262.7948259620505
 73
     1
 72
     2
 10
2.256869005779236
 20
-7.663908018324676
 40
0.7355906677246093
 50
143.4440121970578
 51
254.0001843876854
 73
     1
 72
     2
 10
2.709544787029244
 20
-6.657487119887179
 40
1.188265914916992
 50
200.2296450633201
 51
208.5716889237166
 73
     1
 97
       15
330
F68
330
F62
330
F65
330
F60
330
F83
330
F61
330
F66
330
F67
330
F64
330
F5E
330
F82
330
F18
330
F40
330
F17
330
F63
 75
     0
 76
     1
 52
90.0
 41
0.056
 77
     0
 78
     1
 53
135.0
 43
12.71780482731244
 44
-79.52837515089298
 45
-0.1257235856949681
 46
-0.1257235856949681
 79
     0
 98
        1
 10
12.71780482731244
 20
-79.52837515089298
  0
HATCH
  5
F16
330
EF3
100
AcDbEntity
  8
247
100
AcDbHatch
 10
0.0
 20
0.0
 30
0.0
210
0.0
220
0.0
230
1.0
  2
ANSI31
 70
     0
 71
     1
 91
        1
 92
       33
 93
       10
 72
     1
 10
1.521279406169867
 20
-10.78470147535593
 11
1.747617296794885
 21
-10.84960015699655
 72
     1
 10
1.521279406169867
 20
-11.2521172468403
 11
1.521279406169867
 21
-10.78470147535593
 72
     1
 10
1.747617296794885
 20
-11.2521172468403
 11
1.747617296794885
 21
-10.84960015699655
 72
     2
 10
2.709544787029244
 20
-11.2521172468403
 40
0.9619274902343747
 50
180.0
 51
360.0
 73
     1
 72
     2
 10
2.709544787029244
 20
-11.2521172468403
 40
1.188265380859374
 50
180.0
 51
360.0
 73
     1
 72
     1
 10
3.897810429092373
 20
-11.2521172468403
 11
3.897810429092373
 21
-6.657487119887179
 72
     1
 10
3.671472544292413
 20
-11.2521172468403
 11
3.671472544292413
 21
-6.657487119887179
 72
     2
 10
2.709544787029244
 20
-6.657487119887179
 40
1.188265380859374
 50
0.0
 51
194.7707939660941
 73
     1
 72
     2
 10
2.709544787029244
 20
-6.657487119887179
 40
0.9619274902343747
 50
0.0
 51
194.1274364964119
 73
     1
 72
     1
 10
1.77670421085736
 20
-6.892275938246555
 11
1.56054332218548
 21
-6.960438780043418
 97
       10
330
F52
330
F4F
330
F4C
330
F28
330
F27
330
F19
330
F1A
330
F5F
330
F5D
330
F81
 75
     0
 76
     1
 52
90.0
 41
0.056
 77
     0
 78
     1
 53
135.0
 43
12.71780482731244
 44
-79.52837515089298
 45
-0.1257235856949681
 46
-0.1257235856949681
 79
     0
 98
        1
 10
12.71780482731244
 20
-79.52837515089298
  0
ARC
  5
F17
102
{ACAD_REACTORS
330
F15
102
}
330
EF3
100
AcDbEntity
  8
247
100
AcDbCircle
 10
2.256869005779236
 20
-7.663908018324676
 30
0.0
 40
0.7355906677246093
100
AcDbArc
 50
143.4440121970578
 51
254.0001843876854
  0
ARC
  5
F18
102
{ACAD_REACTORS
330
F15
102
}
330
EF3
100
AcDbEntity
  8
247
100
AcDbCircle
 10
2.822713732341725
 20
-7.826158994887165
 30
0.0
 40
0.7355981445312501
100
AcDbArc
 50
253.9997507017275
 51
34.96387329163082
  0
LINE
  5
F19
102
{ACAD_REACTORS
330
F16
102
}
330
EF3
100
AcDbEntity
  8
247
100
AcDbLine
 10
3.897810429092373
 20
-11.2521172468403
 30
0.0
 11
3.897810429092373
 21
-6.657487119887179
 31
0.0
  0
LINE
  5
F1A
102
{ACAD_REACTORS
330
F16
102
}
330
EF3
100
AcDbEntity
  8
247
100
AcDbLine
 10
3.671472544292413
 20
-11.2521172468403
 30
0.0
 11
3.671472544292413
 21
-6.657487119887179
 31
0.0
  0
LINE
  5
F1B
330
EF3
100
AcDbEntity
  8
241
100
AcDbLine
 10
5.0
 20
0.0
 30
0.0
 11
5.0
 21
-14.5
 31
0.0
  0
LINE
  5
F1C
330
EF3
100
AcDbEntity
  8
241
100
AcDbLine
 10
0.0
 20
-9.000000000000042
 30
0.0
 11
0.0
 21
0.0
 31
0.0
  0
HATCH
  5
F1D
330
EF3
100
AcDbEntity
  8
247
100
AcDbHatch
 10
0.0
 20
0.0
 30
0.0
210
0.0
220
0.0
230
1.0
  2
ANSI31
 70
     0
 71
     1
 91
        1
 92
        7
 72
     0
 73
     1
 93
        6
 10
1.521279406169867
 20
-8.418356260512183
 10
1.521279406169867
 20
-9.006998838637175
 10
1.770244249919869
 20
-9.078391660902795
 10
1.770244249919869
 20
-8.995975889418433
 10
3.558303598979933
 20
-9.508696836684052
 10
3.558303598979932
 20
-9.002461485121543
 97
        1
330
F32
 75
     0
 76
     1
 52
90.0
 41
0.056
 77
     0
 78
     1
 53
135.0
 43
12.71780482731244
 44
-79.52837515089298
 45
-0.1257235856949681
 46
-0.1257235856949681
 79
     0
 47
0.0134348504236232
 98
        1
 10
2.486453062702224
 20
-8.947546328877905
  0
LINE
  5
F1E
330
EF3
100
AcDbEntity
  8
247
100
AcDbLine
 10
3.558303598979932
 20
-9.002461485121543
 30
0.0
 11
1.521279406169867
 21
-8.418356260512183
 31
0.0
  0
LINE
  5
F1F
330
EF3
100
AcDbEntity
  8
247
100
AcDbLine
 10
3.558303598979932
 20
-11.13335137769964
 30
0.0
 11
1.747617296795539
 21
-10.61414483473117
 31
0.0
  0
LINE
  5
F20
330
EF3
100
AcDbEntity
  8
247
100
AcDbLine
 10
2.89733694480418
 20
-10.11492764896989
 30
0.0
 11
2.155165453442066
 21
-9.372756157607767
 31
0.0
  0
LINE
  5
F21
330
EF3
100
AcDbEntity
  8
247
100
AcDbLine
 10
3.354396981377533
 20
-11.07488202832311
 30
0.0
 11
2.396737642715436
 21
-10.11722268966097
 31
0.0
  0
LINE
  5
F22
330
EF3
100
AcDbEntity
  8
247
100
AcDbLine
 10
3.001861879135446
 20
-10.97379409747093
 30
0.0
 11
2.209581939954773
 21
-10.18151415829027
 31
0.0
  0
LINE
  5
F23
330
EF3
100
AcDbEntity
  8
247
100
AcDbLine
 10
3.558303598979932
 20
-10.52444713175569
 30
0.0
 11
2.727818417219481
 21
-9.693961949995255
 31
0.0
  0
ARC
  5
F24
330
EF3
100
AcDbEntity
  8
247
100
AcDbCircle
 10
2.992467150310488
 20
-10.19409356519968
 30
0.0
 40
0.5658361816406247
100
AcDbArc
 50
0.0
 51
130.3298406541676
  0
ARC
  5
F25
330
EF3
100
AcDbEntity
  8
247
100
AcDbCircle
 10
2.969831652263621
 20
-10.44660455152779
 30
0.0
 40
0.3395070695877076
100
AcDbArc
 50
351.6628542111489
 51
156.3381921591137
  0
LINE
  5
F26
330
EF3
100
AcDbEntity
  8
247
100
AcDbLine
 10
2.658866793566062
 20
-10.31034778305282
 30
0.0
 11
3.305750823762508
 21
-10.49583219132007
 31
0.0
  0
ARC
  5
F27
102
{ACAD_REACTORS
330
F16
102
}
330
EF3
100
AcDbEntity
  8
247
100
AcDbCircle
 10
2.709544787029244
 20
-11.2521172468403
 30
0.0
 40
1.188265380859374
100
AcDbArc
 50
180.0
 51
0.0
  0
ARC
  5
F28
102
{ACAD_REACTORS
330
F16
102
}
330
EF3
100
AcDbEntity
  8
247
100
AcDbCircle
 10
2.709544787029244
 20
-11.2521172468403
 30
0.0
 40
0.9619274902343747
100
AcDbArc
 50
180.0
 51
0.0
  0
LINE
  5
F29
330
EF3
100
AcDbEntity
  8
247
100
AcDbLine
 10
3.558303598979932
 20
-9.508696836684052
 30
0.0
 11
1.770244249919869
 21
-8.995975889418431
 31
0.0
  0
POLYLINE
  5
F2A
330
EF3
100
AcDbEntity
  8
247
100
AcDb2dPolyline
 66
     1
 10
0.0
 20
0.0
 30
0.0
 70
     1
1001
HATCH_DISTANCE
1040
1.0
1001
HATCH_DISPLAY
1070
     0
1001
HATCH_TYPE
1070
     7
  0
VERTEX
  5
F2B
330
F2A
100
AcDbEntity
  8
247
100
AcDbVertex
100
AcDb2dVertex
 10
1.521279406169867
 20
-9.006998838637173
 30
0.0
  0
VERTEX
  5
F2C
330
F2A
100
AcDbEntity
  8
247
100
AcDbVertex
100
AcDb2dVertex
 10
1.770244249919869
 20
-9.078391660902795
 30
0.0
  0
VERTEX
  5
F2D
330
F2A
100
AcDbEntity
  8
247
100
AcDbVertex
100
AcDb2dVertex
 10
1.770244249919869
 20
-8.995975889418431
 30
0.0
  0
VERTEX
  5
F2E
330
F2A
100
AcDbEntity
  8
247
100
AcDbVertex
100
AcDb2dVertex
 10
3.558303598979932
 20
-9.508696836684052
 30
0.0
  0
VERTEX
  5
F2F
330
F2A
100
AcDbEntity
  8
247
100
AcDbVertex
100
AcDb2dVertex
 10
3.558303598979932
 20
-9.002461485121543
 30
0.0
  0
VERTEX
  5
F30
330
F2A
100
AcDbEntity
  8
247
100
AcDbVertex
100
AcDb2dVertex
 10
1.521279406169867
 20
-8.418356260512183
 30
0.0
  0
SEQEND
  5
F31
330
F2A
100
AcDbEntity
  8
247
  0
POLYLINE
  5
F32
102
{ACAD_REACTORS
330
F1D
102
}
330
EF3
100
AcDbEntity
  8
247
100
AcDb2dPolyline
 66
     1
 10
0.0
 20
0.0
 30
0.0
 70
     1
  0
VERTEX
  5
F33
330
F32
100
AcDbEntity
  8
247
100
AcDbVertex
100
AcDb2dVertex
 10
1.521279406169867
 20
-9.006998838637173
 30
0.0
  0
VERTEX
  5
F34
330
F32
100
AcDbEntity
  8
247
100
AcDbVertex
100
AcDb2dVertex
 10
1.770244249919869
 20
-9.078391660902795
 30
0.0
  0
VERTEX
  5
F35
330
F32
100
AcDbEntity
  8
247
100
AcDbVertex
100
AcDb2dVertex
 10
1.770244249919869
 20
-8.995975889418431
 30
0.0
  0
VERTEX
  5
F36
330
F32
100
AcDbEntity
  8
247
100
AcDbVertex
100
AcDb2dVertex
 10
3.558303598979932
 20
-9.508696836684052
 30
0.0
  0
VERTEX
  5
F37
330
F32
100
AcDbEntity
  8
247
100
AcDbVertex
100
AcDb2dVertex
 10
3.558303598979932
 20
-9.002461485121543
 30
0.0
  0
VERTEX
  5
F38
330
F32
100
AcDbEntity
  8
247
100
AcDbVertex
100
AcDb2dVertex
 10
1.521279406169867
 20
-8.418356260512183
 30
0.0
  0
SEQEND
  5
F39
330
F32
100
AcDbEntity
  8
247
  0
LINE
  5
F3A
330
EF3
100
AcDbEntity
  8
240
100
AcDbLine
 10
4.5
 20
-15.5
 30
0.0
 11
0.5
 21
-15.5
 31
0.0
  0
LINE
  5
F3B
330
EF3
100
AcDbEntity
  8
240
100
AcDbLine
 10
0.0
 20
-15.0
 30
0.0
 11
0.0
 21
-9.000000000000042
 31
0.0
  0
LINE
  5
F3C
330
EF3
100
AcDbEntity
  8
240
100
AcDbLine
 10
0.5
 20
-15.5
 30
0.0
 11
0.0
 21
-15.0
 31
0.0
  0
LINE
  5
F3D
330
EF3
100
AcDbEntity
  8
240
100
AcDbLine
 10
-1.506567121317061
 20
-8.999999999999616
 30
0.0
 11
0.0
 21
-8.999999999999928
 31
0.0
  0
ARC
  5
F3E
330
EF3
100
AcDbEntity
  8
240
100
AcDbCircle
 10
-2.299999999999997
 20
-8.89770500000003
 30
0.0
 40
0.8
100
AcDbArc
 50
329.9999999999998
 51
352.6535295677715
  0
LINE
  5
F3F
330
EF3
100
AcDbEntity
  8
240
100
AcDbLine
 10
-1.607179999999985
 20
-9.297705000000036
 30
0.0
 11
-2.359059999999999
 21
-10.60000000000002
 31
0.0
  0
ARC
  5
F40
102
{ACAD_REACTORS
330
F15
102
}
330
EF3
100
AcDbEntity
  8
247
100
AcDbCircle
 10
2.861388048747983
 20
-6.623495420668433
 30
0.0
 40
1.924965820312499
100
AcDbArc
 50
245.2051773698423
 51
262.7948259620505
  0
LINE
  5
F41
330
EF3
100
AcDbEntity
  8
247
100
AcDbLine
 10
1.770244249919869
 20
-9.078391660902795
 30
0.0
 11
1.770244249919869
 21
-8.995975889418431
 31
0.0
  0
LINE
  5
F42
330
EF3
100
AcDbEntity
  8
247
100
AcDbLine
 10
1.770244249919869
 20
-9.078391660902795
 30
0.0
 11
1.521279406169867
 21
-9.006998838637173
 31
0.0
  0
LINE
  5
F43
330
EF3
100
AcDbEntity
  8
247
100
AcDbLine
 10
1.521279406169867
 20
-9.006998838637173
 30
0.0
 11
1.521279406169867
 21
-8.418356260512183
 31
0.0
  0
ARC
  5
F44
330
EF3
100
AcDbEntity
  8
247
100
AcDbCircle
 10
2.087115587810501
 20
-9.934490293715299
 30
0.0
 40
0.5658409881591795
100
AcDbArc
 50
17.66957754739792
 51
180.2361598426716
  0
LINE
  5
F45
330
EF3
100
AcDbEntity
  8
247
100
AcDbLine
 10
1.753533197019862
 20
-10.0507472129526
 30
0.0
 11
2.400398040558826
 21
-10.23622856981712
 31
0.0
  0
ARC
  5
F46
330
EF3
100
AcDbEntity
  8
247
100
AcDbCircle
 10
2.064488634685488
 20
-10.18700128004341
 30
0.0
 40
0.3394973564147949
100
AcDbArc
 50
351.6626016879293
 51
156.3381550951899
  0
LINE
  5
F47
330
EF3
100
AcDbEntity
  8
247
100
AcDbLine
 10
2.73366256794543
 20
-10.20270044350104
 30
0.0
 11
1.923717239604286
 21
-9.392755115159914
 31
0.0
  0
LINE
  5
F48
330
EF3
100
AcDbEntity
  8
247
100
AcDbLine
 10
2.64932677689336
 20
-10.87270616661879
 30
0.0
 11
1.857050174347307
 21
-10.08042956407275
 31
0.0
  0
LINE
  5
F49
330
EF3
100
AcDbEntity
  8
247
100
AcDbLine
 10
1.911830145073054
 20
-9.883762363408578
 30
0.0
 11
1.629603522694253
 21
-9.601535741029763
 31
0.0
  0
LINE
  5
F4A
330
EF3
100
AcDbEntity
  8
247
100
AcDbLine
 10
2.134267225067929
 20
-9.854752272013499
 30
0.0
 11
1.755512615685319
 21
-9.475997662630888
 31
0.0
  0
LINE
  5
F4B
330
EF3
100
AcDbEntity
  8
247
100
AcDbLine
 10
1.779351827340491
 20
-10.00273121706592
 30
0.0
 11
1.54592330921352
 21
-9.769302698938972
 31
0.0
  0
LINE
  5
F4C
102
{ACAD_REACTORS
330
F16
102
}
330
EF3
100
AcDbEntity
  8
247
100
AcDbLine
 10
1.747617296794885
 20
-11.2521172468403
 30
0.0
 11
1.747617296794885
 21
-10.84960015699655
 31
0.0
  0
LINE
  5
F4D
330
EF3
100
AcDbEntity
  8
247
100
AcDbLine
 10
1.747617296794885
 20
-10.73187676832492
 30
0.0
 11
1.747617296795539
 21
-10.61414483473117
 31
0.0
  0
LINE
  5
F4E
330
EF3
100
AcDbEntity
  8
247
100
AcDbLine
 10
1.521279406169867
 20
-10.66697808668392
 30
0.0
 11
1.521279406169924
 21
-9.93682255171943
 31
0.0
  0
LINE
  5
F4F
102
{ACAD_REACTORS
330
F16
102
}
330
EF3
100
AcDbEntity
  8
247
100
AcDbLine
 10
1.521279406169867
 20
-11.2521172468403
 30
0.0
 11
1.521279406169867
 21
-10.78470147535593
 31
0.0
  0
LINE
  5
F50
330
EF3
100
AcDbEntity
  8
247
100
AcDbLine
 10
1.944256572409187
 20
-10.67053030491452
 30
0.0
 11
1.521279406169895
 21
-10.24755313867521
 31
0.0
  0
LINE
  5
F51
330
EF3
100
AcDbEntity
  8
247
100
AcDbLine
 10
1.747617296794885
 20
-10.72533820069015
 30
0.0
 11
1.521279406169867
 21
-10.49900031006512
 31
0.0
  0
LINE
  5
F52
102
{ACAD_REACTORS
330
F16
102
}
330
EF3
100
AcDbEntity
  8
247
100
AcDbLine
 10
1.521279406169867
 20
-10.78470147535593
 30
0.0
 11
1.747617296794885
 21
-10.84960015699655
 31
0.0
  0
LINE
  5
F53
330
EF3
100
AcDbEntity
  8
247
100
AcDbLine
 10
2.296791674651274
 20
-10.77161823576665
 30
0.0
 11
1.521279406169924
 21
-9.996105967285302
 31
0.0
  0
LINE
  5
F54
330
EF3
100
AcDbEntity
  8
247
100
AcDbLine
 10
1.521279406169867
 20
-10.66697808668392
 30
0.0
 11
1.747617296794885
 21
-10.73187676832492
 31
0.0
  0
LINE
  5
F55
330
EF3
100
AcDbEntity
  8
240
100
AcDbLine
 10
5.0
 20
-15.0
 30
0.0
 11
4.5
 21
-15.5
 31
0.0
  0
LINE
  5
F56
330
EF3
100
AcDbEntity
  8
240
100
AcDbLine
 10
5.0
 20
-14.5
 30
0.0
 11
5.0
 21
-15.0
 31
0.0
  0
LINE
  5
F57
330
EF3
100
AcDbEntity
  8
247
100
AcDbLine
 10
3.515879822704164
 20
-9.979129012700028
 30
0.0
 11
3.20743170281014
 21
-9.670680892806018
 31
0.0
  0
LINE
  5
F58
330
EF3
100
AcDbEntity
  8
247
100
AcDbLine
 10
3.558303598979932
 20
-11.02734147453554
 30
0.0
 11
2.914652735322817
 21
-10.38369061087841
 31
0.0
  0
LINE
  5
F59
330
EF3
100
AcDbEntity
  8
247
100
AcDbLine
 10
3.558303598979932
 20
-10.77589430314563
 30
0.0
 11
3.267182628889088
 21
-10.4847733330548
 31
0.0
  0
LINE
  5
F5A
330
EF3
100
AcDbEntity
  8
247
100
AcDbLine
 10
3.558303598979932
 20
-10.27299996036573
 30
0.0
 11
2.9184261566852
 21
-9.633122518071019
 31
0.0
  0
LINE
  5
F5B
330
EF3
100
AcDbEntity
  8
247
100
AcDbLine
 10
3.558303598979932
 20
-11.13335137769964
 30
0.0
 11
3.558303598979932
 21
-10.19409356519968
 31
0.0
  0
LINE
  5
F5C
330
EF3
100
AcDbEntity
  8
247
100
AcDbLine
 10
3.558303598979932
 20
-9.508696836684052
 30
0.0
 11
3.558303598979932
 21
-9.002461485121543
 31
0.0
  0
ARC
  5
F5D
102
{ACAD_REACTORS
330
F16
102
}
330
EF3
100
AcDbEntity
  8
247
100
AcDbCircle
 10
2.709544787029244
 20
-6.657487119887179
 30
0.0
 40
0.9619274902343747
100
AcDbArc
 50
0.0
 51
194.1274364964119
  0
LINE
  5
F5E
102
{ACAD_REACTORS
330
F15
102
}
330
EF3
100
AcDbEntity
  8
247
100
AcDbLine
 10
3.558303598979932
 20
-7.271849912855927
 30
0.0
 11
2.403986925701104
 21
-6.940853819105925
 31
0.0
  0
ARC
  5
F5F
102
{ACAD_REACTORS
330
F16
102
}
330
EF3
100
AcDbEntity
  8
247
100
AcDbCircle
 10
2.709544787029244
 20
-6.657487119887179
 30
0.0
 40
1.188265380859374
100
AcDbArc
 50
0.0
 51
194.7707939660941
  0
LINE
  5
F60
102
{ACAD_REACTORS
330
F15
102
}
330
EF3
100
AcDbEntity
  8
247
100
AcDbLine
 10
3.006173204997992
 20
-8.078909239027808
 30
0.0
 11
1.942390246013616
 21
-7.773872617934046
 31
0.0
  0
LINE
  5
F61
102
{ACAD_REACTORS
330
F15
102
}
330
EF3
100
AcDbEntity
  8
247
100
AcDbLine
 10
3.137183947185491
 20
-7.622012266371555
 30
0.0
 11
2.630324816326094
 21
-7.476671690199665
 31
0.0
  0
ARC
  5
F62
102
{ACAD_REACTORS
330
F15
102
}
330
EF3
100
AcDbEntity
  8
247
100
AcDbCircle
 10
2.709544787029244
 20
-6.657487119887179
 30
0.0
 40
0.9619301605224604
100
AcDbArc
 50
200.8721834020736
 51
222.5419489373881
  0
ARC
  5
F63
102
{ACAD_REACTORS
330
F15
102
}
330
EF3
100
AcDbEntity
  8
247
100
AcDbCircle
 10
2.709544787029244
 20
-6.657487119887179
 30
0.0
 40
1.188265914916992
100
AcDbArc
 50
200.2296450633201
 51
208.5716889237166
  0
LINE
  5
F64
102
{ACAD_REACTORS
330
F15
102
}
330
EF3
100
AcDbEntity
  8
247
100
AcDbLine
 10
2.403986925701104
 20
-7.600137266371561
 30
0.0
 11
2.403986925701104
 21
-6.940853819105925
 31
0.0
  0
ARC
  5
F65
102
{ACAD_REACTORS
330
F15
102
}
330
EF3
100
AcDbEntity
  8
247
100
AcDbCircle
 10
2.007904162029234
 20
-7.545424131605926
 30
0.0
 40
0.2376546716690064
100
AcDbArc
 50
91.71012138206437
 51
253.9983983544486
  0
LINE
  5
F66
102
{ACAD_REACTORS
330
F15
102
}
330
EF3
100
AcDbEntity
  8
247
100
AcDbLine
 10
2.630324816326094
 20
-7.665035948012175
 30
0.0
 11
2.630324816326094
 21
-7.476671690199665
 31
0.0
  0
LINE
  5
F67
102
{ACAD_REACTORS
330
F15
102
}
330
EF3
100
AcDbEntity
  8
247
100
AcDbLine
 10
2.630324816326094
 20
-7.665035948012175
 30
0.0
 11
2.403986925701104
 21
-7.600137266371561
 31
0.0
  0
LINE
  5
F68
102
{ACAD_REACTORS
330
F15
102
}
330
EF3
100
AcDbEntity
  8
247
100
AcDbLine
 10
1.810738634685492
 20
-7.000206846449671
 30
0.0
 11
1.594577746013612
 21
-7.068369688246548
 31
0.0
  0
POLYLINE
  5
F69
330
EF3
100
AcDbEntity
  8
247
100
AcDb2dPolyline
 66
     1
 10
0.0
 20
0.0
 30
0.0
 70
     1
1001
HATCH_DISTANCE
1040
1.0
1001
HATCH_DISPLAY
1070
     0
1001
HATCH_TYPE
1070
     7
  0
VERTEX
  5
F6A
330
F69
100
AcDbEntity
  8
247
100
AcDbVertex
100
AcDb2dVertex
 10
1.77670421085736
 20
-6.892275938246555
 30
0.0
  0
VERTEX
  5
F6B
330
F69
100
AcDbEntity
  8
247
100
AcDbVertex
100
AcDb2dVertex
 10
1.56054332218548
 20
-6.960438780043418
 30
0.0
  0
VERTEX
  5
F6C
330
F69
100
AcDbEntity
  8
247
100
AcDbVertex
100
AcDb2dVertex
 10
1.56054332218548
 20
-6.960438780043418
 30
0.0
  0
VERTEX
  5
F6D
330
F69
100
AcDbEntity
  8
247
100
AcDbVertex
100
AcDb2dVertex
 10
1.77670421085736
 20
-6.892275938246555
 30
0.0
  0
SEQEND
  5
F6E
330
F69
100
AcDbEntity
  8
247
  0
POLYLINE
  5
F6F
330
EF3
100
AcDbEntity
  8
247
100
AcDb2dPolyline
 66
     1
 10
0.0
 20
0.0
 30
0.0
 70
     1
  0
VERTEX
  5
F70
330
F6F
100
AcDbEntity
  8
247
100
AcDbVertex
100
AcDb2dVertex
 10
1.77670421085736
 20
-6.892275938246555
 30
0.0
  0
VERTEX
  5
F71
330
F6F
100
AcDbEntity
  8
247
100
AcDbVertex
100
AcDb2dVertex
 10
1.56054332218548
 20
-6.960438780043418
 30
0.0
  0
VERTEX
  5
F72
330
F6F
100
AcDbEntity
  8
247
100
AcDbVertex
100
AcDb2dVertex
 10
1.56054332218548
 20
-6.960438780043418
 30
0.0
  0
VERTEX
  5
F73
330
F6F
100
AcDbEntity
  8
247
100
AcDbVertex
100
AcDb2dVertex
 10
1.77670421085736
 20
-6.892275938246555
 30
0.0
  0
SEQEND
  5
F74
330
F6F
100
AcDbEntity
  8
247
  0
POLYLINE
  5
F75
330
EF3
100
AcDbEntity
  8
247
100
AcDb2dPolyline
 66
     1
 10
0.0
 20
0.0
 30
0.0
 70
     1
1001
HATCH_DISTANCE
1040
1.0
1001
HATCH_DISPLAY
1070
     0
1001
HATCH_TYPE
1070
     7
  0
VERTEX
  5
F76
330
F75
100
AcDbEntity
  8
247
100
AcDbVertex
100
AcDb2dVertex
 10
1.77670421085736
 20
-6.892275938246555
 30
0.0
  0
VERTEX
  5
F77
330
F75
100
AcDbEntity
  8
247
100
AcDbVertex
100
AcDb2dVertex
 10
1.56054332218548
 20
-6.960438780043418
 30
0.0
  0
VERTEX
  5
F78
330
F75
100
AcDbEntity
  8
247
100
AcDbVertex
100
AcDb2dVertex
 10
1.56054332218548
 20
-6.960438780043418
 30
0.0
  0
VERTEX
  5
F79
330
F75
100
AcDbEntity
  8
247
100
AcDbVertex
100
AcDb2dVertex
 10
1.77670421085736
 20
-6.892275938246555
 30
0.0
  0
SEQEND
  5
F7A
330
F75
100
AcDbEntity
  8
247
  0
POLYLINE
  5
F7B
330
EF3
100
AcDbEntity
  8
247
100
AcDb2dPolyline
 66
     1
 10
0.0
 20
0.0
 30
0.0
 70
     1
  0
VERTEX
  5
F7C
330
F7B
100
AcDbEntity
  8
247
100
AcDbVertex
100
AcDb2dVertex
 10
1.77670421085736
 20
-6.892275938246555
 30
0.0
  0
VERTEX
  5
F7D
330
F7B
100
AcDbEntity
  8
247
100
AcDbVertex
100
AcDb2dVertex
 10
1.56054332218548
 20
-6.960438780043418
 30
0.0
  0
VERTEX
  5
F7E
330
F7B
100
AcDbEntity
  8
247
100
AcDbVertex
100
AcDb2dVertex
 10
1.56054332218548
 20
-6.960438780043418
 30
0.0
  0
VERTEX
  5
F7F
330
F7B
100
AcDbEntity
  8
247
100
AcDbVertex
100
AcDb2dVertex
 10
1.77670421085736
 20
-6.892275938246555
 30
0.0
  0
SEQEND
  5
F80
330
F7B
100
AcDbEntity
  8
247
  0
LINE
  5
F81
102
{ACAD_REACTORS
330
F16
102
}
330
EF3
100
AcDbEntity
  8
247
100
AcDbLine
 10
1.77670421085736
 20
-6.892275938246555
 30
0.0
 11
1.56054332218548
 21
-6.960438780043418
 31
0.0
  0
LINE
  5
F82
102
{ACAD_REACTORS
330
F15
102
}
330
EF3
100
AcDbEntity
  8
247
100
AcDbLine
 10
3.425541147808047
 20
-7.404620908949681
 30
0.0
 11
3.558303598979932
 21
-7.271849912855927
 31
0.0
  0
ARC
  5
F83
102
{ACAD_REACTORS
330
F15
102
}
330
EF3
100
AcDbEntity
  8
247
100
AcDbCircle
 10
3.071678576091755
 20
-7.850460752699675
 30
0.0
 40
0.2376545047760009
100
AcDbArc
 50
254.000273057184
 51
74.00027305718406
  0
LINE
  5
F84
330
EF3
100
AcDbEntity
  8
241
100
AcDbLine
 10
11.0
 20
-14.5
 30
0.0
 11
11.0
 21
0.0
 31
0.0
  0
ARC
  5
F85
330
EF3
100
AcDbEntity
  8
240
100
AcDbCircle
 10
12.0
 20
-15.0
 30
0.0
 40
1.0
100
AcDbArc
 50
180.0
 51
270.0
  0
LINE
  5
F86
330
EF3
100
AcDbEntity
  8
240
100
AcDbLine
 10
11.0
 20
-15.0
 30
0.0
 11
11.0
 21
-14.5
 31
0.0
  0
ARC
  5
F87
330
EF3
100
AcDbEntity
  8
240
100
AcDbCircle
 10
32.0
 20
-18.0
 30
0.0
 40
3.0
100
AcDbArc
 50
56.44268999999975
 51
138.1896849999993
  0
LINE
  5
F88
330
EF3
100
AcDbEntity
  8
241
100
AcDbLine
 10
24.26393200000001
 20
0.0
 30
0.0
 11
24.26393200000001
 21
-16.0
 31
0.0
  0
LINE
  5
F89
330
EF3
100
AcDbEntity
  8
241
100
AcDbLine
 10
29.76393200000001
 20
0.0
 30
0.0
 11
29.76393200000001
 21
-16.0
 31
0.0
  0
LINE
  5
F8A
330
EF3
100
AcDbEntity
  8
241
100
AcDbLine
 10
28.73606799999999
 20
0.0
 30
0.0
 11
28.73606799999999
 21
-16.0
 31
0.0
  0
ARC
  5
F8B
330
EF3
100
AcDbEntity
  8
240
100
AcDbCircle
 10
26.5
 20
-18.0
 30
0.0
 40
3.0
100
AcDbArc
 50
41.81031500000067
 51
138.1896849999993
  0
LINE
  5
F8C
330
EF3
100
AcDbEntity
  8
240
100
AcDbLine
 10
28.73606799999999
 20
-16.0
 30
0.0
 11
29.76393200000001
 21
-16.0
 31
0.0
  0
LINE
  5
F8D
330
EF3
100
AcDbEntity
  8
241
100
AcDbLine
 10
36.0
 20
0.0
 30
0.0
 11
36.0
 21
-9.5
 31
0.0
  0
LINE
  5
F8E
330
EF3
100
AcDbEntity
  8
241
100
AcDbLine
 10
33.65831200000002
 20
0.0
 30
0.0
 11
33.65831200000002
 21
-15.5
 31
0.0
  0
LINE
  5
F8F
330
EF3
100
AcDbEntity
  8
240
100
AcDbLine
 10
36.0
 20
-14.0
 30
0.0
 11
36.0
 21
-9.499999999999985
 31
0.0
  0
ARC
  5
F90
330
EF3
100
AcDbEntity
  8
240
100
AcDbCircle
 10
34.5
 20
-14.0
 30
0.0
 40
1.5
100
AcDbArc
 50
270.0
 51
0.0
  0
LINE
  5
F91
330
EF3
100
AcDbEntity
  8
240
100
AcDbLine
 10
34.5
 20
-15.5
 30
0.0
 11
33.65831200000002
 21
-15.5
 31
0.0
  0
LINE
  5
F92
330
EF3
100
AcDbEntity
  8
240
100
AcDbLine
 10
36.0
 20
-9.499999999999985
 30
0.0
 11
36.25
 21
-9.249999999999985
 31
0.0
  0
LINE
  5
F93
330
EF3
100
AcDbEntity
  8
241
100
AcDbLine
 10
-8.493432878682895
 20
8.999999999999914
 30
0.0
 11
-1.506567121317104
 21
8.999999999999914
 31
0.0
  0
ARC
  5
F94
330
EF3
100
AcDbEntity
  8
240
100
AcDbCircle
 10
-3.051879999999997
 20
10.19999999999998
 30
0.0
 40
0.8
100
AcDbArc
 50
30.00000000000014
 51
90.0
  0
LINE
  5
F95
330
EF3
100
AcDbEntity
  8
240
100
AcDbLine
 10
-15.75
 20
9.0
 30
0.0
 11
-8.493432878682881
 21
9.000000000000028
 31
0.0
  0
LINE
  5
F96
330
EF3
100
AcDbEntity
  8
240
100
AcDbLine
 10
-17.60312799999999
 20
8.673242999999956
 30
0.0
 11
-15.75
 21
9.0
 31
0.0
  0
LINE
  5
F97
330
EF3
100
AcDbEntity
  8
240
100
AcDbLine
 10
-20.0
 20
8.633973999999966
 30
0.0
 11
-19.93301299999998
 21
8.75
 31
0.0
  0
ARC
  5
F98
330
EF3
100
AcDbEntity
  8
240
100
AcDbCircle
 10
-19.5
 20
8.5
 30
0.0
 40
0.5
100
AcDbArc
 50
79.9999999999998
 51
149.9999999999998
  0
LINE
  5
F99
330
EF3
100
AcDbEntity
  8
240
100
AcDbLine
 10
-17.60312799999999
 20
8.673242999999956
 30
0.0
 11
-19.41317599999999
 21
8.992403999999993
 31
0.0
  0
LINE
  5
F9A
330
EF3
100
AcDbEntity
  8
240
100
AcDbLine
 10
-6.948119999999988
 20
11.0
 30
0.0
 11
-3.051879999999997
 21
11.0
 31
0.0
  0
LINE
  5
F9B
330
EF3
100
AcDbEntity
  8
240
100
AcDbLine
 10
-8.39282
 20
9.297704999999979
 30
0.0
 11
-7.640939999999986
 21
10.59999999999999
 31
0.0
  0
ARC
  5
F9C
330
EF3
100
AcDbEntity
  8
240
100
AcDbCircle
 10
-7.700000000000002
 20
8.897704999999973
 30
0.0
 40
0.8
100
AcDbArc
 50
149.9999999999998
 51
172.6535659999995
  0
ARC
  5
F9D
330
EF3
100
AcDbEntity
  8
240
100
AcDbCircle
 10
-6.948119999999988
 20
10.19999999999998
 30
0.0
 40
0.8
100
AcDbArc
 50
90.0
 51
149.9999999999998
  0
LINE
  5
F9E
330
EF3
100
AcDbEntity
  8
240
100
AcDbLine
 10
24.26393200000001
 20
16.0
 30
0.0
 11
12.0
 21
16.0
 31
0.0
  0
LINE
  5
F9F
330
EF3
100
AcDbEntity
  8
240
100
AcDbLine
 10
5.0
 20
14.5
 30
0.0
 11
11.0
 21
14.5
 31
0.0
  0
LINE
  5
FA0
330
EF3
100
AcDbEntity
  8
240
100
AcDbLine
 10
4.5
 20
15.5
 30
0.0
 11
0.5
 21
15.5
 31
0.0
  0
LINE
  5
FA1
330
EF3
100
AcDbEntity
  8
240
100
AcDbLine
 10
0.0
 20
15.0
 30
0.0
 11
0.0
 21
8.999999999999616
 31
0.0
  0
LINE
  5
FA2
330
EF3
100
AcDbEntity
  8
240
100
AcDbLine
 10
-1.506567121317075
 20
8.999999999999644
 30
0.0
 11
0.0
 21
8.999999999999985
 31
0.0
  0
ARC
  5
FA3
330
EF3
100
AcDbEntity
  8
240
100
AcDbCircle
 10
-2.299999999999997
 20
8.897704999999973
 30
0.0
 40
0.8
100
AcDbArc
 50
7.346452832141287
 51
30.00000000000014
  0
LINE
  5
FA4
330
EF3
100
AcDbEntity
  8
240
100
AcDbLine
 10
-1.607179999999985
 20
9.297704999999979
 30
0.0
 11
-2.359059999999999
 21
10.59999999999999
 31
0.0
  0
LINE
  5
FA5
330
EF3
100
AcDbEntity
  8
240
100
AcDbLine
 10
0.5
 20
15.5
 30
0.0
 11
0.0
 21
15.0
 31
0.0
  0
LINE
  5
FA6
330
EF3
100
AcDbEntity
  8
240
100
AcDbLine
 10
5.0
 20
15.0
 30
0.0
 11
4.5
 21
15.5
 31
0.0
  0
LINE
  5
FA7
330
EF3
100
AcDbEntity
  8
240
100
AcDbLine
 10
5.0
 20
14.5
 30
0.0
 11
5.0
 21
15.0
 31
0.0
  0
ARC
  5
FA8
330
EF3
100
AcDbEntity
  8
240
100
AcDbCircle
 10
12.0
 20
15.0
 30
0.0
 40
1.0
100
AcDbArc
 50
90.0
 51
180.0
  0
LINE
  5
FA9
330
EF3
100
AcDbEntity
  8
240
100
AcDbLine
 10
11.0
 20
15.0
 30
0.0
 11
11.0
 21
14.5
 31
0.0
  0
ARC
  5
FAA
330
EF3
100
AcDbEntity
  8
240
100
AcDbCircle
 10
32.0
 20
18.0
 30
0.0
 40
3.0
100
AcDbArc
 50
221.8103150000006
 51
303.5573100000002
  0
ARC
  5
FAB
330
EF3
100
AcDbEntity
  8
240
100
AcDbCircle
 10
26.5
 20
18.0
 30
0.0
 40
3.0
100
AcDbArc
 50
221.8103150000006
 51
318.1896849999993
  0
LINE
  5
FAC
330
EF3
100
AcDbEntity
  8
240
100
AcDbLine
 10
28.73606799999999
 20
16.0
 30
0.0
 11
29.76393200000001
 21
16.0
 31
0.0
  0
LINE
  5
FAD
330
EF3
100
AcDbEntity
  8
240
100
AcDbLine
 10
36.0
 20
14.0
 30
0.0
 11
36.0
 21
9.499999999999985
 31
0.0
  0
LINE
  5
FAE
330
EF3
100
AcDbEntity
  8
240
100
AcDbLine
 10
36.25
 20
9.25
 30
0.0
 11
36.0
 21
9.5
 31
0.0
  0
ARC
  5
FAF
330
EF3
100
AcDbEntity
  8
240
100
AcDbCircle
 10
34.5
 20
14.0
 30
0.0
 40
1.5
100
AcDbArc
 50
0.0
 51
90.0
  0
LINE
  5
FB0
330
EF3
100
AcDbEntity
  8
240
100
AcDbLine
 10
34.5
 20
15.5
 30
0.0
 11
33.65831200000002
 21
15.5
 31
0.0
  0
ARC
  5
FB1
330
EF3
100
AcDbEntity
  8
241
100
AcDbCircle
 10
58.032835
 20
0.0
 30
0.0
 40
9.032835
100
AcDbArc
 50
146.5055399999993
 51
213.4944609999998
  0
LINE
  5
FB2
330
EF3
100
AcDbEntity
  8
241
100
AcDbLine
 10
44.0
 20
-9.249999999999985
 30
0.0
 11
44.0
 21
9.25
 31
0.0
  0
LINE
  5
FB3
330
EF3
100
AcDbEntity
  8
241
100
AcDbLine
 10
49.0
 20
-9.999999999999985
 30
0.0
 11
49.0
 21
10.0
 31
0.0
  0
LINE
  5
FB4
330
EF3
100
AcDbEntity
  8
241
100
AcDbLine
 10
47.5
 20
-7.0
 30
0.0
 11
47.5
 21
7.0
 31
0.0
  0
LINE
  5
FB5
330
EF3
100
AcDbEntity
  8
241
100
AcDbLine
 10
45.0
 20
0.0
 30
0.0
 11
45.0
 21
7.5
 31
0.0
  0
ARC
  5
FB6
330
EF3
100
AcDbEntity
  8
241
100
AcDbCircle
 10
55.78787299999999
 20
0.0
 30
0.0
 40
7.212125999999999
100
AcDbArc
 50
316.2769609999998
 51
43.72304000000077
  0
LINE
  5
FB7
330
EF3
100
AcDbEntity
  8
240
100
AcDbLine
 10
66.0
 20
-7.150713999999965
 30
0.0
 11
66.0
 21
7.150715000000019
 31
0.0
  0
LINE
  5
FB8
330
EF3
100
AcDbEntity
  8
241
100
AcDbLine
 10
50.5
 20
-4.984826999999995
 30
0.0
 11
61.0
 21
-4.984826999999995
 31
0.0
  0
LINE
  5
FB9
330
EF3
100
AcDbEntity
  8
241
100
AcDbLine
 10
50.5
 20
-5.984826999999995
 30
0.0
 11
61.0
 21
-5.984826999999995
 31
0.0
  0
LINE
  5
FBA
330
EF3
100
AcDbEntity
  8
240
100
AcDbLine
 10
49.5
 20
-10.99999999999998
 30
0.0
 11
60.667619
 21
-10.99999999999998
 31
0.0
  0
ARC
  5
FBB
330
EF3
100
AcDbEntity
  8
241
100
AcDbCircle
 10
51.84599600000002
 20
-8.492413999999982
 30
0.0
 40
2.845995999999999
100
AcDbArc
 50
118.2255540000009
 51
241.774445999999
  0
LINE
  5
FBC
330
EF3
100
AcDbEntity
  8
240
100
AcDbLine
 10
45.0
 20
-7.5
 30
0.0
 11
45.0
 21
-8.249999999999985
 31
0.0
  0
LINE
  5
FBD
330
EF3
100
AcDbEntity
  8
240
100
AcDbLine
 10
47.5
 20
-8.999999999999985
 30
0.0
 11
47.5
 21
-7.0
 31
0.0
  0
ARC
  5
FBE
330
EF3
100
AcDbEntity
  8
240
100
AcDbCircle
 10
49.5
 20
-10.49999999999998
 30
0.0
 40
0.5
100
AcDbArc
 50
180.0
 51
270.0
  0
LINE
  5
FBF
330
EF3
100
AcDbEntity
  8
240
100
AcDbLine
 10
44.0
 20
-9.249999999999985
 30
0.0
 11
45.0
 21
-8.249999999999985
 31
0.0
  0
ARC
  5
FC0
330
EF3
100
AcDbEntity
  8
240
100
AcDbCircle
 10
48.0
 20
-8.999999999999985
 30
0.0
 40
0.5
100
AcDbArc
 50
180.0
 51
270.0
  0
ARC
  5
FC1
330
EF3
100
AcDbEntity
  8
240
100
AcDbCircle
 10
48.5
 20
-9.999999999999985
 30
0.0
 40
0.5
100
AcDbArc
 50
0.0
 51
90.0
  0
LINE
  5
FC2
330
EF3
100
AcDbEntity
  8
240
100
AcDbLine
 10
48.0
 20
-9.499999999999985
 30
0.0
 11
48.5
 21
-9.499999999999985
 31
0.0
  0
LINE
  5
FC3
330
EF3
100
AcDbEntity
  8
240
100
AcDbLine
 10
49.0
 20
-10.49999999999998
 30
0.0
 11
49.0
 21
-9.999999999999985
 31
0.0
  0
LINE
  5
FC4
330
EF3
100
AcDbEntity
  8
241
100
AcDbLine
 10
45.0
 20
0.0
 30
0.0
 11
45.0
 21
-7.5
 31
0.0
  0
LINE
  5
FC5
330
EF3
100
AcDbEntity
  8
240
100
AcDbLine
 10
45.49999999999999
 20
-7.0
 30
0.0
 11
47.5
 21
-7.0
 31
0.0
  0
ARC
  5
FC6
330
EF3
100
AcDbEntity
  8
240
100
AcDbCircle
 10
45.49999999999999
 20
-7.5
 30
0.0
 40
0.5
100
AcDbArc
 50
90.0
 51
180.0
  0
LINE
  5
FC7
330
EF3
100
AcDbEntity
  8
241
100
AcDbLine
 10
50.5
 20
-5.984826999999995
 30
0.0
 11
50.5
 21
-4.984826999999995
 31
0.0
  0
ARC
  5
FC8
330
EF3
100
AcDbEntity
  8
241
100
AcDbCircle
 10
60.42800299999999
 20
-8.492413999999982
 30
0.0
 40
2.571997
100
AcDbArc
 50
319.0778209999992
 51
77.15030799999957
  0
ARC
  5
FC9
330
EF3
100
AcDbEntity
  8
240
100
AcDbCircle
 10
64.5
 20
-7.150713999999965
 30
0.0
 40
1.5
100
AcDbArc
 50
300.9637570000005
 51
0.0
  0
ARC
  5
FCA
330
EF3
100
AcDbEntity
  8
240
100
AcDbCircle
 10
60.667619
 20
-9.799999999999982
 30
0.0
 40
1.199999999999999
100
AcDbArc
 50
270.0
 51
300.9637570000005
  0
LINE
  5
FCB
330
EF3
100
AcDbEntity
  8
240
100
AcDbLine
 10
61.28501399999999
 20
-10.82899099999997
 30
0.0
 11
65.27174400000001
 21
-8.436953999999985
 31
0.0
  0
LINE
  5
FCC
330
EF3
100
AcDbEntity
  8
241
100
AcDbLine
 10
61.0
 20
-5.984826999999995
 30
0.0
 11
61.0
 21
-4.984826999999995
 31
0.0
  0
LINE
  5
FCD
330
EF3
100
AcDbEntity
  8
241
100
AcDbLine
 10
50.5
 20
4.984828000000021
 30
0.0
 11
61.0
 21
4.984828000000021
 31
0.0
  0
LINE
  5
FCE
330
EF3
100
AcDbEntity
  8
241
100
AcDbLine
 10
50.5
 20
5.984828000000021
 30
0.0
 11
61.0
 21
5.984828000000021
 31
0.0
  0
LINE
  5
FCF
330
EF3
100
AcDbEntity
  8
240
100
AcDbLine
 10
49.5
 20
11.0
 30
0.0
 11
60.667619
 21
11.0
 31
0.0
  0
ARC
  5
FD0
330
EF3
100
AcDbEntity
  8
241
100
AcDbCircle
 10
51.84599600000002
 20
8.492414000000024
 30
0.0
 40
2.845995999999999
100
AcDbArc
 50
118.2255540000009
 51
241.774445999999
  0
LINE
  5
FD1
330
EF3
100
AcDbEntity
  8
240
100
AcDbLine
 10
45.0
 20
7.5
 30
0.0
 11
45.0
 21
8.25
 31
0.0
  0
LINE
  5
FD2
330
EF3
100
AcDbEntity
  8
240
100
AcDbLine
 10
47.5
 20
7.0
 30
0.0
 11
47.5
 21
9.0
 31
0.0
  0
LINE
  5
FD3
330
EF3
100
AcDbEntity
  8
240
100
AcDbLine
 10
45.49999999999999
 20
7.0
 30
0.0
 11
47.5
 21
7.0
 31
0.0
  0
ARC
  5
FD4
330
EF3
100
AcDbEntity
  8
240
100
AcDbCircle
 10
45.49999999999999
 20
7.5
 30
0.0
 40
0.5
100
AcDbArc
 50
180.0
 51
270.0
  0
LINE
  5
FD5
330
EF3
100
AcDbEntity
  8
241
100
AcDbLine
 10
50.5
 20
5.984828000000021
 30
0.0
 11
50.5
 21
4.984828000000021
 31
0.0
  0
ARC
  5
FD6
330
EF3
100
AcDbEntity
  8
240
100
AcDbCircle
 10
49.5
 20
10.5
 30
0.0
 40
0.5
100
AcDbArc
 50
90.0
 51
180.0
  0
LINE
  5
FD7
330
EF3
100
AcDbEntity
  8
240
100
AcDbLine
 10
44.0
 20
9.25
 30
0.0
 11
45.0
 21
8.25
 31
0.0
  0
LINE
  5
FD8
330
EF3
100
AcDbEntity
  8
240
100
AcDbLine
 10
48.0
 20
9.5
 30
0.0
 11
48.5
 21
9.5
 31
0.0
  0
ARC
  5
FD9
330
EF3
100
AcDbEntity
  8
240
100
AcDbCircle
 10
48.0
 20
9.0
 30
0.0
 40
0.5
100
AcDbArc
 50
90.0
 51
180.0
  0
ARC
  5
FDA
330
EF3
100
AcDbEntity
  8
240
100
AcDbCircle
 10
48.5
 20
10.0
 30
0.0
 40
0.5
100
AcDbArc
 50
270.0
 51
0.0
  0
LINE
  5
FDB
330
EF3
100
AcDbEntity
  8
240
100
AcDbLine
 10
49.0
 20
10.0
 30
0.0
 11
49.0
 21
10.5
 31
0.0
  0
ARC
  5
FDC
330
EF3
100
AcDbEntity
  8
241
100
AcDbCircle
 10
60.42800299999999
 20
8.492414000000024
 30
0.0
 40
2.571997
100
AcDbArc
 50
282.8496929999995
 51
40.92218000000059
  0
ARC
  5
FDD
330
EF3
100
AcDbEntity
  8
240
100
AcDbCircle
 10
64.5
 20
7.150715000000019
 30
0.0
 40
1.5
100
AcDbArc
 50
0.0
 51
59.03624299999952
  0
LINE
  5
FDE
330
EF3
100
AcDbEntity
  8
241
100
AcDbLine
 10
61.0
 20
5.984828000000021
 30
0.0
 11
61.0
 21
4.984828000000021
 31
0.0
  0
ARC
  5
FDF
330
EF3
100
AcDbEntity
  8
240
100
AcDbCircle
 10
60.667619
 20
9.800000000000011
 30
0.0
 40
1.199999999999999
100
AcDbArc
 50
59.03624299999952
 51
90.0
  0
LINE
  5
FE0
330
EF3
100
AcDbEntity
  8
240
100
AcDbLine
 10
61.28501399999999
 20
10.82899199999999
 30
0.0
 11
65.27174400000001
 21
8.436954000000014
 31
0.0
  0
ENDBLK
  5
FE2
330
EF3
100
AcDbEntity
  8
0
100
AcDbBlockEnd
  0
BLOCK
  5
1046
330
103C
100
AcDbEntity
  8
0
100
AcDbBlockBegin
  2
*D2
 70
     1
 10
0.0
 20
0.0
 30
0.0
  3
*D2
  1

  0
LINE
  5
106C
330
103C
100
AcDbEntity
  8
250
  6
CONTINUOUS
100
AcDbLine
 10
36.0
 20
15.0
 30
0.0
 11
36.0
 21
36.0
 31
0.0
  0
LINE
  5
106D
330
103C
100
AcDbEntity
  8
250
  6
CONTINUOUS
100
AcDbLine
 10
66.0
 20
7.650715000000019
 30
0.0
 11
66.0
 21
36.0
 31
0.0
  0
LINE
  5
106E
330
103C
100
AcDbEntity
  8
250
  6
CONTINUOUS
100
AcDbLine
 10
38.23
 20
35.0
 30
0.0
 11
63.77
 21
35.0
 31
0.0
  0
INSERT
  5
106F
330
103C
100
AcDbEntity
  8
250
  6
CONTINUOUS
100
AcDbBlockReference
  2
_OPEN
 10
36.0
 20
35.0
 30
0.0
 41
2.229999999999999
 42
2.229999999999999
 43
2.229999999999999
 50
180.0
  0
INSERT
  5
1070
330
103C
100
AcDbEntity
  8
250
  6
CONTINUOUS
100
AcDbBlockReference
  2
_OPEN
 10
66.0
 20
35.0
 30
0.0
 41
2.229999999999999
 42
2.229999999999999
 43
2.229999999999999
  0
MTEXT
  5
1071
330
103C
100
AcDbEntity
  8
250
  6
CONTINUOUS
 62
    40
100
AcDbMText
 10
51.0
 20
37.5
 30
0.0
 40
3.0
 41
0.0
 71
     5
 72
     1
  1
\A1;30
1001
ACAD
1000
MTEXTBEGIN
1070
    73
1070
     1
1070
    44
1040
1.0
1070
    74
1070
     0
1000
MTEXTEND
  0
POINT
  5
1072
330
103C
100
AcDbEntity
  8
DEFPOINTS
  6
CONTINUOUS
 62
     0
100
AcDbPoint
 10
36.0
 20
14.5
 30
0.0
  0
POINT
  5
1073
330
103C
100
AcDbEntity
  8
DEFPOINTS
  6
CONTINUOUS
 62
     0
100
AcDbPoint
 10
66.0
 20
7.150715000000019
 30
0.0
  0
POINT
  5
1074
330
103C
100
AcDbEntity
  8
DEFPOINTS
  6
CONTINUOUS
 62
     0
100
AcDbPoint
 10
66.0
 20
35.0
 30
0.0
  0
ENDBLK
  5
1047
330
103C
100
AcDbEntity
  8
0
100
AcDbBlockEnd
  0
BLOCK
  5
1052
330
1048
100
AcDbEntity
  8
0
100
AcDbBlockBegin
  2
*D3
 70
     1
 10
0.0
 20
0.0
 30
0.0
  3
*D3
  1

  0
LINE
  5
1075
330
1048
100
AcDbEntity
  8
250
  6
CONTINUOUS
100
AcDbLine
 10
0.0
 20
15.5
 30
0.0
 11
0.0000000000000017
 21
43.0
 31
0.0
  0
LINE
  5
1076
330
1048
100
AcDbEntity
  8
250
  6
CONTINUOUS
100
AcDbLine
 10
66.0
 20
7.650715000000019
 30
0.0
 11
66.0
 21
43.0
 31
0.0
  0
LINE
  5
1077
330
1048
100
AcDbEntity
  8
250
  6
CONTINUOUS
100
AcDbLine
 10
2.230000000000001
 20
42.0
 30
0.0
 11
63.77
 21
42.0
 31
0.0
  0
INSERT
  5
1078
330
1048
100
AcDbEntity
  8
250
  6
CONTINUOUS
100
AcDbBlockReference
  2
_OPEN
 10
0.0000000000000017
 20
42.0
 30
0.0
 41
2.229999999999999
 42
2.229999999999999
 43
2.229999999999999
 50
180.0
  0
INSERT
  5
1079
330
1048
100
AcDbEntity
  8
250
  6
CONTINUOUS
100
AcDbBlockReference
  2
_OPEN
 10
66.0
 20
42.0
 30
0.0
 41
2.229999999999999
 42
2.229999999999999
 43
2.229999999999999
  0
MTEXT
  5
107A
330
1048
100
AcDbEntity
  8
250
  6
CONTINUOUS
 62
    40
100
AcDbMText
 10
33.0
 20
44.5
 30
0.0
 40
3.0
 41
0.0
 71
     5
 72
     1
  1
\A1;66
1001
ACAD
1000
MTEXTBEGIN
1070
    73
1070
     1
1070
    44
1040
1.0
1070
    74
1070
     0
1000
MTEXTEND
  0
POINT
  5
107B
330
1048
100
AcDbEntity
  8
DEFPOINTS
  6
CONTINUOUS
 62
     0
100
AcDbPoint
 10
0.0
 20
15.0
 30
0.0
  0
POINT
  5
107C
330
1048
100
AcDbEntity
  8
DEFPOINTS
  6
CONTINUOUS
 62
     0
100
AcDbPoint
 10
66.0
 20
7.150715000000019
 30
0.0
  0
POINT
  5
107D
330
1048
100
AcDbEntity
  8
DEFPOINTS
  6
CONTINUOUS
 62
     0
100
AcDbPoint
 10
66.0
 20
42.0
 30
0.0
  0
ENDBLK
  5
1053
330
1048
100
AcDbEntity
  8
0
100
AcDbBlockEnd
  0
BLOCK
  5
105E
330
1054
100
AcDbEntity
  8
0
100
AcDbBlockBegin
  2
*D4
 70
     1
 10
0.0
 20
0.0
 30
0.0
  3
*D4
  1

  0
LINE
  5
107E
330
1054
100
AcDbEntity
  8
250
  6
CONTINUOUS
100
AcDbLine
 10
0.0
 20
15.5
 30
0.0
 11
0.0000000000000013
 21
36.0
 31
0.0
  0
LINE
  5
107F
330
1054
100
AcDbEntity
  8
250
  6
CONTINUOUS
100
AcDbLine
 10
36.0
 20
14.5
 30
0.0
 11
36.0
 21
36.0
 31
0.0
  0
LINE
  5
1080
330
1054
100
AcDbEntity
  8
250
  6
CONTINUOUS
100
AcDbLine
 10
2.230000000000001
 20
35.0
 30
0.0
 11
33.77
 21
35.0
 31
0.0
  0
INSERT
  5
1081
330
1054
100
AcDbEntity
  8
250
  6
CONTINUOUS
100
AcDbBlockReference
  2
_OPEN
 10
0.0000000000000012
 20
35.0
 30
0.0
 41
2.229999999999999
 42
2.229999999999999
 43
2.229999999999999
 50
180.0
  0
INSERT
  5
1082
330
1054
100
AcDbEntity
  8
250
  6
CONTINUOUS
100
AcDbBlockReference
  2
_OPEN
 10
36.0
 20
35.0
 30
0.0
 41
2.229999999999999
 42
2.229999999999999
 43
2.229999999999999
  0
MTEXT
  5
1083
330
1054
100
AcDbEntity
  8
250
  6
CONTINUOUS
 62
    40
100
AcDbMText
 10
18.0
 20
37.5
 30
0.0
 40
3.0
 41
0.0
 71
     5
 72
     1
  1
\A1;36
1001
ACAD
1000
MTEXTBEGIN
1070
    73
1070
     1
1070
    44
1040
1.0
1070
    74
1070
     0
1000
MTEXTEND
  0
POINT
  5
1084
330
1054
100
AcDbEntity
  8
DEFPOINTS
  6
CONTINUOUS
 62
     0
100
AcDbPoint
 10
0.0
 20
15.0
 30
0.0
  0
POINT
  5
1085
330
1054
100
AcDbEntity
  8
DEFPOINTS
  6
CONTINUOUS
 62
     0
100
AcDbPoint
 10
36.0
 20
14.0
 30
0.0
  0
POINT
  5
1086
330
1054
100
AcDbEntity
  8
DEFPOINTS
  6
CONTINUOUS
 62
     0
100
AcDbPoint
 10
36.0
 20
35.0
 30
0.0
  0
ENDBLK
  5
105F
330
1054
100
AcDbEntity
  8
0
100
AcDbBlockEnd
  0
BLOCK
  5
106A
330
1060
100
AcDbEntity
  8
0
100
AcDbBlockBegin
  2
*D5
 70
     1
 10
0.0
 20
0.0
 30
0.0
  3
*D5
  1

  0
LINE
  5
1087
330
1060
100
AcDbEntity
  8
250
  6
CONTINUOUS
100
AcDbLine
 10
61.167619
 20
-11.0
 30
0.0
 11
85.0
 21
-11.0
 31
0.0
  0
LINE
  5
1088
330
1060
100
AcDbEntity
  8
250
  6
CONTINUOUS
100
AcDbLine
 10
61.167619
 20
11.0
 30
0.0
 11
85.0
 21
10.99999999999999
 31
0.0
  0
LINE
  5
1089
330
1060
100
AcDbEntity
  8
250
  6
CONTINUOUS
100
AcDbLine
 10
84.0
 20
-8.770000000000006
 30
0.0
 11
84.0
 21
8.769999999999992
 31
0.0
  0
INSERT
  5
108A
330
1060
100
AcDbEntity
  8
250
  6
CONTINUOUS
100
AcDbBlockReference
  2
_OPEN
 10
84.0
 20
-11.0
 30
0.0
 41
2.229999999999999
 42
2.229999999999999
 43
2.229999999999999
 50
270.0
  0
INSERT
  5
108B
330
1060
100
AcDbEntity
  8
250
  6
CONTINUOUS
100
AcDbBlockReference
  2
_OPEN
 10
84.0
 20
10.99999999999999
 30
0.0
 41
2.229999999999999
 42
2.229999999999999
 43
2.229999999999999
 50
90.0
  0
MTEXT
  5
108C
330
1060
100
AcDbEntity
  8
250
  6
CONTINUOUS
 62
    40
100
AcDbMText
 10
81.5
 20
0.0000000000000076
 30
0.0
 40
3.0
 41
0.0
 71
     5
 72
     1
  1
\A1;{\H3;\U+2205}22
 11
0.0000000000000001
 21
1.0
 31
0.0
1001
ACAD
1000
MTEXTBEGIN
1070
    73
1070
     1
1070
    44
1040
1.0
1070
    74
1070
     0
1000
MTEXTEND
  0
POINT
  5
108D
330
1060
100
AcDbEntity
  8
DEFPOINTS
  6
CONTINUOUS
 62
     0
100
AcDbPoint
 10
60.667619
 20
-11.0
 30
0.0
  0
POINT
  5
108E
330
1060
100
AcDbEntity
  8
DEFPOINTS
  6
CONTINUOUS
 62
     0
100
AcDbPoint
 10
60.667619
 20
11.0
 30
0.0
  0
POINT
  5
108F
330
1060
100
AcDbEntity
  8
DEFPOINTS
  6
CONTINUOUS
 62
     0
100
AcDbPoint
 10
84.0
 20
10.99999999999999
 30
0.0
  0
ENDBLK
  5
106B
330
1060
100
AcDbEntity
  8
0
100
AcDbBlockEnd
  0
ENDSEC
  0
SECTION
  2
ENTITIES
  0
INSERT
  5
102F
330
1A
100
AcDbEntity
  8
240
100
AcDbBlockReference
  2
A$C43116C3D
 10
0.0
 20
0.0
 30
0.0
  0
DIMENSION
  5
1030
330
1A
100
AcDbEntity
  8
250
  6
CONTINUOUS
100
AcDbDimension
  2
*D2
 10
66.0
 20
35.0
 30
0.0
 11
51.0
 21
37.5
 31
0.0
 70
    32
  3
BIGT
100
AcDbAlignedDimension
 13
36.0
 23
14.5
 33
0.0
 14
66.0
 24
7.150715000000019
 34
0.0
100
AcDbRotatedDimension
1001
ACAD
1000
DSTYLE
1002
{
1070
    78
1070
     8
1070
   140
1040
3.0
1002
}
  0
DIMENSION
  5
1031
330
1A
100
AcDbEntity
  8
250
  6
CONTINUOUS
100
AcDbDimension
  2
*D3
 10
66.0
 20
42.0
 30
0.0
 11
33.0
 21
44.5
 31
0.0
 70
    32
  3
BIGT
100
AcDbAlignedDimension
 13
0.0
 23
15.0
 33
0.0
 14
66.0
 24
7.150715000000019
 34
0.0
100
AcDbRotatedDimension
1001
ACAD
1000
DSTYLE
1002
{
1070
    78
1070
     8
1070
   140
1040
3.0
1002
}
  0
LINE
  5
1032
330
1A
100
AcDbEntity
  8
250
  6
CONTINUOUS
100
AcDbLine
 10
-20.71362535641442
 20
-24.09700174654153
 30
0.0
 11
-34.71362535641442
 21
-24.09700174654153
 31
0.0
1001
ITEMNAME
1000
LNSP2
  0
MTEXT
  5
1033
330
1A
100
AcDbEntity
  8
250
  6
CONTINUOUS
 62
    40
100
AcDbMText
 10
-31.71362535641442
 20
-23.09700174654153
 30
0.0
 40
3.0
 41
0.0
 71
     7
 72
     1
  1
CK3
  7
YOKO
1001
ITEMNAME
1000
LNSP3
1001
ACAD
1000
MTEXTBEGIN
1070
    73
1070
     1
1070
    44
1040
1.0
1070
    74
1070
     0
1000
MTEXTEND
  0
LEADER
  5
1034
330
1A
100
AcDbEntity
  8
250
  6
CONTINUOUS
100
AcDbLeader
  3
BIGT
 76
     2
 10
-11.99736733409235
 20
-8.999999999999943
 30
0.0
 10
-20.71362535641442
 20
-24.09700174654153
 30
0.0
1001
ACAD
1000
DSTYLE
1002
{
1070
     5
1000
OPEN
1070
    78
1070
     8
1070
   140
1040
3.0
1002
}
  0
TEXT
  5
1035
330
1A
100
AcDbEntity
  8
241
100
AcDbText
 10
-21.0
 20
56.0
 30
0.0
 40
5.0
  1
CK3-STC12-66
  7
YOKO
 11
-21.0
 21
56.0
 31
0.0
100
AcDbText
 73
     1
  0
DIMENSION
  5
1036
330
1A
100
AcDbEntity
  8
250
  6
CONTINUOUS
100
AcDbDimension
  2
*D4
 10
36.0
 20
35.0
 30
0.0
 11
18.0
 21
37.5
 31
0.0
 70
    32
  3
BIGT
100
AcDbAlignedDimension
 13
0.0
 23
15.0
 33
0.0
 14
36.0
 24
14.0
 34
0.0
100
AcDbRotatedDimension
1001
ACAD
1000
DSTYLE
1002
{
1070
    78
1070
     8
1070
   140
1040
3.0
1002
}
  0
DIMENSION
  5
1037
330
1A
100
AcDbEntity
  8
250
  6
CONTINUOUS
100
AcDbDimension
  2
*D5
 10
84.0
 20
10.99999999999999
 30
0.0
 11
81.5
 21
0.0000000000000076
 31
0.0
 70
    32
  1
{\H3;\U+2205}<>
  3
BIGT
100
AcDbAlignedDimension
 13
60.667619
 23
-11.0
 33
0.0
 14
60.667619
 24
11.0
 34
0.0
 50
90.0
100
AcDbRotatedDimension
1001
ACAD
1000
DSTYLE
1002
{
1070
    78
1070
     8
1070
   140
1040
3.0
1002
}
  0
LINE
  5
1038
330
1A
100
AcDbEntity
  8
250
  6
CONTINUOUS
100
AcDbLine
 10
63.15554763919698
 20
-24.62660599536843
 30
0.0
 11
93.75554763919698
 21
-24.62660599536843
 31
0.0
1001
ITEMNAME
1000
LNSP2
  0
MTEXT
  5
1039
330
1A
100
AcDbEntity
  8
250
  6
CONTINUOUS
 62
    40
100
AcDbMText
 10
66.15554763919698
 20
-25.62660599536843
 30
0.0
 40
3.0
 41
0.0
 71
     1
 72
     1
  1
d=M3～M12
  7
YOKO
1001
ITEMNAME
1000
LNSP4
1001
ACAD
1000
MTEXTBEGIN
1070
    73
1070
     1
1070
    44
1040
1.0
1070
    74
1070
     0
1000
MTEXTEND
  0
MTEXT
  5
103A
330
1A
100
AcDbEntity
  8
250
  6
CONTINUOUS
 62
    40
100
AcDbMText
 10
66.15554763919698
 20
-23.62660599536843
 30
0.0
 40
3.0
 41
0.0
 71
     7
 72
     1
  1
TCE12-d
  7
YOKO
1001
ITEMNAME
1000
LNSP3
1001
ACAD
1000
MTEXTBEGIN
1070
    73
1070
     1
1070
    44
1040
1.0
1070
    74
1070
     0
1000
MTEXTEND
  0
LEADER
  5
103B
330
1A
100
AcDbEntity
  8
250
  6
CONTINUOUS
100
AcDbLeader
  3
BIGT
 76
     2
 10
55.28822299963008
 20
-10.99999999999998
 30
0.0
 10
63.15554763919698
 20
-24.62660599536843
 30
0.0
1001
ACAD
1000
DSTYLE
1002
{
1070
     5
1000
OPEN
1070
    78
1070
     8
1070
   140
1040
3.0
1002
}
  0
VIEWPORT
  5
22
330
17
100
AcDbEntity
 67
     1
  8
0
100
AcDbViewport
 10
261.5176991150442
 20
148.5
 30
0.0
 40
523.0353982300885
 41
297.0
 68
     1
 69
     1
1001
ACAD
1000
MVIEW
1002
{
1070
    16
1010
0.0
1020
0.0
1030
0.0
1010
0.0
1020
0.0
1030
1.0
1040
0.0
1040
297.0
1040
261.5176991150442
1040
148.5
1040
50.0
1040
0.0
1040
0.0
1070
     0
1070
   100
1070
     1
1070
     1
1070
     0
1070
     0
1070
     0
1070
     0
1040
0.0
1040
0.0
1040
0.0
1040
1.0
1040
1.0
1040
10.0
1040
10.0
1070
     0
1002
{
1002
}
1002
}
  0
ENDSEC
  0
SECTION
  2
OBJECTS
  0
DICTIONARY
  5
C
330
0
100
AcDbDictionary
  3
ACAD_GROUP
350
D
  3
ACAD_LAYOUT
350
565
  3
ACAD_MLINESTYLE
350
E
  3
ACAD_PLOTSETTINGS
350
566
  3
ACAD_PLOTSTYLENAME
350
563
  3
ACDBHEADERROUNDTRIPXREC
350
109D
  3
ACDBVARIABLEDICTIONARY
350
B1C
  3
GRADE_DWG
350
540
  0
DICTIONARY
  5
10C0
330
1A
100
AcDbDictionary
280
     1
  3
ACAD_LAYOUTSELFREF
360
10C1
  0
DICTIONARY
  5
10BE
330
17
100
AcDbDictionary
280
     1
  3
ACAD_LAYOUTSELFREF
360
10BF
  0
DICTIONARY
  5
D
102
{ACAD_REACTORS
330
C
102
}
330
C
100
AcDbDictionary
  3
DREC-1
350
5FC
  3
DREC-2
350
654
  3
DREC-3
350
673
  3
LNSP-1
350
B11
  3
LNSP-2
350
B19
  0
DICTIONARY
  5
565
102
{ACAD_REACTORS
330
C
102
}
330
C
100
AcDbDictionary
  0
DICTIONARY
  5
E
102
{ACAD_REACTORS
330
C
102
}
330
C
100
AcDbDictionary
  3
STANDARD
350
13
  0
DICTIONARY
  5
566
102
{ACAD_REACTORS
330
C
102
}
330
C
100
AcDbDictionary
  0
ACDBDICTIONARYWDFLT
  5
563
102
{ACAD_REACTORS
330
C
102
}
330
C
100
AcDbDictionary
281
     1
  3
Normal
350
564
100
AcDbDictionaryWithDefault
340
564
  0
DICTIONARY
  5
109D
102
{ACAD_REACTORS
330
C
102
}
330
C
100
AcDbDictionary
  3
CEPSNTYPE
350
10A7
  3
DIMSTYLEDATA
350
10AB
  3
FINGERPRINTGUID
350
10A8
  3
HYPERLINKBASE
350
10A0
  3
INSUNITS
350
10A6
  3
LAYOUTDICT
350
10A2
  3
LWETCUNION
350
10A5
  3
PLOTSETDICT
350
10A3
  3
PLOTSTYLNAMDICT
350
10A4
  3
PSVPSCALE
350
10AA
  3
PUCSBASE
350
10AE
  3
PUCSORGBACK
350
10B4
  3
PUCSORGBOTTOM
350
10B0
  3
PUCSORGFRONT
350
10B3
  3
PUCSORGLEFT
350
10B1
  3
PUCSORGRIGHT
350
10B2
  3
PUCSORGTOP
350
10AF
  3
PUCSORTHOREF
350
10AC
  3
PUCSORTHOVIEW
350
10AD
  3
STYLESHEET
350
10A1
  3
TSTACKALIGN
350
109E
  3
TSTACKSIZE
350
109F
  3
UCSBASE
350
10B7
  3
UCSORGBACK
350
10BD
  3
UCSORGBOTTOM
350
10B9
  3
UCSORGFRONT
350
10BC
  3
UCSORGLEFT
350
10BA
  3
UCSORGRIGHT
350
10BB
  3
UCSORGTOP
350
10B8
  3
UCSORTHOREF
350
10B5
  3
UCSORTHOVIEW
350
10B6
  3
VERSIONGUID
350
10A9
  0
DICTIONARY
  5
B1C
102
{ACAD_REACTORS
330
C
102
}
330
C
100
AcDbDictionary
  3
SORTENTS
350
B1D
  0
DICTIONARY
  5
540
102
{ACAD_REACTORS
330
C
102
}
330
C
100
AcDbDictionary
  3
VERSION
350
560
  0
XRECORD
  5
10C1
102
{ACAD_REACTORS
330
10C0
102
}
330
10C0
100
AcDbXrecord
340
1A
  0
XRECORD
  5
10BF
102
{ACAD_REACTORS
330
10BE
102
}
330
10BE
100
AcDbXrecord
340
17
  0
GROUP
  5
5FC
102
{ACAD_REACTORS
330
D
102
}
330
D
100
AcDbGroup
300

 70
     0
 71
     1
1001
GRPNAME
1000
DREC-
1001
GPARA
1000
xsiz
1000
44.182
1000
ysiz
1000
40.677
1000
angl
1000
0
1000
ctyp
1000
0
1000
csiz
1000
5
1000
lfnt
1000
cont
1000
hcnt
1000
hoff
1000
vcnt
1000
voff
1000
opnt
1000
4
1000
dxpt
1000
0
1000
dypt
1000
0
  0
GROUP
  5
654
102
{ACAD_REACTORS
330
D
102
}
330
D
100
AcDbGroup
300

 70
     0
 71
     1
1001
GRPNAME
1000
DREC-
1001
GPARA
1000
xsiz
1000
54.592
1000
ysiz
1000
53.036
1000
angl
1000
0
1000
ctyp
1000
0
1000
csiz
1000
5
1000
lfnt
1000
cont
1000
hcnt
1000
hoff
1000
vcnt
1000
voff
1000
opnt
1000
4
1000
dxpt
1000
0
1000
dypt
1000
0
  0
GROUP
  5
673
102
{ACAD_REACTORS
330
D
102
}
330
D
100
AcDbGroup
300

 70
     0
 71
     1
1001
GRPNAME
1000
DREC-
1001
GPARA
1000
xsiz
1000
30.363
1000
ysiz
1000
36.175
1000
angl
1000
0
1000
ctyp
1000
0
1000
csiz
1000
5
1000
lfnt
1000
cont
1000
hcnt
1000
hoff
1000
vcnt
1000
voff
1000
opnt
1000
4
1000
dxpt
1000
0
1000
dypt
1000
0
  0
GROUP
  5
B11
102
{ACAD_REACTORS
330
D
102
}
330
D
100
AcDbGroup
300

 70
     0
 71
     1
1001
GRPNAME
1000
LNSP
  0
GROUP
  5
B19
102
{ACAD_REACTORS
330
D
102
}
330
D
100
AcDbGroup
300

 70
     0
 71
     1
1001
GRPNAME
1000
LNSP
  0
MLINESTYLE
  5
13
102
{ACAD_REACTORS
330
E
102
}
330
E
100
AcDbMlineStyle
  2
STANDARD
 70
     0
  3

 62
     0
 51
90.0
 52
90.0
 71
     2
 49
0.5
 62
   256
  6
BYLAYER
 49
-0.5
 62
   256
  6
BYLAYER
  0
ACDBPLACEHOLDER
  5
564
102
{ACAD_REACTORS
330
563
102
}
330
563
100
AcDbPlaceHolder
280
     0
  0
XRECORD
  5
10A7
102
{ACAD_REACTORS
330
109D
102
}
330
109D
100
AcDbXrecord
 90
        0
  0
XRECORD
  5
10AB
102
{ACAD_REACTORS
330
109D
102
}
330
109D
100
AcDbXrecord
1000
DSTYLE
1002
{
1070
    79
 70
     2
1070
   179
 70
     3
1070
   289
 70
     2
1070
   341
340
594
1070
   342
340
594
1070
   371
 70
    -1
1070
   372
 70
    -1
1002
}
  0
XRECORD
  5
10A8
102
{ACAD_REACTORS
330
109D
102
}
330
109D
100
AcDbXrecord
  1
{51294030-9CB4-11D3-8E18-00A0C925D94D}
  0
XRECORD
  5
10A0
102
{ACAD_REACTORS
330
109D
102
}
330
109D
100
AcDbXrecord
  1

  0
XRECORD
  5
10A6
102
{ACAD_REACTORS
330
109D
102
}
330
109D
100
AcDbXrecord
 90
        0
  0
XRECORD
  5
10A2
102
{ACAD_REACTORS
330
109D
102
}
330
109D
100
AcDbXrecord
340
565
  0
XRECORD
  5
10A5
102
{ACAD_REACTORS
330
109D
102
}
330
109D
100
AcDbXrecord
 90
    10781
  0
XRECORD
  5
10A3
102
{ACAD_REACTORS
330
109D
102
}
330
109D
100
AcDbXrecord
340
566
  0
XRECORD
  5
10A4
102
{ACAD_REACTORS
330
109D
102
}
330
109D
100
AcDbXrecord
340
563
  0
XRECORD
  5
10AA
102
{ACAD_REACTORS
330
109D
102
}
330
109D
100
AcDbXrecord
 40
0.0
  0
XRECORD
  5
10AE
102
{ACAD_REACTORS
330
109D
102
}
330
109D
100
AcDbXrecord
340
0
  0
XRECORD
  5
10B4
102
{ACAD_REACTORS
330
109D
102
}
330
109D
100
AcDbXrecord
 10
0.0
 20
0.0
 30
0.0
  0
XRECORD
  5
10B0
102
{ACAD_REACTORS
330
109D
102
}
330
109D
100
AcDbXrecord
 10
0.0
 20
0.0
 30
0.0
  0
XRECORD
  5
10B3
102
{ACAD_REACTORS
330
109D
102
}
330
109D
100
AcDbXrecord
 10
0.0
 20
0.0
 30
0.0
  0
XRECORD
  5
10B1
102
{ACAD_REACTORS
330
109D
102
}
330
109D
100
AcDbXrecord
 10
0.0
 20
0.0
 30
0.0
  0
XRECORD
  5
10B2
102
{ACAD_REACTORS
330
109D
102
}
330
109D
100
AcDbXrecord
 10
0.0
 20
0.0
 30
0.0
  0
XRECORD
  5
10AF
102
{ACAD_REACTORS
330
109D
102
}
330
109D
100
AcDbXrecord
 10
0.0
 20
0.0
 30
0.0
  0
XRECORD
  5
10AC
102
{ACAD_REACTORS
330
109D
102
}
330
109D
100
AcDbXrecord
340
0
  0
XRECORD
  5
10AD
102
{ACAD_REACTORS
330
109D
102
}
330
109D
100
AcDbXrecord
 70
     0
  0
XRECORD
  5
10A1
102
{ACAD_REACTORS
330
109D
102
}
330
109D
100
AcDbXrecord
  1
big.ctb
  0
XRECORD
  5
109E
102
{ACAD_REACTORS
330
109D
102
}
330
109D
100
AcDbXrecord
 90
        1
  0
XRECORD
  5
109F
102
{ACAD_REACTORS
330
109D
102
}
330
109D
100
AcDbXrecord
 90
       70
  0
XRECORD
  5
10B7
102
{ACAD_REACTORS
330
109D
102
}
330
109D
100
AcDbXrecord
340
0
  0
XRECORD
  5
10BD
102
{ACAD_REACTORS
330
109D
102
}
330
109D
100
AcDbXrecord
 10
0.0
 20
0.0
 30
0.0
  0
XRECORD
  5
10B9
102
{ACAD_REACTORS
330
109D
102
}
330
109D
100
AcDbXrecord
 10
0.0
 20
0.0
 30
0.0
  0
XRECORD
  5
10BC
102
{ACAD_REACTORS
330
109D
102
}
330
109D
100
AcDbXrecord
 10
0.0
 20
0.0
 30
0.0
  0
XRECORD
  5
10BA
102
{ACAD_REACTORS
330
109D
102
}
330
109D
100
AcDbXrecord
 10
0.0
 20
0.0
 30
0.0
  0
XRECORD
  5
10BB
102
{ACAD_REACTORS
330
109D
102
}
330
109D
100
AcDbXrecord
 10
0.0
 20
0.0
 30
0.0
  0
XRECORD
  5
10B8
102
{ACAD_REACTORS
330
109D
102
}
330
109D
100
AcDbXrecord
 10
0.0
 20
0.0
 30
0.0
  0
XRECORD
  5
10B5
102
{ACAD_REACTORS
330
109D
102
}
330
109D
100
AcDbXrecord
340
0
  0
XRECORD
  5
10B6
102
{ACAD_REACTORS
330
109D
102
}
330
109D
100
AcDbXrecord
 70
     0
  0
XRECORD
  5
10A9
102
{ACAD_REACTORS
330
109D
102
}
330
109D
100
AcDbXrecord
  1
{CA454546-324D-11D7-96A2-006094EB2375}
  0
DICTIONARYVAR
  5
B1D
102
{ACAD_REACTORS
330
B1C
102
}
330
B1C
100
DictionaryVariables
280
     0
  1
96
  0
XRECORD
  5
560
102
{ACAD_REACTORS
330
540
102
}
330
540
100
AcDbXrecord
  1
2.0.0
  0
ENDSEC
  0
EOF
