  0
SECTION
  2
HEADER
  9
$ACADVER
  1
AC1014
  9
$ACADMAINTVER
 70
     9
  9
$DWGCODEPAGE
  3
ANSI_932
  9
$INSBASE
 10
0.0
 20
0.0
 30
0.0
  9
$EXTMIN
 10
-49.01431165
 20
-40.20989651
 30
-0.00152582
  9
$EXTMAX
 10
64.62887641
 20
75.01814879
 30
0.00000003
  9
$LIMMIN
 10
0.0
 20
0.0
  9
$LIMMAX
 10
420.0
 20
297.0
  9
$ORTHOMODE
 70
     0
  9
$REGENMODE
 70
     1
  9
$FILLMODE
 70
     1
  9
$QTEXTMODE
 70
     0
  9
$MIRRTEXT
 70
     1
  9
$DRAGMODE
 70
     2
  9
$LTSCALE
 40
10.0
  9
$OSMODE
 70
   549
  9
$ATTMODE
 70
     1
  9
$TEXTSIZE
 40
3.0
  9
$TRACEWID
 40
1.0
  9
$TEXTSTYLE
  7
YOKO
  9
$CLAYER
  8
245
  9
$CELTYPE
  6
BYLAYER
  9
$CECOLOR
 62
   256
  9
$CELTSCALE
 40
1.0
  9
$DELOBJ
 70
     1
  9
$DISPSILH
 70
     0
  9
$DIMSCALE
 40
1.0
  9
$DIMASZ
 40
2.0
  9
$DIMEXO
 40
2.0
  9
$DIMDLI
 40
2.5
  9
$DIMRND
 40
0.0
  9
$DIMDLE
 40
0.0
  9
$DIMEXE
 40
2.0
  9
$DIMTP
 40
0.0
  9
$DIMTM
 40
0.0
  9
$DIMTXT
 40
4.0
  9
$DIMCEN
 40
0.0
  9
$DIMTSZ
 40
0.0
  9
$DIMTOL
 70
     0
  9
$DIMLIM
 70
     0
  9
$DIMTIH
 70
     0
  9
$DIMTOH
 70
     0
  9
$DIMSE1
 70
     0
  9
$DIMSE2
 70
     0
  9
$DIMTAD
 70
     3
  9
$DIMZIN
 70
     8
  9
$DIMBLK
  1

  9
$DIMASO
 70
     1
  9
$DIMSHO
 70
     1
  9
$DIMPOST
  1

  9
$DIMAPOST
  1

  9
$DIMALT
 70
     0
  9
$DIMALTD
 70
     2
  9
$DIMALTF
 40
25.4
  9
$DIMLFAC
 40
1.0
  9
$DIMTOFL
 70
     1
  9
$DIMTVP
 40
0.0
  9
$DIMTIX
 70
     1
  9
$DIMSOXD
 70
     0
  9
$DIMSAH
 70
     1
  9
$DIMBLK1
  1
OPEN
  9
$DIMBLK2
  1
OPEN
  9
$DIMSTYLE
  2
BIGT
  9
$DIMCLRD
 70
   256
  9
$DIMCLRE
 70
   256
  9
$DIMCLRT
 70
    40
  9
$DIMTFAC
 40
1.0
  9
$DIMGAP
 40
1.0
  9
$DIMJUST
 70
     0
  9
$DIMSD1
 70
     0
  9
$DIMSD2
 70
     0
  9
$DIMTOLJ
 70
     1
  9
$DIMTZIN
 70
     8
  9
$DIMALTZ
 70
     0
  9
$DIMALTTZ
 70
     0
  9
$DIMFIT
 70
     3
  9
$DIMUPT
 70
     0
  9
$DIMUNIT
 70
     2
  9
$DIMDEC
 70
     3
  9
$DIMTDEC
 70
     3
  9
$DIMALTU
 70
     2
  9
$DIMALTTD
 70
     2
  9
$DIMTXSTY
  7
STANDARD
  9
$DIMAUNIT
 70
     0
  9
$LUNITS
 70
     2
  9
$LUPREC
 70
     3
  9
$SKETCHINC
 40
1.0
  9
$FILLETRAD
 40
2.0
  9
$AUNITS
 70
     0
  9
$AUPREC
 70
     3
  9
$MENU
  1
.
  9
$ELEVATION
 40
0.0
  9
$PELEVATION
 40
0.0
  9
$THICKNESS
 40
0.0
  9
$LIMCHECK
 70
     0
  9
$BLIPMODE
 70
     0
  9
$CHAMFERA
 40
10.0
  9
$CHAMFERB
 40
10.0
  9
$CHAMFERC
 40
0.0
  9
$CHAMFERD
 40
0.0
  9
$SKPOLY
 70
     0
  9
$TDCREATE
 40
2454978.466171875
  9
$TDUPDATE
 40
2455300.592444109
  9
$TDINDWG
 40
0.0130474190
  9
$TDUSRTIMER
 40
0.0130472454
  9
$USRTIMER
 70
     1
  9
$ANGBASE
 50
0.0
  9
$ANGDIR
 70
     0
  9
$PDMODE
 70
     1
  9
$PDSIZE
 40
-5.0
  9
$PLINEWID
 40
0.0
  9
$COORDS
 70
     2
  9
$SPLFRAME
 70
     0
  9
$SPLINETYPE
 70
     6
  9
$SPLINESEGS
 70
     8
  9
$ATTDIA
 70
     0
  9
$ATTREQ
 70
     1
  9
$HANDLING
 70
-16383
  9
$HANDSEED
  5
F48
  9
$SURFTAB1
 70
     6
  9
$SURFTAB2
 70
     6
  9
$SURFTYPE
 70
     6
  9
$SURFU
 70
     6
  9
$SURFV
 70
     6
  9
$UCSNAME
  2

  9
$UCSORG
 10
0.0
 20
0.0
 30
0.0
  9
$UCSXDIR
 10
1.0
 20
0.0
 30
0.0
  9
$UCSYDIR
 10
0.0
 20
1.0
 30
0.0
  9
$PUCSNAME
  2

  9
$PUCSORG
 10
0.0
 20
0.0
 30
0.0
  9
$PUCSXDIR
 10
1.0
 20
0.0
 30
0.0
  9
$PUCSYDIR
 10
0.0
 20
1.0
 30
0.0
  9
$USERI1
 70
     1
  9
$USERI2
 70
     0
  9
$USERI3
 70
     0
  9
$USERI4
 70
     0
  9
$USERI5
 70
     0
  9
$USERR1
 40
0.0
  9
$USERR2
 40
0.0
  9
$USERR3
 40
0.0
  9
$USERR4
 40
0.0
  9
$USERR5
 40
0.0
  9
$WORLDVIEW
 70
     1
  9
$SHADEDGE
 70
     3
  9
$SHADEDIF
 70
    70
  9
$TILEMODE
 70
     1
  9
$MAXACTVP
 70
    16
  9
$PINSBASE
 10
0.0
 20
0.0
 30
0.0
  9
$PLIMCHECK
 70
     0
  9
$PEXTMIN
 10
1.00000000E+20
 20
1.00000000E+20
 30
1.00000000E+20
  9
$PEXTMAX
 10
-1.00000000E+20
 20
-1.00000000E+20
 30
-1.00000000E+20
  9
$PLIMMIN
 10
0.0
 20
0.0
  9
$PLIMMAX
 10
420.0
 20
297.0
  9
$UNITMODE
 70
     0
  9
$VISRETAIN
 70
     0
  9
$PLINEGEN
 70
     0
  9
$PSLTSCALE
 70
     1
  9
$TREEDEPTH
 70
  3020
  9
$PICKSTYLE
 70
     0
  9
$CMLSTYLE
  2
STANDARD
  9
$CMLJUST
 70
     0
  9
$CMLSCALE
 40
1.0
  9
$PROXYGRAPHICS
 70
     1
  9
$MEASUREMENT
 70
     1
  0
ENDSEC
  0
SECTION
  2
CLASSES
  0
CLASS
  1
XRECORD
  2
AcDbXrecord
  3
AutoCAD 2000
 90
        0
280
     0
281
     0
  0
CLASS
  1
ACDBDICTIONARYWDFLT
  2
AcDbDictionaryWithDefault
  3
AutoCAD 2000
 90
        0
280
     0
281
     0
  0
CLASS
  1
ACDBPLACEHOLDER
  2
AcDbPlaceHolder
  3
AutoCAD 2000
 90
        0
280
     0
281
     0
  0
CLASS
  1
LAYOUT
  2
AcDbLayout
  3
AutoCAD 2000
 90
        0
280
     0
281
     0
  0
CLASS
  1
PLOTSETTINGS
  2
AcDbPlotSettings
  3
AutoCAD 2000
 90
        0
280
     0
281
     0
  0
CLASS
  1
LONG_TRANSACTION
  2
AcDbLongTransaction
  3
AutoCAD 2000
 90
        0
280
     0
281
     0
  0
CLASS
  1
LWPOLYLINE
  2
AcDbPolyline
  3
AutoCAD 2000
 90
        0
280
     0
281
     1
  0
CLASS
  1
HATCH
  2
AcDbHatch
  3
AutoCAD 2000
 90
        0
280
     0
281
     1
  0
CLASS
  1
XRECORD
  2
AcDbXrecord
  3
AutoCAD 2000
 90
        0
280
     0
281
     0
  0
CLASS
  1
LONG_TRANSACTION
  2
AcDbLongTransaction
  3
AutoCAD 2000
 90
        0
280
     0
281
     0
  0
CLASS
  1
LWPOLYLINE
  2
AcDbPolyline
  3
AutoCAD 2000
 90
        0
280
     0
281
     1
  0
CLASS
  1
HATCH
  2
AcDbHatch
  3
AutoCAD 2000
 90
        0
280
     0
281
     1
  0
CLASS
  1
XRECORD
  2
AcDbXrecord
  3
AutoCAD 2000
 90
        0
280
     0
281
     0
  0
CLASS
  1
LONG_TRANSACTION
  2
AcDbLongTransaction
  3
AutoCAD 2000
 90
        0
280
     0
281
     0
  0
CLASS
  1
LWPOLYLINE
  2
AcDbPolyline
  3
AutoCAD 2000
 90
        0
280
     0
281
     1
  0
CLASS
  1
HATCH
  2
AcDbHatch
  3
AutoCAD 2000
 90
        0
280
     0
281
     1
  0
CLASS
  1
XRECORD
  2
AcDbXrecord
  3
AutoCAD 2000
 90
        0
280
     0
281
     0
  0
CLASS
  1
LONG_TRANSACTION
  2
AcDbLongTransaction
  3
AutoCAD 2000
 90
        0
280
     0
281
     0
  0
CLASS
  1
LWPOLYLINE
  2
AcDbPolyline
  3
AutoCAD 2000
 90
        0
280
     0
281
     1
  0
CLASS
  1
HATCH
  2
AcDbHatch
  3
AutoCAD 2000
 90
        0
280
     0
281
     1
  0
CLASS
  1
XRECORD
  2
AcDbXrecord
  3
AutoCAD 2000
 90
        0
280
     0
281
     0
  0
CLASS
  1
LONG_TRANSACTION
  2
AcDbLongTransaction
  3
AutoCAD 2000
 90
        0
280
     0
281
     0
  0
CLASS
  1
LWPOLYLINE
  2
AcDbPolyline
  3
AutoCAD 2000
 90
        0
280
     0
281
     1
  0
CLASS
  1
HATCH
  2
AcDbHatch
  3
AutoCAD 2000
 90
        0
280
     0
281
     1
  0
CLASS
  1
XRECORD
  2
AcDbXrecord
  3
AutoCAD 2000
 90
        0
280
     0
281
     0
  0
CLASS
  1
LONG_TRANSACTION
  2
AcDbLongTransaction
  3
AutoCAD 2000
 90
        0
280
     0
281
     0
  0
CLASS
  1
LWPOLYLINE
  2
AcDbPolyline
  3
AutoCAD 2000
 90
        0
280
     0
281
     1
  0
CLASS
  1
HATCH
  2
AcDbHatch
  3
AutoCAD 2000
 90
        0
280
     0
281
     1
  0
CLASS
  1
XRECORD
  2
AcDbXrecord
  3
AutoCAD 2000
 90
        0
280
     0
281
     0
  0
CLASS
  1
LONG_TRANSACTION
  2
AcDbLongTransaction
  3
AutoCAD 2000
 90
        0
280
     0
281
     0
  0
CLASS
  1
LWPOLYLINE
  2
AcDbPolyline
  3
AutoCAD 2000
 90
        0
280
     0
281
     1
  0
CLASS
  1
HATCH
  2
AcDbHatch
  3
AutoCAD 2000
 90
        0
280
     0
281
     1
  0
CLASS
  1
XRECORD
  2
AcDbXrecord
  3
AutoCAD 2000
 90
        0
280
     0
281
     0
  0
ENDSEC
  0
SECTION
  2
TABLES
  0
TABLE
  2
VPORT
  5
8
330
0
100
AcDbSymbolTable
 70
     3
  0
VPORT
  5
F23
330
8
100
AcDbSymbolTableRecord
100
AcDbViewportTableRecord
  2
*ACTIVE
 70
     0
 10
0.0
 20
0.0
 11
1.0
 21
1.0
 12
7.80728238
 22
17.40412614
 13
0.0
 23
0.0
 14
7.0
 24
7.0
 15
7.0
 25
7.0
 16
0.0
 26
0.0
 36
1.0
 17
0.0
 27
0.0
 37
0.0
 40
116.1076487
 41
1.43184713
 42
50.0
 43
0.0
 44
0.0
 50
0.0
 51
0.0
 71
     0
 72
  2000
 73
     1
 74
     0
 75
     0
 76
     0
 77
     0
 78
     0
  0
ENDTAB
  0
TABLE
  2
LTYPE
  5
5
330
0
100
AcDbSymbolTable
 70
     3
  0
LTYPE
  5
14
330
5
100
AcDbSymbolTableRecord
100
AcDbLinetypeTableRecord
  2
BYBLOCK
 70
     0
  3

 72
    65
 73
     0
 40
0.0
  0
LTYPE
  5
15
330
5
100
AcDbSymbolTableRecord
100
AcDbLinetypeTableRecord
  2
BYLAYER
 70
     0
  3

 72
    65
 73
     0
 40
0.0
  0
LTYPE
  5
16
330
5
100
AcDbSymbolTableRecord
100
AcDbLinetypeTableRecord
  2
CONTINUOUS
 70
     0
  3
Solid line
 72
    65
 73
     0
 40
0.0
  0
LTYPE
  5
258
330
5
100
AcDbSymbolTableRecord
100
AcDbLinetypeTableRecord
  2
CENTER2
 70
     0
  3
___ _ ___ _ ___ _ ___ _ ___ _ ___ _ ___ _ ___ _
 72
    65
 73
     4
 40
1.125
 49
0.75
 74
     0
 49
-0.125
 74
     0
 49
0.125
 74
     0
 49
-0.125
 74
     0
  0
LTYPE
  5
25C
330
5
100
AcDbSymbolTableRecord
100
AcDbLinetypeTableRecord
  2
HIDDEN2
 70
     0
  3
_ _ _ _ _ _ _ _ _ _ _ _ _ _ _ _ _ _ _ _ _ _ _ _
 72
    65
 73
     2
 40
0.1875
 49
0.125
 74
     0
 49
-0.0625
 74
     0
  0
ENDTAB
  0
TABLE
  2
LAYER
  5
2
330
0
100
AcDbSymbolTable
 70
     8
  0
LAYER
  5
F
330
2
100
AcDbSymbolTableRecord
100
AcDbLayerTableRecord
  2
0
 70
     0
 62
     7
  6
CONTINUOUS
  0
LAYER
  5
1AA
330
2
100
AcDbSymbolTableRecord
100
AcDbLayerTableRecord
  2
240
 70
     0
 62
     4
  6
CONTINUOUS
  0
LAYER
  5
1AB
330
2
100
AcDbSymbolTableRecord
100
AcDbLayerTableRecord
  2
241
 70
     0
 62
   211
  6
CONTINUOUS
  0
LAYER
  5
1AF
330
2
100
AcDbSymbolTableRecord
100
AcDbLayerTableRecord
  2
245
 70
     0
 62
     2
  6
CENTER2
  0
LAYER
  5
21E
330
2
100
AcDbSymbolTableRecord
100
AcDbLayerTableRecord
  2
250
 70
     0
 62
     3
  6
CONTINUOUS
  0
LAYER
  5
21F
330
2
100
AcDbSymbolTableRecord
100
AcDbLayerTableRecord
  2
251
 70
     0
 62
    40
  6
CONTINUOUS
  0
LAYER
  5
5C4
330
2
100
AcDbSymbolTableRecord
100
AcDbLayerTableRecord
  2
DEFPOINTS
 70
     0
 62
     7
  6
CONTINUOUS
  0
ENDTAB
  0
TABLE
  2
STYLE
  5
3
330
0
100
AcDbSymbolTable
 70
     2
  0
STYLE
  5
10
330
3
100
AcDbSymbolTableRecord
100
AcDbTextStyleTableRecord
  2
STANDARD
 70
     0
 40
0.0
 41
1.0
 50
0.0
 71
     0
 42
3.0
  3
romans.shx
  4
BIGFONT.SHX
  0
STYLE
  5
339
330
3
100
AcDbSymbolTableRecord
100
AcDbTextStyleTableRecord
  2
YOKO
 70
     0
 40
0.0
 41
1.0
 50
0.0
 71
     0
 42
3.0
  3
romans.shx
  4
extfont.shx
  0
ENDTAB
  0
TABLE
  2
VIEW
  5
6
330
0
100
AcDbSymbolTable
 70
     0
  0
ENDTAB
  0
TABLE
  2
UCS
  5
7
330
0
100
AcDbSymbolTable
 70
     0
  0
ENDTAB
  0
TABLE
  2
APPID
  5
9
330
0
100
AcDbSymbolTable
 70
     9
  0
APPID
  5
11
330
9
100
AcDbSymbolTableRecord
100
AcDbRegAppTableRecord
  2
ACAD
 70
     0
  0
APPID
  5
1B1
330
9
100
AcDbSymbolTableRecord
100
AcDbRegAppTableRecord
  2
GLOBAL
 70
     0
  0
APPID
  5
2A4
330
9
100
AcDbSymbolTableRecord
100
AcDbRegAppTableRecord
  2
DETAIL
 70
     0
  0
APPID
  5
5FD
330
9
100
AcDbSymbolTableRecord
100
AcDbRegAppTableRecord
  2
GRPNAME
 70
     0
  0
APPID
  5
5FE
330
9
100
AcDbSymbolTableRecord
100
AcDbRegAppTableRecord
  2
GPARA
 70
     0
  0
APPID
  5
6C4
330
9
100
AcDbSymbolTableRecord
100
AcDbRegAppTableRecord
  2
DCO15
 70
     0
  0
APPID
  5
6C5
330
9
100
AcDbSymbolTableRecord
100
AcDbRegAppTableRecord
  2
ITEMNAME
 70
     0
  0
APPID
  5
6C6
330
9
100
AcDbSymbolTableRecord
100
AcDbRegAppTableRecord
  2
GRADE_0
 70
     0
  0
APPID
  5
9B8
330
9
100
AcDbSymbolTableRecord
100
AcDbRegAppTableRecord
  2
CONTENTBLOCKICON
 70
     0
  0
ENDTAB
  0
TABLE
  2
DIMSTYLE
  5
A
330
0
100
AcDbSymbolTable
 70
     3
  0
DIMSTYLE
105
725
330
A
100
AcDbSymbolTableRecord
100
AcDbDimStyleTableRecord
  2
BIGT
 70
     0
  3

  4

  5

  6
OPEN
  7
OPEN
 40
1.0
 41
2.23
 42
0.5
 43
2.5
 44
1.0
 45
0.0
 46
0.0
 47
0.0
 48
0.0
140
2.8
141
0.0
142
0.0
143
25.4
144
1.0
145
0.0
146
1.0
147
1.0
 71
     0
 72
     0
 73
     0
 74
     0
 75
     0
 76
     0
 77
     3
 78
     8
170
     0
171
     2
172
     1
173
     1
174
     1
175
     0
176
   256
177
   256
178
    40
270
     2
271
     3
272
     3
273
     2
274
     2
340
10
275
     0
280
     0
281
     0
282
     0
283
     1
284
     8
285
     0
286
     0
287
     3
288
     0
  0
DIMSTYLE
105
7ED
102
{ACAD_REACTORS
330
804
330
806
102
}
330
A
100
AcDbSymbolTableRecord
100
AcDbDimStyleTableRecord
  2
BIGT$0
 70
     0
  3

  4
"
  5
OPEN
  6

  7

 40
1.0
 41
2.23
 42
0.5
 43
7.0
 44
1.0
 45
0.0
 46
0.0
 47
0.1
 48
0.1
140
3.0
141
0.0
142
0.0
143
0.0393701
144
1.0
145
0.0
146
0.71
147
1.0
 71
     0
 72
     0
 73
     0
 74
     0
 75
     0
 76
     0
 77
     3
 78
     8
170
     0
171
     2
172
     1
173
     0
174
     0
175
     0
176
     3
177
     3
178
    40
270
     2
271
     3
272
     3
273
     2
274
     2
340
10
275
     0
280
     0
281
     0
282
     0
283
     1
284
     8
285
     0
286
     0
287
     3
288
     0
  0
DIMSTYLE
105
CB1
330
A
100
AcDbSymbolTableRecord
100
AcDbDimStyleTableRecord
  2
BIGT$7
 70
     0
  3

  4
"
  5
OPEN
  6

  7

 40
1.0
 41
2.5
 42
0.5
 43
7.0
 44
1.0
 45
0.0
 46
0.0
 47
0.1
 48
0.1
140
5.0
141
0.0
142
0.0
143
0.0393701
144
1.0
145
0.0
146
0.71
147
1.5
 71
     0
 72
     0
 73
     0
 74
     0
 75
     0
 76
     0
 77
     3
 78
     8
170
     0
171
     2
172
     1
173
     0
174
     0
175
     0
176
     3
177
     3
178
    40
270
     2
271
     3
272
     3
273
     2
274
     2
340
10
275
     0
280
     0
281
     0
282
     0
283
     1
284
     8
285
     0
286
     0
287
     3
288
     0
  0
ENDTAB
  0
TABLE
  2
BLOCK_RECORD
  5
1
330
0
100
AcDbSymbolTable
 70
     6
  0
BLOCK_RECORD
  5
1A
102
{ACAD_XDICTIONARY
360
9B6
102
}
330
1
100
AcDbSymbolTableRecord
100
AcDbBlockTableRecord
  2
*MODEL_SPACE
  0
BLOCK_RECORD
  5
17
102
{ACAD_XDICTIONARY
360
9B4
102
}
330
1
100
AcDbSymbolTableRecord
100
AcDbBlockTableRecord
  2
*PAPER_SPACE
  0
BLOCK_RECORD
  5
594
330
1
100
AcDbSymbolTableRecord
100
AcDbBlockTableRecord
  2
_OPEN
  0
BLOCK_RECORD
  5
6E3
330
1
100
AcDbSymbolTableRecord
100
AcDbBlockTableRecord
  2
矢印なし
  0
BLOCK_RECORD
  5
76C
330
1
100
AcDbSymbolTableRecord
100
AcDbBlockTableRecord
  2
1
1001
CONTENTBLOCKICON
1071
        0
1004
2800000020000000200000000100080000000000000400000000000000000000000000000000000000000000000080000080000000808000800000008000800080800000C0C0C000C0DCC000F0CAA6000020400000206000002080000020A0000020C0000020E00000400000004020000040400000406000004080000040A0
1004
000040C0000040E00000600000006020000060400000606000006080000060A0000060C0000060E00000800000008020000080400000806000008080000080A0000080C0000080E00000A0000000A0200000A0400000A0600000A0800000A0A00000A0C00000A0E00000C0000000C0200000C0400000C0600000C0800000C0
1004
A00000C0C00000C0E00000E0000000E0200000E0400000E0600000E0800000E0A00000E0C00000E0E00040000000400020004000400040006000400080004000A0004000C0004000E00040200000402020004020400040206000402080004020A0004020C0004020E000404000004040200040404000404060004040800040
1004
40A0004040C0004040E00040600000406020004060400040606000406080004060A0004060C0004060E00040800000408020004080400040806000408080004080A0004080C0004080E00040A0000040A0200040A0400040A0600040A0800040A0A00040A0C00040A0E00040C0000040C0200040C0400040C0600040C08000
1004
40C0A00040C0C00040C0E00040E0000040E0200040E0400040E0600040E0800040E0A00040E0C00040E0E00080000000800020008000400080006000800080008000A0008000C0008000E00080200000802020008020400080206000802080008020A0008020C0008020E00080400000804020008040400080406000804080
1004
008040A0008040C0008040E00080600000806020008060400080606000806080008060A0008060C0008060E00080800000808020008080400080806000808080008080A0008080C0008080E00080A0000080A0200080A0400080A0600080A0800080A0A00080A0C00080A0E00080C0000080C0200080C0400080C0600080C0
1004
800080C0A00080C0C00080C0E00080E0000080E0200080E0400080E0600080E0800080E0A00080E0C00080E0E000C0000000C0002000C0004000C0006000C0008000C000A000C000C000C000E000C0200000C0202000C0204000C0206000C0208000C020A000C020C000C020E000C0400000C0402000C0404000C0406000C0
1004
408000C040A000C040C000C040E000C0600000C0602000C0604000C0606000C0608000C060A000C060C000C060E000C0800000C0802000C0804000C0806000C0808000C080A000C080C000C080E000C0A00000C0A02000C0A04000C0A06000C0A08000C0A0A000C0A0C000C0A0E000C0C00000C0C02000C0C04000C0C06000
1004
C0C08000C0C0A000F0FBFF00A4A0A000808080000000FF0000FF000000FFFF00FF000000FF00FF00FFFF0000FFFFFF0000000000000000000000000000000000000000000000000000000000000000000000000000000000000000000000000000000000000000000000000000000000000000000000000000000000000000
1004
00000000000000000000000000000000000000000000000000000000000000000000000000000000000000000000000000000000000000000000000000000000FEFEFEFEFEFEFEFEFEFE00000000000000000000000000000000000000000000FE0000E7E7E7000000FEFE0000000000000000000000000000000000000000
1004
00FE0000E7E7E7000000E700FEFEFEFE0000000000000000000000000000000000FE0000E7E7E7000000E700E7E7E7FE00000000FEFEFEFEFEFEFEFEFEFEFEFEFEFE0000E7E7E7000000E700E7E7E7FE00000000FE000000000000000000000000E70000E7E7E7000000E70000E7E7FE00000000FE00000000000000000000
1004
0000E70000E7E7E7000000E70000E7E7FE00000000FE000000000000000000000000E70000E7E7E7000000E700E7E7E7FE00000000FE000000000000000000000000E70000E7E7E7000000E700E700E7FE00000000FE000000000000000000000000E70000000000000000E700E700E7FE00000000E7E7E700000000000000
1004
000000E700E7E7E7E7000000E700E700E7FE00000000FE00E7E7000000000000000000E700E70000E7000000E700E700E7E7000000FBE7FBE7E7FBFBFBFBFBFBFBFBFBE7FBE7FBFBE7E7FBFBE7FBE7FBE7E7FB000000E7E7E700000000000000000000E700E7E7E7E7000000E700E700E7FE00000000E70000000000000000
1004
00000000E70000000000000000E700E700E7FE00000000E7000000000000000000000000E70000E7E7E7000000E700E700E7FE00000000E7000000000000000000000000E70000E7E7E7000000E700E7E7E7FE00000000E7000000000000000000000000E70000E7E7E7000000E70000E7E7FE00000000E700000000000000
1004
0000000000E70000E7E7E7000000E70000E7E7FE00000000FEFEFEFEFEFEFEFEFEFEFEFEFEFE0000E7E7E7000000E700E7E7E7FE0000000000000000000000000000000000FE0000E7E7E7000000E700E7E7E7FE0000000000000000000000000000000000FE0000E7E7E7000000E70000FEE7FE0000000000000000000000
1004
000000000000FE0000E7E7E7000000FEFEFE0000000000000000000000000000000000000000FEFEFEFEFEFEFEFEFEFE00000000000000000000000000000000000000000000000000000000000000000000000000000000000000000000000000000000000000000000000000000000000000000000000000000000000000
1004
0000000000000000000000000000000000000000000000000000000000000000000000000000000000000000000000000000000000000000
  0
BLOCK_RECORD
  5
808
330
1
100
AcDbSymbolTableRecord
100
AcDbBlockTableRecord
  2
*D3
  0
BLOCK_RECORD
  5
820
330
1
100
AcDbSymbolTableRecord
100
AcDbBlockTableRecord
  2
*D5
  0
ENDTAB
  0
ENDSEC
  0
SECTION
  2
BLOCKS
  0
BLOCK
  5
1B
330
1A
100
AcDbEntity
  8
0
100
AcDbBlockBegin
  2
*MODEL_SPACE
 70
     0
 10
0.0
 20
0.0
 30
0.0
  3
*MODEL_SPACE
  1

  0
ENDBLK
  5
1C
330
1A
100
AcDbEntity
  8
0
100
AcDbBlockEnd
  0
BLOCK
  5
18
330
17
100
AcDbEntity
 67
     1
  8
0
100
AcDbBlockBegin
  2
*PAPER_SPACE
 70
     0
 10
0.0
 20
0.0
 30
0.0
  3
*PAPER_SPACE
  1

  0
ENDBLK
  5
19
330
17
100
AcDbEntity
 67
     1
  8
0
100
AcDbBlockEnd
  0
BLOCK
  5
598
330
594
100
AcDbEntity
  8
0
100
AcDbBlockBegin
  2
_OPEN
 70
     0
 10
0.0
 20
0.0
 30
0.0
  3
_OPEN
  1

  0
LINE
  5
595
330
594
100
AcDbEntity
  8
0
  6
BYBLOCK
 62
     0
100
AcDbLine
 10
-1.0
 20
0.16666667
 30
0.0
 11
0.0
 21
0.0
 31
0.0
  0
LINE
  5
596
330
594
100
AcDbEntity
  8
0
  6
BYBLOCK
 62
     0
100
AcDbLine
 10
-1.0
 20
-0.16666667
 30
0.0
 11
0.0
 21
0.0
 31
0.0
  0
LINE
  5
597
330
594
100
AcDbEntity
  8
0
  6
BYBLOCK
 62
     0
100
AcDbLine
 10
0.0
 20
0.0
 30
0.0
 11
-1.0
 21
0.0
 31
0.0
  0
ENDBLK
  5
599
330
594
100
AcDbEntity
  8
0
100
AcDbBlockEnd
  0
BLOCK
  5
6E4
330
6E3
100
AcDbEntity
  8
0
100
AcDbBlockBegin
  2
矢印なし
 70
     0
 10
0.0
 20
0.0
 30
0.0
  3
矢印なし
  1

  0
ENDBLK
  5
6E5
330
6E3
100
AcDbEntity
  8
0
100
AcDbBlockEnd
  0
BLOCK
  5
7C7
330
76C
100
AcDbEntity
  8
0
100
AcDbBlockBegin
  2
1
 70
     0
 10
0.0
 20
0.0
 30
0.0
  3
1
  1

  0
LINE
  5
E48
330
76C
100
AcDbEntity
  8
240
100
AcDbLine
 10
44.9999991
 20
31.5
 30
0.0
 11
31.3114907
 21
36.51911975
 31
0.0
  0
LINE
  5
E49
330
76C
100
AcDbEntity
  8
240
100
AcDbLine
 10
44.99999911
 20
-31.5
 30
0.0
 11
31.3114907
 21
-36.51911975
 31
0.0
  0
LINE
  5
E4A
330
76C
100
AcDbEntity
  8
241
100
AcDbLine
 10
37.10324654
 20
29.51694429
 30
0.0
 11
40.88144554
 21
22.10181125
 31
0.0
  0
LINE
  5
E4B
330
76C
100
AcDbEntity
  8
245
  6
CENTER2
100
AcDbLine
 10
-49.0
 20
0.0
 30
0.0
 11
49.49999911
 21
0.0
 31
0.0
  0
SPLINE
  5
E4C
330
76C
100
AcDbEntity
  8
241
100
AcDbSpline
210
0.0
220
0.0
230
1.0
 70
     8
 71
     3
 72
    30
 73
    26
 74
     0
 42
0.0000000001
 43
0.0000000001
 40
11.86811076986652
 40
11.86811076986652
 40
11.86811076986652
 40
11.86811076986652
 40
12.5452532593312
 40
12.5452532593312
 40
13.35610579916681
 40
13.35610579916681
 40
14.30717824892107
 40
14.30717824892107
 40
15.25825069867541
 40
15.25825069867541
 40
16.2093231484297
 40
16.2093231484297
 40
17.16039559818399
 40
17.16039559818399
 40
18.00117920379328
 40
18.00117920379328
 40
18.84196280940257
 40
18.84196280940257
 40
19.68274641501185
 40
19.68274641501185
 40
20.52353002062115
 40
20.52353002062115
 40
20.97137292334612
 40
20.97137292334612
 40
21.20207642009492
 40
21.20207642009492
 40
21.20207642009492
 40
21.20207642009492
 10
38.55504091287439
 20
26.66763740629777
 30
0.0
 10
38.5811771436002
 20
26.61634216530103
 30
0.0
 10
38.62772046795072
 20
26.56111955896619
 30
0.0
 10
38.76796536946067
 20
26.43323180381787
 30
0.0
 10
38.86924359579078
 20
26.35922166216857
 30
0.0
 10
39.12173673365902
 20
26.19567196146032
 30
0.0
 10
39.28906519489084
 20
26.098876340846
 30
0.0
 10
39.67510655766665
 20
25.8910305364319
 30
0.0
 10
39.89376217882004
 20
25.77997925930128
 30
0.0
 10
40.3649030938771
 20
25.54764800398732
 30
0.0
 10
40.61755230447722
 20
25.4262727709298
 30
0.0
 10
41.13531420831288
 20
25.17780442951709
 30
0.0
 10
41.40040175909172
 20
25.05069807230688
 30
0.0
 10
41.88815743555307
 20
24.81082469060936
 30
0.0
 10
42.13111874326142
 20
24.68905464111026
 30
0.0
 10
42.62432888454947
 20
24.4269529369526
 30
0.0
 10
42.87466009429301
 20
24.28682016854827
 30
0.0
 10
43.35594126196252
 20
23.98106691886334
 30
0.0
 10
43.5868532069474
 20
23.81580991083717
 30
0.0
 10
43.99357457068577
 20
23.43870759694607
 30
0.0
 10
44.16822775866973
 20
23.22563674419336
 30
0.0
 10
44.36323582283518
 20
22.84291186880419
 30
0.0
 10
44.41304512443326
 20
22.7095832642168
 30
0.0
 10
44.47018448073985
 20
22.5074605090873
 30
0.0
 10
44.48638309071571
 20
22.43871869685051
 30
0.0
 10
44.49999910685488
 20
22.36994568746046
 30
0.0
  0
SPLINE
  5
E4D
330
76C
100
AcDbEntity
  8
241
100
AcDbSpline
210
0.0
220
0.0
230
1.0
 70
     8
 71
     3
 72
    30
 73
    26
 74
     0
 42
0.0000000001
 43
0.0000000001
 40
11.86811076986652
 40
11.86811076986652
 40
11.86811076986652
 40
11.86811076986652
 40
12.5452532593312
 40
12.5452532593312
 40
13.35610579916681
 40
13.35610579916681
 40
14.30717824892107
 40
14.30717824892107
 40
15.25825069867541
 40
15.25825069867541
 40
16.2093231484297
 40
16.2093231484297
 40
17.16039559818399
 40
17.16039559818399
 40
18.00117920379328
 40
18.00117920379328
 40
18.84196280940257
 40
18.84196280940257
 40
19.68274641501185
 40
19.68274641501185
 40
20.52353002062115
 40
20.52353002062115
 40
20.97137292334612
 40
20.97137292334612
 40
21.20207642009492
 40
21.20207642009492
 40
21.20207642009492
 40
21.20207642009492
 10
38.55504091287452
 20
26.66763740629777
 30
0.0
 10
38.58117714360031
 20
26.61634216530103
 30
0.0
 10
38.62772046795083
 20
26.56111955896619
 30
0.0
 10
38.76796536946079
 20
26.43323180381787
 30
0.0
 10
38.86924359579092
 20
26.35922166216857
 30
0.0
 10
39.12173673365913
 20
26.19567196146032
 30
0.0
 10
39.28906519489095
 20
26.098876340846
 30
0.0
 10
39.67510655766675
 20
25.8910305364319
 30
0.0
 10
39.89376217882014
 20
25.77997925930128
 30
0.0
 10
40.36490309387722
 20
25.54764800398732
 30
0.0
 10
40.61755230447732
 20
25.4262727709298
 30
0.0
 10
41.13531420831299
 20
25.17780442951709
 30
0.0
 10
41.40040175909184
 20
25.05069807230688
 30
0.0
 10
41.88815743555317
 20
24.81082469060936
 30
0.0
 10
42.13111874326154
 20
24.68905464111026
 30
0.0
 10
42.62432888454958
 20
24.4269529369526
 30
0.0
 10
42.8746600942931
 20
24.28682016854827
 30
0.0
 10
43.35594126196264
 20
23.98106691886334
 30
0.0
 10
43.58685320694752
 20
23.81580991083717
 30
0.0
 10
43.99357457068589
 20
23.43870759694607
 30
0.0
 10
44.16822775866984
 20
23.22563674419336
 30
0.0
 10
44.36323582283529
 20
22.84291186880419
 30
0.0
 10
44.41304512443338
 20
22.7095832642168
 30
0.0
 10
44.47018448074
 20
22.5074605090873
 30
0.0
 10
44.48638309071582
 20
22.43871869685051
 30
0.0
 10
44.499999106855
 20
22.36994568746046
 30
0.0
  0
SPLINE
  5
E4E
330
76C
100
AcDbEntity
  8
241
100
AcDbSpline
210
0.0
220
0.0
230
1.0
 70
     8
 71
     3
 72
    22
 73
    18
 74
     0
 42
0.0000000001
 43
0.0000000001
 40
16.34108532374241
 40
16.34108532374241
 40
16.34108532374241
 40
16.34108532374241
 40
17.37555424898745
 40
17.37555424898745
 40
18.41002317423251
 40
18.41002317423251
 40
19.44449209947757
 40
19.44449209947757
 40
20.47896102472262
 40
20.47896102472262
 40
21.42460078239476
 40
21.42460078239476
 40
22.37024054006692
 40
22.37024054006692
 40
23.31588029773907
 40
23.31588029773907
 40
24.26152005541121
 40
24.26152005541121
 40
24.26152005541121
 40
24.26152005541121
 10
41.99830768340034
 20
30.92329219213319
 30
0.0
 10
41.65348470831879
 20
30.92329219213319
 30
0.0
 10
41.29555453007384
 20
30.91776175163214
 30
0.0
 10
40.58283336631399
 20
30.89306302903116
 30
0.0
 10
40.2280369846365
 20
30.87390201920436
 30
0.0
 10
39.54913403817595
 20
30.81993754468169
 30
0.0
 10
39.22453389335402
 20
30.78506802565277
 30
0.0
 10
38.62941972121399
 20
30.69814783993171
 30
0.0
 10
38.35894555857709
 20
30.64603368947348
 30
0.0
 10
37.91059847184129
 20
30.53016376118569
 30
0.0
 10
37.71647147185814
 20
30.46504258159837
 30
0.0
 10
37.39495730703247
 20
30.31535836301907
 30
0.0
 10
37.26759390274998
 20
30.23073044109594
 30
0.0
 10
37.09181390775967
 20
30.04570754130952
 30
0.0
 10
37.04311514110742
 20
29.94500148289329
 30
0.0
 10
37.02125718411281
 20
29.73480537693785
 30
0.0
 10
37.04802806853064
 20
29.62531664653841
 30
0.0
 10
37.10324654409788
 20
29.51694428629183
 30
0.0
  0
SPLINE
  5
E4F
330
76C
100
AcDbEntity
  8
241
100
AcDbSpline
210
0.0
220
0.0
230
1.0
 70
     8
 71
     3
 72
    22
 73
    18
 74
     0
 42
0.0000000001
 43
0.0000000001
 40
16.34108532374241
 40
16.34108532374241
 40
16.34108532374241
 40
16.34108532374241
 40
17.37555424898745
 40
17.37555424898745
 40
18.41002317423251
 40
18.41002317423251
 40
19.44449209947757
 40
19.44449209947757
 40
20.47896102472262
 40
20.47896102472262
 40
21.42460078239476
 40
21.42460078239476
 40
22.37024054006692
 40
22.37024054006692
 40
23.31588029773907
 40
23.31588029773907
 40
24.26152005541121
 40
24.26152005541121
 40
24.26152005541121
 40
24.26152005541121
 10
41.99830768340047
 20
30.92329219213319
 30
0.0
 10
41.65348470831889
 20
30.92329219213319
 30
0.0
 10
41.29555453007395
 20
30.91776175163214
 30
0.0
 10
40.58283336631411
 20
30.89306302903116
 30
0.0
 10
40.2280369846366
 20
30.87390201920436
 30
0.0
 10
39.54913403817608
 20
30.81993754468169
 30
0.0
 10
39.22453389335413
 20
30.78506802565277
 30
0.0
 10
38.6294197212141
 20
30.69814783993171
 30
0.0
 10
38.3589455585772
 20
30.64603368947348
 30
0.0
 10
37.91059847184139
 20
30.53016376118569
 30
0.0
 10
37.71647147185825
 20
30.46504258159837
 30
0.0
 10
37.39495730703259
 20
30.31535836301907
 30
0.0
 10
37.26759390275009
 20
30.23073044109594
 30
0.0
 10
37.09181390775977
 20
30.04570754130952
 30
0.0
 10
37.04311514110752
 20
29.94500148289329
 30
0.0
 10
37.0212571841129
 20
29.73480537693785
 30
0.0
 10
37.04802806853074
 20
29.62531664653841
 30
0.0
 10
37.103246544098
 20
29.51694428629183
 30
0.0
  0
SPLINE
  5
E50
330
76C
100
AcDbEntity
  8
241
100
AcDbSpline
210
0.0
220
0.0
230
1.0
 70
     8
 71
     3
 72
    30
 73
    26
 74
     0
 42
0.0000000001
 43
0.0000000001
 40
11.86811076986652
 40
11.86811076986652
 40
11.86811076986652
 40
11.86811076986652
 40
12.5452532593312
 40
12.5452532593312
 40
13.35610579916681
 40
13.35610579916681
 40
14.30717824892107
 40
14.30717824892107
 40
15.25825069867541
 40
15.25825069867541
 40
16.2093231484297
 40
16.2093231484297
 40
17.16039559818399
 40
17.16039559818399
 40
18.00117920379328
 40
18.00117920379328
 40
18.84196280940257
 40
18.84196280940257
 40
19.68274641501185
 40
19.68274641501185
 40
20.52353002062115
 40
20.52353002062115
 40
20.97137292334612
 40
20.97137292334612
 40
21.20207642009492
 40
21.20207642009492
 40
21.20207642009492
 40
21.20207642009492
 10
38.55504091287417
 20
-26.66763740629687
 30
0.0
 10
38.58117714359996
 20
-26.61634216530012
 30
0.0
 10
38.62772046795049
 20
-26.56111955896529
 30
0.0
 10
38.76796536946045
 20
-26.43323180381696
 30
0.0
 10
38.86924359579058
 20
-26.35922166216778
 30
0.0
 10
39.12173673365879
 20
-26.19567196145954
 30
0.0
 10
39.28906519489038
 20
-26.09887634084508
 30
0.0
 10
39.6751065576662
 20
-25.89103053643099
 30
0.0
 10
39.89376217881959
 20
-25.77997925930048
 30
0.0
 10
40.36490309387685
 20
-25.54764800398641
 30
0.0
 10
40.61755230447697
 20
-25.42627277092901
 30
0.0
 10
41.13531420831264
 20
-25.1778044295163
 30
0.0
 10
41.40040175909149
 20
-25.05069807230609
 30
0.0
 10
41.88815743555283
 20
-24.81082469060857
 30
0.0
 10
42.13111874326119
 20
-24.68905464110946
 30
0.0
 10
42.62432888454924
 20
-24.4269529369518
 30
0.0
 10
42.87466009429278
 20
-24.28682016854748
 30
0.0
 10
43.35594126196229
 20
-23.98106691886255
 30
0.0
 10
43.58685320694718
 20
-23.81580991083626
 30
0.0
 10
43.99357457068531
 20
-23.43870759694516
 30
0.0
 10
44.1682277586695
 20
-23.22563674419268
 30
0.0
 10
44.36323582283494
 20
-22.84291186880329
 30
0.0
 10
44.41304512443304
 20
-22.70958326421589
 30
0.0
 10
44.47018448073964
 20
-22.50746050908638
 30
0.0
 10
44.48638309071549
 20
-22.43871869684983
 30
0.0
 10
44.49999910685465
 20
-22.36994568745954
 30
0.0
  0
SPLINE
  5
E51
330
76C
100
AcDbEntity
  8
241
100
AcDbSpline
210
0.0
220
0.0
230
1.0
 70
     8
 71
     3
 72
    30
 73
    26
 74
     0
 42
0.0000000001
 43
0.0000000001
 40
11.86811076986652
 40
11.86811076986652
 40
11.86811076986652
 40
11.86811076986652
 40
12.5452532593312
 40
12.5452532593312
 40
13.35610579916681
 40
13.35610579916681
 40
14.30717824892107
 40
14.30717824892107
 40
15.25825069867541
 40
15.25825069867541
 40
16.2093231484297
 40
16.2093231484297
 40
17.16039559818399
 40
17.16039559818399
 40
18.00117920379328
 40
18.00117920379328
 40
18.84196280940257
 40
18.84196280940257
 40
19.68274641501185
 40
19.68274641501185
 40
20.52353002062115
 40
20.52353002062115
 40
20.97137292334612
 40
20.97137292334612
 40
21.20207642009492
 40
21.20207642009492
 40
21.20207642009492
 40
21.20207642009492
 10
38.55504091287452
 20
-26.66763740629687
 30
0.0
 10
38.58117714360031
 20
-26.61634216530012
 30
0.0
 10
38.62772046795083
 20
-26.56111955896529
 30
0.0
 10
38.76796536946079
 20
-26.43323180381696
 30
0.0
 10
38.86924359579092
 20
-26.35922166216778
 30
0.0
 10
39.12173673365913
 20
-26.19567196145954
 30
0.0
 10
39.28906519489071
 20
-26.09887634084508
 30
0.0
 10
39.67510655766654
 20
-25.89103053643099
 30
0.0
 10
39.89376217881994
 20
-25.77997925930048
 30
0.0
 10
40.36490309387722
 20
-25.54764800398641
 30
0.0
 10
40.61755230447732
 20
-25.42627277092901
 30
0.0
 10
41.13531420831299
 20
-25.1778044295163
 30
0.0
 10
41.40040175909184
 20
-25.05069807230609
 30
0.0
 10
41.88815743555317
 20
-24.81082469060857
 30
0.0
 10
42.13111874326154
 20
-24.68905464110946
 30
0.0
 10
42.62432888454958
 20
-24.4269529369518
 30
0.0
 10
42.8746600942931
 20
-24.28682016854748
 30
0.0
 10
43.35594126196264
 20
-23.98106691886255
 30
0.0
 10
43.58685320694752
 20
-23.81580991083626
 30
0.0
 10
43.99357457068567
 20
-23.43870759694516
 30
0.0
 10
44.16822775866984
 20
-23.22563674419268
 30
0.0
 10
44.36323582283529
 20
-22.84291186880329
 30
0.0
 10
44.41304512443338
 20
-22.70958326421589
 30
0.0
 10
44.47018448074
 20
-22.50746050908638
 30
0.0
 10
44.48638309071582
 20
-22.43871869684983
 30
0.0
 10
44.499999106855
 20
-22.36994568745954
 30
0.0
  0
SPLINE
  5
E52
330
76C
100
AcDbEntity
  8
241
100
AcDbSpline
210
0.0
220
0.0
230
1.0
 70
     8
 71
     3
 72
    22
 73
    18
 74
     0
 42
0.0000000001
 43
0.0000000001
 40
16.34108532374241
 40
16.34108532374241
 40
16.34108532374241
 40
16.34108532374241
 40
17.37555424898745
 40
17.37555424898745
 40
18.41002317423251
 40
18.41002317423251
 40
19.44449209947757
 40
19.44449209947757
 40
20.47896102472262
 40
20.47896102472262
 40
21.42460078239476
 40
21.42460078239476
 40
22.37024054006692
 40
22.37024054006692
 40
23.31588029773907
 40
23.31588029773907
 40
24.26152005541121
 40
24.26152005541121
 40
24.26152005541121
 40
24.26152005541121
 10
41.99830768340013
 20
-30.92329219213239
 30
0.0
 10
41.65348470831855
 20
-30.92329219213239
 30
0.0
 10
41.29555453007362
 20
-30.91776175163136
 30
0.0
 10
40.58283336631375
 20
-30.89306302903036
 30
0.0
 10
40.22803698463627
 20
-30.87390201920356
 30
0.0
 10
39.54913403817574
 20
-30.81993754468077
 30
0.0
 10
39.22453389335354
 20
-30.78506802565198
 30
0.0
 10
38.62941972121376
 20
-30.69814783993092
 30
0.0
 10
38.35894555857686
 20
-30.64603368947269
 30
0.0
 10
37.91059847184107
 20
-30.53016376118489
 30
0.0
 10
37.7164714718579
 20
-30.46504258159757
 30
0.0
 10
37.39495730703225
 20
-30.31535836301827
 30
0.0
 10
37.26759390274952
 20
-30.23073044109514
 30
0.0
 10
37.09181390775944
 20
-30.04570754130873
 30
0.0
 10
37.04311514110719
 20
-29.94500148289251
 30
0.0
 10
37.02125718411235
 20
-29.73480537693706
 30
0.0
 10
37.0480280685304
 20
-29.62531664653761
 30
0.0
 10
37.10324654409765
 20
-29.51694428629105
 30
0.0
  0
SPLINE
  5
E53
330
76C
100
AcDbEntity
  8
241
100
AcDbSpline
210
0.0
220
0.0
230
1.0
 70
     8
 71
     3
 72
    22
 73
    18
 74
     0
 42
0.0000000001
 43
0.0000000001
 40
16.34108532374241
 40
16.34108532374241
 40
16.34108532374241
 40
16.34108532374241
 40
17.37555424898745
 40
17.37555424898745
 40
18.41002317423251
 40
18.41002317423251
 40
19.44449209947757
 40
19.44449209947757
 40
20.47896102472262
 40
20.47896102472262
 40
21.42460078239476
 40
21.42460078239476
 40
22.37024054006692
 40
22.37024054006692
 40
23.31588029773907
 40
23.31588029773907
 40
24.26152005541121
 40
24.26152005541121
 40
24.26152005541121
 40
24.26152005541121
 10
41.99830768340047
 20
-30.92329219213239
 30
0.0
 10
41.65348470831889
 20
-30.92329219213239
 30
0.0
 10
41.29555453007395
 20
-30.91776175163136
 30
0.0
 10
40.58283336631411
 20
-30.89306302903036
 30
0.0
 10
40.2280369846366
 20
-30.87390201920356
 30
0.0
 10
39.54913403817608
 20
-30.81993754468077
 30
0.0
 10
39.22453389335391
 20
-30.78506802565198
 30
0.0
 10
38.6294197212141
 20
-30.69814783993092
 30
0.0
 10
38.3589455585772
 20
-30.64603368947269
 30
0.0
 10
37.91059847184139
 20
-30.53016376118489
 30
0.0
 10
37.71647147185825
 20
-30.46504258159757
 30
0.0
 10
37.39495730703259
 20
-30.31535836301827
 30
0.0
 10
37.26759390274986
 20
-30.23073044109514
 30
0.0
 10
37.09181390775977
 20
-30.04570754130873
 30
0.0
 10
37.04311514110752
 20
-29.94500148289251
 30
0.0
 10
37.0212571841127
 20
-29.73480537693706
 30
0.0
 10
37.04802806853074
 20
-29.62531664653761
 30
0.0
 10
37.103246544098
 20
-29.51694428629105
 30
0.0
  0
SPLINE
  5
E54
330
76C
100
AcDbEntity
  8
241
100
AcDbSpline
210
0.0
220
0.0
230
1.0
 70
     8
 71
     3
 72
    38
 73
    34
 74
     0
 42
0.0000000001
 43
0.0000000001
 40
77.19047723535736
 40
77.19047723535736
 40
77.19047723535736
 40
77.19047723535736
 40
80.15188843106836
 40
80.15188843106836
 40
83.16003539336767
 40
83.16003539336767
 40
86.16818235566698
 40
86.16818235566698
 40
89.1763293179663
 40
89.1763293179663
 40
92.18447628026559
 40
92.18447628026559
 40
95.19262324256493
 40
95.19262324256493
 40
98.20077020486422
 40
98.20077020486422
 40
101.2089171671635
 40
101.2089171671635
 40
104.2170641294628
 40
104.2170641294628
 40
107.225211091762
 40
107.225211091762
 40
110.2333580540614
 40
110.2333580540614
 40
113.2415050163602
 40
113.2415050163602
 40
116.24965197866
 40
116.24965197866
 40
119.2577989409593
 40
119.2577989409593
 40
122.2659459032586
 40
122.2659459032586
 40
125.2273570989704
 40
125.2273570989704
 40
125.2273570989704
 40
125.2273570989704
 10
40.87641013780165
 20
-22.09299903104737
 30
0.0
 10
40.50421493074503
 20
-21.44108099127401
 30
0.0
 10
40.17573556461655
 20
-20.74155342620302
 30
0.0
 10
39.59500948558588
 20
-19.24266837957042
 30
0.0
 10
39.34398236704982
 20
-18.44190950936797
 30
0.0
 10
38.91390441205265
 20
-16.76133859668833
 30
0.0
 10
38.73474326941181
 20
-15.88139790349873
 30
0.0
 10
38.43467979109476
 20
-14.05736222486154
 30
0.0
 10
38.31371111754121
 20
-13.11327760234586
 30
0.0
 10
38.11610786577825
 20
-11.17875479268126
 30
0.0
 10
38.03931713218543
 20
-10.18727331629907
 30
0.0
 10
37.917594288958
 20
-8.174733191816471
 30
0.0
 10
37.87262685527429
 20
-7.153677107447947
 30
0.0
 10
37.80495390407731
 20
-5.102161338715744
 30
0.0
 10
37.78223199278289
 20
-4.071595025872511
 30
0.0
 10
37.75285478170479
 20
-2.0218725191371
 30
0.0
 10
37.74621151788091
 20
-1.00271565410071
 30
0.0
 10
37.7462115178811
 20
1.002715654098775
 30
0.0
 10
37.75285478170502
 20
2.021872519135058
 30
0.0
 10
37.78223199278335
 20
4.071595025870465
 30
0.0
 10
37.80495390407775
 20
5.102161338713813
 30
0.0
 10
37.87262685527496
 20
7.153677107445902
 30
0.0
 10
37.91759428895867
 20
8.174733191814425
 30
0.0
 10
38.03931713218634
 20
10.18727331629702
 30
0.0
 10
38.11610786577938
 20
11.17875479267922
 30
0.0
 10
38.31371111754259
 20
13.11327760234382
 30
0.0
 10
38.43467979109613
 20
14.05736222485939
 30
0.0
 10
38.73474326941339
 20
15.88139790349669
 30
0.0
 10
38.91390441205425
 20
16.76133859668618
 30
0.0
 10
39.34398236705163
 20
18.4419095093658
 30
0.0
 10
39.59500948558792
 20
19.24266837956816
 30
0.0
 10
40.17573556461861
 20
20.74155342620098
 30
0.0
 10
40.50421493074708
 20
21.44108099127139
 30
0.0
 10
40.87641013780393
 20
22.09299903104488
 30
0.0
  0
LINE
  5
E55
330
76C
100
AcDbEntity
  8
241
100
AcDbLine
 10
37.10324654
 20
-29.51694429
 30
0.0
 11
40.88144554
 21
-22.10181125
 31
0.0
  0
CIRCLE
  5
E56
330
76C
100
AcDbEntity
  8
241
100
AcDbCircle
 10
12.00000089
 20
0.0
 30
0.0
 40
6.0
  0
LINE
  5
E57
330
76C
100
AcDbEntity
  8
241
100
AcDbLine
 10
0.0
 20
-27.52650809
 30
0.0
 11
0.0
 21
0.0
 31
0.0
  0
LINE
  5
E58
330
76C
100
AcDbEntity
  8
241
100
AcDbLine
 10
-1.94069442
 20
-27.52650809
 30
0.0
 11
-1.94069442
 21
0.0
 31
0.0
  0
LINE
  5
E59
330
76C
100
AcDbEntity
  8
241
  6
CONTINUOUS
100
AcDbLine
 10
30.0
 20
-38.39687238
 30
0.0
 11
30.0
 21
0.0
 31
0.0
  0
SPLINE
  5
E5A
330
76C
100
AcDbEntity
  8
241
  6
HIDDEN2
100
AcDbSpline
210
0.0
220
0.0
230
1.0
 70
     8
 71
     3
 72
     9
 73
     5
 74
     3
 42
0.0000000001
 43
0.0000000001
 44
0.0000000001
 40
0.0
 40
0.0
 40
0.0
 40
0.0
 40
5.045058020553436
 40
10.0901160411069
 40
10.0901160411069
 40
10.0901160411069
 40
10.0901160411069
 10
-40.00000000000132
 20
4.418000000000056
 30
0.0
 10
-38.78202150770859
 20
2.945333333333395
 30
0.0
 10
-36.34606452312313
 20
0.0000000000000642
 30
0.0
 10
-38.7820215077086
 20
-2.945333333333275
 30
0.0
 10
-40.00000000000132
 20
-4.417999999999949
 30
0.0
 11
-40.00000000000132
 21
4.418000000000056
 31
0.0
 11
-37.56404301541586
 21
0.0000000000000711
 31
0.0
 11
-40.00000000000132
 21
-4.417999999999949
 31
0.0
  0
LINE
  5
E5B
330
76C
100
AcDbEntity
  8
241
  6
HIDDEN2
100
AcDbLine
 10
-40.0
 20
-4.418
 30
0.0
 11
-40.0
 21
4.418
 31
0.0
  0
LINE
  5
E5C
330
76C
100
AcDbEntity
  8
241
100
AcDbLine
 10
-46.5
 20
-26.4126003
 30
0.0
 11
-46.5
 21
0.0
 31
0.0
  0
LINE
  5
E5D
330
76C
100
AcDbEntity
  8
240
  6
CONTINUOUS
100
AcDbLine
 10
-48.0
 20
-25.54657489
 30
0.0
 11
-48.0
 21
0.0
 31
0.0
  0
LINE
  5
E5E
330
76C
100
AcDbEntity
  8
240
  6
CONTINUOUS
100
AcDbLine
 10
-1.94069442
 20
-27.52650809
 30
0.0
 11
-46.5
 21
-26.4126003
 31
0.0
  0
LINE
  5
E5F
330
76C
100
AcDbEntity
  8
240
  6
CONTINUOUS
100
AcDbLine
 10
-46.5
 20
-26.4126003
 30
0.0
 11
-48.0
 21
-25.54657489
 31
0.0
  0
LINE
  5
E60
330
76C
100
AcDbEntity
  8
241
  6
HIDDEN2
100
AcDbLine
 10
-46.5
 20
-4.418
 30
0.0
 11
-40.0
 21
-4.418
 31
0.0
  0
LINE
  5
E61
330
76C
100
AcDbEntity
  8
241
  6
HIDDEN2
100
AcDbLine
 10
-46.5
 20
-4.418
 30
0.0
 11
-48.0
 21
-3.5519746
 31
0.0
  0
LINE
  5
E62
330
76C
100
AcDbEntity
  8
240
  6
CONTINUOUS
100
AcDbLine
 10
0.0
 20
-39.9925
 30
0.0
 11
29.0
 21
-39.9925
 31
0.0
  0
LINE
  5
E63
330
76C
100
AcDbEntity
  8
240
100
AcDbLine
 10
0.0
 20
-39.9925
 30
0.0
 11
0.0
 21
-27.52650809
 31
0.0
  0
LINE
  5
E64
330
76C
100
AcDbEntity
  8
240
100
AcDbLine
 10
-1.94069442
 20
-27.52650809
 30
0.0
 11
0.0
 21
-27.52650809
 31
0.0
  0
LINE
  5
E65
330
76C
100
AcDbEntity
  8
241
  6
CONTINUOUS
100
AcDbLine
 10
9.95000089
 20
-38.22077681
 30
0.0
 11
9.95000089
 21
-11.77167262
 31
0.0
  0
LINE
  5
E66
330
76C
100
AcDbEntity
  8
241
  6
CONTINUOUS
100
AcDbLine
 10
14.05000089
 20
-38.22077681
 30
0.0
 11
14.05000089
 21
-11.77167262
 31
0.0
  0
SPLINE
  5
E67
330
76C
100
AcDbEntity
  8
241
  6
CONTINUOUS
100
AcDbSpline
210
0.0
220
0.0
230
1.0
 70
     8
 71
     3
 72
     9
 73
     5
 74
     3
 42
0.0000000001
 43
0.0000000001
 44
0.0000000001
 40
0.0
 40
0.0
 40
0.0
 40
0.0
 40
13.46435379310557
 40
26.92870758621118
 40
26.92870758621118
 40
26.92870758621118
 40
26.92870758621118
 10
14.05000088999995
 20
-11.77167261912009
 30
0.0
 10
15.31491639517337
 20
-16.17985665093338
 30
0.0
 10
17.84474740552022
 20
-24.99622471455998
 30
0.0
 10
15.31491639517345
 20
-33.81259277818662
 30
0.0
 10
14.05000089000006
 20
-38.22077680999994
 30
0.0
 11
14.05000088999995
 21
-11.77167261912009
 31
0.0
 11
16.57983190034682
 21
-24.99622471455999
 31
0.0
 11
14.05000089000006
 21
-38.22077680999994
 31
0.0
  0
SPLINE
  5
E68
330
76C
100
AcDbEntity
  8
241
  6
CONTINUOUS
100
AcDbSpline
210
0.0
220
0.0
230
1.0
 70
     8
 71
     3
 72
     9
 73
     5
 74
     3
 42
0.0000000001
 43
0.0000000001
 44
0.0000000001
 40
0.0
 40
0.0
 40
0.0
 40
0.0
 40
13.46435379310565
 40
26.92870758621126
 40
26.92870758621126
 40
26.92870758621126
 40
26.92870758621126
 10
9.950000889999991
 20
-38.22077680999999
 30
0.0
 10
8.685085384826555
 20
-33.81259277818666
 30
0.0
 10
6.155254374479687
 20
-24.99622471456002
 30
0.0
 10
8.685085384826557
 20
-16.17985665093338
 30
0.0
 10
9.950000889999991
 20
-11.77167261912007
 30
0.0
 11
9.950000889999991
 21
-38.22077680999999
 31
0.0
 11
7.420169879653122
 21
-24.99622471456001
 31
0.0
 11
9.950000889999991
 21
-11.77167261912007
 31
0.0
  0
LINE
  5
E69
330
76C
100
AcDbEntity
  8
241
  6
CONTINUOUS
100
AcDbLine
 10
9.95000089
 20
-38.22077681
 30
0.0
 11
14.05000089
 21
-38.22077681
 31
0.0
  0
ARC
  5
E6A
330
76C
100
AcDbEntity
  8
240
  6
CONTINUOUS
100
AcDbCircle
 10
29.0
 20
-38.9925
 30
0.0
 40
1.0
100
AcDbArc
 50
270.0
 51
0.0
  0
ARC
  5
E6B
330
76C
100
AcDbEntity
  8
240
100
AcDbCircle
 10
32.0
 20
-38.39687238
 30
0.0
 40
2.0
100
AcDbArc
 50
110.13630343
 51
180.0
  0
LINE
  5
E6C
330
76C
100
AcDbEntity
  8
240
  6
CONTINUOUS
100
AcDbLine
 10
30.0
 20
-38.9925
 30
0.0
 11
30.0
 21
-38.39687238
 31
0.0
  0
LINE
  5
E6D
330
76C
100
AcDbEntity
  8
241
  6
CONTINUOUS
100
AcDbLine
 10
9.95000089
 20
-11.77167262
 30
0.0
 11
14.05000089
 21
-11.77167262
 31
0.0
  0
LINE
  5
E6E
330
76C
100
AcDbEntity
  8
240
  6
CONTINUOUS
100
AcDbLine
 10
-1.94069442
 20
27.52650809
 30
0.0
 11
-46.5
 21
26.4126003
 31
0.0
  0
LINE
  5
E6F
330
76C
100
AcDbEntity
  8
240
  6
CONTINUOUS
100
AcDbLine
 10
-48.0
 20
25.54657489
 30
0.0
 11
-48.0
 21
0.0
 31
0.0
  0
LINE
  5
E70
330
76C
100
AcDbEntity
  8
241
100
AcDbLine
 10
-46.5
 20
26.4126003
 30
0.0
 11
-46.5
 21
0.0
 31
0.0
  0
LINE
  5
E71
330
76C
100
AcDbEntity
  8
241
  6
HIDDEN2
100
AcDbLine
 10
-46.5
 20
4.418
 30
0.0
 11
-40.0
 21
4.418
 31
0.0
  0
LINE
  5
E72
330
76C
100
AcDbEntity
  8
241
  6
HIDDEN2
100
AcDbLine
 10
-48.0
 20
3.5519746
 30
0.0
 11
-46.5
 21
4.418
 31
0.0
  0
LINE
  5
E73
330
76C
100
AcDbEntity
  8
240
  6
CONTINUOUS
100
AcDbLine
 10
-46.5
 20
26.4126003
 30
0.0
 11
-48.0
 21
25.54657489
 31
0.0
  0
LINE
  5
E74
330
76C
100
AcDbEntity
  8
240
  6
CONTINUOUS
100
AcDbLine
 10
0.0
 20
39.9925
 30
0.0
 11
29.0
 21
39.9925
 31
0.0
  0
LINE
  5
E75
330
76C
100
AcDbEntity
  8
241
100
AcDbLine
 10
-1.94069442
 20
27.52650809
 30
0.0
 11
-1.94069442
 21
0.0
 31
0.0
  0
LINE
  5
E76
330
76C
100
AcDbEntity
  8
241
100
AcDbLine
 10
0.0
 20
27.52650809
 30
0.0
 11
0.0
 21
0.0
 31
0.0
  0
LINE
  5
E77
330
76C
100
AcDbEntity
  8
240
100
AcDbLine
 10
0.0
 20
39.9925
 30
0.0
 11
0.0
 21
27.52650809
 31
0.0
  0
LINE
  5
E78
330
76C
100
AcDbEntity
  8
240
100
AcDbLine
 10
-1.94069442
 20
27.52650809
 30
0.0
 11
0.0
 21
27.52650809
 31
0.0
  0
LINE
  5
E79
330
76C
100
AcDbEntity
  8
241
  6
CONTINUOUS
100
AcDbLine
 10
30.0
 20
38.39687238
 30
0.0
 11
30.0
 21
0.0
 31
0.0
  0
SPLINE
  5
E7A
330
76C
100
AcDbEntity
  8
241
  6
CONTINUOUS
100
AcDbSpline
210
0.0
220
0.0
230
1.0
 70
     8
 71
     3
 72
     9
 73
     5
 74
     3
 42
0.0000000001
 43
0.0000000001
 44
0.0000000001
 40
0.0
 40
0.0
 40
0.0
 40
0.0
 40
13.46435379310565
 40
26.92870758621126
 40
26.92870758621126
 40
26.92870758621126
 40
26.92870758621126
 10
9.950000889999991
 20
38.22077680999999
 30
0.0
 10
8.685085384826555
 20
33.81259277818666
 30
0.0
 10
6.155254374479687
 20
24.99622471456002
 30
0.0
 10
8.685085384826557
 20
16.17985665093338
 30
0.0
 10
9.950000889999991
 20
11.77167261912007
 30
0.0
 11
9.950000889999991
 21
38.22077680999999
 31
0.0
 11
7.420169879653122
 21
24.99622471456001
 31
0.0
 11
9.950000889999991
 21
11.77167261912007
 31
0.0
  0
SPLINE
  5
E7B
330
76C
100
AcDbEntity
  8
241
  6
CONTINUOUS
100
AcDbSpline
210
0.0
220
0.0
230
1.0
 70
     8
 71
     3
 72
     9
 73
     5
 74
     3
 42
0.0000000001
 43
0.0000000001
 44
0.0000000001
 40
0.0
 40
0.0
 40
0.0
 40
0.0
 40
13.46435379310557
 40
26.92870758621118
 40
26.92870758621118
 40
26.92870758621118
 40
26.92870758621118
 10
14.05000088999995
 20
11.77167261912009
 30
0.0
 10
15.31491639517337
 20
16.17985665093338
 30
0.0
 10
17.84474740552022
 20
24.99622471455998
 30
0.0
 10
15.31491639517345
 20
33.81259277818662
 30
0.0
 10
14.05000089000006
 20
38.22077680999994
 30
0.0
 11
14.05000088999995
 21
11.77167261912009
 31
0.0
 11
16.57983190034682
 21
24.99622471455999
 31
0.0
 11
14.05000089000006
 21
38.22077680999994
 31
0.0
  0
LINE
  5
E7C
330
76C
100
AcDbEntity
  8
241
  6
CONTINUOUS
100
AcDbLine
 10
14.05000089
 20
38.22077681
 30
0.0
 11
14.05000089
 21
11.77167262
 31
0.0
  0
LINE
  5
E7D
330
76C
100
AcDbEntity
  8
241
  6
CONTINUOUS
100
AcDbLine
 10
9.95000089
 20
38.22077681
 30
0.0
 11
9.95000089
 21
11.77167262
 31
0.0
  0
LINE
  5
E7E
330
76C
100
AcDbEntity
  8
241
  6
CONTINUOUS
100
AcDbLine
 10
9.95000089
 20
11.77167262
 30
0.0
 11
14.05000089
 21
11.77167262
 31
0.0
  0
LINE
  5
E7F
330
76C
100
AcDbEntity
  8
241
  6
CONTINUOUS
100
AcDbLine
 10
9.95000089
 20
38.22077681
 30
0.0
 11
14.05000089
 21
38.22077681
 31
0.0
  0
ARC
  5
E80
330
76C
100
AcDbEntity
  8
240
  6
CONTINUOUS
100
AcDbCircle
 10
29.0
 20
38.9925
 30
0.0
 40
1.0
100
AcDbArc
 50
0.0
 51
90.0
  0
ARC
  5
E81
330
76C
100
AcDbEntity
  8
240
100
AcDbCircle
 10
32.0
 20
38.39687238
 30
0.0
 40
2.0
100
AcDbArc
 50
180.0
 51
249.86369657
  0
LINE
  5
E82
330
76C
100
AcDbEntity
  8
240
  6
CONTINUOUS
100
AcDbLine
 10
30.0
 20
38.39687238
 30
0.0
 11
30.0
 21
38.9925
 31
0.0
  0
LINE
  5
E83
330
76C
100
AcDbEntity
  8
241
100
AcDbLine
 10
44.49999911
 20
14.98130525
 30
0.0
 11
44.49999911
 21
-14.98130525
 31
0.0
  0
LINE
  5
E84
330
76C
100
AcDbEntity
  8
240
100
AcDbLine
 10
48.49999911
 20
31.5
 30
0.0
 11
48.49999911
 21
-31.5
 31
0.0
  0
LINE
  5
E85
330
76C
100
AcDbEntity
  8
241
100
AcDbLine
 10
44.99999911
 20
31.01196223
 30
0.0
 11
44.99999911
 21
-31.5
 31
0.0
  0
LINE
  5
E86
330
76C
100
AcDbEntity
  8
241
100
AcDbLine
 10
44.49999911
 20
-26.01344632
 30
0.0
 11
41.99830768
 21
-30.92329219
 31
0.0
  0
LINE
  5
E87
330
76C
100
AcDbEntity
  8
241
100
AcDbLine
 10
44.49999911
 20
-26.01344632
 30
0.0
 11
41.99830768
 21
-30.92329219
 31
0.0
  0
LINE
  5
E88
330
76C
100
AcDbEntity
  8
240
100
AcDbLine
 10
44.99999911
 20
-31.5
 30
0.0
 11
48.49999911
 21
-31.5
 31
0.0
  0
LINE
  5
E89
330
76C
100
AcDbEntity
  8
241
100
AcDbLine
 10
41.99830768
 20
-30.92329219
 30
0.0
 11
44.99999911
 21
-30.92329219
 31
0.0
  0
LINE
  5
E8A
330
76C
100
AcDbEntity
  8
241
100
AcDbLine
 10
41.99830768
 20
-30.92329219
 30
0.0
 11
44.99999911
 21
-30.92329219
 31
0.0
  0
LINE
  5
E8B
330
76C
100
AcDbEntity
  8
241
100
AcDbLine
 10
44.99999911
 20
-31.02028745
 30
0.0
 11
44.99999911
 21
-31.30416261
 31
0.0
  0
LINE
  5
E8C
330
76C
100
AcDbEntity
  8
241
100
AcDbLine
 10
44.99999911
 20
-31.02028745
 30
0.0
 11
44.99999911
 21
-31.3
 31
0.0
  0
LINE
  5
E8D
330
76C
100
AcDbEntity
  8
241
100
AcDbLine
 10
44.49999911
 20
-20.51327228
 30
0.0
 11
44.49999911
 21
-14.98130525
 31
0.0
  0
LINE
  5
E8E
330
76C
100
AcDbEntity
  8
241
100
AcDbLine
 10
44.49999911
 20
-20.51327228
 30
0.0
 11
44.49999911
 21
-14.98130525
 31
0.0
  0
LINE
  5
E8F
330
76C
100
AcDbEntity
  8
241
100
AcDbLine
 10
40.88144554
 20
-22.10181125
 30
0.0
 11
44.49999911
 21
-15.0
 31
0.0
  0
LINE
  5
E90
330
76C
100
AcDbEntity
  8
241
100
AcDbLine
 10
44.49999911
 20
-25.99475158
 30
0.0
 11
44.49999911
 21
-22.32716547
 31
0.0
  0
LINE
  5
E91
330
76C
100
AcDbEntity
  8
241
100
AcDbLine
 10
44.49999911
 20
-25.99475158
 30
0.0
 11
44.49999911
 21
-22.32716547
 31
0.0
  0
LINE
  5
E92
330
76C
100
AcDbEntity
  8
241
  6
HIDDEN2
100
AcDbLine
 10
44.15466606
 20
-15.67775427
 30
0.0
 11
44.08910072
 21
-15.63990011
 31
0.0
  0
LINE
  5
E93
330
76C
100
AcDbEntity
  8
241
100
AcDbLine
 10
44.49999911
 20
-20.51327228
 30
0.0
 11
44.49999911
 21
-22.32716547
 31
0.0
  0
LINE
  5
E94
330
76C
100
AcDbEntity
  8
241
  6
HIDDEN2
100
AcDbLine
 10
44.49999911
 20
-20.51327228
 30
0.0
 11
44.49999911
 21
-22.32716547
 31
0.0
  0
SPLINE
  5
E95
330
76C
100
AcDbEntity
  8
241
100
AcDbSpline
210
0.0
220
0.0
230
1.0
 70
     8
 71
     3
 72
    18
 73
    14
 74
     0
 42
0.0000000001
 43
0.0000000001
 40
23.3342633953109
 40
23.3342633953109
 40
23.3342633953109
 40
23.3342633953109
 40
24.10627324242106
 40
24.10627324242106
 40
25.89764485332102
 40
25.89764485332102
 40
27.68901646422096
 40
27.68901646422096
 40
28.42477156036025
 40
28.42477156036025
 40
29.16052665649952
 40
29.16052665649952
 40
29.88168580166767
 40
29.88168580166767
 40
29.88168580166767
 40
29.88168580166767
 10
44.49999910685465
 20
-20.44617305014776
 30
0.0
 10
44.47545470277582
 20
-20.2126265152691
 30
0.0
 10
44.44669128455148
 20
-19.97927514795935
 30
0.0
 10
44.34500711753623
 20
-19.20856762304163
 30
0.0
 10
44.26515273170827
 20
-18.68206747509441
 30
0.0
 10
44.12623901950957
 20
-17.70647572192592
 30
0.0
 10
44.06639122093618
 20
-17.25709950307111
 30
0.0
 10
44.01806055256639
 20
-16.71762252897701
 30
0.0
 10
44.00784163783311
 20
-16.56587401176727
 30
0.0
 10
44.0003649945384
 20
-16.29229373010628
 30
0.0
 10
44.00314083489485
 20
-16.17051089847325
 30
0.0
 10
44.02514077267556
 20
-15.97223607886141
 30
0.0
 10
44.04408692944417
 20
-15.8947780289742
 30
0.0
 10
44.07162205233618
 20
-15.84073730751595
 30
0.0
  0
SPLINE
  5
E96
330
76C
100
AcDbEntity
  8
241
100
AcDbSpline
210
0.0
220
0.0
230
1.0
 70
     8
 71
     3
 72
    18
 73
    14
 74
     0
 42
0.0000000001
 43
0.0000000001
 40
23.3342633953109
 40
23.3342633953109
 40
23.3342633953109
 40
23.3342633953109
 40
24.10627324242106
 40
24.10627324242106
 40
25.89764485332102
 40
25.89764485332102
 40
27.68901646422096
 40
27.68901646422096
 40
28.42477156036025
 40
28.42477156036025
 40
29.16052665649952
 40
29.16052665649952
 40
29.88168580166767
 40
29.88168580166767
 40
29.88168580166767
 40
29.88168580166767
 10
44.499999106855
 20
-20.44617305014776
 30
0.0
 10
44.47545470277617
 20
-20.2126265152691
 30
0.0
 10
44.44669128455183
 20
-19.97927514795935
 30
0.0
 10
44.34500711753655
 20
-19.20856762304163
 30
0.0
 10
44.26515273170861
 20
-18.68206747509441
 30
0.0
 10
44.12623901950991
 20
-17.70647572192592
 30
0.0
 10
44.0663912209365
 20
-17.25709950307111
 30
0.0
 10
44.01806055256673
 20
-16.71762252897701
 30
0.0
 10
44.00784163783343
 20
-16.56587401176727
 30
0.0
 10
44.00036499453874
 20
-16.29229373010628
 30
0.0
 10
44.00314083489519
 20
-16.17051089847325
 30
0.0
 10
44.02514077267588
 20
-15.97223607886141
 30
0.0
 10
44.04408692944453
 20
-15.8947780289742
 30
0.0
 10
44.07162205233652
 20
-15.84073730751595
 30
0.0
  0
LINE
  5
E97
330
76C
100
AcDbEntity
  8
241
  6
CONTINUOUS
100
AcDbLine
 10
44.99999911
 20
-2.50396652
 30
0.0
 11
48.49999911
 21
-2.50396652
 31
0.0
  0
LINE
  5
E98
330
76C
100
AcDbEntity
  8
241
100
AcDbLine
 10
44.49999911
 20
26.01344632
 30
0.0
 11
41.99830768
 21
30.92329219
 31
0.0
  0
LINE
  5
E99
330
76C
100
AcDbEntity
  8
241
100
AcDbLine
 10
44.49999911
 20
26.01344632
 30
0.0
 11
41.99830768
 21
30.92329219
 31
0.0
  0
LINE
  5
E9A
330
76C
100
AcDbEntity
  8
241
  6
CONTINUOUS
100
AcDbLine
 10
44.99999911
 20
2.49603348
 30
0.0
 11
48.49999911
 21
2.49603348
 31
0.0
  0
SPLINE
  5
E9B
330
76C
100
AcDbEntity
  8
241
100
AcDbSpline
210
0.0
220
0.0
230
1.0
 70
     8
 71
     3
 72
    18
 73
    14
 74
     0
 42
0.0000000001
 43
0.0000000001
 40
23.3342633953109
 40
23.3342633953109
 40
23.3342633953109
 40
23.3342633953109
 40
24.10627324242106
 40
24.10627324242106
 40
25.89764485332102
 40
25.89764485332102
 40
27.68901646422096
 40
27.68901646422096
 40
28.42477156036025
 40
28.42477156036025
 40
29.16052665649952
 40
29.16052665649952
 40
29.88168580166767
 40
29.88168580166767
 40
29.88168580166767
 40
29.88168580166767
 10
44.499999106855
 20
20.44617305014856
 30
0.0
 10
44.47545470277639
 20
20.21262651526979
 30
0.0
 10
44.44669128455183
 20
19.97927514796026
 30
0.0
 10
44.34500711753655
 20
19.20856762304239
 30
0.0
 10
44.26515273170861
 20
18.68206747509519
 30
0.0
 10
44.12623901950991
 20
17.70647572192672
 30
0.0
 10
44.0663912209365
 20
17.25709950307191
 30
0.0
 10
44.01806055256673
 20
16.71762252897781
 30
0.0
 10
44.00784163783343
 20
16.56587401176818
 30
0.0
 10
44.00036499453874
 20
16.29229373010696
 30
0.0
 10
44.00314083489519
 20
16.17051089847414
 30
0.0
 10
44.02514077267588
 20
15.97223607886223
 30
0.0
 10
44.04408692944453
 20
15.89477802897488
 30
0.0
 10
44.07162205233652
 20
15.84073730751685
 30
0.0
  0
LINE
  5
E9C
330
76C
100
AcDbEntity
  8
241
100
AcDbLine
 10
44.49999911
 20
14.98130525
 30
0.0
 11
44.49999911
 21
20.51327228
 31
0.0
  0
LINE
  5
E9D
330
76C
100
AcDbEntity
  8
241
100
AcDbLine
 10
44.49999911
 20
14.98130525
 30
0.0
 11
44.49999911
 21
20.51327228
 31
0.0
  0
SPLINE
  5
E9E
330
76C
100
AcDbEntity
  8
241
100
AcDbSpline
210
0.0
220
0.0
230
1.0
 70
     8
 71
     3
 72
    18
 73
    14
 74
     0
 42
0.0000000001
 43
0.0000000001
 40
23.3342633953109
 40
23.3342633953109
 40
23.3342633953109
 40
23.3342633953109
 40
24.10627324242106
 40
24.10627324242106
 40
25.89764485332102
 40
25.89764485332102
 40
27.68901646422096
 40
27.68901646422096
 40
28.42477156036025
 40
28.42477156036025
 40
29.16052665649952
 40
29.16052665649952
 40
29.88168580166767
 40
29.88168580166767
 40
29.88168580166767
 40
29.88168580166767
 10
44.49999910685488
 20
20.44617305014856
 30
0.0
 10
44.47545470277629
 20
20.21262651526979
 30
0.0
 10
44.44669128455172
 20
19.97927514796026
 30
0.0
 10
44.34500711753645
 20
19.20856762304239
 30
0.0
 10
44.26515273170847
 20
18.68206747509519
 30
0.0
 10
44.12623901950978
 20
17.70647572192672
 30
0.0
 10
44.06639122093639
 20
17.25709950307191
 30
0.0
 10
44.01806055256662
 20
16.71762252897781
 30
0.0
 10
44.00784163783334
 20
16.56587401176818
 30
0.0
 10
44.00036499453864
 20
16.29229373010696
 30
0.0
 10
44.00314083489507
 20
16.17051089847414
 30
0.0
 10
44.02514077267579
 20
15.97223607886223
 30
0.0
 10
44.04408692944438
 20
15.89477802897488
 30
0.0
 10
44.07162205233641
 20
15.84073730751685
 30
0.0
  0
LINE
  5
E9F
330
76C
100
AcDbEntity
  8
241
100
AcDbLine
 10
40.88144554
 20
22.10181125
 30
0.0
 11
44.49999911
 21
15.0
 31
0.0
  0
LINE
  5
EA0
330
76C
100
AcDbEntity
  8
241
100
AcDbLine
 10
44.49999911
 20
22.32716547
 30
0.0
 11
44.49999911
 21
20.51327228
 31
0.0
  0
LINE
  5
EA1
330
76C
100
AcDbEntity
  8
241
  6
HIDDEN2
100
AcDbLine
 10
44.49999911
 20
22.32716547
 30
0.0
 11
44.49999911
 21
20.51327228
 31
0.0
  0
LINE
  5
EA2
330
76C
100
AcDbEntity
  8
241
100
AcDbLine
 10
44.49999911
 20
22.32716547
 30
0.0
 11
44.49999911
 21
26.01344632
 31
0.0
  0
LINE
  5
EA3
330
76C
100
AcDbEntity
  8
241
100
AcDbLine
 10
44.49999911
 20
22.32716547
 30
0.0
 11
44.49999911
 21
26.01344632
 31
0.0
  0
LINE
  5
EA4
330
76C
100
AcDbEntity
  8
240
100
AcDbLine
 10
44.9999991
 20
31.5
 30
0.0
 11
48.49999911
 21
31.5
 31
0.0
  0
LINE
  5
EA5
330
76C
100
AcDbEntity
  8
241
100
AcDbLine
 10
41.99830768
 20
30.92329219
 30
0.0
 11
44.99999911
 21
30.92329219
 31
0.0
  0
LINE
  5
EA6
330
76C
100
AcDbEntity
  8
241
100
AcDbLine
 10
41.99830768
 20
30.92329219
 30
0.0
 11
44.99999911
 21
30.92329219
 31
0.0
  0
LINE
  5
EA7
330
76C
100
AcDbEntity
  8
241
100
AcDbLine
 10
44.99999911
 20
30.92329219
 30
0.0
 11
44.99999911
 21
31.5
 31
0.0
  0
ENDBLK
  5
7C8
330
76C
100
AcDbEntity
  8
0
100
AcDbBlockEnd
  0
BLOCK
  5
812
330
808
100
AcDbEntity
  8
0
100
AcDbBlockBegin
  2
*D3
 70
     1
 10
0.0
 20
0.0
 30
0.0
  3
*D3
  1

  0
LINE
  5
E3F
330
808
100
AcDbEntity
  8
250
  6
CONTINUOUS
 62
     3
100
AcDbLine
 10
48.99999911
 20
-31.5
 30
0.0
 11
64.0
 21
-31.5
 31
0.0
  0
LINE
  5
E40
330
808
100
AcDbEntity
  8
250
  6
CONTINUOUS
 62
     3
100
AcDbLine
 10
48.99999911
 20
31.5
 30
0.0
 11
64.0
 21
31.5
 31
0.0
  0
LINE
  5
E41
330
808
100
AcDbEntity
  8
250
  6
CONTINUOUS
 62
     3
100
AcDbLine
 10
63.0
 20
-29.27
 30
0.0
 11
63.0
 21
29.27
 31
0.0
  0
INSERT
  5
E42
330
808
100
AcDbEntity
  8
250
  6
CONTINUOUS
 62
     3
100
AcDbBlockReference
  2
_OPEN
 10
63.0
 20
-31.5
 30
0.0
 41
2.23
 42
2.23
 43
2.23
 50
270.0
  0
INSERT
  5
E43
330
808
100
AcDbEntity
  8
250
  6
CONTINUOUS
 62
     3
100
AcDbBlockReference
  2
_OPEN
 10
63.0
 20
31.5
 30
0.0
 41
2.23
 42
2.23
 43
2.23
 50
90.0
  0
MTEXT
  5
E44
330
808
100
AcDbEntity
  8
250
  6
CONTINUOUS
 62
    40
100
AcDbMText
 10
60.5
 20
0.0
 30
0.0
 40
3.0
 41
0.0
 71
     5
 72
     1
  1
\A1;{\H3;\U+2205}63
 11
0.0
 21
1.0
 31
0.0
1001
ACAD
1000
MTEXTBEGIN
1070
    73
1070
     1
1070
    44
1040
1.0
1070
    74
1070
     0
1000
MTEXTEND
1000
MTEXTBEGIN
1070
    73
1070
     1
1070
    44
1040
1.0
1070
    74
1070
     0
1000
MTEXTEND
  0
POINT
  5
E45
330
808
100
AcDbEntity
  8
DEFPOINTS
  6
CONTINUOUS
 62
     0
100
AcDbPoint
 10
48.49999911
 20
-31.5
 30
0.0
  0
POINT
  5
E46
330
808
100
AcDbEntity
  8
DEFPOINTS
  6
CONTINUOUS
 62
     0
100
AcDbPoint
 10
48.49999911
 20
31.5
 30
0.0
  0
POINT
  5
E47
330
808
100
AcDbEntity
  8
DEFPOINTS
  6
CONTINUOUS
 62
     0
100
AcDbPoint
 10
63.0
 20
31.5
 30
0.0
  0
ENDBLK
  5
813
330
808
100
AcDbEntity
  8
0
100
AcDbBlockEnd
  0
BLOCK
  5
82A
330
820
100
AcDbEntity
  8
0
100
AcDbBlockBegin
  2
*D5
 70
     1
 10
0.0
 20
0.0
 30
0.0
  3
*D5
  1

  0
LINE
  5
E15
330
820
100
AcDbEntity
  8
250
  6
CONTINUOUS
 62
     3
100
AcDbLine
 10
0.0
 20
40.4925
 30
0.0
 11
0.0
 21
57.0
 31
0.0
  0
LINE
  5
E16
330
820
100
AcDbEntity
  8
250
  6
CONTINUOUS
 62
     3
100
AcDbLine
 10
44.99999911
 20
32.00308703
 30
0.0
 11
44.99999911
 21
57.0
 31
0.0
  0
LINE
  5
E17
330
820
100
AcDbEntity
  8
250
  6
CONTINUOUS
 62
     3
100
AcDbLine
 10
2.23
 20
56.0
 30
0.0
 11
42.76999911
 21
56.0
 31
0.0
  0
INSERT
  5
E18
330
820
100
AcDbEntity
  8
250
  6
CONTINUOUS
 62
     3
100
AcDbBlockReference
  2
_OPEN
 10
0.0
 20
56.0
 30
0.0
 41
2.23
 42
2.23
 43
2.23
 50
180.0
  0
INSERT
  5
E19
330
820
100
AcDbEntity
  8
250
  6
CONTINUOUS
 62
     3
100
AcDbBlockReference
  2
_OPEN
 10
44.99999911
 20
56.0
 30
0.0
 41
2.23
 42
2.23
 43
2.23
  0
MTEXT
  5
E1A
330
820
100
AcDbEntity
  8
250
  6
CONTINUOUS
 62
    40
100
AcDbMText
 10
22.49889578
 20
58.5
 30
0.0
 40
3.0
 41
0.0
 71
     5
 72
     1
  1
\A1;45
1001
ACAD
1000
MTEXTBEGIN
1070
    73
1070
     1
1070
    44
1040
1.0
1070
    74
1070
     0
1000
MTEXTEND
1000
MTEXTBEGIN
1070
    73
1070
     1
1070
    44
1040
1.0
1070
    74
1070
     0
1000
MTEXTEND
  0
POINT
  5
E1B
330
820
100
AcDbEntity
  8
DEFPOINTS
  6
CONTINUOUS
 62
     0
100
AcDbPoint
 10
0.0
 20
39.9925
 30
0.0
  0
POINT
  5
E1C
330
820
100
AcDbEntity
  8
DEFPOINTS
  6
CONTINUOUS
 62
     0
100
AcDbPoint
 10
44.99999911
 20
31.50308703
 30
0.0
  0
POINT
  5
E1D
330
820
100
AcDbEntity
  8
DEFPOINTS
  6
CONTINUOUS
 62
     0
100
AcDbPoint
 10
44.99999911
 20
56.0
 30
0.0
  0
ENDBLK
  5
82B
330
820
100
AcDbEntity
  8
0
100
AcDbBlockEnd
  0
ENDSEC
  0
SECTION
  2
ENTITIES
  0
INSERT
  5
6E6
330
1A
100
AcDbEntity
  8
245
100
AcDbBlockReference
  2
矢印なし
 10
175.62382697
 20
90.55123572
 30
0.0
  0
LEADER
  5
7FF
330
1A
100
AcDbEntity
  8
250
  6
CONTINUOUS
100
AcDbLeader
  3
BIGT
 76
     2
 10
42.61370998
 20
32.37497268
 30
0.0
 10
52.19880907
 20
48.97685128
 30
0.0
1001
ACAD
1000
DSTYLE
1002
{
1070
     6
1000
OPEN
1070
   343
1005
594
1002
}
  0
MTEXT
  5
800
330
1A
100
AcDbEntity
  8
251
  6
CONTINUOUS
100
AcDbMText
 10
54.99880907
 20
49.97685128
 30
0.0
 40
2.8
 41
0.0
 71
     7
 72
     1
  1
F63
  7
YOKO
1001
ITEMNAME
1000
LNSP3
1001
ACAD
1000
MTEXTBEGIN
1070
    73
1070
     1
1070
    44
1040
1.0
1070
    74
1070
     0
1000
MTEXTEND
1000
MTEXTBEGIN
1070
    73
1070
     1
1070
    44
1040
1.0
1070
    74
1070
     0
1000
MTEXTEND
1000
MTEXTBEGIN
1070
    73
1070
     1
1070
    44
1040
1.0
1070
    74
1070
     0
1000
MTEXTEND
1000
MTEXTBEGIN
1070
    73
1070
     1
1070
    44
1040
1.0
1070
    74
1070
     0
1000
MTEXTEND
1000
MTEXTBEGIN
1070
    73
1070
     1
1070
    44
1040
1.0
1070
    74
1070
     0
1000
MTEXTEND
1000
MTEXTBEGIN
1070
    73
1070
     1
1070
    44
1040
1.0
1070
    74
1070
     0
1000
MTEXTEND
1000
MTEXTBEGIN
1070
    73
1070
     1
1070
    44
1040
1.0
1070
    74
1070
     0
1000
MTEXTEND
  0
TEXT
  5
803
330
1A
100
AcDbEntity
  8
241
100
AcDbText
 10
-48.0
 20
70.0
 30
0.0
 40
5.0
  1
C8-F63-45
  7
YOKO
 11
-48.0
 21
70.0
 31
0.0
100
AcDbText
 73
     1
  0
DIMENSION
  5
804
330
1A
100
AcDbEntity
  8
250
  6
CONTINUOUS
100
AcDbDimension
  2
*D3
 10
63.0
 20
31.5
 30
0.0
 11
63.0
 21
0.0
 31
0.0
 70
   160
  1
{\H3;\U+2205}<>
  3
BIGT$0
100
AcDbAlignedDimension
 13
48.49999911
 23
-31.5
 33
0.0
 14
48.49999911
 24
31.5
 34
0.0
 50
90.0
100
AcDbRotatedDimension
  0
DIMENSION
  5
806
330
1A
100
AcDbEntity
  8
250
  6
CONTINUOUS
100
AcDbDimension
  2
*D5
 10
44.99999911
 20
56.0
 30
0.0
 11
22.49889578
 21
56.0
 31
0.0
 70
   160
  3
BIGT$0
100
AcDbAlignedDimension
 13
0.0
 23
39.9925
 33
0.0
 14
44.99999911
 24
31.50308703
 34
0.0
100
AcDbRotatedDimension
  0
LINE
  5
807
330
1A
100
AcDbEntity
  8
250
  6
CONTINUOUS
100
AcDbLine
 10
52.19880907
 20
48.97685128
 30
0.0
 11
64.59880907
 21
48.97685128
 31
0.0
1001
ITEMNAME
1000
LNSP2
  0
LINE
  5
DF7
330
1A
100
AcDbEntity
  8
250
  6
CONTINUOUS
100
AcDbLine
 10
-26.7756406
 20
-35.07208548
 30
0.0
 11
-37.04230726
 21
-35.07208548
 31
0.0
1001
ITEMNAME
1000
LNSP2
  0
LEADER
  5
E06
330
1A
100
AcDbEntity
  8
250
  6
CONTINUOUS
100
AcDbLeader
  3
BIGT$7
 76
     2
 10
-22.12784265
 20
-27.02186329
 30
0.0
 10
-26.7756406
 20
-35.07208548
 30
0.0
1001
ACAD
1000
DSTYLE
1002
{
1070
     5
1000
OPEN
1070
    41
1040
2.0
1070
    42
1040
2.0
1070
    44
1040
2.0
1070
   140
1040
4.0
1070
   342
1005
594
1002
}
  0
MTEXT
  5
E07
330
1A
100
AcDbEntity
  8
251
  6
CONTINUOUS
100
AcDbMText
 10
-34.24230726
 20
-34.07208548
 30
0.0
 40
2.8
 41
0.0
 71
     7
 72
     1
  1
C8
  7
YOKO
1001
ITEMNAME
1000
LNSP3
1001
ACAD
1000
MTEXTBEGIN
1070
    73
1070
     1
1070
    44
1040
1.0
1070
    74
1070
     0
1000
MTEXTEND
1000
MTEXTBEGIN
1070
    73
1070
     1
1070
    44
1040
1.0
1070
    74
1070
     0
1000
MTEXTEND
1000
MTEXTBEGIN
1070
    73
1070
     1
1070
    44
1040
1.0
1070
    74
1070
     0
1000
MTEXTEND
1000
MTEXTBEGIN
1070
    73
1070
     1
1070
    44
1040
1.0
1070
    74
1070
     0
1000
MTEXTEND
  0
INSERT
  5
EA8
330
1A
100
AcDbEntity
  8
245
100
AcDbBlockReference
  2
1
 10
0.0
 20
0.0
 30
0.0
  0
VIEWPORT
  5
22
330
17
100
AcDbEntity
 67
     1
  8
0
100
AcDbViewport
 10
261.51769912
 20
148.5
 30
0.0
 40
523.03539823
 41
297.0
 68
     1
 69
     1
1001
ACAD
1000
MVIEW
1002
{
1070
    16
1010
0.0
1020
0.0
1030
0.0
1010
0.0
1020
0.0
1030
1.0
1040
0.0
1040
297.0
1040
261.51769912
1040
148.5
1040
50.0
1040
0.0
1040
0.0
1070
     0
1070
   100
1070
     1
1070
     1
1070
     0
1070
     0
1070
     0
1070
     0
1040
0.0
1040
0.0
1040
0.0
1040
1.0
1040
1.0
1040
10.0
1040
10.0
1070
     0
1002
{
1002
}
1002
}
  0
ENDSEC
  0
SECTION
  2
OBJECTS
  0
DICTIONARY
  5
C
330
0
100
AcDbDictionary
  3
ACAD_GROUP
350
D
  3
ACAD_LAYOUT
350
565
  3
ACAD_MLINESTYLE
350
E
  3
ACAD_PLOTSETTINGS
350
566
  3
ACAD_PLOTSTYLENAME
350
563
  3
ACDBHEADERROUNDTRIPXREC
350
F24
  3
GRADE_DWG
350
540
  0
DICTIONARY
  5
9B6
330
1A
100
AcDbDictionary
280
     1
  3
ACAD_LAYOUTSELFREF
360
F46
  0
DICTIONARY
  5
9B4
330
17
100
AcDbDictionary
280
     1
  3
ACAD_LAYOUTSELFREF
360
F45
  0
DICTIONARY
  5
D
102
{ACAD_REACTORS
330
C
102
}
330
C
100
AcDbDictionary
  3
*A1
350
6C7
  3
*A2
350
6C8
  3
*A3
350
6D4
  3
*A4
350
6D5
  3
DREC-1
350
5FC
  3
DREC-2
350
654
  3
DREC-3
350
673
  0
DICTIONARY
  5
565
102
{ACAD_REACTORS
330
C
102
}
330
C
100
AcDbDictionary
  0
DICTIONARY
  5
E
102
{ACAD_REACTORS
330
C
102
}
330
C
100
AcDbDictionary
  3
STANDARD
350
13
  0
DICTIONARY
  5
566
102
{ACAD_REACTORS
330
C
102
}
330
C
100
AcDbDictionary
  3
A3_0_5倍_
350
758
  3
A3_1倍_
350
757
  3
A3_1倍__2000_
350
707
  3
A3_2倍_
350
759
  3
A4_0_5倍_
350
755
  3
A4_1倍_
350
754
  3
A4_1倍__2000_
350
708
  3
A4_2倍_
350
756
  0
ACDBDICTIONARYWDFLT
  5
563
102
{ACAD_REACTORS
330
C
102
}
330
C
100
AcDbDictionary
281
     1
  3
Normal
350
564
100
AcDbDictionaryWithDefault
340
564
  0
DICTIONARY
  5
F24
102
{ACAD_REACTORS
330
C
102
}
330
C
100
AcDbDictionary
  3
CEPSNTYPE
350
F2E
  3
DIMSTYLEDATA
350
F32
  3
FINGERPRINTGUID
350
F2F
  3
HYPERLINKBASE
350
F27
  3
INSUNITS
350
F2D
  3
LAYOUTDICT
350
F29
  3
LWETCUNION
350
F2C
  3
PLOTSETDICT
350
F2A
  3
PLOTSTYLNAMDICT
350
F2B
  3
PSVPSCALE
350
F31
  3
PUCSBASE
350
F35
  3
PUCSORGBACK
350
F3B
  3
PUCSORGBOTTOM
350
F37
  3
PUCSORGFRONT
350
F3A
  3
PUCSORGLEFT
350
F38
  3
PUCSORGRIGHT
350
F39
  3
PUCSORGTOP
350
F36
  3
PUCSORTHOREF
350
F33
  3
PUCSORTHOVIEW
350
F34
  3
STYLESHEET
350
F28
  3
TSTACKALIGN
350
F25
  3
TSTACKSIZE
350
F26
  3
UCSBASE
350
F3E
  3
UCSORGBACK
350
F44
  3
UCSORGBOTTOM
350
F40
  3
UCSORGFRONT
350
F43
  3
UCSORGLEFT
350
F41
  3
UCSORGRIGHT
350
F42
  3
UCSORGTOP
350
F3F
  3
UCSORTHOREF
350
F3C
  3
UCSORTHOVIEW
350
F3D
  3
VERSIONGUID
350
F30
  0
DICTIONARY
  5
540
102
{ACAD_REACTORS
330
C
102
}
330
C
100
AcDbDictionary
  3
VERSION
350
560
  0
XRECORD
  5
F46
102
{ACAD_REACTORS
330
9B6
102
}
330
9B6
100
AcDbXrecord
340
1A
  0
XRECORD
  5
F45
102
{ACAD_REACTORS
330
9B4
102
}
330
9B4
100
AcDbXrecord
340
17
  0
GROUP
  5
6C7
102
{ACAD_REACTORS
330
D
102
}
330
D
100
AcDbGroup
300

 70
     0
 71
     1
1001
GRPNAME
1000
DMA00
  0
GROUP
  5
6C8
102
{ACAD_REACTORS
330
D
102
}
330
D
100
AcDbGroup
300

 70
     0
 71
     1
1001
GRPNAME
1000
DMA00
  0
GROUP
  5
6D4
102
{ACAD_REACTORS
330
D
102
}
330
D
100
AcDbGroup
300

 70
     0
 71
     1
1001
GRPNAME
1000
DMA00
  0
GROUP
  5
6D5
102
{ACAD_REACTORS
330
D
102
}
330
D
100
AcDbGroup
300

 70
     0
 71
     1
1001
GRPNAME
1000
DMA00
  0
GROUP
  5
5FC
102
{ACAD_REACTORS
330
D
102
}
330
D
100
AcDbGroup
300

 70
     0
 71
     1
1001
GRPNAME
1000
DREC-
1001
GPARA
1000
xsiz
1000
44.182
1000
ysiz
1000
40.677
1000
angl
1000
0
1000
ctyp
1000
0
1000
csiz
1000
5
1000
lfnt
1000
cont
1000
hcnt
1000
hoff
1000
vcnt
1000
voff
1000
opnt
1000
4
1000
dxpt
1000
0
1000
dypt
1000
0
  0
GROUP
  5
654
102
{ACAD_REACTORS
330
D
102
}
330
D
100
AcDbGroup
300

 70
     0
 71
     1
1001
GRPNAME
1000
DREC-
1001
GPARA
1000
xsiz
1000
54.592
1000
ysiz
1000
53.036
1000
angl
1000
0
1000
ctyp
1000
0
1000
csiz
1000
5
1000
lfnt
1000
cont
1000
hcnt
1000
hoff
1000
vcnt
1000
voff
1000
opnt
1000
4
1000
dxpt
1000
0
1000
dypt
1000
0
  0
GROUP
  5
673
102
{ACAD_REACTORS
330
D
102
}
330
D
100
AcDbGroup
300

 70
     0
 71
     1
1001
GRPNAME
1000
DREC-
1001
GPARA
1000
xsiz
1000
30.363
1000
ysiz
1000
36.175
1000
angl
1000
0
1000
ctyp
1000
0
1000
csiz
1000
5
1000
lfnt
1000
cont
1000
hcnt
1000
hoff
1000
vcnt
1000
voff
1000
opnt
1000
4
1000
dxpt
1000
0
1000
dypt
1000
0
  0
MLINESTYLE
  5
13
102
{ACAD_REACTORS
330
E
102
}
330
E
100
AcDbMlineStyle
  2
STANDARD
 70
     0
  3

 62
     0
 51
90.0
 52
90.0
 71
     2
 49
0.5
 62
   256
  6
BYLAYER
 49
-0.5
 62
   256
  6
BYLAYER
  0
PLOTSETTINGS
  5
758
102
{ACAD_REACTORS
330
566
102
}
330
566
100
AcDbPlotSettings
  1
A3(0.5倍)
  2
\\AWTECPC05\HP DeskJet 1120C
  4
A3
  6

 40
5.95841646
 41
13.49375153
 42
6.04309082
 43
3.67242432
 44
296.92599487
 45
419.94665527
 46
89.96
 47
127.14
 48
0.0
 49
0.0
140
0.0
141
0.0
142
1.0
143
2.0
 70
  1716
 72
     1
 73
     1
 74
     2
  7
big.ctb
 75
    17
147
0.5
148
0.0
149
0.0
  0
PLOTSETTINGS
  5
757
102
{ACAD_REACTORS
330
566
102
}
330
566
100
AcDbPlotSettings
  1
A3(1倍)
  2
\\AWTECPC05\HP DeskJet 1120C
  4
A3
  6

 40
5.95841646
 41
13.49375153
 42
6.04309082
 43
3.67242432
 44
296.92599487
 45
419.94665527
 46
37.46
 47
52.89
 48
0.0
 49
0.0
140
0.0
141
0.0
142
1.0
143
1.0
 70
  1716
 72
     1
 73
     1
 74
     2
  7
big.ctb
 75
    16
147
1.0
148
0.0
149
0.0
  0
PLOTSETTINGS
  5
707
102
{ACAD_REACTORS
330
566
102
}
330
566
100
AcDbPlotSettings
  1
A3(1倍)(2000)
  2
SII LS-1300 (D-SCAN)
  4
User258
  6

 40
3.17499995
 41
3.17499995
 42
3.17498779
 43
3.17498779
 44
419.98898315
 45
296.98950195
 46
58.32
 47
40.32
 48
0.0
 49
0.0
140
0.0
141
0.0
142
1.0
143
1.0
 70
  1716
 72
     1
 73
     0
 74
     2
  7
big.ctb
 75
    16
147
1.0
148
0.0
149
0.0
  0
PLOTSETTINGS
  5
759
102
{ACAD_REACTORS
330
566
102
}
330
566
100
AcDbPlotSettings
  1
A3(2倍)
  2
\\AWTECPC05\HP DeskJet 1120C
  4
A3
  6

 40
5.95841646
 41
13.49375153
 42
6.04309082
 43
3.67242432
 44
296.92599487
 45
419.94665527
 46
-67.54
 47
-95.61
 48
0.0
 49
0.0
140
0.0
141
0.0
142
1.0
143
0.5
 70
  1716
 72
     1
 73
     1
 74
     2
  7
big.ctb
 75
    27
147
2.0
148
0.0
149
0.0
  0
PLOTSETTINGS
  5
755
102
{ACAD_REACTORS
330
566
102
}
330
566
100
AcDbPlotSettings
  1
A4(0.5倍)
  2
\\AWTECPC05\HP DeskJet 1120C
  4
A4
  6

 40
4.18041658
 41
13.49374962
 42
4.18040466
 43
3.92642212
 44
209.97332764
 45
296.92599487
 46
48.31
 47
65.5
 48
0.0
 49
0.0
140
0.0
141
0.0
142
1.0
143
2.0
 70
  1716
 72
     1
 73
     1
 74
     2
  7
big.ctb
 75
    17
147
0.5
148
0.0
149
0.0
  0
PLOTSETTINGS
  5
754
102
{ACAD_REACTORS
330
566
102
}
330
566
100
AcDbPlotSettings
  1
A4(1倍)
  2
\\AWTECPC05\HP DeskJet 1120C
  4
A4
  6

 40
4.18041658
 41
13.49374962
 42
4.18040466
 43
3.92642212
 44
209.97332764
 45
296.92599487
 46
-4.19
 47
-8.75
 48
0.0
 49
0.0
140
0.0
141
0.0
142
1.0
143
1.0
 70
  1716
 72
     1
 73
     1
 74
     2
  7
big.ctb
 75
    16
147
1.0
148
0.0
149
0.0
  0
PLOTSETTINGS
  5
708
102
{ACAD_REACTORS
330
566
102
}
330
566
100
AcDbPlotSettings
  1
A4(1倍)(2000)
  2
SII LS-1300 (D-SCAN)
  4
User259
  6

 40
3.17499995
 41
3.17499995
 42
3.17498779
 43
3.17500305
 44
296.98950195
 45
209.99449158
 46
-3.18
 47
-3.18
 48
0.0
 49
0.0
140
0.0
141
0.0
142
1.0
143
1.0
 70
  1716
 72
     1
 73
     0
 74
     2
  7
big.ctb
 75
    16
147
1.0
148
0.0
149
0.0
  0
PLOTSETTINGS
  5
756
102
{ACAD_REACTORS
330
566
102
}
330
566
100
AcDbPlotSettings
  1
A4(2倍)
  2
\\AWTECPC05\HP DeskJet 1120C
  4
A4
  6

 40
4.18041658
 41
13.49374962
 42
4.18040466
 43
3.92642212
 44
209.97332764
 45
296.92599487
 46
-109.19
 47
-157.25
 48
0.0
 49
0.0
140
0.0
141
0.0
142
1.0
143
0.5
 70
  1716
 72
     1
 73
     1
 74
     2
  7
big.ctb
 75
    27
147
2.0
148
0.0
149
0.0
  0
ACDBPLACEHOLDER
  5
564
102
{ACAD_REACTORS
330
563
102
}
330
563
100
AcDbPlaceHolder
280
     0
  0
XRECORD
  5
F2E
102
{ACAD_REACTORS
330
F24
102
}
330
F24
100
AcDbXrecord
 90
        0
  0
XRECORD
  5
F32
102
{ACAD_REACTORS
330
F24
102
}
330
F24
100
AcDbXrecord
1000
DSTYLE
1002
{
1070
    79
 70
     2
1070
   179
 70
     3
1070
   341
340
594
1070
   343
340
594
1070
   344
340
594
1070
   371
 70
    -1
1070
   372
 70
    -1
1002
}
  0
XRECORD
  5
F2F
102
{ACAD_REACTORS
330
F24
102
}
330
F24
100
AcDbXrecord
  1
{51294030-9CB4-11D3-8E18-00A0C925D94D}
  0
XRECORD
  5
F27
102
{ACAD_REACTORS
330
F24
102
}
330
F24
100
AcDbXrecord
  1

  0
XRECORD
  5
F2D
102
{ACAD_REACTORS
330
F24
102
}
330
F24
100
AcDbXrecord
 90
        0
  0
XRECORD
  5
F29
102
{ACAD_REACTORS
330
F24
102
}
330
F24
100
AcDbXrecord
340
565
  0
XRECORD
  5
F2C
102
{ACAD_REACTORS
330
F24
102
}
330
F24
100
AcDbXrecord
 90
    10781
  0
XRECORD
  5
F2A
102
{ACAD_REACTORS
330
F24
102
}
330
F24
100
AcDbXrecord
340
566
  0
XRECORD
  5
F2B
102
{ACAD_REACTORS
330
F24
102
}
330
F24
100
AcDbXrecord
340
563
  0
XRECORD
  5
F31
102
{ACAD_REACTORS
330
F24
102
}
330
F24
100
AcDbXrecord
 40
0.0
  0
XRECORD
  5
F35
102
{ACAD_REACTORS
330
F24
102
}
330
F24
100
AcDbXrecord
340
0
  0
XRECORD
  5
F3B
102
{ACAD_REACTORS
330
F24
102
}
330
F24
100
AcDbXrecord
 10
0.0
 20
0.0
 30
0.0
  0
XRECORD
  5
F37
102
{ACAD_REACTORS
330
F24
102
}
330
F24
100
AcDbXrecord
 10
0.0
 20
0.0
 30
0.0
  0
XRECORD
  5
F3A
102
{ACAD_REACTORS
330
F24
102
}
330
F24
100
AcDbXrecord
 10
0.0
 20
0.0
 30
0.0
  0
XRECORD
  5
F38
102
{ACAD_REACTORS
330
F24
102
}
330
F24
100
AcDbXrecord
 10
0.0
 20
0.0
 30
0.0
  0
XRECORD
  5
F39
102
{ACAD_REACTORS
330
F24
102
}
330
F24
100
AcDbXrecord
 10
0.0
 20
0.0
 30
0.0
  0
XRECORD
  5
F36
102
{ACAD_REACTORS
330
F24
102
}
330
F24
100
AcDbXrecord
 10
0.0
 20
0.0
 30
0.0
  0
XRECORD
  5
F33
102
{ACAD_REACTORS
330
F24
102
}
330
F24
100
AcDbXrecord
340
0
  0
XRECORD
  5
F34
102
{ACAD_REACTORS
330
F24
102
}
330
F24
100
AcDbXrecord
 70
     0
  0
XRECORD
  5
F28
102
{ACAD_REACTORS
330
F24
102
}
330
F24
100
AcDbXrecord
  1
big.ctb
  0
XRECORD
  5
F25
102
{ACAD_REACTORS
330
F24
102
}
330
F24
100
AcDbXrecord
 90
        1
  0
XRECORD
  5
F26
102
{ACAD_REACTORS
330
F24
102
}
330
F24
100
AcDbXrecord
 90
       70
  0
XRECORD
  5
F3E
102
{ACAD_REACTORS
330
F24
102
}
330
F24
100
AcDbXrecord
340
0
  0
XRECORD
  5
F44
102
{ACAD_REACTORS
330
F24
102
}
330
F24
100
AcDbXrecord
 10
0.0
 20
0.0
 30
0.0
  0
XRECORD
  5
F40
102
{ACAD_REACTORS
330
F24
102
}
330
F24
100
AcDbXrecord
 10
0.0
 20
0.0
 30
0.0
  0
XRECORD
  5
F43
102
{ACAD_REACTORS
330
F24
102
}
330
F24
100
AcDbXrecord
 10
0.0
 20
0.0
 30
0.0
  0
XRECORD
  5
F41
102
{ACAD_REACTORS
330
F24
102
}
330
F24
100
AcDbXrecord
 10
0.0
 20
0.0
 30
0.0
  0
XRECORD
  5
F42
102
{ACAD_REACTORS
330
F24
102
}
330
F24
100
AcDbXrecord
 10
0.0
 20
0.0
 30
0.0
  0
XRECORD
  5
F3F
102
{ACAD_REACTORS
330
F24
102
}
330
F24
100
AcDbXrecord
 10
0.0
 20
0.0
 30
0.0
  0
XRECORD
  5
F3C
102
{ACAD_REACTORS
330
F24
102
}
330
F24
100
AcDbXrecord
340
0
  0
XRECORD
  5
F3D
102
{ACAD_REACTORS
330
F24
102
}
330
F24
100
AcDbXrecord
 70
     0
  0
XRECORD
  5
F30
102
{ACAD_REACTORS
330
F24
102
}
330
F24
100
AcDbXrecord
  1
{A77616D4-C3A7-432C-B705-6FE6DA90BFA6}
  0
XRECORD
  5
560
102
{ACAD_REACTORS
330
540
102
}
330
540
100
AcDbXrecord
  1
2.0.0
  0
ENDSEC
  0
EOF
