  0
SECTION
  2
HEADER
  9
$ACADVER
  1
AC1014
  9
$ACADMAINTVER
 70
     9
  9
$DWGCODEPAGE
  3
ANSI_932
  9
$INSBASE
 10
0.0
 20
0.0
 30
0.0
  9
$EXTMIN
 10
-49.01431165
 20
-40.20989651
 30
-0.00152582
  9
$EXTMAX
 10
149.61079484
 20
75.01814879
 30
0.00000003
  9
$LIMMIN
 10
0.0
 20
0.0
  9
$LIMMAX
 10
420.0
 20
297.0
  9
$ORTHOMODE
 70
     0
  9
$REGENMODE
 70
     1
  9
$FILLMODE
 70
     1
  9
$QTEXTMODE
 70
     0
  9
$MIRRTEXT
 70
     1
  9
$DRAGMODE
 70
     2
  9
$LTSCALE
 40
10.0
  9
$OSMODE
 70
   549
  9
$ATTMODE
 70
     1
  9
$TEXTSIZE
 40
3.0
  9
$TRACEWID
 40
1.0
  9
$TEXTSTYLE
  7
YOKO
  9
$CLAYER
  8
245
  9
$CELTYPE
  6
BYLAYER
  9
$CECOLOR
 62
   256
  9
$CELTSCALE
 40
1.0
  9
$DELOBJ
 70
     1
  9
$DISPSILH
 70
     0
  9
$DIMSCALE
 40
1.0
  9
$DIMASZ
 40
2.0
  9
$DIMEXO
 40
2.0
  9
$DIMDLI
 40
2.5
  9
$DIMRND
 40
0.0
  9
$DIMDLE
 40
0.0
  9
$DIMEXE
 40
2.0
  9
$DIMTP
 40
0.0
  9
$DIMTM
 40
0.0
  9
$DIMTXT
 40
4.0
  9
$DIMCEN
 40
0.0
  9
$DIMTSZ
 40
0.0
  9
$DIMTOL
 70
     0
  9
$DIMLIM
 70
     0
  9
$DIMTIH
 70
     0
  9
$DIMTOH
 70
     0
  9
$DIMSE1
 70
     0
  9
$DIMSE2
 70
     0
  9
$DIMTAD
 70
     3
  9
$DIMZIN
 70
     8
  9
$DIMBLK
  1

  9
$DIMASO
 70
     1
  9
$DIMSHO
 70
     1
  9
$DIMPOST
  1

  9
$DIMAPOST
  1

  9
$DIMALT
 70
     0
  9
$DIMALTD
 70
     2
  9
$DIMALTF
 40
25.4
  9
$DIMLFAC
 40
1.0
  9
$DIMTOFL
 70
     1
  9
$DIMTVP
 40
0.0
  9
$DIMTIX
 70
     1
  9
$DIMSOXD
 70
     0
  9
$DIMSAH
 70
     1
  9
$DIMBLK1
  1
OPEN
  9
$DIMBLK2
  1
OPEN
  9
$DIMSTYLE
  2
BIGT
  9
$DIMCLRD
 70
   256
  9
$DIMCLRE
 70
   256
  9
$DIMCLRT
 70
    40
  9
$DIMTFAC
 40
1.0
  9
$DIMGAP
 40
1.0
  9
$DIMJUST
 70
     0
  9
$DIMSD1
 70
     0
  9
$DIMSD2
 70
     0
  9
$DIMTOLJ
 70
     1
  9
$DIMTZIN
 70
     8
  9
$DIMALTZ
 70
     0
  9
$DIMALTTZ
 70
     0
  9
$DIMFIT
 70
     3
  9
$DIMUPT
 70
     0
  9
$DIMUNIT
 70
     2
  9
$DIMDEC
 70
     3
  9
$DIMTDEC
 70
     3
  9
$DIMALTU
 70
     2
  9
$DIMALTTD
 70
     2
  9
$DIMTXSTY
  7
STANDARD
  9
$DIMAUNIT
 70
     0
  9
$LUNITS
 70
     2
  9
$LUPREC
 70
     3
  9
$SKETCHINC
 40
1.0
  9
$FILLETRAD
 40
2.0
  9
$AUNITS
 70
     0
  9
$AUPREC
 70
     3
  9
$MENU
  1
.
  9
$ELEVATION
 40
0.0
  9
$PELEVATION
 40
0.0
  9
$THICKNESS
 40
0.0
  9
$LIMCHECK
 70
     0
  9
$BLIPMODE
 70
     0
  9
$CHAMFERA
 40
10.0
  9
$CHAMFERB
 40
10.0
  9
$CHAMFERC
 40
0.0
  9
$CHAMFERD
 40
0.0
  9
$SKPOLY
 70
     0
  9
$TDCREATE
 40
2454978.460299108
  9
$TDUPDATE
 40
2455300.592340671
  9
$TDINDWG
 40
0.0159888773
  9
$TDUSRTIMER
 40
0.0159887037
  9
$USRTIMER
 70
     1
  9
$ANGBASE
 50
0.0
  9
$ANGDIR
 70
     0
  9
$PDMODE
 70
     1
  9
$PDSIZE
 40
-5.0
  9
$PLINEWID
 40
0.0
  9
$COORDS
 70
     2
  9
$SPLFRAME
 70
     0
  9
$SPLINETYPE
 70
     6
  9
$SPLINESEGS
 70
     8
  9
$ATTDIA
 70
     0
  9
$ATTREQ
 70
     1
  9
$HANDLING
 70
-16383
  9
$HANDSEED
  5
1004
  9
$SURFTAB1
 70
     6
  9
$SURFTAB2
 70
     6
  9
$SURFTYPE
 70
     6
  9
$SURFU
 70
     6
  9
$SURFV
 70
     6
  9
$UCSNAME
  2

  9
$UCSORG
 10
0.0
 20
0.0
 30
0.0
  9
$UCSXDIR
 10
1.0
 20
0.0
 30
0.0
  9
$UCSYDIR
 10
0.0
 20
1.0
 30
0.0
  9
$PUCSNAME
  2

  9
$PUCSORG
 10
0.0
 20
0.0
 30
0.0
  9
$PUCSXDIR
 10
1.0
 20
0.0
 30
0.0
  9
$PUCSYDIR
 10
0.0
 20
1.0
 30
0.0
  9
$USERI1
 70
     1
  9
$USERI2
 70
     0
  9
$USERI3
 70
     0
  9
$USERI4
 70
     0
  9
$USERI5
 70
     0
  9
$USERR1
 40
0.0
  9
$USERR2
 40
0.0
  9
$USERR3
 40
0.0
  9
$USERR4
 40
0.0
  9
$USERR5
 40
0.0
  9
$WORLDVIEW
 70
     1
  9
$SHADEDGE
 70
     3
  9
$SHADEDIF
 70
    70
  9
$TILEMODE
 70
     1
  9
$MAXACTVP
 70
    16
  9
$PINSBASE
 10
0.0
 20
0.0
 30
0.0
  9
$PLIMCHECK
 70
     0
  9
$PEXTMIN
 10
1.00000000E+20
 20
1.00000000E+20
 30
1.00000000E+20
  9
$PEXTMAX
 10
-1.00000000E+20
 20
-1.00000000E+20
 30
-1.00000000E+20
  9
$PLIMMIN
 10
0.0
 20
0.0
  9
$PLIMMAX
 10
420.0
 20
297.0
  9
$UNITMODE
 70
     0
  9
$VISRETAIN
 70
     0
  9
$PLINEGEN
 70
     0
  9
$PSLTSCALE
 70
     1
  9
$TREEDEPTH
 70
  3020
  9
$PICKSTYLE
 70
     0
  9
$CMLSTYLE
  2
STANDARD
  9
$CMLJUST
 70
     0
  9
$CMLSCALE
 40
1.0
  9
$PROXYGRAPHICS
 70
     1
  9
$MEASUREMENT
 70
     1
  0
ENDSEC
  0
SECTION
  2
CLASSES
  0
CLASS
  1
XRECORD
  2
AcDbXrecord
  3
AutoCAD 2000
 90
        0
280
     0
281
     0
  0
CLASS
  1
ACDBDICTIONARYWDFLT
  2
AcDbDictionaryWithDefault
  3
AutoCAD 2000
 90
        0
280
     0
281
     0
  0
CLASS
  1
ACDBPLACEHOLDER
  2
AcDbPlaceHolder
  3
AutoCAD 2000
 90
        0
280
     0
281
     0
  0
CLASS
  1
LAYOUT
  2
AcDbLayout
  3
AutoCAD 2000
 90
        0
280
     0
281
     0
  0
CLASS
  1
PLOTSETTINGS
  2
AcDbPlotSettings
  3
AutoCAD 2000
 90
        0
280
     0
281
     0
  0
CLASS
  1
LONG_TRANSACTION
  2
AcDbLongTransaction
  3
AutoCAD 2000
 90
        0
280
     0
281
     0
  0
CLASS
  1
LWPOLYLINE
  2
AcDbPolyline
  3
AutoCAD 2000
 90
        0
280
     0
281
     1
  0
CLASS
  1
HATCH
  2
AcDbHatch
  3
AutoCAD 2000
 90
        0
280
     0
281
     1
  0
CLASS
  1
XRECORD
  2
AcDbXrecord
  3
AutoCAD 2000
 90
        0
280
     0
281
     0
  0
CLASS
  1
LONG_TRANSACTION
  2
AcDbLongTransaction
  3
AutoCAD 2000
 90
        0
280
     0
281
     0
  0
CLASS
  1
LWPOLYLINE
  2
AcDbPolyline
  3
AutoCAD 2000
 90
        0
280
     0
281
     1
  0
CLASS
  1
HATCH
  2
AcDbHatch
  3
AutoCAD 2000
 90
        0
280
     0
281
     1
  0
CLASS
  1
XRECORD
  2
AcDbXrecord
  3
AutoCAD 2000
 90
        0
280
     0
281
     0
  0
CLASS
  1
LONG_TRANSACTION
  2
AcDbLongTransaction
  3
AutoCAD 2000
 90
        0
280
     0
281
     0
  0
CLASS
  1
LWPOLYLINE
  2
AcDbPolyline
  3
AutoCAD 2000
 90
        0
280
     0
281
     1
  0
CLASS
  1
HATCH
  2
AcDbHatch
  3
AutoCAD 2000
 90
        0
280
     0
281
     1
  0
CLASS
  1
XRECORD
  2
AcDbXrecord
  3
AutoCAD 2000
 90
        0
280
     0
281
     0
  0
CLASS
  1
LONG_TRANSACTION
  2
AcDbLongTransaction
  3
AutoCAD 2000
 90
        0
280
     0
281
     0
  0
CLASS
  1
LWPOLYLINE
  2
AcDbPolyline
  3
AutoCAD 2000
 90
        0
280
     0
281
     1
  0
CLASS
  1
HATCH
  2
AcDbHatch
  3
AutoCAD 2000
 90
        0
280
     0
281
     1
  0
CLASS
  1
XRECORD
  2
AcDbXrecord
  3
AutoCAD 2000
 90
        0
280
     0
281
     0
  0
CLASS
  1
LONG_TRANSACTION
  2
AcDbLongTransaction
  3
AutoCAD 2000
 90
        0
280
     0
281
     0
  0
CLASS
  1
LWPOLYLINE
  2
AcDbPolyline
  3
AutoCAD 2000
 90
        0
280
     0
281
     1
  0
CLASS
  1
HATCH
  2
AcDbHatch
  3
AutoCAD 2000
 90
        0
280
     0
281
     1
  0
CLASS
  1
XRECORD
  2
AcDbXrecord
  3
AutoCAD 2000
 90
        0
280
     0
281
     0
  0
CLASS
  1
LONG_TRANSACTION
  2
AcDbLongTransaction
  3
AutoCAD 2000
 90
        0
280
     0
281
     0
  0
CLASS
  1
LWPOLYLINE
  2
AcDbPolyline
  3
AutoCAD 2000
 90
        0
280
     0
281
     1
  0
CLASS
  1
HATCH
  2
AcDbHatch
  3
AutoCAD 2000
 90
        0
280
     0
281
     1
  0
CLASS
  1
XRECORD
  2
AcDbXrecord
  3
AutoCAD 2000
 90
        0
280
     0
281
     0
  0
CLASS
  1
LONG_TRANSACTION
  2
AcDbLongTransaction
  3
AutoCAD 2000
 90
        0
280
     0
281
     0
  0
CLASS
  1
LWPOLYLINE
  2
AcDbPolyline
  3
AutoCAD 2000
 90
        0
280
     0
281
     1
  0
CLASS
  1
HATCH
  2
AcDbHatch
  3
AutoCAD 2000
 90
        0
280
     0
281
     1
  0
CLASS
  1
XRECORD
  2
AcDbXrecord
  3
AutoCAD 2000
 90
        0
280
     0
281
     0
  0
CLASS
  1
LONG_TRANSACTION
  2
AcDbLongTransaction
  3
AutoCAD 2000
 90
        0
280
     0
281
     0
  0
CLASS
  1
LWPOLYLINE
  2
AcDbPolyline
  3
AutoCAD 2000
 90
        0
280
     0
281
     1
  0
CLASS
  1
HATCH
  2
AcDbHatch
  3
AutoCAD 2000
 90
        0
280
     0
281
     1
  0
CLASS
  1
XRECORD
  2
AcDbXrecord
  3
AutoCAD 2000
 90
        0
280
     0
281
     0
  0
ENDSEC
  0
SECTION
  2
TABLES
  0
TABLE
  2
VPORT
  5
8
330
0
100
AcDbSymbolTable
 70
     3
  0
VPORT
  5
FDF
330
8
100
AcDbSymbolTableRecord
100
AcDbViewportTableRecord
  2
*ACTIVE
 70
     0
 10
0.0
 20
0.0
 11
1.0
 21
1.0
 12
50.2982416
 22
17.40412614
 13
0.0
 23
0.0
 14
7.0
 24
7.0
 15
7.0
 25
7.0
 16
0.0
 26
0.0
 36
1.0
 17
0.0
 27
0.0
 37
0.0
 40
139.45904504
 41
1.43184713
 42
50.0
 43
0.0
 44
0.0
 50
0.0
 51
0.0
 71
     0
 72
  2000
 73
     1
 74
     0
 75
     0
 76
     0
 77
     0
 78
     0
  0
ENDTAB
  0
TABLE
  2
LTYPE
  5
5
330
0
100
AcDbSymbolTable
 70
     3
  0
LTYPE
  5
14
330
5
100
AcDbSymbolTableRecord
100
AcDbLinetypeTableRecord
  2
BYBLOCK
 70
     0
  3

 72
    65
 73
     0
 40
0.0
  0
LTYPE
  5
15
330
5
100
AcDbSymbolTableRecord
100
AcDbLinetypeTableRecord
  2
BYLAYER
 70
     0
  3

 72
    65
 73
     0
 40
0.0
  0
LTYPE
  5
16
330
5
100
AcDbSymbolTableRecord
100
AcDbLinetypeTableRecord
  2
CONTINUOUS
 70
     0
  3
Solid line
 72
    65
 73
     0
 40
0.0
  0
LTYPE
  5
258
330
5
100
AcDbSymbolTableRecord
100
AcDbLinetypeTableRecord
  2
CENTER2
 70
     0
  3
___ _ ___ _ ___ _ ___ _ ___ _ ___ _ ___ _ ___ _
 72
    65
 73
     4
 40
1.125
 49
0.75
 74
     0
 49
-0.125
 74
     0
 49
0.125
 74
     0
 49
-0.125
 74
     0
  0
LTYPE
  5
25C
330
5
100
AcDbSymbolTableRecord
100
AcDbLinetypeTableRecord
  2
HIDDEN2
 70
     0
  3
_ _ _ _ _ _ _ _ _ _ _ _ _ _ _ _ _ _ _ _ _ _ _ _
 72
    65
 73
     2
 40
0.1875
 49
0.125
 74
     0
 49
-0.0625
 74
     0
  0
ENDTAB
  0
TABLE
  2
LAYER
  5
2
330
0
100
AcDbSymbolTable
 70
     8
  0
LAYER
  5
F
330
2
100
AcDbSymbolTableRecord
100
AcDbLayerTableRecord
  2
0
 70
     0
 62
     7
  6
CONTINUOUS
  0
LAYER
  5
1AA
330
2
100
AcDbSymbolTableRecord
100
AcDbLayerTableRecord
  2
240
 70
     0
 62
     4
  6
CONTINUOUS
  0
LAYER
  5
1AB
330
2
100
AcDbSymbolTableRecord
100
AcDbLayerTableRecord
  2
241
 70
     0
 62
   211
  6
CONTINUOUS
  0
LAYER
  5
1AF
330
2
100
AcDbSymbolTableRecord
100
AcDbLayerTableRecord
  2
245
 70
     0
 62
     2
  6
CENTER2
  0
LAYER
  5
21E
330
2
100
AcDbSymbolTableRecord
100
AcDbLayerTableRecord
  2
250
 70
     0
 62
     3
  6
CONTINUOUS
  0
LAYER
  5
21F
330
2
100
AcDbSymbolTableRecord
100
AcDbLayerTableRecord
  2
251
 70
     0
 62
    40
  6
CONTINUOUS
  0
LAYER
  5
5C4
330
2
100
AcDbSymbolTableRecord
100
AcDbLayerTableRecord
  2
DEFPOINTS
 70
     0
 62
     7
  6
CONTINUOUS
  0
ENDTAB
  0
TABLE
  2
STYLE
  5
3
330
0
100
AcDbSymbolTable
 70
     2
  0
STYLE
  5
10
330
3
100
AcDbSymbolTableRecord
100
AcDbTextStyleTableRecord
  2
STANDARD
 70
     0
 40
0.0
 41
1.0
 50
0.0
 71
     0
 42
3.0
  3
romans.shx
  4
BIGFONT.SHX
  0
STYLE
  5
339
330
3
100
AcDbSymbolTableRecord
100
AcDbTextStyleTableRecord
  2
YOKO
 70
     0
 40
0.0
 41
1.0
 50
0.0
 71
     0
 42
3.0
  3
romans.shx
  4
extfont.shx
  0
ENDTAB
  0
TABLE
  2
VIEW
  5
6
330
0
100
AcDbSymbolTable
 70
     0
  0
ENDTAB
  0
TABLE
  2
UCS
  5
7
330
0
100
AcDbSymbolTable
 70
     0
  0
ENDTAB
  0
TABLE
  2
APPID
  5
9
330
0
100
AcDbSymbolTable
 70
     9
  0
APPID
  5
11
330
9
100
AcDbSymbolTableRecord
100
AcDbRegAppTableRecord
  2
ACAD
 70
     0
  0
APPID
  5
1B1
330
9
100
AcDbSymbolTableRecord
100
AcDbRegAppTableRecord
  2
GLOBAL
 70
     0
  0
APPID
  5
2A4
330
9
100
AcDbSymbolTableRecord
100
AcDbRegAppTableRecord
  2
DETAIL
 70
     0
  0
APPID
  5
5FD
330
9
100
AcDbSymbolTableRecord
100
AcDbRegAppTableRecord
  2
GRPNAME
 70
     0
  0
APPID
  5
5FE
330
9
100
AcDbSymbolTableRecord
100
AcDbRegAppTableRecord
  2
GPARA
 70
     0
  0
APPID
  5
6C4
330
9
100
AcDbSymbolTableRecord
100
AcDbRegAppTableRecord
  2
DCO15
 70
     0
  0
APPID
  5
6C5
330
9
100
AcDbSymbolTableRecord
100
AcDbRegAppTableRecord
  2
ITEMNAME
 70
     0
  0
APPID
  5
6C6
330
9
100
AcDbSymbolTableRecord
100
AcDbRegAppTableRecord
  2
GRADE_0
 70
     0
  0
APPID
  5
9F4
330
9
100
AcDbSymbolTableRecord
100
AcDbRegAppTableRecord
  2
CONTENTBLOCKICON
 70
     0
  0
ENDTAB
  0
TABLE
  2
DIMSTYLE
  5
A
330
0
100
AcDbSymbolTable
 70
     3
  0
DIMSTYLE
105
725
330
A
100
AcDbSymbolTableRecord
100
AcDbDimStyleTableRecord
  2
BIGT
 70
     0
  3

  4

  5

  6
OPEN
  7
OPEN
 40
1.0
 41
2.23
 42
0.5
 43
2.5
 44
1.0
 45
0.0
 46
0.0
 47
0.0
 48
0.0
140
2.8
141
0.0
142
0.0
143
25.4
144
1.0
145
0.0
146
1.0
147
1.0
 71
     0
 72
     0
 73
     0
 74
     0
 75
     0
 76
     0
 77
     3
 78
     8
170
     0
171
     2
172
     1
173
     1
174
     1
175
     0
176
   256
177
   256
178
    40
270
     2
271
     3
272
     3
273
     2
274
     2
340
10
275
     0
280
     0
281
     0
282
     0
283
     1
284
     8
285
     0
286
     0
287
     3
288
     0
  0
DIMSTYLE
105
7ED
102
{ACAD_REACTORS
330
803
330
806
102
}
330
A
100
AcDbSymbolTableRecord
100
AcDbDimStyleTableRecord
  2
BIGT$0
 70
     0
  3

  4
"
  5
OPEN
  6

  7

 40
1.0
 41
2.23
 42
0.5
 43
7.0
 44
1.0
 45
0.0
 46
0.0
 47
0.1
 48
0.1
140
3.0
141
0.0
142
0.0
143
0.0393701
144
1.0
145
0.0
146
0.71
147
1.0
 71
     0
 72
     0
 73
     0
 74
     0
 75
     0
 76
     0
 77
     3
 78
     8
170
     0
171
     2
172
     1
173
     0
174
     0
175
     0
176
     3
177
     3
178
    40
270
     2
271
     3
272
     3
273
     2
274
     2
340
10
275
     0
280
     0
281
     0
282
     0
283
     1
284
     8
285
     0
286
     0
287
     3
288
     0
  0
DIMSTYLE
105
D91
330
A
100
AcDbSymbolTableRecord
100
AcDbDimStyleTableRecord
  2
BIGT$7
 70
     0
  3

  4
"
  5
OPEN
  6

  7

 40
1.0
 41
2.5
 42
0.5
 43
7.0
 44
1.0
 45
0.0
 46
0.0
 47
0.1
 48
0.1
140
5.0
141
0.0
142
0.0
143
0.0393701
144
1.0
145
0.0
146
0.71
147
1.5
 71
     0
 72
     0
 73
     0
 74
     0
 75
     0
 76
     0
 77
     3
 78
     8
170
     0
171
     2
172
     1
173
     0
174
     0
175
     0
176
     3
177
     3
178
    40
270
     2
271
     3
272
     3
273
     2
274
     2
340
10
275
     0
280
     0
281
     0
282
     0
283
     1
284
     8
285
     0
286
     0
287
     3
288
     0
  0
ENDTAB
  0
TABLE
  2
BLOCK_RECORD
  5
1
330
0
100
AcDbSymbolTable
 70
     6
  0
BLOCK_RECORD
  5
1A
102
{ACAD_XDICTIONARY
360
9F2
102
}
330
1
100
AcDbSymbolTableRecord
100
AcDbBlockTableRecord
  2
*MODEL_SPACE
  0
BLOCK_RECORD
  5
17
102
{ACAD_XDICTIONARY
360
9F0
102
}
330
1
100
AcDbSymbolTableRecord
100
AcDbBlockTableRecord
  2
*PAPER_SPACE
  0
BLOCK_RECORD
  5
594
330
1
100
AcDbSymbolTableRecord
100
AcDbBlockTableRecord
  2
_OPEN
  0
BLOCK_RECORD
  5
6E3
330
1
100
AcDbSymbolTableRecord
100
AcDbBlockTableRecord
  2
矢印なし
  0
BLOCK_RECORD
  5
790
330
1
100
AcDbSymbolTableRecord
100
AcDbBlockTableRecord
  2
1
1001
CONTENTBLOCKICON
1071
        0
1004
2800000020000000200000000100080000000000000400000000000000000000000000000000000000000000000080000080000000808000800000008000800080800000C0C0C000C0DCC000F0CAA6000020400000206000002080000020A0000020C0000020E00000400000004020000040400000406000004080000040A0
1004
000040C0000040E00000600000006020000060400000606000006080000060A0000060C0000060E00000800000008020000080400000806000008080000080A0000080C0000080E00000A0000000A0200000A0400000A0600000A0800000A0A00000A0C00000A0E00000C0000000C0200000C0400000C0600000C0800000C0
1004
A00000C0C00000C0E00000E0000000E0200000E0400000E0600000E0800000E0A00000E0C00000E0E00040000000400020004000400040006000400080004000A0004000C0004000E00040200000402020004020400040206000402080004020A0004020C0004020E000404000004040200040404000404060004040800040
1004
40A0004040C0004040E00040600000406020004060400040606000406080004060A0004060C0004060E00040800000408020004080400040806000408080004080A0004080C0004080E00040A0000040A0200040A0400040A0600040A0800040A0A00040A0C00040A0E00040C0000040C0200040C0400040C0600040C08000
1004
40C0A00040C0C00040C0E00040E0000040E0200040E0400040E0600040E0800040E0A00040E0C00040E0E00080000000800020008000400080006000800080008000A0008000C0008000E00080200000802020008020400080206000802080008020A0008020C0008020E00080400000804020008040400080406000804080
1004
008040A0008040C0008040E00080600000806020008060400080606000806080008060A0008060C0008060E00080800000808020008080400080806000808080008080A0008080C0008080E00080A0000080A0200080A0400080A0600080A0800080A0A00080A0C00080A0E00080C0000080C0200080C0400080C0600080C0
1004
800080C0A00080C0C00080C0E00080E0000080E0200080E0400080E0600080E0800080E0A00080E0C00080E0E000C0000000C0002000C0004000C0006000C0008000C000A000C000C000C000E000C0200000C0202000C0204000C0206000C0208000C020A000C020C000C020E000C0400000C0402000C0404000C0406000C0
1004
408000C040A000C040C000C040E000C0600000C0602000C0604000C0606000C0608000C060A000C060C000C060E000C0800000C0802000C0804000C0806000C0808000C080A000C080C000C080E000C0A00000C0A02000C0A04000C0A06000C0A08000C0A0A000C0A0C000C0A0E000C0C00000C0C02000C0C04000C0C06000
1004
C0C08000C0C0A000F0FBFF00A4A0A000808080000000FF0000FF000000FFFF00FF000000FF00FF00FFFF0000FFFFFF0000000000000000000000000000000000000000000000000000000000000000000000000000000000000000000000000000000000000000000000000000000000000000000000000000000000000000
1004
00000000000000000000000000000000000000000000000000000000000000000000000000000000000000000000000000000000000000000000000000000000000000000000000000000000000000000000000000000000000000000000000000000000000000000000000000000000000000000000000000000000000000
1004
00000000000000000000000000000000000000000000000000000000000000000000000000000000000000000000000000000000000000000000000000000000000000000000000000000000000000000000000000000000000000FEFEFEFEFE000000000000000000000000000000000000000000000000000000FEE7E700
1004
00FEFEFEFEFEFEFEFE000000000000000000000000FEFEFEFEFEFEFEFEE7E70000E700000000000000FEFEFEFEFEFEE7E700000000FE000000000000E7E7E70000E700000000000000000000000000E7E700000000FE000000000000E7E7E70000E700000000000000000000000000E7E700000000FE000000000000E7E7E7
1004
0000E700000000000000000000000000E7E700000000E7E70000000000E7E7E7E700E700000000000000000000000000E7E7000000FBE7E7FBFBFBFBFBE7E7E7E7FBE7FBFBFBFBFBFBFBFBFBFBFBFBFBE7E7FB000000E7000000000000E7E7E70000E700000000000000000000000000E7E700000000E7000000000000E7E7
1004
E70000E700000000000000000000000000E7E700000000FE000000000000E7E7E70000E700000000000000000000000000E7E700000000FEFEFEFEFEFEFEFEE7E70000E700000000000000FEFEFEFEFEFEE7E70000000000000000000000FEE7E70000FEFEFEFEFEFEFEFE00000000000000000000000000000000000000FE
1004
FEFEFEFE000000000000000000000000000000000000000000000000000000000000000000000000000000000000000000000000000000000000000000000000000000000000000000000000000000000000000000000000000000000000000000000000000000000000000000000000000000000000000000000000000000
1004
00000000000000000000000000000000000000000000000000000000000000000000000000000000000000000000000000000000000000000000000000000000000000000000000000000000000000000000000000000000000000000000000000000000000000000000000000000000000000000000000000000000000000
1004
0000000000000000000000000000000000000000000000000000000000000000000000000000000000000000000000000000000000000000
  0
BLOCK_RECORD
  5
814
330
1
100
AcDbSymbolTableRecord
100
AcDbBlockTableRecord
  2
*D4
  0
BLOCK_RECORD
  5
820
330
1
100
AcDbSymbolTableRecord
100
AcDbBlockTableRecord
  2
*D5
  0
ENDTAB
  0
ENDSEC
  0
SECTION
  2
BLOCKS
  0
BLOCK
  5
1B
330
1A
100
AcDbEntity
  8
0
100
AcDbBlockBegin
  2
*MODEL_SPACE
 70
     0
 10
0.0
 20
0.0
 30
0.0
  3
*MODEL_SPACE
  1

  0
ENDBLK
  5
1C
330
1A
100
AcDbEntity
  8
0
100
AcDbBlockEnd
  0
BLOCK
  5
18
330
17
100
AcDbEntity
 67
     1
  8
0
100
AcDbBlockBegin
  2
*PAPER_SPACE
 70
     0
 10
0.0
 20
0.0
 30
0.0
  3
*PAPER_SPACE
  1

  0
ENDBLK
  5
19
330
17
100
AcDbEntity
 67
     1
  8
0
100
AcDbBlockEnd
  0
BLOCK
  5
598
330
594
100
AcDbEntity
  8
0
100
AcDbBlockBegin
  2
_OPEN
 70
     0
 10
0.0
 20
0.0
 30
0.0
  3
_OPEN
  1

  0
LINE
  5
595
330
594
100
AcDbEntity
  8
0
  6
BYBLOCK
 62
     0
100
AcDbLine
 10
-1.0
 20
0.16666667
 30
0.0
 11
0.0
 21
0.0
 31
0.0
  0
LINE
  5
596
330
594
100
AcDbEntity
  8
0
  6
BYBLOCK
 62
     0
100
AcDbLine
 10
-1.0
 20
-0.16666667
 30
0.0
 11
0.0
 21
0.0
 31
0.0
  0
LINE
  5
597
330
594
100
AcDbEntity
  8
0
  6
BYBLOCK
 62
     0
100
AcDbLine
 10
0.0
 20
0.0
 30
0.0
 11
-1.0
 21
0.0
 31
0.0
  0
ENDBLK
  5
599
330
594
100
AcDbEntity
  8
0
100
AcDbBlockEnd
  0
BLOCK
  5
6E4
330
6E3
100
AcDbEntity
  8
0
100
AcDbBlockBegin
  2
矢印なし
 70
     0
 10
0.0
 20
0.0
 30
0.0
  3
矢印なし
  1

  0
ENDBLK
  5
6E5
330
6E3
100
AcDbEntity
  8
0
100
AcDbBlockEnd
  0
BLOCK
  5
7EB
330
790
100
AcDbEntity
  8
0
100
AcDbBlockBegin
  2
1
 70
     0
 10
0.0
 20
0.0
 30
0.0
  3
1
  1

  0
LINE
  5
F29
330
790
100
AcDbEntity
  8
240
100
AcDbLine
 10
129.81762558
 20
-31.5
 30
0.0
 11
31.88996593
 21
-36.89586195
 31
0.0
  0
LINE
  5
F2A
330
790
100
AcDbEntity
  8
240
100
AcDbLine
 10
129.81762565
 20
31.5
 30
0.0
 11
31.88996593
 21
36.89586195
 31
0.0
  0
LINE
  5
F2B
330
790
100
AcDbEntity
  8
245
  6
CENTER2
100
AcDbLine
 10
-49.0
 20
0.0
 30
0.0
 11
134.49999911
 21
0.0
 31
0.0
  0
LINE
  5
F2C
330
790
100
AcDbEntity
  8
241
  6
CONTINUOUS
100
AcDbLine
 10
30.0
 20
38.89283278
 30
0.0
 11
30.0
 21
0.0
 31
0.0
  0
SPLINE
  5
F2D
330
790
100
AcDbEntity
  8
241
  6
CONTINUOUS
100
AcDbSpline
210
0.0
220
0.0
230
1.0
 70
     8
 71
     3
 72
     9
 73
     5
 74
     3
 42
0.0000000001
 43
0.0000000001
 44
0.0000000001
 40
0.0
 40
0.0
 40
0.0
 40
0.0
 40
13.46435379310565
 40
26.92870758621126
 40
26.92870758621126
 40
26.92870758621126
 40
26.92870758621126
 10
9.950000889999991
 20
38.22077680999999
 30
0.0
 10
8.685085384826555
 20
33.81259277818666
 30
0.0
 10
6.155254374479687
 20
24.99622471456002
 30
0.0
 10
8.685085384826557
 20
16.17985665093338
 30
0.0
 10
9.950000889999991
 20
11.77167261912007
 30
0.0
 11
9.950000889999991
 21
38.22077680999999
 31
0.0
 11
7.420169879653122
 21
24.99622471456001
 31
0.0
 11
9.950000889999991
 21
11.77167261912007
 31
0.0
  0
SPLINE
  5
F2E
330
790
100
AcDbEntity
  8
241
  6
CONTINUOUS
100
AcDbSpline
210
0.0
220
0.0
230
1.0
 70
     8
 71
     3
 72
     9
 73
     5
 74
     3
 42
0.0000000001
 43
0.0000000001
 44
0.0000000001
 40
0.0
 40
0.0
 40
0.0
 40
0.0
 40
13.46435379310557
 40
26.92870758621118
 40
26.92870758621118
 40
26.92870758621118
 40
26.92870758621118
 10
14.05000088999995
 20
11.77167261912009
 30
0.0
 10
15.31491639517337
 20
16.17985665093338
 30
0.0
 10
17.84474740552022
 20
24.99622471455998
 30
0.0
 10
15.31491639517345
 20
33.81259277818662
 30
0.0
 10
14.05000089000006
 20
38.22077680999994
 30
0.0
 11
14.05000088999995
 21
11.77167261912009
 31
0.0
 11
16.57983190034682
 21
24.99622471455999
 31
0.0
 11
14.05000089000006
 21
38.22077680999994
 31
0.0
  0
LINE
  5
F2F
330
790
100
AcDbEntity
  8
241
  6
CONTINUOUS
100
AcDbLine
 10
14.05000089
 20
38.22077681
 30
0.0
 11
14.05000089
 21
11.77167262
 31
0.0
  0
LINE
  5
F30
330
790
100
AcDbEntity
  8
241
  6
CONTINUOUS
100
AcDbLine
 10
9.95000089
 20
38.22077681
 30
0.0
 11
9.95000089
 21
11.77167262
 31
0.0
  0
LINE
  5
F31
330
790
100
AcDbEntity
  8
240
  6
CONTINUOUS
100
AcDbLine
 10
-48.0
 20
25.54657489
 30
0.0
 11
-48.0
 21
0.0
 31
0.0
  0
LINE
  5
F32
330
790
100
AcDbEntity
  8
241
100
AcDbLine
 10
-46.5
 20
26.4126003
 30
0.0
 11
-46.5
 21
0.0
 31
0.0
  0
LINE
  5
F33
330
790
100
AcDbEntity
  8
241
100
AcDbLine
 10
-1.94069442
 20
27.52650809
 30
0.0
 11
-1.94069442
 21
0.0
 31
0.0
  0
LINE
  5
F34
330
790
100
AcDbEntity
  8
241
100
AcDbLine
 10
0.0
 20
27.52650809
 30
0.0
 11
0.0
 21
0.0
 31
0.0
  0
LINE
  5
F35
330
790
100
AcDbEntity
  8
240
  6
CONTINUOUS
100
AcDbLine
 10
-1.94069442
 20
-27.52650809
 30
0.0
 11
-46.5
 21
-26.4126003
 31
0.0
  0
SPLINE
  5
F36
330
790
100
AcDbEntity
  8
241
  6
HIDDEN2
100
AcDbSpline
210
0.0
220
0.0
230
1.0
 70
     8
 71
     3
 72
     9
 73
     5
 74
     3
 42
0.0000000001
 43
0.0000000001
 44
0.0000000001
 40
0.0
 40
0.0
 40
0.0
 40
0.0
 40
5.045058020553436
 40
10.0901160411069
 40
10.0901160411069
 40
10.0901160411069
 40
10.0901160411069
 10
-40.00000000000132
 20
4.418000000000056
 30
0.0
 10
-38.78202150770859
 20
2.945333333333395
 30
0.0
 10
-36.34606452312313
 20
0.0000000000000642
 30
0.0
 10
-38.7820215077086
 20
-2.945333333333275
 30
0.0
 10
-40.00000000000132
 20
-4.417999999999949
 30
0.0
 11
-40.00000000000132
 21
4.418000000000056
 31
0.0
 11
-37.56404301541586
 21
0.0000000000000711
 31
0.0
 11
-40.00000000000132
 21
-4.417999999999949
 31
0.0
  0
LINE
  5
F37
330
790
100
AcDbEntity
  8
241
  6
HIDDEN2
100
AcDbLine
 10
-40.0
 20
-4.418
 30
0.0
 11
-40.0
 21
4.418
 31
0.0
  0
LINE
  5
F38
330
790
100
AcDbEntity
  8
241
100
AcDbLine
 10
-46.5
 20
-26.4126003
 30
0.0
 11
-46.5
 21
0.0
 31
0.0
  0
LINE
  5
F39
330
790
100
AcDbEntity
  8
240
  6
CONTINUOUS
100
AcDbLine
 10
-48.0
 20
-25.54657489
 30
0.0
 11
-48.0
 21
0.0
 31
0.0
  0
LINE
  5
F3A
330
790
100
AcDbEntity
  8
240
  6
CONTINUOUS
100
AcDbLine
 10
-46.5
 20
-26.4126003
 30
0.0
 11
-48.0
 21
-25.54657489
 31
0.0
  0
LINE
  5
F3B
330
790
100
AcDbEntity
  8
241
  6
HIDDEN2
100
AcDbLine
 10
-46.5
 20
-4.418
 30
0.0
 11
-40.0
 21
-4.418
 31
0.0
  0
LINE
  5
F3C
330
790
100
AcDbEntity
  8
241
  6
HIDDEN2
100
AcDbLine
 10
-46.5
 20
-4.418
 30
0.0
 11
-48.0
 21
-3.5519746
 31
0.0
  0
LINE
  5
F3D
330
790
100
AcDbEntity
  8
241
  6
HIDDEN2
100
AcDbLine
 10
-46.5
 20
4.418
 30
0.0
 11
-40.0
 21
4.418
 31
0.0
  0
LINE
  5
F3E
330
790
100
AcDbEntity
  8
241
  6
HIDDEN2
100
AcDbLine
 10
-48.0
 20
3.5519746
 30
0.0
 11
-46.5
 21
4.418
 31
0.0
  0
LINE
  5
F3F
330
790
100
AcDbEntity
  8
241
  6
CONTINUOUS
100
AcDbLine
 10
30.0
 20
-38.89283278
 30
0.0
 11
30.0
 21
0.0
 31
0.0
  0
LINE
  5
F40
330
790
100
AcDbEntity
  8
240
100
AcDbLine
 10
0.0
 20
-39.9925
 30
0.0
 11
0.0
 21
-27.52650809
 31
0.0
  0
LINE
  5
F41
330
790
100
AcDbEntity
  8
241
  6
CONTINUOUS
100
AcDbLine
 10
9.95000089
 20
-38.22077681
 30
0.0
 11
9.95000089
 21
-11.77167262
 31
0.0
  0
LINE
  5
F42
330
790
100
AcDbEntity
  8
241
  6
CONTINUOUS
100
AcDbLine
 10
14.05000089
 20
-38.22077681
 30
0.0
 11
14.05000089
 21
-11.77167262
 31
0.0
  0
SPLINE
  5
F43
330
790
100
AcDbEntity
  8
241
  6
CONTINUOUS
100
AcDbSpline
210
0.0
220
0.0
230
1.0
 70
     8
 71
     3
 72
     9
 73
     5
 74
     3
 42
0.0000000001
 43
0.0000000001
 44
0.0000000001
 40
0.0
 40
0.0
 40
0.0
 40
0.0
 40
13.46435379310557
 40
26.92870758621118
 40
26.92870758621118
 40
26.92870758621118
 40
26.92870758621118
 10
14.05000088999995
 20
-11.77167261912009
 30
0.0
 10
15.31491639517337
 20
-16.17985665093338
 30
0.0
 10
17.84474740552022
 20
-24.99622471455998
 30
0.0
 10
15.31491639517345
 20
-33.81259277818662
 30
0.0
 10
14.05000089000006
 20
-38.22077680999994
 30
0.0
 11
14.05000088999995
 21
-11.77167261912009
 31
0.0
 11
16.57983190034682
 21
-24.99622471455999
 31
0.0
 11
14.05000089000006
 21
-38.22077680999994
 31
0.0
  0
SPLINE
  5
F44
330
790
100
AcDbEntity
  8
241
  6
CONTINUOUS
100
AcDbSpline
210
0.0
220
0.0
230
1.0
 70
     8
 71
     3
 72
     9
 73
     5
 74
     3
 42
0.0000000001
 43
0.0000000001
 44
0.0000000001
 40
0.0
 40
0.0
 40
0.0
 40
0.0
 40
13.46435379310565
 40
26.92870758621126
 40
26.92870758621126
 40
26.92870758621126
 40
26.92870758621126
 10
9.950000889999991
 20
-38.22077680999999
 30
0.0
 10
8.685085384826555
 20
-33.81259277818666
 30
0.0
 10
6.155254374479687
 20
-24.99622471456002
 30
0.0
 10
8.685085384826557
 20
-16.17985665093338
 30
0.0
 10
9.950000889999991
 20
-11.77167261912007
 30
0.0
 11
9.950000889999991
 21
-38.22077680999999
 31
0.0
 11
7.420169879653122
 21
-24.99622471456001
 31
0.0
 11
9.950000889999991
 21
-11.77167261912007
 31
0.0
  0
LINE
  5
F45
330
790
100
AcDbEntity
  8
240
  6
CONTINUOUS
100
AcDbLine
 10
0.0
 20
-39.9925
 30
0.0
 11
29.0
 21
-39.9925
 31
0.0
  0
LINE
  5
F46
330
790
100
AcDbEntity
  8
241
  6
CONTINUOUS
100
AcDbLine
 10
9.95000089
 20
-38.22077681
 30
0.0
 11
14.05000089
 21
-38.22077681
 31
0.0
  0
ARC
  5
F47
330
790
100
AcDbEntity
  8
240
  6
CONTINUOUS
100
AcDbCircle
 10
29.0
 20
-38.9925
 30
0.0
 40
1.0
100
AcDbArc
 50
270.0
 51
0.0
  0
ARC
  5
F48
330
790
100
AcDbEntity
  8
240
100
AcDbCircle
 10
32.0
 20
-38.89283278
 30
0.0
 40
2.0
100
AcDbArc
 50
93.15383631
 51
180.0
  0
LINE
  5
F49
330
790
100
AcDbEntity
  8
240
  6
CONTINUOUS
100
AcDbLine
 10
30.0
 20
-38.9925
 30
0.0
 11
30.0
 21
-38.89283278
 31
0.0
  0
LINE
  5
F4A
330
790
100
AcDbEntity
  8
241
100
AcDbLine
 10
0.0
 20
-27.52650809
 30
0.0
 11
0.0
 21
0.0
 31
0.0
  0
LINE
  5
F4B
330
790
100
AcDbEntity
  8
241
100
AcDbLine
 10
-1.94069442
 20
-27.52650809
 30
0.0
 11
-1.94069442
 21
0.0
 31
0.0
  0
LINE
  5
F4C
330
790
100
AcDbEntity
  8
240
100
AcDbLine
 10
-1.94069442
 20
-27.52650809
 30
0.0
 11
0.0
 21
-27.52650809
 31
0.0
  0
CIRCLE
  5
F4D
330
790
100
AcDbEntity
  8
241
100
AcDbCircle
 10
12.00000089
 20
0.0
 30
0.0
 40
6.0
  0
LINE
  5
F4E
330
790
100
AcDbEntity
  8
241
  6
CONTINUOUS
100
AcDbLine
 10
9.95000089
 20
-11.77167262
 30
0.0
 11
14.05000089
 21
-11.77167262
 31
0.0
  0
LINE
  5
F4F
330
790
100
AcDbEntity
  8
241
  6
CONTINUOUS
100
AcDbLine
 10
9.95000089
 20
11.77167262
 30
0.0
 11
14.05000089
 21
11.77167262
 31
0.0
  0
LINE
  5
F50
330
790
100
AcDbEntity
  8
240
  6
CONTINUOUS
100
AcDbLine
 10
-1.94069442
 20
27.52650809
 30
0.0
 11
-46.5
 21
26.4126003
 31
0.0
  0
LINE
  5
F51
330
790
100
AcDbEntity
  8
240
  6
CONTINUOUS
100
AcDbLine
 10
-46.5
 20
26.4126003
 30
0.0
 11
-48.0
 21
25.54657489
 31
0.0
  0
LINE
  5
F52
330
790
100
AcDbEntity
  8
240
  6
CONTINUOUS
100
AcDbLine
 10
0.0
 20
39.9925
 30
0.0
 11
29.0
 21
39.9925
 31
0.0
  0
LINE
  5
F53
330
790
100
AcDbEntity
  8
240
100
AcDbLine
 10
0.0
 20
39.9925
 30
0.0
 11
0.0
 21
27.52650809
 31
0.0
  0
LINE
  5
F54
330
790
100
AcDbEntity
  8
240
100
AcDbLine
 10
-1.94069442
 20
27.52650809
 30
0.0
 11
0.0
 21
27.52650809
 31
0.0
  0
LINE
  5
F55
330
790
100
AcDbEntity
  8
241
  6
CONTINUOUS
100
AcDbLine
 10
9.95000089
 20
38.22077681
 30
0.0
 11
14.05000089
 21
38.22077681
 31
0.0
  0
ARC
  5
F56
330
790
100
AcDbEntity
  8
240
100
AcDbCircle
 10
32.0
 20
38.89283278
 30
0.0
 40
2.0
100
AcDbArc
 50
180.0
 51
266.84616369
  0
ARC
  5
F57
330
790
100
AcDbEntity
  8
240
  6
CONTINUOUS
100
AcDbCircle
 10
29.0
 20
38.9925
 30
0.0
 40
1.0
100
AcDbArc
 50
0.0
 51
90.0
  0
LINE
  5
F58
330
790
100
AcDbEntity
  8
240
  6
CONTINUOUS
100
AcDbLine
 10
30.0
 20
38.89283278
 30
0.0
 11
30.0
 21
38.9925
 31
0.0
  0
LINE
  5
F59
330
790
100
AcDbEntity
  8
241
100
AcDbLine
 10
129.99999911
 20
31.01196223
 30
0.0
 11
129.99999911
 21
-31.5
 31
0.0
  0
LINE
  5
F5A
330
790
100
AcDbEntity
  8
240
100
AcDbLine
 10
133.49999911
 20
31.5
 30
0.0
 11
133.49999911
 21
-31.5
 31
0.0
  0
LINE
  5
F5B
330
790
100
AcDbEntity
  8
241
100
AcDbLine
 10
129.49999911
 20
22.32716547
 30
0.0
 11
129.49999911
 21
26.01344632
 31
0.0
  0
LINE
  5
F5C
330
790
100
AcDbEntity
  8
241
100
AcDbLine
 10
129.49999911
 20
22.32716547
 30
0.0
 11
129.49999911
 21
26.01344632
 31
0.0
  0
SPLINE
  5
F5D
330
790
100
AcDbEntity
  8
241
100
AcDbSpline
210
0.0
220
0.0
230
1.0
 70
     8
 71
     3
 72
    30
 73
    26
 74
     0
 42
0.0000000001
 43
0.0000000001
 40
11.86811076986652
 40
11.86811076986652
 40
11.86811076986652
 40
11.86811076986652
 40
12.5452532593312
 40
12.5452532593312
 40
13.35610579916681
 40
13.35610579916681
 40
14.30717824892107
 40
14.30717824892107
 40
15.25825069867541
 40
15.25825069867541
 40
16.2093231484297
 40
16.2093231484297
 40
17.16039559818399
 40
17.16039559818399
 40
18.00117920379328
 40
18.00117920379328
 40
18.84196280940257
 40
18.84196280940257
 40
19.68274641501185
 40
19.68274641501185
 40
20.52353002062115
 40
20.52353002062115
 40
20.97137292334612
 40
20.97137292334612
 40
21.20207642009492
 40
21.20207642009492
 40
21.20207642009492
 40
21.20207642009492
 10
123.5550409128745
 20
26.66763740629777
 30
0.0
 10
123.5811771436001
 20
26.61634216530103
 30
0.0
 10
123.6277204679508
 20
26.56111955896619
 30
0.0
 10
123.7679653694607
 20
26.43323180381787
 30
0.0
 10
123.8692435957909
 20
26.35922166216857
 30
0.0
 10
124.121736733659
 20
26.19567196146032
 30
0.0
 10
124.2890651948908
 20
26.098876340846
 30
0.0
 10
124.6751065576667
 20
25.8910305364319
 30
0.0
 10
124.89376217882
 20
25.77997925930128
 30
0.0
 10
125.3649030938772
 20
25.54764800398732
 30
0.0
 10
125.6175523044771
 20
25.4262727709298
 30
0.0
 10
126.1353142083122
 20
25.17780442951709
 30
0.0
 10
126.4004017590917
 20
25.05069807230688
 30
0.0
 10
126.8881574355531
 20
24.81082469060936
 30
0.0
 10
127.1311187432615
 20
24.68905464111026
 30
0.0
 10
127.6243288845495
 20
24.4269529369526
 30
0.0
 10
127.8746600942931
 20
24.28682016854827
 30
0.0
 10
128.3559412619625
 20
23.98106691886334
 30
0.0
 10
128.5868532069474
 20
23.81580991083717
 30
0.0
 10
128.9935745706858
 20
23.43870759694607
 30
0.0
 10
129.1682277586694
 20
23.22563674419336
 30
0.0
 10
129.3632358228352
 20
22.84291186880419
 30
0.0
 10
129.4130451244333
 20
22.7095832642168
 30
0.0
 10
129.4701844807399
 20
22.5074605090873
 30
0.0
 10
129.4863830907156
 20
22.43871869685051
 30
0.0
 10
129.499999106855
 20
22.36994568746046
 30
0.0
  0
SPLINE
  5
F5E
330
790
100
AcDbEntity
  8
241
100
AcDbSpline
210
0.0
220
0.0
230
1.0
 70
     8
 71
     3
 72
    30
 73
    26
 74
     0
 42
0.0000000001
 43
0.0000000001
 40
11.86811076986652
 40
11.86811076986652
 40
11.86811076986652
 40
11.86811076986652
 40
12.5452532593312
 40
12.5452532593312
 40
13.35610579916681
 40
13.35610579916681
 40
14.30717824892107
 40
14.30717824892107
 40
15.25825069867541
 40
15.25825069867541
 40
16.2093231484297
 40
16.2093231484297
 40
17.16039559818399
 40
17.16039559818399
 40
18.00117920379328
 40
18.00117920379328
 40
18.84196280940257
 40
18.84196280940257
 40
19.68274641501185
 40
19.68274641501185
 40
20.52353002062115
 40
20.52353002062115
 40
20.97137292334612
 40
20.97137292334612
 40
21.20207642009492
 40
21.20207642009492
 40
21.20207642009492
 40
21.20207642009492
 10
123.5550409128744
 20
26.66763740629777
 30
0.0
 10
123.5811771436001
 20
26.61634216530103
 30
0.0
 10
123.6277204679507
 20
26.56111955896619
 30
0.0
 10
123.7679653694605
 20
26.43323180381787
 30
0.0
 10
123.8692435957908
 20
26.35922166216857
 30
0.0
 10
124.121736733659
 20
26.19567196146032
 30
0.0
 10
124.2890651948908
 20
26.098876340846
 30
0.0
 10
124.6751065576664
 20
25.8910305364319
 30
0.0
 10
124.89376217882
 20
25.77997925930128
 30
0.0
 10
125.364903093877
 20
25.54764800398732
 30
0.0
 10
125.6175523044771
 20
25.4262727709298
 30
0.0
 10
126.1353142083122
 20
25.17780442951709
 30
0.0
 10
126.4004017590917
 20
25.05069807230688
 30
0.0
 10
126.8881574355529
 20
24.81082469060936
 30
0.0
 10
127.1311187432614
 20
24.68905464111026
 30
0.0
 10
127.6243288845494
 20
24.4269529369526
 30
0.0
 10
127.874660094293
 20
24.28682016854827
 30
0.0
 10
128.3559412619625
 20
23.98106691886334
 30
0.0
 10
128.5868532069474
 20
23.81580991083717
 30
0.0
 10
128.9935745706857
 20
23.43870759694607
 30
0.0
 10
129.1682277586694
 20
23.22563674419336
 30
0.0
 10
129.363235822835
 20
22.84291186880419
 30
0.0
 10
129.4130451244332
 20
22.7095832642168
 30
0.0
 10
129.4701844807398
 20
22.5074605090873
 30
0.0
 10
129.4863830907156
 20
22.43871869685051
 30
0.0
 10
129.4999991068548
 20
22.36994568746046
 30
0.0
  0
LINE
  5
F5F
330
790
100
AcDbEntity
  8
241
100
AcDbLine
 10
122.10324654
 20
29.51694429
 30
0.0
 11
125.88144554
 21
22.10181125
 31
0.0
  0
LINE
  5
F60
330
790
100
AcDbEntity
  8
241
100
AcDbLine
 10
129.49999911
 20
-26.01344632
 30
0.0
 11
126.99830768
 21
-30.92329219
 31
0.0
  0
LINE
  5
F61
330
790
100
AcDbEntity
  8
241
100
AcDbLine
 10
129.49999911
 20
-26.01344632
 30
0.0
 11
126.99830768
 21
-30.92329219
 31
0.0
  0
SPLINE
  5
F62
330
790
100
AcDbEntity
  8
241
100
AcDbSpline
210
0.0
220
0.0
230
1.0
 70
     8
 71
     3
 72
    22
 73
    18
 74
     0
 42
0.0000000001
 43
0.0000000001
 40
16.34108532374241
 40
16.34108532374241
 40
16.34108532374241
 40
16.34108532374241
 40
17.37555424898745
 40
17.37555424898745
 40
18.41002317423251
 40
18.41002317423251
 40
19.44449209947757
 40
19.44449209947757
 40
20.47896102472262
 40
20.47896102472262
 40
21.42460078239476
 40
21.42460078239476
 40
22.37024054006692
 40
22.37024054006692
 40
23.31588029773907
 40
23.31588029773907
 40
24.26152005541121
 40
24.26152005541121
 40
24.26152005541121
 40
24.26152005541121
 10
126.9983076834002
 20
-30.92329219213239
 30
0.0
 10
126.6534847083188
 20
-30.92329219213239
 30
0.0
 10
126.2955545300739
 20
-30.91776175163136
 30
0.0
 10
125.5828333663139
 20
-30.89306302903036
 30
0.0
 10
125.2280369846365
 20
-30.87390201920356
 30
0.0
 10
124.549134038176
 20
-30.81993754468077
 30
0.0
 10
124.2245338933539
 20
-30.78506802565198
 30
0.0
 10
123.629419721214
 20
-30.69814783993092
 30
0.0
 10
123.3589455585771
 20
-30.64603368947269
 30
0.0
 10
122.9105984718414
 20
-30.53016376118489
 30
0.0
 10
122.7164714718582
 20
-30.46504258159757
 30
0.0
 10
122.3949573070325
 20
-30.31535836301827
 30
0.0
 10
122.2675939027498
 20
-30.23073044109514
 30
0.0
 10
122.0918139077594
 20
-30.04570754130873
 30
0.0
 10
122.0431151411075
 20
-29.94500148289251
 30
0.0
 10
122.0212571841124
 20
-29.73480537693706
 30
0.0
 10
122.0480280685307
 20
-29.62531664653761
 30
0.0
 10
122.103246544098
 20
-29.51694428629105
 30
0.0
  0
SPLINE
  5
F63
330
790
100
AcDbEntity
  8
241
100
AcDbSpline
210
0.0
220
0.0
230
1.0
 70
     8
 71
     3
 72
    22
 73
    18
 74
     0
 42
0.0000000001
 43
0.0000000001
 40
16.34108532374241
 40
16.34108532374241
 40
16.34108532374241
 40
16.34108532374241
 40
17.37555424898745
 40
17.37555424898745
 40
18.41002317423251
 40
18.41002317423251
 40
19.44449209947757
 40
19.44449209947757
 40
20.47896102472262
 40
20.47896102472262
 40
21.42460078239476
 40
21.42460078239476
 40
22.37024054006692
 40
22.37024054006692
 40
23.31588029773907
 40
23.31588029773907
 40
24.26152005541121
 40
24.26152005541121
 40
24.26152005541121
 40
24.26152005541121
 10
126.9983076834001
 20
-30.92329219213239
 30
0.0
 10
126.6534847083184
 20
-30.92329219213239
 30
0.0
 10
126.2955545300735
 20
-30.91776175163136
 30
0.0
 10
125.5828333663137
 20
-30.89306302903036
 30
0.0
 10
125.2280369846362
 20
-30.87390201920356
 30
0.0
 10
124.5491340381756
 20
-30.81993754468077
 30
0.0
 10
124.2245338933535
 20
-30.78506802565198
 30
0.0
 10
123.6294197212137
 20
-30.69814783993092
 30
0.0
 10
123.3589455585768
 20
-30.64603368947269
 30
0.0
 10
122.910598471841
 20
-30.53016376118489
 30
0.0
 10
122.7164714718579
 20
-30.46504258159757
 30
0.0
 10
122.3949573070322
 20
-30.31535836301827
 30
0.0
 10
122.2675939027495
 20
-30.23073044109514
 30
0.0
 10
122.0918139077594
 20
-30.04570754130873
 30
0.0
 10
122.0431151411071
 20
-29.94500148289251
 30
0.0
 10
122.0212571841122
 20
-29.73480537693706
 30
0.0
 10
122.0480280685304
 20
-29.62531664653761
 30
0.0
 10
122.1032465440976
 20
-29.51694428629105
 30
0.0
  0
LINE
  5
F64
330
790
100
AcDbEntity
  8
240
100
AcDbLine
 10
129.81762558
 20
-31.5
 30
0.0
 11
133.49999911
 21
-31.5
 31
0.0
  0
LINE
  5
F65
330
790
100
AcDbEntity
  8
241
100
AcDbLine
 10
129.99999911
 20
-31.02028745
 30
0.0
 11
129.99999911
 21
-31.3
 31
0.0
  0
LINE
  5
F66
330
790
100
AcDbEntity
  8
241
100
AcDbLine
 10
129.99999911
 20
-31.02028745
 30
0.0
 11
129.99999911
 21
-31.30416261
 31
0.0
  0
LINE
  5
F67
330
790
100
AcDbEntity
  8
241
100
AcDbLine
 10
126.99830768
 20
-30.92329219
 30
0.0
 11
129.99999911
 21
-30.92329219
 31
0.0
  0
LINE
  5
F68
330
790
100
AcDbEntity
  8
241
100
AcDbLine
 10
126.99830768
 20
-30.92329219
 30
0.0
 11
129.99999911
 21
-30.92329219
 31
0.0
  0
LINE
  5
F69
330
790
100
AcDbEntity
  8
241
100
AcDbLine
 10
129.49999911
 20
14.98130525
 30
0.0
 11
129.49999911
 21
-14.98130525
 31
0.0
  0
SPLINE
  5
F6A
330
790
100
AcDbEntity
  8
241
100
AcDbSpline
210
0.0
220
0.0
230
1.0
 70
     8
 71
     3
 72
    38
 73
    34
 74
     0
 42
0.0000000001
 43
0.0000000001
 40
77.19047723535736
 40
77.19047723535736
 40
77.19047723535736
 40
77.19047723535736
 40
80.15188843106836
 40
80.15188843106836
 40
83.16003539336767
 40
83.16003539336767
 40
86.16818235566698
 40
86.16818235566698
 40
89.1763293179663
 40
89.1763293179663
 40
92.18447628026559
 40
92.18447628026559
 40
95.19262324256493
 40
95.19262324256493
 40
98.20077020486422
 40
98.20077020486422
 40
101.2089171671635
 40
101.2089171671635
 40
104.2170641294628
 40
104.2170641294628
 40
107.225211091762
 40
107.225211091762
 40
110.2333580540614
 40
110.2333580540614
 40
113.2415050163602
 40
113.2415050163602
 40
116.24965197866
 40
116.24965197866
 40
119.2577989409593
 40
119.2577989409593
 40
122.2659459032586
 40
122.2659459032586
 40
125.2273570989704
 40
125.2273570989704
 40
125.2273570989704
 40
125.2273570989704
 10
125.8764101378015
 20
-22.09299903104737
 30
0.0
 10
125.5042149307449
 20
-21.44108099127401
 30
0.0
 10
125.1757355646164
 20
-20.74155342620302
 30
0.0
 10
124.5950094855858
 20
-19.24266837957042
 30
0.0
 10
124.3439823670495
 20
-18.44190950936797
 30
0.0
 10
123.9139044120525
 20
-16.76133859668833
 30
0.0
 10
123.7347432694118
 20
-15.88139790349873
 30
0.0
 10
123.4346797910947
 20
-14.05736222486154
 30
0.0
 10
123.3137111175412
 20
-13.11327760234586
 30
0.0
 10
123.1161078657782
 20
-11.17875479268126
 30
0.0
 10
123.0393171321854
 20
-10.18727331629907
 30
0.0
 10
122.917594288958
 20
-8.174733191816471
 30
0.0
 10
122.8726268552742
 20
-7.153677107447947
 30
0.0
 10
122.8049539040773
 20
-5.102161338715744
 30
0.0
 10
122.7822319927829
 20
-4.071595025872511
 30
0.0
 10
122.7528547817047
 20
-2.0218725191371
 30
0.0
 10
122.7462115178808
 20
-1.00271565410071
 30
0.0
 10
122.7462115178808
 20
1.002715654098775
 30
0.0
 10
122.7528547817049
 20
2.021872519135058
 30
0.0
 10
122.7822319927833
 20
4.071595025870465
 30
0.0
 10
122.8049539040777
 20
5.102161338713813
 30
0.0
 10
122.8726268552749
 20
7.153677107445902
 30
0.0
 10
122.9175942889584
 20
8.174733191814425
 30
0.0
 10
123.0393171321862
 20
10.18727331629702
 30
0.0
 10
123.1161078657793
 20
11.17875479267922
 30
0.0
 10
123.3137111175425
 20
13.11327760234382
 30
0.0
 10
123.4346797910961
 20
14.05736222485939
 30
0.0
 10
123.7347432694134
 20
15.88139790349669
 30
0.0
 10
123.913904412054
 20
16.76133859668618
 30
0.0
 10
124.3439823670515
 20
18.4419095093658
 30
0.0
 10
124.5950094855879
 20
19.24266837956816
 30
0.0
 10
125.1757355646183
 20
20.74155342620098
 30
0.0
 10
125.5042149307469
 20
21.44108099127139
 30
0.0
 10
125.8764101378039
 20
22.09299903104488
 30
0.0
  0
LINE
  5
F6B
330
790
100
AcDbEntity
  8
241
100
AcDbLine
 10
125.88144554
 20
-22.10181125
 30
0.0
 11
129.49999911
 21
-15.0
 31
0.0
  0
SPLINE
  5
F6C
330
790
100
AcDbEntity
  8
241
100
AcDbSpline
210
0.0
220
0.0
230
1.0
 70
     8
 71
     3
 72
    18
 73
    14
 74
     0
 42
0.0000000001
 43
0.0000000001
 40
23.3342633953109
 40
23.3342633953109
 40
23.3342633953109
 40
23.3342633953109
 40
24.10627324242106
 40
24.10627324242106
 40
25.89764485332102
 40
25.89764485332102
 40
27.68901646422096
 40
27.68901646422096
 40
28.42477156036025
 40
28.42477156036025
 40
29.16052665649952
 40
29.16052665649952
 40
29.88168580166767
 40
29.88168580166767
 40
29.88168580166767
 40
29.88168580166767
 10
129.499999106855
 20
-20.44617305014776
 30
0.0
 10
129.475454702776
 20
-20.2126265152691
 30
0.0
 10
129.4466912845516
 20
-19.97927514795935
 30
0.0
 10
129.3450071175365
 20
-19.20856762304163
 30
0.0
 10
129.2651527317086
 20
-18.68206747509441
 30
0.0
 10
129.1262390195099
 20
-17.70647572192592
 30
0.0
 10
129.0663912209365
 20
-17.25709950307111
 30
0.0
 10
129.0180605525667
 20
-16.71762252897701
 30
0.0
 10
129.0078416378331
 20
-16.56587401176727
 30
0.0
 10
129.0003649945387
 20
-16.29229373010628
 30
0.0
 10
129.0031408348951
 20
-16.17051089847325
 30
0.0
 10
129.0251407726759
 20
-15.97223607886141
 30
0.0
 10
129.0440869294445
 20
-15.8947780289742
 30
0.0
 10
129.0716220523364
 20
-15.84073730751595
 30
0.0
  0
SPLINE
  5
F6D
330
790
100
AcDbEntity
  8
241
100
AcDbSpline
210
0.0
220
0.0
230
1.0
 70
     8
 71
     3
 72
    18
 73
    14
 74
     0
 42
0.0000000001
 43
0.0000000001
 40
23.3342633953109
 40
23.3342633953109
 40
23.3342633953109
 40
23.3342633953109
 40
24.10627324242106
 40
24.10627324242106
 40
25.89764485332102
 40
25.89764485332102
 40
27.68901646422096
 40
27.68901646422096
 40
28.42477156036025
 40
28.42477156036025
 40
29.16052665649952
 40
29.16052665649952
 40
29.88168580166767
 40
29.88168580166767
 40
29.88168580166767
 40
29.88168580166767
 10
129.4999991068546
 20
-20.44617305014776
 30
0.0
 10
129.4754547027758
 20
-20.2126265152691
 30
0.0
 10
129.4466912845514
 20
-19.97927514795935
 30
0.0
 10
129.3450071175362
 20
-19.20856762304163
 30
0.0
 10
129.2651527317082
 20
-18.68206747509441
 30
0.0
 10
129.1262390195095
 20
-17.70647572192592
 30
0.0
 10
129.0663912209357
 20
-17.25709950307111
 30
0.0
 10
129.0180605525663
 20
-16.71762252897701
 30
0.0
 10
129.0078416378331
 20
-16.56587401176727
 30
0.0
 10
129.0003649945384
 20
-16.29229373010628
 30
0.0
 10
129.0031408348947
 20
-16.17051089847325
 30
0.0
 10
129.0251407726753
 20
-15.97223607886141
 30
0.0
 10
129.044086929444
 20
-15.8947780289742
 30
0.0
 10
129.071622052336
 20
-15.84073730751595
 30
0.0
  0
LINE
  5
F6E
330
790
100
AcDbEntity
  8
241
100
AcDbLine
 10
129.49999911
 20
-20.51327228
 30
0.0
 11
129.49999911
 21
-14.98130525
 31
0.0
  0
LINE
  5
F6F
330
790
100
AcDbEntity
  8
241
100
AcDbLine
 10
129.49999911
 20
-20.51327228
 30
0.0
 11
129.49999911
 21
-14.98130525
 31
0.0
  0
LINE
  5
F70
330
790
100
AcDbEntity
  8
241
100
AcDbLine
 10
122.10324654
 20
-29.51694429
 30
0.0
 11
125.88144554
 21
-22.10181125
 31
0.0
  0
LINE
  5
F71
330
790
100
AcDbEntity
  8
241
100
AcDbLine
 10
129.49999911
 20
-25.99475158
 30
0.0
 11
129.49999911
 21
-22.32716547
 31
0.0
  0
LINE
  5
F72
330
790
100
AcDbEntity
  8
241
100
AcDbLine
 10
129.49999911
 20
-25.99475158
 30
0.0
 11
129.49999911
 21
-22.32716547
 31
0.0
  0
SPLINE
  5
F73
330
790
100
AcDbEntity
  8
241
100
AcDbSpline
210
0.0
220
0.0
230
1.0
 70
     8
 71
     3
 72
    30
 73
    26
 74
     0
 42
0.0000000001
 43
0.0000000001
 40
11.86811076986652
 40
11.86811076986652
 40
11.86811076986652
 40
11.86811076986652
 40
12.5452532593312
 40
12.5452532593312
 40
13.35610579916681
 40
13.35610579916681
 40
14.30717824892107
 40
14.30717824892107
 40
15.25825069867541
 40
15.25825069867541
 40
16.2093231484297
 40
16.2093231484297
 40
17.16039559818399
 40
17.16039559818399
 40
18.00117920379328
 40
18.00117920379328
 40
18.84196280940257
 40
18.84196280940257
 40
19.68274641501185
 40
19.68274641501185
 40
20.52353002062115
 40
20.52353002062115
 40
20.97137292334612
 40
20.97137292334612
 40
21.20207642009492
 40
21.20207642009492
 40
21.20207642009492
 40
21.20207642009492
 10
123.5550409128745
 20
-26.66763740629687
 30
0.0
 10
123.5811771436001
 20
-26.61634216530012
 30
0.0
 10
123.6277204679508
 20
-26.56111955896529
 30
0.0
 10
123.7679653694607
 20
-26.43323180381696
 30
0.0
 10
123.8692435957909
 20
-26.35922166216778
 30
0.0
 10
124.121736733659
 20
-26.19567196145954
 30
0.0
 10
124.2890651948907
 20
-26.09887634084508
 30
0.0
 10
124.6751065576664
 20
-25.89103053643099
 30
0.0
 10
124.8937621788199
 20
-25.77997925930048
 30
0.0
 10
125.3649030938772
 20
-25.54764800398641
 30
0.0
 10
125.6175523044771
 20
-25.42627277092901
 30
0.0
 10
126.1353142083122
 20
-25.1778044295163
 30
0.0
 10
126.4004017590917
 20
-25.05069807230609
 30
0.0
 10
126.8881574355531
 20
-24.81082469060857
 30
0.0
 10
127.1311187432615
 20
-24.68905464110946
 30
0.0
 10
127.6243288845495
 20
-24.4269529369518
 30
0.0
 10
127.8746600942931
 20
-24.28682016854748
 30
0.0
 10
128.3559412619625
 20
-23.98106691886255
 30
0.0
 10
128.5868532069474
 20
-23.81580991083626
 30
0.0
 10
128.9935745706856
 20
-23.43870759694516
 30
0.0
 10
129.1682277586694
 20
-23.22563674419268
 30
0.0
 10
129.3632358228352
 20
-22.84291186880329
 30
0.0
 10
129.4130451244333
 20
-22.70958326421589
 30
0.0
 10
129.4701844807399
 20
-22.50746050908638
 30
0.0
 10
129.4863830907156
 20
-22.43871869684983
 30
0.0
 10
129.499999106855
 20
-22.36994568745954
 30
0.0
  0
SPLINE
  5
F74
330
790
100
AcDbEntity
  8
241
100
AcDbSpline
210
0.0
220
0.0
230
1.0
 70
     8
 71
     3
 72
    30
 73
    26
 74
     0
 42
0.0000000001
 43
0.0000000001
 40
11.86811076986652
 40
11.86811076986652
 40
11.86811076986652
 40
11.86811076986652
 40
12.5452532593312
 40
12.5452532593312
 40
13.35610579916681
 40
13.35610579916681
 40
14.30717824892107
 40
14.30717824892107
 40
15.25825069867541
 40
15.25825069867541
 40
16.2093231484297
 40
16.2093231484297
 40
17.16039559818399
 40
17.16039559818399
 40
18.00117920379328
 40
18.00117920379328
 40
18.84196280940257
 40
18.84196280940257
 40
19.68274641501185
 40
19.68274641501185
 40
20.52353002062115
 40
20.52353002062115
 40
20.97137292334612
 40
20.97137292334612
 40
21.20207642009492
 40
21.20207642009492
 40
21.20207642009492
 40
21.20207642009492
 10
123.5550409128741
 20
-26.66763740629687
 30
0.0
 10
123.5811771435999
 20
-26.61634216530012
 30
0.0
 10
123.6277204679504
 20
-26.56111955896529
 30
0.0
 10
123.7679653694604
 20
-26.43323180381696
 30
0.0
 10
123.8692435957905
 20
-26.35922166216778
 30
0.0
 10
124.1217367336588
 20
-26.19567196145954
 30
0.0
 10
124.2890651948902
 20
-26.09887634084508
 30
0.0
 10
124.6751065576662
 20
-25.89103053643099
 30
0.0
 10
124.8937621788196
 20
-25.77997925930048
 30
0.0
 10
125.3649030938768
 20
-25.54764800398641
 30
0.0
 10
125.6175523044769
 20
-25.42627277092901
 30
0.0
 10
126.1353142083122
 20
-25.1778044295163
 30
0.0
 10
126.4004017590915
 20
-25.05069807230609
 30
0.0
 10
126.8881574355527
 20
-24.81082469060857
 30
0.0
 10
127.1311187432609
 20
-24.68905464110946
 30
0.0
 10
127.6243288845491
 20
-24.4269529369518
 30
0.0
 10
127.8746600942926
 20
-24.28682016854748
 30
0.0
 10
128.3559412619623
 20
-23.98106691886255
 30
0.0
 10
128.586853206947
 20
-23.81580991083626
 30
0.0
 10
128.993574570685
 20
-23.43870759694516
 30
0.0
 10
129.1682277586694
 20
-23.22563674419268
 30
0.0
 10
129.3632358228349
 20
-22.84291186880329
 30
0.0
 10
129.413045124433
 20
-22.70958326421589
 30
0.0
 10
129.4701844807395
 20
-22.50746050908638
 30
0.0
 10
129.4863830907154
 20
-22.43871869684983
 30
0.0
 10
129.4999991068546
 20
-22.36994568745954
 30
0.0
  0
LINE
  5
F75
330
790
100
AcDbEntity
  8
241
  6
HIDDEN2
100
AcDbLine
 10
129.49999911
 20
-20.51327228
 30
0.0
 11
129.49999911
 21
-22.32716547
 31
0.0
  0
LINE
  5
F76
330
790
100
AcDbEntity
  8
241
100
AcDbLine
 10
129.49999911
 20
-20.51327228
 30
0.0
 11
129.49999911
 21
-22.32716547
 31
0.0
  0
LINE
  5
F77
330
790
100
AcDbEntity
  8
241
  6
HIDDEN2
100
AcDbLine
 10
129.15466606
 20
-15.67775427
 30
0.0
 11
129.08910072
 21
-15.63990011
 31
0.0
  0
LINE
  5
F78
330
790
100
AcDbEntity
  8
241
  6
CONTINUOUS
100
AcDbLine
 10
129.99999911
 20
2.49603348
 30
0.0
 11
133.49999911
 21
2.49603348
 31
0.0
  0
LINE
  5
F79
330
790
100
AcDbEntity
  8
241
  6
CONTINUOUS
100
AcDbLine
 10
129.99999911
 20
-2.50396652
 30
0.0
 11
133.49999911
 21
-2.50396652
 31
0.0
  0
SPLINE
  5
F7A
330
790
100
AcDbEntity
  8
241
100
AcDbSpline
210
0.0
220
0.0
230
1.0
 70
     8
 71
     3
 72
    18
 73
    14
 74
     0
 42
0.0000000001
 43
0.0000000001
 40
23.3342633953109
 40
23.3342633953109
 40
23.3342633953109
 40
23.3342633953109
 40
24.10627324242106
 40
24.10627324242106
 40
25.89764485332102
 40
25.89764485332102
 40
27.68901646422096
 40
27.68901646422096
 40
28.42477156036025
 40
28.42477156036025
 40
29.16052665649952
 40
29.16052665649952
 40
29.88168580166767
 40
29.88168580166767
 40
29.88168580166767
 40
29.88168580166767
 10
129.499999106855
 20
20.44617305014856
 30
0.0
 10
129.4754547027764
 20
20.21262651526979
 30
0.0
 10
129.4466912845516
 20
19.97927514796026
 30
0.0
 10
129.3450071175365
 20
19.20856762304239
 30
0.0
 10
129.2651527317086
 20
18.68206747509519
 30
0.0
 10
129.1262390195099
 20
17.70647572192672
 30
0.0
 10
129.0663912209365
 20
17.25709950307191
 30
0.0
 10
129.0180605525667
 20
16.71762252897781
 30
0.0
 10
129.0078416378331
 20
16.56587401176818
 30
0.0
 10
129.0003649945387
 20
16.29229373010696
 30
0.0
 10
129.0031408348951
 20
16.17051089847414
 30
0.0
 10
129.0251407726759
 20
15.97223607886223
 30
0.0
 10
129.0440869294445
 20
15.89477802897488
 30
0.0
 10
129.0716220523364
 20
15.84073730751685
 30
0.0
  0
SPLINE
  5
F7B
330
790
100
AcDbEntity
  8
241
100
AcDbSpline
210
0.0
220
0.0
230
1.0
 70
     8
 71
     3
 72
    18
 73
    14
 74
     0
 42
0.0000000001
 43
0.0000000001
 40
23.3342633953109
 40
23.3342633953109
 40
23.3342633953109
 40
23.3342633953109
 40
24.10627324242106
 40
24.10627324242106
 40
25.89764485332102
 40
25.89764485332102
 40
27.68901646422096
 40
27.68901646422096
 40
28.42477156036025
 40
28.42477156036025
 40
29.16052665649952
 40
29.16052665649952
 40
29.88168580166767
 40
29.88168580166767
 40
29.88168580166767
 40
29.88168580166767
 10
129.4999991068548
 20
20.44617305014856
 30
0.0
 10
129.4754547027762
 20
20.21262651526979
 30
0.0
 10
129.4466912845516
 20
19.97927514796026
 30
0.0
 10
129.3450071175364
 20
19.20856762304239
 30
0.0
 10
129.2651527317085
 20
18.68206747509519
 30
0.0
 10
129.1262390195097
 20
17.70647572192672
 30
0.0
 10
129.0663912209363
 20
17.25709950307191
 30
0.0
 10
129.0180605525665
 20
16.71762252897781
 30
0.0
 10
129.0078416378331
 20
16.56587401176818
 30
0.0
 10
129.0003649945385
 20
16.29229373010696
 30
0.0
 10
129.0031408348949
 20
16.17051089847414
 30
0.0
 10
129.0251407726757
 20
15.97223607886223
 30
0.0
 10
129.0440869294444
 20
15.89477802897488
 30
0.0
 10
129.0716220523364
 20
15.84073730751685
 30
0.0
  0
LINE
  5
F7C
330
790
100
AcDbEntity
  8
241
100
AcDbLine
 10
129.49999911
 20
14.98130525
 30
0.0
 11
129.49999911
 21
20.51327228
 31
0.0
  0
LINE
  5
F7D
330
790
100
AcDbEntity
  8
241
100
AcDbLine
 10
129.49999911
 20
14.98130525
 30
0.0
 11
129.49999911
 21
20.51327228
 31
0.0
  0
LINE
  5
F7E
330
790
100
AcDbEntity
  8
241
100
AcDbLine
 10
125.88144554
 20
22.10181125
 30
0.0
 11
129.49999911
 21
15.0
 31
0.0
  0
LINE
  5
F7F
330
790
100
AcDbEntity
  8
241
  6
HIDDEN2
100
AcDbLine
 10
129.49999911
 20
22.32716547
 30
0.0
 11
129.49999911
 21
20.51327228
 31
0.0
  0
LINE
  5
F80
330
790
100
AcDbEntity
  8
241
100
AcDbLine
 10
129.49999911
 20
22.32716547
 30
0.0
 11
129.49999911
 21
20.51327228
 31
0.0
  0
LINE
  5
F81
330
790
100
AcDbEntity
  8
240
100
AcDbLine
 10
129.81762565
 20
31.5
 30
0.0
 11
133.49999911
 21
31.5
 31
0.0
  0
SPLINE
  5
F82
330
790
100
AcDbEntity
  8
241
100
AcDbSpline
210
0.0
220
0.0
230
1.0
 70
     8
 71
     3
 72
    22
 73
    18
 74
     0
 42
0.0000000001
 43
0.0000000001
 40
16.34108532374241
 40
16.34108532374241
 40
16.34108532374241
 40
16.34108532374241
 40
17.37555424898745
 40
17.37555424898745
 40
18.41002317423251
 40
18.41002317423251
 40
19.44449209947757
 40
19.44449209947757
 40
20.47896102472262
 40
20.47896102472262
 40
21.42460078239476
 40
21.42460078239476
 40
22.37024054006692
 40
22.37024054006692
 40
23.31588029773907
 40
23.31588029773907
 40
24.26152005541121
 40
24.26152005541121
 40
24.26152005541121
 40
24.26152005541121
 10
126.9983076834002
 20
30.92329219213319
 30
0.0
 10
126.6534847083188
 20
30.92329219213319
 30
0.0
 10
126.2955545300739
 20
30.91776175163214
 30
0.0
 10
125.5828333663139
 20
30.89306302903116
 30
0.0
 10
125.2280369846365
 20
30.87390201920436
 30
0.0
 10
124.549134038176
 20
30.81993754468169
 30
0.0
 10
124.2245338933541
 20
30.78506802565277
 30
0.0
 10
123.629419721214
 20
30.69814783993171
 30
0.0
 10
123.3589455585771
 20
30.64603368947348
 30
0.0
 10
122.9105984718414
 20
30.53016376118569
 30
0.0
 10
122.7164714718582
 20
30.46504258159837
 30
0.0
 10
122.3949573070325
 20
30.31535836301907
 30
0.0
 10
122.2675939027501
 20
30.23073044109594
 30
0.0
 10
122.0918139077594
 20
30.04570754130952
 30
0.0
 10
122.0431151411075
 20
29.94500148289329
 30
0.0
 10
122.0212571841129
 20
29.73480537693785
 30
0.0
 10
122.0480280685307
 20
29.62531664653841
 30
0.0
 10
122.103246544098
 20
29.51694428629183
 30
0.0
  0
SPLINE
  5
F83
330
790
100
AcDbEntity
  8
241
100
AcDbSpline
210
0.0
220
0.0
230
1.0
 70
     8
 71
     3
 72
    22
 73
    18
 74
     0
 42
0.0000000001
 43
0.0000000001
 40
16.34108532374241
 40
16.34108532374241
 40
16.34108532374241
 40
16.34108532374241
 40
17.37555424898745
 40
17.37555424898745
 40
18.41002317423251
 40
18.41002317423251
 40
19.44449209947757
 40
19.44449209947757
 40
20.47896102472262
 40
20.47896102472262
 40
21.42460078239476
 40
21.42460078239476
 40
22.37024054006692
 40
22.37024054006692
 40
23.31588029773907
 40
23.31588029773907
 40
24.26152005541121
 40
24.26152005541121
 40
24.26152005541121
 40
24.26152005541121
 10
126.9983076834002
 20
30.92329219213319
 30
0.0
 10
126.6534847083187
 20
30.92329219213319
 30
0.0
 10
126.2955545300737
 20
30.91776175163214
 30
0.0
 10
125.5828333663139
 20
30.89306302903116
 30
0.0
 10
125.2280369846365
 20
30.87390201920436
 30
0.0
 10
124.5491340381759
 20
30.81993754468169
 30
0.0
 10
124.2245338933539
 20
30.78506802565277
 30
0.0
 10
123.6294197212139
 20
30.69814783993171
 30
0.0
 10
123.358945558577
 20
30.64603368947348
 30
0.0
 10
122.9105984718412
 20
30.53016376118569
 30
0.0
 10
122.7164714718581
 20
30.46504258159837
 30
0.0
 10
122.3949573070324
 20
30.31535836301907
 30
0.0
 10
122.2675939027499
 20
30.23073044109594
 30
0.0
 10
122.0918139077594
 20
30.04570754130952
 30
0.0
 10
122.0431151411074
 20
29.94500148289329
 30
0.0
 10
122.0212571841128
 20
29.73480537693785
 30
0.0
 10
122.0480280685306
 20
29.62531664653841
 30
0.0
 10
122.1032465440978
 20
29.51694428629183
 30
0.0
  0
LINE
  5
F84
330
790
100
AcDbEntity
  8
241
100
AcDbLine
 10
129.49999911
 20
26.01344632
 30
0.0
 11
126.99830768
 21
30.92329219
 31
0.0
  0
LINE
  5
F85
330
790
100
AcDbEntity
  8
241
100
AcDbLine
 10
129.49999911
 20
26.01344632
 30
0.0
 11
126.99830768
 21
30.92329219
 31
0.0
  0
LINE
  5
F86
330
790
100
AcDbEntity
  8
241
100
AcDbLine
 10
129.99999911
 20
30.92329219
 30
0.0
 11
129.99999911
 21
31.5
 31
0.0
  0
LINE
  5
F87
330
790
100
AcDbEntity
  8
241
100
AcDbLine
 10
126.99830768
 20
30.92329219
 30
0.0
 11
129.99999911
 21
30.92329219
 31
0.0
  0
LINE
  5
F88
330
790
100
AcDbEntity
  8
241
100
AcDbLine
 10
126.99830768
 20
30.92329219
 30
0.0
 11
129.99999911
 21
30.92329219
 31
0.0
  0
ENDBLK
  5
7EC
330
790
100
AcDbEntity
  8
0
100
AcDbBlockEnd
  0
BLOCK
  5
81E
330
814
100
AcDbEntity
  8
0
100
AcDbBlockBegin
  2
*D4
 70
     1
 10
0.0
 20
0.0
 30
0.0
  3
*D4
  1

  0
LINE
  5
EF6
330
814
100
AcDbEntity
  8
250
  6
CONTINUOUS
 62
     3
100
AcDbLine
 10
0.0
 20
40.4925
 30
0.0
 11
0.0
 21
57.0
 31
0.0
  0
LINE
  5
EF7
330
814
100
AcDbEntity
  8
250
  6
CONTINUOUS
 62
     3
100
AcDbLine
 10
129.99999911
 20
32.00308703
 30
0.0
 11
129.99999911
 21
57.0
 31
0.0
  0
LINE
  5
EF8
330
814
100
AcDbEntity
  8
250
  6
CONTINUOUS
 62
     3
100
AcDbLine
 10
2.23
 20
56.0
 30
0.0
 11
127.76999911
 21
56.0
 31
0.0
  0
INSERT
  5
EF9
330
814
100
AcDbEntity
  8
250
  6
CONTINUOUS
 62
     3
100
AcDbBlockReference
  2
_OPEN
 10
0.0
 20
56.0
 30
0.0
 41
2.23
 42
2.23
 43
2.23
 50
180.0
  0
INSERT
  5
EFA
330
814
100
AcDbEntity
  8
250
  6
CONTINUOUS
 62
     3
100
AcDbBlockReference
  2
_OPEN
 10
129.99999911
 20
56.0
 30
0.0
 41
2.23
 42
2.23
 43
2.23
  0
MTEXT
  5
EFB
330
814
100
AcDbEntity
  8
250
  6
CONTINUOUS
 62
    40
100
AcDbMText
 10
65.8794499
 20
58.5
 30
0.0
 40
3.0
 41
0.0
 71
     5
 72
     1
  1
\A1;130
1001
ACAD
1000
MTEXTBEGIN
1070
    73
1070
     1
1070
    44
1040
1.0
1070
    74
1070
     0
1000
MTEXTEND
1000
MTEXTBEGIN
1070
    73
1070
     1
1070
    44
1040
1.0
1070
    74
1070
     0
1000
MTEXTEND
  0
POINT
  5
EFC
330
814
100
AcDbEntity
  8
DEFPOINTS
  6
CONTINUOUS
 62
     0
100
AcDbPoint
 10
0.0
 20
39.9925
 30
0.0
  0
POINT
  5
EFD
330
814
100
AcDbEntity
  8
DEFPOINTS
  6
CONTINUOUS
 62
     0
100
AcDbPoint
 10
129.99999911
 20
31.50308703
 30
0.0
  0
POINT
  5
EFE
330
814
100
AcDbEntity
  8
DEFPOINTS
  6
CONTINUOUS
 62
     0
100
AcDbPoint
 10
129.99999911
 20
56.0
 30
0.0
  0
ENDBLK
  5
81F
330
814
100
AcDbEntity
  8
0
100
AcDbBlockEnd
  0
BLOCK
  5
82A
330
820
100
AcDbEntity
  8
0
100
AcDbBlockBegin
  2
*D5
 70
     1
 10
0.0
 20
0.0
 30
0.0
  3
*D5
  1

  0
LINE
  5
F19
330
820
100
AcDbEntity
  8
250
  6
CONTINUOUS
 62
     3
100
AcDbLine
 10
133.99999911
 20
-31.5
 30
0.0
 11
148.0
 21
-31.5
 31
0.0
  0
LINE
  5
F1A
330
820
100
AcDbEntity
  8
250
  6
CONTINUOUS
 62
     3
100
AcDbLine
 10
133.99999911
 20
31.5
 30
0.0
 11
148.0
 21
31.5
 31
0.0
  0
LINE
  5
F1B
330
820
100
AcDbEntity
  8
250
  6
CONTINUOUS
 62
     3
100
AcDbLine
 10
147.0
 20
-29.27
 30
0.0
 11
147.0
 21
29.27
 31
0.0
  0
INSERT
  5
F1C
330
820
100
AcDbEntity
  8
250
  6
CONTINUOUS
 62
     3
100
AcDbBlockReference
  2
_OPEN
 10
147.0
 20
-31.5
 30
0.0
 41
2.23
 42
2.23
 43
2.23
 50
270.0
  0
INSERT
  5
F1D
330
820
100
AcDbEntity
  8
250
  6
CONTINUOUS
 62
     3
100
AcDbBlockReference
  2
_OPEN
 10
147.0
 20
31.5
 30
0.0
 41
2.23
 42
2.23
 43
2.23
 50
90.0
  0
MTEXT
  5
F1E
330
820
100
AcDbEntity
  8
250
  6
CONTINUOUS
 62
    40
100
AcDbMText
 10
144.5
 20
0.0
 30
0.0
 40
3.0
 41
0.0
 71
     5
 72
     1
  1
\A1;{\H3;\U+2205}63
 11
0.0
 21
1.0
 31
0.0
1001
ACAD
1000
MTEXTBEGIN
1070
    73
1070
     1
1070
    44
1040
1.0
1070
    74
1070
     0
1000
MTEXTEND
1000
MTEXTBEGIN
1070
    73
1070
     1
1070
    44
1040
1.0
1070
    74
1070
     0
1000
MTEXTEND
  0
POINT
  5
F1F
330
820
100
AcDbEntity
  8
DEFPOINTS
  6
CONTINUOUS
 62
     0
100
AcDbPoint
 10
133.49999911
 20
-31.5
 30
0.0
  0
POINT
  5
F20
330
820
100
AcDbEntity
  8
DEFPOINTS
  6
CONTINUOUS
 62
     0
100
AcDbPoint
 10
133.49999911
 20
31.5
 30
0.0
  0
POINT
  5
F21
330
820
100
AcDbEntity
  8
DEFPOINTS
  6
CONTINUOUS
 62
     0
100
AcDbPoint
 10
147.0
 20
31.5
 30
0.0
  0
ENDBLK
  5
82B
330
820
100
AcDbEntity
  8
0
100
AcDbBlockEnd
  0
ENDSEC
  0
SECTION
  2
ENTITIES
  0
INSERT
  5
6E6
330
1A
100
AcDbEntity
  8
245
100
AcDbBlockReference
  2
矢印なし
 10
175.62382697
 20
90.55123572
 30
0.0
  0
LEADER
  5
7FF
330
1A
100
AcDbEntity
  8
250
  6
CONTINUOUS
100
AcDbLeader
  3
BIGT
 76
     2
 10
127.19206921
 20
31.64466944
 30
0.0
 10
137.19880907
 20
48.97685128
 30
0.0
1001
ACAD
1000
DSTYLE
1002
{
1070
     6
1000
OPEN
1070
   343
1005
594
1002
}
  0
MTEXT
  5
800
330
1A
100
AcDbEntity
  8
251
  6
CONTINUOUS
100
AcDbMText
 10
139.99880907
 20
49.97685128
 30
0.0
 40
2.8
 41
0.0
 71
     7
 72
     1
  1
F63
  7
YOKO
1001
ITEMNAME
1000
LNSP3
1001
ACAD
1000
MTEXTBEGIN
1070
    73
1070
     1
1070
    44
1040
1.0
1070
    74
1070
     0
1000
MTEXTEND
1000
MTEXTBEGIN
1070
    73
1070
     1
1070
    44
1040
1.0
1070
    74
1070
     0
1000
MTEXTEND
1000
MTEXTBEGIN
1070
    73
1070
     1
1070
    44
1040
1.0
1070
    74
1070
     0
1000
MTEXTEND
1000
MTEXTBEGIN
1070
    73
1070
     1
1070
    44
1040
1.0
1070
    74
1070
     0
1000
MTEXTEND
1000
MTEXTBEGIN
1070
    73
1070
     1
1070
    44
1040
1.0
1070
    74
1070
     0
1000
MTEXTEND
1000
MTEXTBEGIN
1070
    73
1070
     1
1070
    44
1040
1.0
1070
    74
1070
     0
1000
MTEXTEND
1000
MTEXTBEGIN
1070
    73
1070
     1
1070
    44
1040
1.0
1070
    74
1070
     0
1000
MTEXTEND
1000
MTEXTBEGIN
1070
    73
1070
     1
1070
    44
1040
1.0
1070
    74
1070
     0
1000
MTEXTEND
  0
DIMENSION
  5
803
330
1A
100
AcDbEntity
  8
250
  6
CONTINUOUS
100
AcDbDimension
  2
*D4
 10
129.99999911
 20
56.0
 30
0.0
 11
65.8794499
 21
56.0
 31
0.0
 70
   160
  3
BIGT$0
100
AcDbAlignedDimension
 13
0.0
 23
39.9925
 33
0.0
 14
129.99999911
 24
31.50308703
 34
0.0
100
AcDbRotatedDimension
  0
TEXT
  5
804
330
1A
100
AcDbEntity
  8
241
100
AcDbText
 10
-48.0
 20
70.0
 30
0.0
 40
5.0
  1
C8-F63-130
  7
YOKO
 11
-48.0
 21
70.0
 31
0.0
100
AcDbText
 73
     1
  0
DIMENSION
  5
806
330
1A
100
AcDbEntity
  8
250
  6
CONTINUOUS
100
AcDbDimension
  2
*D5
 10
147.0
 20
31.5
 30
0.0
 11
147.0
 21
0.0
 31
0.0
 70
   160
  1
{\H3;\U+2205}<>
  3
BIGT$0
100
AcDbAlignedDimension
 13
133.49999911
 23
-31.5
 33
0.0
 14
133.49999911
 24
31.5
 34
0.0
 50
90.0
100
AcDbRotatedDimension
  0
LINE
  5
807
330
1A
100
AcDbEntity
  8
250
  6
CONTINUOUS
100
AcDbLine
 10
137.19880907
 20
48.97685128
 30
0.0
 11
149.59880907
 21
48.97685128
 31
0.0
1001
ITEMNAME
1000
LNSP2
  0
LINE
  5
ED7
330
1A
100
AcDbEntity
  8
250
  6
CONTINUOUS
100
AcDbLine
 10
-26.7756406
 20
-35.07208548
 30
0.0
 11
-37.04230726
 21
-35.07208548
 31
0.0
1001
ITEMNAME
1000
LNSP2
  0
LEADER
  5
EE6
330
1A
100
AcDbEntity
  8
250
  6
CONTINUOUS
100
AcDbLeader
  3
BIGT$7
 76
     2
 10
-22.12784265
 20
-27.02186329
 30
0.0
 10
-26.7756406
 20
-35.07208548
 30
0.0
1001
ACAD
1000
DSTYLE
1002
{
1070
     5
1000
OPEN
1070
    41
1040
2.0
1070
    42
1040
2.0
1070
    44
1040
2.0
1070
   140
1040
4.0
1070
   342
1005
594
1002
}
  0
MTEXT
  5
EE7
330
1A
100
AcDbEntity
  8
251
  6
CONTINUOUS
100
AcDbMText
 10
-34.24230726
 20
-34.07208548
 30
0.0
 40
2.8
 41
0.0
 71
     7
 72
     1
  1
C8
  7
YOKO
1001
ITEMNAME
1000
LNSP3
1001
ACAD
1000
MTEXTBEGIN
1070
    73
1070
     1
1070
    44
1040
1.0
1070
    74
1070
     0
1000
MTEXTEND
1000
MTEXTBEGIN
1070
    73
1070
     1
1070
    44
1040
1.0
1070
    74
1070
     0
1000
MTEXTEND
1000
MTEXTBEGIN
1070
    73
1070
     1
1070
    44
1040
1.0
1070
    74
1070
     0
1000
MTEXTEND
1000
MTEXTBEGIN
1070
    73
1070
     1
1070
    44
1040
1.0
1070
    74
1070
     0
1000
MTEXTEND
  0
INSERT
  5
F89
330
1A
100
AcDbEntity
  8
245
100
AcDbBlockReference
  2
1
 10
0.0
 20
0.0
 30
0.0
  0
VIEWPORT
  5
22
330
17
100
AcDbEntity
 67
     1
  8
0
100
AcDbViewport
 10
261.51769912
 20
148.5
 30
0.0
 40
523.03539823
 41
297.0
 68
     1
 69
     1
1001
ACAD
1000
MVIEW
1002
{
1070
    16
1010
0.0
1020
0.0
1030
0.0
1010
0.0
1020
0.0
1030
1.0
1040
0.0
1040
297.0
1040
261.51769912
1040
148.5
1040
50.0
1040
0.0
1040
0.0
1070
     0
1070
   100
1070
     1
1070
     1
1070
     0
1070
     0
1070
     0
1070
     0
1040
0.0
1040
0.0
1040
0.0
1040
1.0
1040
1.0
1040
10.0
1040
10.0
1070
     0
1002
{
1002
}
1002
}
  0
ENDSEC
  0
SECTION
  2
OBJECTS
  0
DICTIONARY
  5
C
330
0
100
AcDbDictionary
  3
ACAD_GROUP
350
D
  3
ACAD_LAYOUT
350
565
  3
ACAD_MLINESTYLE
350
E
  3
ACAD_PLOTSETTINGS
350
566
  3
ACAD_PLOTSTYLENAME
350
563
  3
ACDBHEADERROUNDTRIPXREC
350
FE0
  3
GRADE_DWG
350
540
  0
DICTIONARY
  5
9F2
330
1A
100
AcDbDictionary
280
     1
  3
ACAD_LAYOUTSELFREF
360
1002
  0
DICTIONARY
  5
9F0
330
17
100
AcDbDictionary
280
     1
  3
ACAD_LAYOUTSELFREF
360
1001
  0
DICTIONARY
  5
D
102
{ACAD_REACTORS
330
C
102
}
330
C
100
AcDbDictionary
  3
*A1
350
6C7
  3
*A2
350
6C8
  3
*A3
350
6D4
  3
*A4
350
6D5
  3
DREC-1
350
5FC
  3
DREC-2
350
654
  3
DREC-3
350
673
  0
DICTIONARY
  5
565
102
{ACAD_REACTORS
330
C
102
}
330
C
100
AcDbDictionary
  0
DICTIONARY
  5
E
102
{ACAD_REACTORS
330
C
102
}
330
C
100
AcDbDictionary
  3
STANDARD
350
13
  0
DICTIONARY
  5
566
102
{ACAD_REACTORS
330
C
102
}
330
C
100
AcDbDictionary
  3
A3_0_5倍_
350
758
  3
A3_1倍_
350
757
  3
A3_1倍__2000_
350
707
  3
A3_2倍_
350
759
  3
A4_0_5倍_
350
755
  3
A4_1倍_
350
754
  3
A4_1倍__2000_
350
708
  3
A4_2倍_
350
756
  0
ACDBDICTIONARYWDFLT
  5
563
102
{ACAD_REACTORS
330
C
102
}
330
C
100
AcDbDictionary
281
     1
  3
Normal
350
564
100
AcDbDictionaryWithDefault
340
564
  0
DICTIONARY
  5
FE0
102
{ACAD_REACTORS
330
C
102
}
330
C
100
AcDbDictionary
  3
CEPSNTYPE
350
FEA
  3
DIMSTYLEDATA
350
FEE
  3
FINGERPRINTGUID
350
FEB
  3
HYPERLINKBASE
350
FE3
  3
INSUNITS
350
FE9
  3
LAYOUTDICT
350
FE5
  3
LWETCUNION
350
FE8
  3
PLOTSETDICT
350
FE6
  3
PLOTSTYLNAMDICT
350
FE7
  3
PSVPSCALE
350
FED
  3
PUCSBASE
350
FF1
  3
PUCSORGBACK
350
FF7
  3
PUCSORGBOTTOM
350
FF3
  3
PUCSORGFRONT
350
FF6
  3
PUCSORGLEFT
350
FF4
  3
PUCSORGRIGHT
350
FF5
  3
PUCSORGTOP
350
FF2
  3
PUCSORTHOREF
350
FEF
  3
PUCSORTHOVIEW
350
FF0
  3
STYLESHEET
350
FE4
  3
TSTACKALIGN
350
FE1
  3
TSTACKSIZE
350
FE2
  3
UCSBASE
350
FFA
  3
UCSORGBACK
350
1000
  3
UCSORGBOTTOM
350
FFC
  3
UCSORGFRONT
350
FFF
  3
UCSORGLEFT
350
FFD
  3
UCSORGRIGHT
350
FFE
  3
UCSORGTOP
350
FFB
  3
UCSORTHOREF
350
FF8
  3
UCSORTHOVIEW
350
FF9
  3
VERSIONGUID
350
FEC
  0
DICTIONARY
  5
540
102
{ACAD_REACTORS
330
C
102
}
330
C
100
AcDbDictionary
  3
VERSION
350
560
  0
XRECORD
  5
1002
102
{ACAD_REACTORS
330
9F2
102
}
330
9F2
100
AcDbXrecord
340
1A
  0
XRECORD
  5
1001
102
{ACAD_REACTORS
330
9F0
102
}
330
9F0
100
AcDbXrecord
340
17
  0
GROUP
  5
6C7
102
{ACAD_REACTORS
330
D
102
}
330
D
100
AcDbGroup
300

 70
     0
 71
     1
1001
GRPNAME
1000
DMA00
  0
GROUP
  5
6C8
102
{ACAD_REACTORS
330
D
102
}
330
D
100
AcDbGroup
300

 70
     0
 71
     1
1001
GRPNAME
1000
DMA00
  0
GROUP
  5
6D4
102
{ACAD_REACTORS
330
D
102
}
330
D
100
AcDbGroup
300

 70
     0
 71
     1
1001
GRPNAME
1000
DMA00
  0
GROUP
  5
6D5
102
{ACAD_REACTORS
330
D
102
}
330
D
100
AcDbGroup
300

 70
     0
 71
     1
1001
GRPNAME
1000
DMA00
  0
GROUP
  5
5FC
102
{ACAD_REACTORS
330
D
102
}
330
D
100
AcDbGroup
300

 70
     0
 71
     1
1001
GRPNAME
1000
DREC-
1001
GPARA
1000
xsiz
1000
44.182
1000
ysiz
1000
40.677
1000
angl
1000
0
1000
ctyp
1000
0
1000
csiz
1000
5
1000
lfnt
1000
cont
1000
hcnt
1000
hoff
1000
vcnt
1000
voff
1000
opnt
1000
4
1000
dxpt
1000
0
1000
dypt
1000
0
  0
GROUP
  5
654
102
{ACAD_REACTORS
330
D
102
}
330
D
100
AcDbGroup
300

 70
     0
 71
     1
1001
GRPNAME
1000
DREC-
1001
GPARA
1000
xsiz
1000
54.592
1000
ysiz
1000
53.036
1000
angl
1000
0
1000
ctyp
1000
0
1000
csiz
1000
5
1000
lfnt
1000
cont
1000
hcnt
1000
hoff
1000
vcnt
1000
voff
1000
opnt
1000
4
1000
dxpt
1000
0
1000
dypt
1000
0
  0
GROUP
  5
673
102
{ACAD_REACTORS
330
D
102
}
330
D
100
AcDbGroup
300

 70
     0
 71
     1
1001
GRPNAME
1000
DREC-
1001
GPARA
1000
xsiz
1000
30.363
1000
ysiz
1000
36.175
1000
angl
1000
0
1000
ctyp
1000
0
1000
csiz
1000
5
1000
lfnt
1000
cont
1000
hcnt
1000
hoff
1000
vcnt
1000
voff
1000
opnt
1000
4
1000
dxpt
1000
0
1000
dypt
1000
0
  0
MLINESTYLE
  5
13
102
{ACAD_REACTORS
330
E
102
}
330
E
100
AcDbMlineStyle
  2
STANDARD
 70
     0
  3

 62
     0
 51
90.0
 52
90.0
 71
     2
 49
0.5
 62
   256
  6
BYLAYER
 49
-0.5
 62
   256
  6
BYLAYER
  0
PLOTSETTINGS
  5
758
102
{ACAD_REACTORS
330
566
102
}
330
566
100
AcDbPlotSettings
  1
A3(0.5倍)
  2
\\AWTECPC05\HP DeskJet 1120C
  4
A3
  6

 40
5.95841646
 41
13.49375153
 42
6.04309082
 43
3.67242432
 44
296.92599487
 45
419.94665527
 46
89.96
 47
127.14
 48
0.0
 49
0.0
140
0.0
141
0.0
142
1.0
143
2.0
 70
  1716
 72
     1
 73
     1
 74
     2
  7
big.ctb
 75
    17
147
0.5
148
0.0
149
0.0
  0
PLOTSETTINGS
  5
757
102
{ACAD_REACTORS
330
566
102
}
330
566
100
AcDbPlotSettings
  1
A3(1倍)
  2
\\AWTECPC05\HP DeskJet 1120C
  4
A3
  6

 40
5.95841646
 41
13.49375153
 42
6.04309082
 43
3.67242432
 44
296.92599487
 45
419.94665527
 46
37.46
 47
52.89
 48
0.0
 49
0.0
140
0.0
141
0.0
142
1.0
143
1.0
 70
  1716
 72
     1
 73
     1
 74
     2
  7
big.ctb
 75
    16
147
1.0
148
0.0
149
0.0
  0
PLOTSETTINGS
  5
707
102
{ACAD_REACTORS
330
566
102
}
330
566
100
AcDbPlotSettings
  1
A3(1倍)(2000)
  2
SII LS-1300 (D-SCAN)
  4
User258
  6

 40
3.17499995
 41
3.17499995
 42
3.17498779
 43
3.17498779
 44
419.98898315
 45
296.98950195
 46
58.32
 47
40.32
 48
0.0
 49
0.0
140
0.0
141
0.0
142
1.0
143
1.0
 70
  1716
 72
     1
 73
     0
 74
     2
  7
big.ctb
 75
    16
147
1.0
148
0.0
149
0.0
  0
PLOTSETTINGS
  5
759
102
{ACAD_REACTORS
330
566
102
}
330
566
100
AcDbPlotSettings
  1
A3(2倍)
  2
\\AWTECPC05\HP DeskJet 1120C
  4
A3
  6

 40
5.95841646
 41
13.49375153
 42
6.04309082
 43
3.67242432
 44
296.92599487
 45
419.94665527
 46
-67.54
 47
-95.61
 48
0.0
 49
0.0
140
0.0
141
0.0
142
1.0
143
0.5
 70
  1716
 72
     1
 73
     1
 74
     2
  7
big.ctb
 75
    27
147
2.0
148
0.0
149
0.0
  0
PLOTSETTINGS
  5
755
102
{ACAD_REACTORS
330
566
102
}
330
566
100
AcDbPlotSettings
  1
A4(0.5倍)
  2
\\AWTECPC05\HP DeskJet 1120C
  4
A4
  6

 40
4.18041658
 41
13.49374962
 42
4.18040466
 43
3.92642212
 44
209.97332764
 45
296.92599487
 46
48.31
 47
65.5
 48
0.0
 49
0.0
140
0.0
141
0.0
142
1.0
143
2.0
 70
  1716
 72
     1
 73
     1
 74
     2
  7
big.ctb
 75
    17
147
0.5
148
0.0
149
0.0
  0
PLOTSETTINGS
  5
754
102
{ACAD_REACTORS
330
566
102
}
330
566
100
AcDbPlotSettings
  1
A4(1倍)
  2
\\AWTECPC05\HP DeskJet 1120C
  4
A4
  6

 40
4.18041658
 41
13.49374962
 42
4.18040466
 43
3.92642212
 44
209.97332764
 45
296.92599487
 46
-4.19
 47
-8.75
 48
0.0
 49
0.0
140
0.0
141
0.0
142
1.0
143
1.0
 70
  1716
 72
     1
 73
     1
 74
     2
  7
big.ctb
 75
    16
147
1.0
148
0.0
149
0.0
  0
PLOTSETTINGS
  5
708
102
{ACAD_REACTORS
330
566
102
}
330
566
100
AcDbPlotSettings
  1
A4(1倍)(2000)
  2
SII LS-1300 (D-SCAN)
  4
User259
  6

 40
3.17499995
 41
3.17499995
 42
3.17498779
 43
3.17500305
 44
296.98950195
 45
209.99449158
 46
-3.18
 47
-3.18
 48
0.0
 49
0.0
140
0.0
141
0.0
142
1.0
143
1.0
 70
  1716
 72
     1
 73
     0
 74
     2
  7
big.ctb
 75
    16
147
1.0
148
0.0
149
0.0
  0
PLOTSETTINGS
  5
756
102
{ACAD_REACTORS
330
566
102
}
330
566
100
AcDbPlotSettings
  1
A4(2倍)
  2
\\AWTECPC05\HP DeskJet 1120C
  4
A4
  6

 40
4.18041658
 41
13.49374962
 42
4.18040466
 43
3.92642212
 44
209.97332764
 45
296.92599487
 46
-109.19
 47
-157.25
 48
0.0
 49
0.0
140
0.0
141
0.0
142
1.0
143
0.5
 70
  1716
 72
     1
 73
     1
 74
     2
  7
big.ctb
 75
    27
147
2.0
148
0.0
149
0.0
  0
ACDBPLACEHOLDER
  5
564
102
{ACAD_REACTORS
330
563
102
}
330
563
100
AcDbPlaceHolder
280
     0
  0
XRECORD
  5
FEA
102
{ACAD_REACTORS
330
FE0
102
}
330
FE0
100
AcDbXrecord
 90
        0
  0
XRECORD
  5
FEE
102
{ACAD_REACTORS
330
FE0
102
}
330
FE0
100
AcDbXrecord
1000
DSTYLE
1002
{
1070
    79
 70
     2
1070
   179
 70
     3
1070
   341
340
594
1070
   343
340
594
1070
   344
340
594
1070
   371
 70
    -1
1070
   372
 70
    -1
1002
}
  0
XRECORD
  5
FEB
102
{ACAD_REACTORS
330
FE0
102
}
330
FE0
100
AcDbXrecord
  1
{51294030-9CB4-11D3-8E18-00A0C925D94D}
  0
XRECORD
  5
FE3
102
{ACAD_REACTORS
330
FE0
102
}
330
FE0
100
AcDbXrecord
  1

  0
XRECORD
  5
FE9
102
{ACAD_REACTORS
330
FE0
102
}
330
FE0
100
AcDbXrecord
 90
        0
  0
XRECORD
  5
FE5
102
{ACAD_REACTORS
330
FE0
102
}
330
FE0
100
AcDbXrecord
340
565
  0
XRECORD
  5
FE8
102
{ACAD_REACTORS
330
FE0
102
}
330
FE0
100
AcDbXrecord
 90
    10781
  0
XRECORD
  5
FE6
102
{ACAD_REACTORS
330
FE0
102
}
330
FE0
100
AcDbXrecord
340
566
  0
XRECORD
  5
FE7
102
{ACAD_REACTORS
330
FE0
102
}
330
FE0
100
AcDbXrecord
340
563
  0
XRECORD
  5
FED
102
{ACAD_REACTORS
330
FE0
102
}
330
FE0
100
AcDbXrecord
 40
0.0
  0
XRECORD
  5
FF1
102
{ACAD_REACTORS
330
FE0
102
}
330
FE0
100
AcDbXrecord
340
0
  0
XRECORD
  5
FF7
102
{ACAD_REACTORS
330
FE0
102
}
330
FE0
100
AcDbXrecord
 10
0.0
 20
0.0
 30
0.0
  0
XRECORD
  5
FF3
102
{ACAD_REACTORS
330
FE0
102
}
330
FE0
100
AcDbXrecord
 10
0.0
 20
0.0
 30
0.0
  0
XRECORD
  5
FF6
102
{ACAD_REACTORS
330
FE0
102
}
330
FE0
100
AcDbXrecord
 10
0.0
 20
0.0
 30
0.0
  0
XRECORD
  5
FF4
102
{ACAD_REACTORS
330
FE0
102
}
330
FE0
100
AcDbXrecord
 10
0.0
 20
0.0
 30
0.0
  0
XRECORD
  5
FF5
102
{ACAD_REACTORS
330
FE0
102
}
330
FE0
100
AcDbXrecord
 10
0.0
 20
0.0
 30
0.0
  0
XRECORD
  5
FF2
102
{ACAD_REACTORS
330
FE0
102
}
330
FE0
100
AcDbXrecord
 10
0.0
 20
0.0
 30
0.0
  0
XRECORD
  5
FEF
102
{ACAD_REACTORS
330
FE0
102
}
330
FE0
100
AcDbXrecord
340
0
  0
XRECORD
  5
FF0
102
{ACAD_REACTORS
330
FE0
102
}
330
FE0
100
AcDbXrecord
 70
     0
  0
XRECORD
  5
FE4
102
{ACAD_REACTORS
330
FE0
102
}
330
FE0
100
AcDbXrecord
  1
big.ctb
  0
XRECORD
  5
FE1
102
{ACAD_REACTORS
330
FE0
102
}
330
FE0
100
AcDbXrecord
 90
        1
  0
XRECORD
  5
FE2
102
{ACAD_REACTORS
330
FE0
102
}
330
FE0
100
AcDbXrecord
 90
       70
  0
XRECORD
  5
FFA
102
{ACAD_REACTORS
330
FE0
102
}
330
FE0
100
AcDbXrecord
340
0
  0
XRECORD
  5
1000
102
{ACAD_REACTORS
330
FE0
102
}
330
FE0
100
AcDbXrecord
 10
0.0
 20
0.0
 30
0.0
  0
XRECORD
  5
FFC
102
{ACAD_REACTORS
330
FE0
102
}
330
FE0
100
AcDbXrecord
 10
0.0
 20
0.0
 30
0.0
  0
XRECORD
  5
FFF
102
{ACAD_REACTORS
330
FE0
102
}
330
FE0
100
AcDbXrecord
 10
0.0
 20
0.0
 30
0.0
  0
XRECORD
  5
FFD
102
{ACAD_REACTORS
330
FE0
102
}
330
FE0
100
AcDbXrecord
 10
0.0
 20
0.0
 30
0.0
  0
XRECORD
  5
FFE
102
{ACAD_REACTORS
330
FE0
102
}
330
FE0
100
AcDbXrecord
 10
0.0
 20
0.0
 30
0.0
  0
XRECORD
  5
FFB
102
{ACAD_REACTORS
330
FE0
102
}
330
FE0
100
AcDbXrecord
 10
0.0
 20
0.0
 30
0.0
  0
XRECORD
  5
FF8
102
{ACAD_REACTORS
330
FE0
102
}
330
FE0
100
AcDbXrecord
340
0
  0
XRECORD
  5
FF9
102
{ACAD_REACTORS
330
FE0
102
}
330
FE0
100
AcDbXrecord
 70
     0
  0
XRECORD
  5
FEC
102
{ACAD_REACTORS
330
FE0
102
}
330
FE0
100
AcDbXrecord
  1
{F12CF00A-1919-41BF-A011-C6D5AA7EC77B}
  0
XRECORD
  5
560
102
{ACAD_REACTORS
330
540
102
}
330
540
100
AcDbXrecord
  1
2.0.0
  0
ENDSEC
  0
EOF
