  0
SECTION
  2
HEADER
  9
$ACADVER
  1
AC1014
  9
$ACADMAINTVER
 70
     9
  9
$DWGCODEPAGE
  3
ANSI_932
  9
$INSBASE
 10
0.0
 20
0.0
 30
0.0
  9
$EXTMIN
 10
-49.01431165
 20
-40.33818128
 30
-0.00152582
  9
$EXTMAX
 10
151.50723345
 20
82.01112098
 30
0.00000003
  9
$LIMMIN
 10
0.0
 20
0.0
  9
$LIMMAX
 10
420.0
 20
297.0
  9
$ORTHOMODE
 70
     0
  9
$REGENMODE
 70
     1
  9
$FILLMODE
 70
     1
  9
$QTEXTMODE
 70
     0
  9
$MIRRTEXT
 70
     1
  9
$DRAGMODE
 70
     2
  9
$LTSCALE
 40
10.0
  9
$OSMODE
 70
   549
  9
$ATTMODE
 70
     1
  9
$TEXTSIZE
 40
3.0
  9
$TRACEWID
 40
1.0
  9
$TEXTSTYLE
  7
YOKO
  9
$CLAYER
  8
245
  9
$CELTYPE
  6
BYLAYER
  9
$CECOLOR
 62
   256
  9
$CELTSCALE
 40
1.0
  9
$DELOBJ
 70
     1
  9
$DISPSILH
 70
     0
  9
$DIMSCALE
 40
1.0
  9
$DIMASZ
 40
2.23
  9
$DIMEXO
 40
0.5
  9
$DIMDLI
 40
2.5
  9
$DIMRND
 40
0.0
  9
$DIMDLE
 40
0.0
  9
$DIMEXE
 40
1.0
  9
$DIMTP
 40
0.0
  9
$DIMTM
 40
0.0
  9
$DIMTXT
 40
2.8
  9
$DIMCEN
 40
0.0
  9
$DIMTSZ
 40
0.0
  9
$DIMTOL
 70
     0
  9
$DIMLIM
 70
     0
  9
$DIMTIH
 70
     0
  9
$DIMTOH
 70
     0
  9
$DIMSE1
 70
     0
  9
$DIMSE2
 70
     0
  9
$DIMTAD
 70
     3
  9
$DIMZIN
 70
     8
  9
$DIMBLK
  1

  9
$DIMASO
 70
     1
  9
$DIMSHO
 70
     1
  9
$DIMPOST
  1

  9
$DIMAPOST
  1

  9
$DIMALT
 70
     0
  9
$DIMALTD
 70
     2
  9
$DIMALTF
 40
25.4
  9
$DIMLFAC
 40
1.0
  9
$DIMTOFL
 70
     1
  9
$DIMTVP
 40
0.0
  9
$DIMTIX
 70
     1
  9
$DIMSOXD
 70
     0
  9
$DIMSAH
 70
     1
  9
$DIMBLK1
  1
OPEN
  9
$DIMBLK2
  1
OPEN
  9
$DIMSTYLE
  2
BIGT
  9
$DIMCLRD
 70
   256
  9
$DIMCLRE
 70
   256
  9
$DIMCLRT
 70
    40
  9
$DIMTFAC
 40
1.0
  9
$DIMGAP
 40
1.0
  9
$DIMJUST
 70
     0
  9
$DIMSD1
 70
     0
  9
$DIMSD2
 70
     0
  9
$DIMTOLJ
 70
     1
  9
$DIMTZIN
 70
     8
  9
$DIMALTZ
 70
     0
  9
$DIMALTTZ
 70
     0
  9
$DIMFIT
 70
     3
  9
$DIMUPT
 70
     0
  9
$DIMUNIT
 70
     2
  9
$DIMDEC
 70
     3
  9
$DIMTDEC
 70
     3
  9
$DIMALTU
 70
     2
  9
$DIMALTTD
 70
     2
  9
$DIMTXSTY
  7
STANDARD
  9
$DIMAUNIT
 70
     0
  9
$LUNITS
 70
     2
  9
$LUPREC
 70
     3
  9
$SKETCHINC
 40
1.0
  9
$FILLETRAD
 40
2.0
  9
$AUNITS
 70
     0
  9
$AUPREC
 70
     3
  9
$MENU
  1
.
  9
$ELEVATION
 40
0.0
  9
$PELEVATION
 40
0.0
  9
$THICKNESS
 40
0.0
  9
$LIMCHECK
 70
     0
  9
$BLIPMODE
 70
     0
  9
$CHAMFERA
 40
10.0
  9
$CHAMFERB
 40
10.0
  9
$CHAMFERC
 40
0.0
  9
$CHAMFERD
 40
0.0
  9
$SKPOLY
 70
     0
  9
$TDCREATE
 40
2455139.424057071
  9
$TDUPDATE
 40
2455387.707180625
  9
$TDINDWG
 40
0.0320791667
  9
$TDUSRTIMER
 40
0.0320789815
  9
$USRTIMER
 70
     1
  9
$ANGBASE
 50
0.0
  9
$ANGDIR
 70
     0
  9
$PDMODE
 70
     1
  9
$PDSIZE
 40
-5.0
  9
$PLINEWID
 40
0.0
  9
$COORDS
 70
     1
  9
$SPLFRAME
 70
     0
  9
$SPLINETYPE
 70
     6
  9
$SPLINESEGS
 70
     8
  9
$ATTDIA
 70
     0
  9
$ATTREQ
 70
     1
  9
$HANDLING
 70
-16383
  9
$HANDSEED
  5
DD3
  9
$SURFTAB1
 70
     6
  9
$SURFTAB2
 70
     6
  9
$SURFTYPE
 70
     6
  9
$SURFU
 70
     6
  9
$SURFV
 70
     6
  9
$UCSNAME
  2

  9
$UCSORG
 10
0.0
 20
0.0
 30
0.0
  9
$UCSXDIR
 10
1.0
 20
0.0
 30
0.0
  9
$UCSYDIR
 10
0.0
 20
1.0
 30
0.0
  9
$PUCSNAME
  2

  9
$PUCSORG
 10
0.0
 20
0.0
 30
0.0
  9
$PUCSXDIR
 10
1.0
 20
0.0
 30
0.0
  9
$PUCSYDIR
 10
0.0
 20
1.0
 30
0.0
  9
$USERI1
 70
     1
  9
$USERI2
 70
     0
  9
$USERI3
 70
     0
  9
$USERI4
 70
     0
  9
$USERI5
 70
     0
  9
$USERR1
 40
0.0
  9
$USERR2
 40
0.0
  9
$USERR3
 40
0.0
  9
$USERR4
 40
0.0
  9
$USERR5
 40
0.0
  9
$WORLDVIEW
 70
     1
  9
$SHADEDGE
 70
     3
  9
$SHADEDIF
 70
    70
  9
$TILEMODE
 70
     1
  9
$MAXACTVP
 70
    16
  9
$PINSBASE
 10
0.0
 20
0.0
 30
0.0
  9
$PLIMCHECK
 70
     0
  9
$PEXTMIN
 10
1.00000000E+20
 20
1.00000000E+20
 30
1.00000000E+20
  9
$PEXTMAX
 10
-1.00000000E+20
 20
-1.00000000E+20
 30
-1.00000000E+20
  9
$PLIMMIN
 10
0.0
 20
0.0
  9
$PLIMMAX
 10
420.0
 20
297.0
  9
$UNITMODE
 70
     0
  9
$VISRETAIN
 70
     0
  9
$PLINEGEN
 70
     0
  9
$PSLTSCALE
 70
     1
  9
$TREEDEPTH
 70
  3020
  9
$PICKSTYLE
 70
     0
  9
$CMLSTYLE
  2
STANDARD
  9
$CMLJUST
 70
     0
  9
$CMLSCALE
 40
1.0
  9
$PROXYGRAPHICS
 70
     1
  9
$MEASUREMENT
 70
     1
  0
ENDSEC
  0
SECTION
  2
CLASSES
  0
CLASS
  1
XRECORD
  2
AcDbXrecord
  3
AutoCAD 2000
 90
        0
280
     0
281
     0
  0
CLASS
  1
ACDBDICTIONARYWDFLT
  2
AcDbDictionaryWithDefault
  3
AutoCAD 2000
 90
        0
280
     0
281
     0
  0
CLASS
  1
ACDBPLACEHOLDER
  2
AcDbPlaceHolder
  3
AutoCAD 2000
 90
        0
280
     0
281
     0
  0
CLASS
  1
LAYOUT
  2
AcDbLayout
  3
AutoCAD 2000
 90
        0
280
     0
281
     0
  0
CLASS
  1
PLOTSETTINGS
  2
AcDbPlotSettings
  3
AutoCAD 2000
 90
        0
280
     0
281
     0
  0
CLASS
  1
LONG_TRANSACTION
  2
AcDbLongTransaction
  3
AutoCAD 2000
 90
        0
280
     0
281
     0
  0
CLASS
  1
LWPOLYLINE
  2
AcDbPolyline
  3
AutoCAD 2000
 90
        0
280
     0
281
     1
  0
CLASS
  1
HATCH
  2
AcDbHatch
  3
AutoCAD 2000
 90
        0
280
     0
281
     1
  0
CLASS
  1
XRECORD
  2
AcDbXrecord
  3
AutoCAD 2000
 90
        0
280
     0
281
     0
  0
CLASS
  1
LONG_TRANSACTION
  2
AcDbLongTransaction
  3
AutoCAD 2000
 90
        0
280
     0
281
     0
  0
CLASS
  1
LWPOLYLINE
  2
AcDbPolyline
  3
AutoCAD 2000
 90
        0
280
     0
281
     1
  0
CLASS
  1
HATCH
  2
AcDbHatch
  3
AutoCAD 2000
 90
        0
280
     0
281
     1
  0
CLASS
  1
XRECORD
  2
AcDbXrecord
  3
AutoCAD 2000
 90
        0
280
     0
281
     0
  0
CLASS
  1
LONG_TRANSACTION
  2
AcDbLongTransaction
  3
AutoCAD 2000
 90
        0
280
     0
281
     0
  0
CLASS
  1
LWPOLYLINE
  2
AcDbPolyline
  3
AutoCAD 2000
 90
        0
280
     0
281
     1
  0
CLASS
  1
HATCH
  2
AcDbHatch
  3
AutoCAD 2000
 90
        0
280
     0
281
     1
  0
CLASS
  1
XRECORD
  2
AcDbXrecord
  3
AutoCAD 2000
 90
        0
280
     0
281
     0
  0
ENDSEC
  0
SECTION
  2
TABLES
  0
TABLE
  2
VPORT
  5
8
330
0
100
AcDbSymbolTable
 70
     3
  0
VPORT
  5
DAE
330
8
100
AcDbSymbolTableRecord
100
AcDbViewportTableRecord
  2
*ACTIVE
 70
     0
 10
0.0
 20
0.0
 11
1.0
 21
1.0
 12
51.2464609
 22
20.83646985
 13
0.0
 23
0.0
 14
7.0
 24
7.0
 15
7.0
 25
7.0
 16
0.0
 26
0.0
 36
1.0
 17
0.0
 27
0.0
 37
0.0
 40
138.45899677
 41
1.45595855
 42
50.0
 43
0.0
 44
0.0
 50
0.0
 51
0.0
 71
     0
 72
  2000
 73
     1
 74
     0
 75
     0
 76
     0
 77
     0
 78
     0
  0
ENDTAB
  0
TABLE
  2
LTYPE
  5
5
330
0
100
AcDbSymbolTable
 70
     3
  0
LTYPE
  5
14
330
5
100
AcDbSymbolTableRecord
100
AcDbLinetypeTableRecord
  2
BYBLOCK
 70
     0
  3

 72
    65
 73
     0
 40
0.0
  0
LTYPE
  5
15
330
5
100
AcDbSymbolTableRecord
100
AcDbLinetypeTableRecord
  2
BYLAYER
 70
     0
  3

 72
    65
 73
     0
 40
0.0
  0
LTYPE
  5
16
330
5
100
AcDbSymbolTableRecord
100
AcDbLinetypeTableRecord
  2
CONTINUOUS
 70
     0
  3
Solid line
 72
    65
 73
     0
 40
0.0
  0
LTYPE
  5
258
330
5
100
AcDbSymbolTableRecord
100
AcDbLinetypeTableRecord
  2
CENTER2
 70
     0
  3
___ _ ___ _ ___ _ ___ _ ___ _ ___ _ ___ _ ___ _
 72
    65
 73
     4
 40
1.125
 49
0.75
 74
     0
 49
-0.125
 74
     0
 49
0.125
 74
     0
 49
-0.125
 74
     0
  0
LTYPE
  5
25C
330
5
100
AcDbSymbolTableRecord
100
AcDbLinetypeTableRecord
  2
HIDDEN2
 70
     0
  3
_ _ _ _ _ _ _ _ _ _ _ _ _ _ _ _ _ _ _ _ _ _ _ _
 72
    65
 73
     2
 40
0.1875
 49
0.125
 74
     0
 49
-0.0625
 74
     0
  0
ENDTAB
  0
TABLE
  2
LAYER
  5
2
330
0
100
AcDbSymbolTable
 70
     9
  0
LAYER
  5
F
330
2
100
AcDbSymbolTableRecord
100
AcDbLayerTableRecord
  2
0
 70
     0
 62
     7
  6
CONTINUOUS
  0
LAYER
  5
1AA
330
2
100
AcDbSymbolTableRecord
100
AcDbLayerTableRecord
  2
240
 70
     0
 62
     4
  6
CONTINUOUS
  0
LAYER
  5
1AB
330
2
100
AcDbSymbolTableRecord
100
AcDbLayerTableRecord
  2
241
 70
     0
 62
   211
  6
CONTINUOUS
  0
LAYER
  5
1AC
330
2
100
AcDbSymbolTableRecord
100
AcDbLayerTableRecord
  2
242
 70
     0
 62
     3
  6
CONTINUOUS
  0
LAYER
  5
1AF
330
2
100
AcDbSymbolTableRecord
100
AcDbLayerTableRecord
  2
245
 70
     0
 62
     2
  6
CENTER2
  0
LAYER
  5
21E
330
2
100
AcDbSymbolTableRecord
100
AcDbLayerTableRecord
  2
250
 70
     0
 62
     3
  6
CONTINUOUS
  0
LAYER
  5
21F
330
2
100
AcDbSymbolTableRecord
100
AcDbLayerTableRecord
  2
251
 70
     0
 62
    40
  6
CONTINUOUS
  0
LAYER
  5
5C4
330
2
100
AcDbSymbolTableRecord
100
AcDbLayerTableRecord
  2
DEFPOINTS
 70
     0
 62
     7
  6
CONTINUOUS
  0
ENDTAB
  0
TABLE
  2
STYLE
  5
3
330
0
100
AcDbSymbolTable
 70
     2
  0
STYLE
  5
10
330
3
100
AcDbSymbolTableRecord
100
AcDbTextStyleTableRecord
  2
STANDARD
 70
     0
 40
0.0
 41
1.0
 50
0.0
 71
     0
 42
3.0
  3
romans.shx
  4
BIGFONT.SHX
  0
STYLE
  5
339
330
3
100
AcDbSymbolTableRecord
100
AcDbTextStyleTableRecord
  2
YOKO
 70
     0
 40
0.0
 41
1.0
 50
0.0
 71
     0
 42
3.0
  3
romans.shx
  4
extfont.shx
  0
ENDTAB
  0
TABLE
  2
VIEW
  5
6
330
0
100
AcDbSymbolTable
 70
     0
  0
ENDTAB
  0
TABLE
  2
UCS
  5
7
330
0
100
AcDbSymbolTable
 70
     0
  0
ENDTAB
  0
TABLE
  2
APPID
  5
9
330
0
100
AcDbSymbolTable
 70
     9
  0
APPID
  5
11
330
9
100
AcDbSymbolTableRecord
100
AcDbRegAppTableRecord
  2
ACAD
 70
     0
  0
APPID
  5
1B1
330
9
100
AcDbSymbolTableRecord
100
AcDbRegAppTableRecord
  2
GLOBAL
 70
     0
  0
APPID
  5
2A4
330
9
100
AcDbSymbolTableRecord
100
AcDbRegAppTableRecord
  2
DETAIL
 70
     0
  0
APPID
  5
5FD
330
9
100
AcDbSymbolTableRecord
100
AcDbRegAppTableRecord
  2
GRPNAME
 70
     0
  0
APPID
  5
5FE
330
9
100
AcDbSymbolTableRecord
100
AcDbRegAppTableRecord
  2
GPARA
 70
     0
  0
APPID
  5
6C4
330
9
100
AcDbSymbolTableRecord
100
AcDbRegAppTableRecord
  2
DCO15
 70
     0
  0
APPID
  5
6C5
330
9
100
AcDbSymbolTableRecord
100
AcDbRegAppTableRecord
  2
ITEMNAME
 70
     0
  0
APPID
  5
6C6
330
9
100
AcDbSymbolTableRecord
100
AcDbRegAppTableRecord
  2
GRADE_0
 70
     0
  0
APPID
  5
B96
330
9
100
AcDbSymbolTableRecord
100
AcDbRegAppTableRecord
  2
CONTENTBLOCKICON
 70
     0
  0
ENDTAB
  0
TABLE
  2
DIMSTYLE
  5
A
330
0
100
AcDbSymbolTable
 70
     3
  0
DIMSTYLE
105
725
330
A
100
AcDbSymbolTableRecord
100
AcDbDimStyleTableRecord
  2
BIGT
 70
     0
  3

  4

  5

  6
OPEN
  7
OPEN
 40
1.0
 41
2.23
 42
0.5
 43
2.5
 44
1.0
 45
0.0
 46
0.0
 47
0.0
 48
0.0
140
2.8
141
0.0
142
0.0
143
25.4
144
1.0
145
0.0
146
1.0
147
1.0
 71
     0
 72
     0
 73
     0
 74
     0
 75
     0
 76
     0
 77
     3
 78
     8
170
     0
171
     2
172
     1
173
     1
174
     1
175
     0
176
   256
177
   256
178
    40
270
     2
271
     3
272
     3
273
     2
274
     2
340
10
275
     0
280
     0
281
     0
282
     0
283
     1
284
     8
285
     0
286
     0
287
     3
288
     0
  0
DIMSTYLE
105
7F0
102
{ACAD_REACTORS
330
805
330
806
330
A6A
330
A9B
102
}
330
A
100
AcDbSymbolTableRecord
100
AcDbDimStyleTableRecord
  2
BIGT$0
 70
     0
  3

  4
"
  5
OPEN
  6

  7

 40
1.0
 41
2.23
 42
0.5
 43
7.0
 44
1.0
 45
0.0
 46
0.0
 47
0.1
 48
0.1
140
3.0
141
0.0
142
0.0
143
0.0393701
144
1.0
145
0.0
146
0.71
147
1.0
 71
     0
 72
     0
 73
     0
 74
     0
 75
     0
 76
     0
 77
     3
 78
     8
170
     0
171
     2
172
     1
173
     0
174
     0
175
     0
176
     3
177
     3
178
    40
270
     2
271
     3
272
     3
273
     2
274
     2
340
10
275
     0
280
     0
281
     0
282
     0
283
     1
284
     8
285
     0
286
     0
287
     3
288
     0
  0
DIMSTYLE
105
7F1
330
A
100
AcDbSymbolTableRecord
100
AcDbDimStyleTableRecord
  2
BIGT$7
 70
     0
  3

  4
"
  5
OPEN
  6

  7

 40
1.0
 41
2.5
 42
0.5
 43
7.0
 44
1.0
 45
0.0
 46
0.0
 47
0.1
 48
0.1
140
5.0
141
0.0
142
0.0
143
0.0393701
144
1.0
145
0.0
146
0.71
147
1.5
 71
     0
 72
     0
 73
     0
 74
     0
 75
     0
 76
     0
 77
     3
 78
     8
170
     0
171
     2
172
     1
173
     0
174
     0
175
     0
176
     3
177
     3
178
    40
270
     2
271
     3
272
     3
273
     2
274
     2
340
10
275
     0
280
     0
281
     0
282
     0
283
     1
284
     8
285
     0
286
     0
287
     3
288
     0
  0
ENDTAB
  0
TABLE
  2
BLOCK_RECORD
  5
1
330
0
100
AcDbSymbolTable
 70
     8
  0
BLOCK_RECORD
  5
1A
102
{ACAD_XDICTIONARY
360
B94
102
}
330
1
100
AcDbSymbolTableRecord
100
AcDbBlockTableRecord
  2
*MODEL_SPACE
  0
BLOCK_RECORD
  5
17
102
{ACAD_XDICTIONARY
360
B92
102
}
330
1
100
AcDbSymbolTableRecord
100
AcDbBlockTableRecord
  2
*PAPER_SPACE
  0
BLOCK_RECORD
  5
594
330
1
100
AcDbSymbolTableRecord
100
AcDbBlockTableRecord
  2
_OPEN
  0
BLOCK_RECORD
  5
6E3
330
1
100
AcDbSymbolTableRecord
100
AcDbBlockTableRecord
  2
矢印なし
  0
BLOCK_RECORD
  5
762
330
1
100
AcDbSymbolTableRecord
100
AcDbBlockTableRecord
  2
_NONE
  0
BLOCK_RECORD
  5
765
330
1
100
AcDbSymbolTableRecord
100
AcDbBlockTableRecord
  2
1
1001
CONTENTBLOCKICON
1071
        0
1004
2800000020000000200000000100080000000000000400000000000000000000000000000000000000000000000080000080000000808000800000008000800080800000C0C0C000C0DCC000F0CAA6000020400000206000002080000020A0000020C0000020E00000400000004020000040400000406000004080000040A0
1004
000040C0000040E00000600000006020000060400000606000006080000060A0000060C0000060E00000800000008020000080400000806000008080000080A0000080C0000080E00000A0000000A0200000A0400000A0600000A0800000A0A00000A0C00000A0E00000C0000000C0200000C0400000C0600000C0800000C0
1004
A00000C0C00000C0E00000E0000000E0200000E0400000E0600000E0800000E0A00000E0C00000E0E00040000000400020004000400040006000400080004000A0004000C0004000E00040200000402020004020400040206000402080004020A0004020C0004020E000404000004040200040404000404060004040800040
1004
40A0004040C0004040E00040600000406020004060400040606000406080004060A0004060C0004060E00040800000408020004080400040806000408080004080A0004080C0004080E00040A0000040A0200040A0400040A0600040A0800040A0A00040A0C00040A0E00040C0000040C0200040C0400040C0600040C08000
1004
40C0A00040C0C00040C0E00040E0000040E0200040E0400040E0600040E0800040E0A00040E0C00040E0E00080000000800020008000400080006000800080008000A0008000C0008000E00080200000802020008020400080206000802080008020A0008020C0008020E00080400000804020008040400080406000804080
1004
008040A0008040C0008040E00080600000806020008060400080606000806080008060A0008060C0008060E00080800000808020008080400080806000808080008080A0008080C0008080E00080A0000080A0200080A0400080A0600080A0800080A0A00080A0C00080A0E00080C0000080C0200080C0400080C0600080C0
1004
800080C0A00080C0C00080C0E00080E0000080E0200080E0400080E0600080E0800080E0A00080E0C00080E0E000C0000000C0002000C0004000C0006000C0008000C000A000C000C000C000E000C0200000C0202000C0204000C0206000C0208000C020A000C020C000C020E000C0400000C0402000C0404000C0406000C0
1004
408000C040A000C040C000C040E000C0600000C0602000C0604000C0606000C0608000C060A000C060C000C060E000C0800000C0802000C0804000C0806000C0808000C080A000C080C000C080E000C0A00000C0A02000C0A04000C0A06000C0A08000C0A0A000C0A0C000C0A0E000C0C00000C0C02000C0C04000C0C06000
1004
C0C08000C0C0A000F0FBFF00A4A0A000808080000000FF0000FF000000FFFF00FF000000FF00FF00FFFF0000FFFFFF0000000000000000000000000000000000000000000000000000000000000000000000000000000000000000000000000000000000000000000000000000000000000000000000000000000000000000
1004
00000000000000000000000000000000000000000000000000000000000000000000000000000000000000000000000000000000000000000000000000000000000000000000000000000000000000000000000000000000000000000000000000000000000000000000000000000000000000000000000000000000000000
1004
00000000000000000000000000000000000000000000000000000000000000000000000000000000000000000000000000000000000000000000000000000000000000000000000000000000000000000000000000000000000000FEFEFEFEFEE7FEFEFEFEFEFEFEFEFEFEFEFEFEFEFE0000000000000000000000FEE7E7E7
1004
00E700000000E7E7000000E7E7000000FE00000000FEFEFEFEFEFEFEFEE7E7E700E700000000E7E7000000E7E7000000FE00000000FE000000000000E7E7E7E700E700000000E7E7000000E7E7000000FE00000000E7000000000000E7E7E7E700E700000000E7E7000000E7E7000000FE00000000E7000000000000E700E7
1004
0000E700FAFA00E7E7E7FB00E7E7FAFB00FE00000000E7E70000000000E7E7E7E700E7E7FAFAFAE7E7E7FBE7E7E7FAFBFAFE000000FBE7E7FBFBFBFBFBE7E7E7E7FBE7FAFAFAFAE7E7E7FBE7E7E7FAFBFAFEFB000000FE000000000000E700E70000E700FAFA00E7E7E7FB00E7E7FAFB00FE00000000FE000000000000E7E7
1004
E7E700E700000000E7E7000000E7E7000000FE00000000FE000000000000E7E7E7E700E7E7E7E7E7E7E7E7E7E7E7E7E7E7E7FE00000000FEFEFEFEFEFEFEFEE7E7E700E700000000E7E7000000E7E7000000FE0000000000000000000000FEE7E7E700E700000000E7E7000000E7E7000000FE0000000000000000000000FE
1004
FEFEFEFEE7FEFEFEFEFEFEFEFEFEFEFEFEFEFEFE0000000000000000000000000000000000000000000000000000000000000000000000000000000000000000000000000000000000000000000000000000000000000000000000000000000000000000000000000000000000000000000000000000000000000000000000
1004
00000000000000000000000000000000000000000000000000000000000000000000000000000000000000000000000000000000000000000000000000000000000000000000000000000000000000000000000000000000000000000000000000000000000000000000000000000000000000000000000000000000000000
1004
0000000000000000000000000000000000000000000000000000000000000000000000000000000000000000000000000000000000000000
  0
BLOCK_RECORD
  5
814
330
1
100
AcDbSymbolTableRecord
100
AcDbBlockTableRecord
  2
*D4
  0
BLOCK_RECORD
  5
820
330
1
100
AcDbSymbolTableRecord
100
AcDbBlockTableRecord
  2
*D5
  0
BLOCK_RECORD
  5
A6B
330
1
100
AcDbSymbolTableRecord
100
AcDbBlockTableRecord
  2
*D6
  0
BLOCK_RECORD
  5
A9C
330
1
100
AcDbSymbolTableRecord
100
AcDbBlockTableRecord
  2
*D7
  0
ENDTAB
  0
ENDSEC
  0
SECTION
  2
BLOCKS
  0
BLOCK
  5
1B
330
1A
100
AcDbEntity
  8
0
100
AcDbBlockBegin
  2
*MODEL_SPACE
 70
     0
 10
0.0
 20
0.0
 30
0.0
  3
*MODEL_SPACE
  1

  0
ENDBLK
  5
1C
330
1A
100
AcDbEntity
  8
0
100
AcDbBlockEnd
  0
BLOCK
  5
18
330
17
100
AcDbEntity
 67
     1
  8
0
100
AcDbBlockBegin
  2
*PAPER_SPACE
 70
     0
 10
0.0
 20
0.0
 30
0.0
  3
*PAPER_SPACE
  1

  0
ENDBLK
  5
19
330
17
100
AcDbEntity
 67
     1
  8
0
100
AcDbBlockEnd
  0
BLOCK
  5
598
330
594
100
AcDbEntity
  8
0
100
AcDbBlockBegin
  2
_OPEN
 70
     0
 10
0.0
 20
0.0
 30
0.0
  3
_OPEN
  1

  0
LINE
  5
595
330
594
100
AcDbEntity
  8
0
  6
BYBLOCK
 62
     0
100
AcDbLine
 10
-1.0
 20
0.16666667
 30
0.0
 11
0.0
 21
0.0
 31
0.0
  0
LINE
  5
596
330
594
100
AcDbEntity
  8
0
  6
BYBLOCK
 62
     0
100
AcDbLine
 10
-1.0
 20
-0.16666667
 30
0.0
 11
0.0
 21
0.0
 31
0.0
  0
LINE
  5
597
330
594
100
AcDbEntity
  8
0
  6
BYBLOCK
 62
     0
100
AcDbLine
 10
0.0
 20
0.0
 30
0.0
 11
-1.0
 21
0.0
 31
0.0
  0
ENDBLK
  5
599
330
594
100
AcDbEntity
  8
0
100
AcDbBlockEnd
  0
BLOCK
  5
6E4
330
6E3
100
AcDbEntity
  8
0
100
AcDbBlockBegin
  2
矢印なし
 70
     0
 10
0.0
 20
0.0
 30
0.0
  3
矢印なし
  1

  0
ENDBLK
  5
6E5
330
6E3
100
AcDbEntity
  8
0
100
AcDbBlockEnd
  0
BLOCK
  5
763
330
762
100
AcDbEntity
  8
0
100
AcDbBlockBegin
  2
_NONE
 70
     0
 10
0.0
 20
0.0
 30
0.0
  3
_NONE
  1

  0
ENDBLK
  5
764
330
762
100
AcDbEntity
  8
0
100
AcDbBlockEnd
  0
BLOCK
  5
7C0
330
765
100
AcDbEntity
  8
0
100
AcDbBlockBegin
  2
1
 70
     0
 10
0.0
 20
0.0
 30
0.0
  3
1
  1

  0
LINE
  5
CE9
330
765
100
AcDbEntity
  8
240
  6
CONTINUOUS
100
AcDbLine
 10
0.0
 20
-39.9925
 30
0.0
 11
60.6339746
 21
-39.9925
 31
0.0
  0
LINE
  5
CEA
330
765
100
AcDbEntity
  8
241
  6
HIDDEN2
100
AcDbLine
 10
37.0
 20
20.0
 30
0.0
 11
130.0
 21
20.0
 31
0.0
  0
LINE
  5
CEB
330
765
100
AcDbEntity
  8
240
  6
CONTINUOUS
100
AcDbLine
 10
0.0
 20
39.9925
 30
0.0
 11
60.6339746
 21
39.9925
 31
0.0
  0
LINE
  5
CEC
330
765
100
AcDbEntity
  8
245
  6
CENTER2
100
AcDbLine
 10
-49.0
 20
0.0
 30
0.0
 11
131.0
 21
0.0
 31
0.0
  0
LINE
  5
CED
330
765
100
AcDbEntity
  8
241
100
AcDbLine
 10
30.0
 20
0.0
 30
0.0
 11
30.0
 21
39.9925
 31
0.0
  0
LINE
  5
CEE
330
765
100
AcDbEntity
  8
241
100
AcDbLine
 10
-1.94069442
 20
27.52650809
 30
0.0
 11
-1.94069442
 21
0.0
 31
0.0
  0
LINE
  5
CEF
330
765
100
AcDbEntity
  8
241
  6
CONTINUOUS
100
AcDbLine
 10
0.0
 20
27.52650809
 30
0.0
 11
0.0
 21
0.0
 31
0.0
  0
LINE
  5
CF0
330
765
100
AcDbEntity
  8
241
100
AcDbLine
 10
-46.5
 20
26.4126003
 30
0.0
 11
-46.5
 21
0.0
 31
0.0
  0
LINE
  5
CF1
330
765
100
AcDbEntity
  8
240
  6
CONTINUOUS
100
AcDbLine
 10
-48.0
 20
25.54657489
 30
0.0
 11
-48.0
 21
0.0
 31
0.0
  0
LINE
  5
CF2
330
765
100
AcDbEntity
  8
241
  6
CONTINUOUS
100
AcDbLine
 10
9.95
 20
11.77167262
 30
0.0
 11
9.95
 21
38.22077681
 31
0.0
1001
GRPNAME
1000
PASTMD1I
  0
LINE
  5
CF3
330
765
100
AcDbEntity
  8
241
  6
CONTINUOUS
100
AcDbLine
 10
14.05
 20
11.77167262
 30
0.0
 11
14.05
 21
38.22077681
 31
0.0
1001
GRPNAME
1000
PASTMD1I
  0
SPLINE
  5
CF4
330
765
100
AcDbEntity
  8
241
  6
CONTINUOUS
100
AcDbSpline
210
0.0
220
0.0
230
1.0
 70
     8
 71
     3
 72
     9
 73
     5
 74
     3
 42
0.0000000001
 43
0.0000000001
 44
0.0000000001
 40
0.0
 40
0.0
 40
0.0
 40
0.0
 40
13.46435379310555
 40
26.92870758621118
 40
26.92870758621118
 40
26.92870758621118
 40
26.92870758621118
 10
14.05000000000001
 20
38.22077681038439
 30
0.0
 10
15.31491550517341
 20
33.8125927785711
 30
0.0
 10
17.84474651552023
 20
24.99622471494448
 30
0.0
 10
15.31491550517341
 20
16.17985665131786
 30
0.0
 10
14.05000000000001
 20
11.77167261950454
 30
0.0
 11
14.05000000000001
 21
38.22077681038439
 31
0.0
 11
16.57983101034681
 21
24.9962247149445
 31
0.0
 11
14.05000000000001
 21
11.77167261950454
 31
0.0
1001
GRPNAME
1000
PASTMD1I
  0
SPLINE
  5
CF5
330
765
100
AcDbEntity
  8
241
  6
CONTINUOUS
100
AcDbSpline
210
0.0
220
0.0
230
1.0
 70
     8
 71
     3
 72
     9
 73
     5
 74
     3
 42
0.0000000001
 43
0.0000000001
 44
0.0000000001
 40
0.0
 40
0.0
 40
0.0
 40
0.0
 40
13.46435379310561
 40
26.92870758621124
 40
26.92870758621124
 40
26.92870758621124
 40
26.92870758621124
 10
9.949999999999988
 20
11.7716726195045
 30
0.0
 10
8.685084494826554
 20
16.17985665131781
 30
0.0
 10
6.155253484479684
 20
24.99622471494445
 30
0.0
 10
8.685084494826554
 20
33.81259277857107
 30
0.0
 10
9.949999999999988
 20
38.22077681038439
 30
0.0
 11
9.949999999999988
 21
11.7716726195045
 31
0.0
 11
7.420168989653119
 21
24.99622471494444
 31
0.0
 11
9.949999999999988
 21
38.22077681038439
 31
0.0
1001
GRPNAME
1000
PASTMD1I
  0
LINE
  5
CF6
330
765
100
AcDbEntity
  8
240
  6
CONTINUOUS
100
AcDbLine
 10
-1.94069442
 20
-27.52650809
 30
0.0
 11
-46.5
 21
-26.4126003
 31
0.0
  0
SPLINE
  5
CF7
330
765
100
AcDbEntity
  8
241
  6
HIDDEN2
100
AcDbSpline
210
0.0
220
0.0
230
1.0
 70
     8
 71
     3
 72
     9
 73
     5
 74
     3
 42
0.0000000001
 43
0.0000000001
 44
0.0000000001
 40
0.0
 40
0.0
 40
0.0
 40
0.0
 40
5.045058020553432
 40
10.09011604110689
 40
10.09011604110689
 40
10.09011604110689
 40
10.09011604110689
 10
-40.0000000000013
 20
4.418000000000056
 30
0.0
 10
-38.78202150770857
 20
2.945333333333395
 30
0.0
 10
-36.34606452312311
 20
0.0000000000000642
 30
0.0
 10
-38.78202150770857
 20
-2.945333333333275
 30
0.0
 10
-40.0000000000013
 20
-4.417999999999949
 30
0.0
 11
-40.0000000000013
 21
4.418000000000056
 31
0.0
 11
-37.56404301541584
 21
0.0000000000000711
 31
0.0
 11
-40.0000000000013
 21
-4.417999999999949
 31
0.0
  0
LINE
  5
CF8
330
765
100
AcDbEntity
  8
241
  6
HIDDEN2
100
AcDbLine
 10
-40.0
 20
-4.418
 30
0.0
 11
-40.0
 21
4.418
 31
0.0
  0
LINE
  5
CF9
330
765
100
AcDbEntity
  8
240
  6
CONTINUOUS
100
AcDbLine
 10
-48.0
 20
-25.54657489
 30
0.0
 11
-48.0
 21
0.0
 31
0.0
  0
LINE
  5
CFA
330
765
100
AcDbEntity
  8
241
100
AcDbLine
 10
-46.5
 20
-26.4126003
 30
0.0
 11
-46.5
 21
0.0
 31
0.0
  0
LINE
  5
CFB
330
765
100
AcDbEntity
  8
240
  6
CONTINUOUS
100
AcDbLine
 10
-46.5
 20
-26.4126003
 30
0.0
 11
-48.0
 21
-25.54657489
 31
0.0
  0
LINE
  5
CFC
330
765
100
AcDbEntity
  8
241
  6
HIDDEN2
100
AcDbLine
 10
-46.5
 20
-4.418
 30
0.0
 11
-40.0
 21
-4.418
 31
0.0
  0
LINE
  5
CFD
330
765
100
AcDbEntity
  8
241
  6
HIDDEN2
100
AcDbLine
 10
-46.5
 20
-4.418
 30
0.0
 11
-48.0
 21
-3.5519746
 31
0.0
  0
LINE
  5
CFE
330
765
100
AcDbEntity
  8
241
  6
HIDDEN2
100
AcDbLine
 10
-46.5
 20
4.418
 30
0.0
 11
-40.0
 21
4.418
 31
0.0
  0
LINE
  5
CFF
330
765
100
AcDbEntity
  8
241
  6
HIDDEN2
100
AcDbLine
 10
-48.0
 20
3.5519746
 30
0.0
 11
-46.5
 21
4.418
 31
0.0
  0
LINE
  5
D00
330
765
100
AcDbEntity
  8
241
100
AcDbLine
 10
30.0
 20
-39.9925
 30
0.0
 11
30.0
 21
0.0
 31
0.0
  0
LINE
  5
D01
330
765
100
AcDbEntity
  8
240
  6
CONTINUOUS
100
AcDbLine
 10
0.0
 20
-27.52650809
 30
0.0
 11
0.0
 21
-39.9925
 31
0.0
  0
SPLINE
  5
D02
330
765
100
AcDbEntity
  8
241
  6
CONTINUOUS
100
AcDbSpline
210
0.0
220
0.0
230
1.0
 70
     8
 71
     3
 72
     9
 73
     5
 74
     3
 42
0.0000000001
 43
0.0000000001
 44
0.0000000001
 40
0.0
 40
0.0
 40
0.0
 40
0.0
 40
13.46435379310565
 40
26.92870758621126
 40
26.92870758621126
 40
26.92870758621126
 40
26.92870758621126
 10
9.949999999999988
 20
-11.77167261950441
 30
0.0
 10
8.685084494826552
 20
-16.17985665131773
 30
0.0
 10
6.155253484479686
 20
-24.99622471494437
 30
0.0
 10
8.685084494826554
 20
-33.81259277857101
 30
0.0
 10
9.949999999999988
 20
-38.22077681038432
 30
0.0
 11
9.949999999999988
 21
-11.77167261950441
 31
0.0
 11
7.420168989653119
 21
-24.99622471494439
 31
0.0
 11
9.949999999999988
 21
-38.22077681038432
 31
0.0
1001
GRPNAME
1000
PASTMD1I
  0
SPLINE
  5
D03
330
765
100
AcDbEntity
  8
241
  6
CONTINUOUS
100
AcDbSpline
210
0.0
220
0.0
230
1.0
 70
     8
 71
     3
 72
     9
 73
     5
 74
     3
 42
0.0000000001
 43
0.0000000001
 44
0.0000000001
 40
0.0
 40
0.0
 40
0.0
 40
0.0
 40
13.46435379310556
 40
26.92870758621117
 40
26.92870758621117
 40
26.92870758621117
 40
26.92870758621117
 10
14.05000000000001
 20
-38.22077681038431
 30
0.0
 10
15.31491550517341
 20
-33.81259277857101
 30
0.0
 10
17.84474651552022
 20
-24.9962247149444
 30
0.0
 10
15.31491550517341
 20
-16.17985665131778
 30
0.0
 10
14.05000000000001
 20
-11.77167261950447
 30
0.0
 11
14.05000000000001
 21
-38.22077681038431
 31
0.0
 11
16.57983101034681
 21
-24.99622471494442
 31
0.0
 11
14.05000000000001
 21
-11.77167261950447
 31
0.0
1001
GRPNAME
1000
PASTMD1I
  0
LINE
  5
D04
330
765
100
AcDbEntity
  8
241
  6
CONTINUOUS
100
AcDbLine
 10
14.05
 20
-11.77167262
 30
0.0
 11
14.05
 21
-38.22077681
 31
0.0
1001
GRPNAME
1000
PASTMD1I
  0
LINE
  5
D05
330
765
100
AcDbEntity
  8
241
  6
CONTINUOUS
100
AcDbLine
 10
9.95
 20
-11.77167262
 30
0.0
 11
9.95
 21
-38.22077681
 31
0.0
1001
GRPNAME
1000
PASTMD1I
  0
LINE
  5
D06
330
765
100
AcDbEntity
  8
241
  6
CONTINUOUS
100
AcDbLine
 10
9.95
 20
-38.22077681
 30
0.0
 11
14.05
 21
-38.22077681
 31
0.0
1001
GRPNAME
1000
PASTMD1I
  0
LINE
  5
D07
330
765
100
AcDbEntity
  8
241
  6
CONTINUOUS
100
AcDbLine
 10
0.0
 20
-27.52650809
 30
0.0
 11
0.0
 21
0.0
 31
0.0
  0
LINE
  5
D08
330
765
100
AcDbEntity
  8
241
100
AcDbLine
 10
-1.94069442
 20
-27.52650809
 30
0.0
 11
-1.94069442
 21
0.0
 31
0.0
  0
LINE
  5
D09
330
765
100
AcDbEntity
  8
240
100
AcDbLine
 10
-1.94069442
 20
-27.52650809
 30
0.0
 11
0.0
 21
-27.52650809
 31
0.0
  0
CIRCLE
  5
D0A
330
765
100
AcDbEntity
  8
241
  6
CONTINUOUS
100
AcDbCircle
 10
12.0
 20
0.0
 30
0.0
 40
6.0
  0
LINE
  5
D0B
330
765
100
AcDbEntity
  8
241
  6
CONTINUOUS
100
AcDbLine
 10
9.95
 20
-11.77167262
 30
0.0
 11
14.05
 21
-11.77167262
 31
0.0
1001
GRPNAME
1000
PASTMD1I
  0
LINE
  5
D0C
330
765
100
AcDbEntity
  8
241
  6
CONTINUOUS
100
AcDbLine
 10
9.95
 20
11.77167262
 30
0.0
 11
14.05
 21
11.77167262
 31
0.0
1001
GRPNAME
1000
PASTMD1I
  0
LINE
  5
D0D
330
765
100
AcDbEntity
  8
240
  6
CONTINUOUS
100
AcDbLine
 10
-1.94069442
 20
27.52650809
 30
0.0
 11
-46.5
 21
26.4126003
 31
0.0
  0
LINE
  5
D0E
330
765
100
AcDbEntity
  8
240
  6
CONTINUOUS
100
AcDbLine
 10
-46.5
 20
26.4126003
 30
0.0
 11
-48.0
 21
25.54657489
 31
0.0
  0
LINE
  5
D0F
330
765
100
AcDbEntity
  8
240
  6
CONTINUOUS
100
AcDbLine
 10
0.0
 20
27.52650809
 30
0.0
 11
0.0
 21
39.9925
 31
0.0
  0
LINE
  5
D10
330
765
100
AcDbEntity
  8
240
100
AcDbLine
 10
-1.94069442
 20
27.52650809
 30
0.0
 11
0.0
 21
27.52650809
 31
0.0
  0
LINE
  5
D11
330
765
100
AcDbEntity
  8
241
  6
CONTINUOUS
100
AcDbLine
 10
9.95
 20
38.22077681
 30
0.0
 11
14.05
 21
38.22077681
 31
0.0
1001
GRPNAME
1000
PASTMD1I
  0
LINE
  5
D12
330
765
100
AcDbEntity
  8
241
100
AcDbLine
 10
62.3660254
 20
40.0
 30
0.0
 11
62.3660254
 21
0.0
 31
0.0
  0
LINE
  5
D13
330
765
100
AcDbEntity
  8
241
100
AcDbLine
 10
65.6339746
 20
40.0
 30
0.0
 11
65.6339746
 21
0.0
 31
0.0
  0
LINE
  5
D14
330
765
100
AcDbEntity
  8
241
100
AcDbLine
 10
67.3660254
 20
40.0
 30
0.0
 11
67.3660254
 21
0.0
 31
0.0
  0
LINE
  5
D15
330
765
100
AcDbEntity
  8
241
100
AcDbLine
 10
92.6339746
 20
40.0
 30
0.0
 11
92.6339746
 21
0.0
 31
0.0
  0
LINE
  5
D16
330
765
100
AcDbEntity
  8
241
100
AcDbLine
 10
94.3660254
 20
40.0
 30
0.0
 11
94.3660254
 21
0.0
 31
0.0
  0
LINE
  5
D17
330
765
100
AcDbEntity
  8
241
100
AcDbLine
 10
97.6339746
 20
40.0
 30
0.0
 11
97.6339746
 21
0.0
 31
0.0
  0
LINE
  5
D18
330
765
100
AcDbEntity
  8
241
100
AcDbLine
 10
99.3660254
 20
40.0
 30
0.0
 11
99.3660254
 21
0.0
 31
0.0
  0
LINE
  5
D19
330
765
100
AcDbEntity
  8
241
100
AcDbLine
 10
60.6339746
 20
39.9925
 30
0.0
 11
60.6339746
 21
0.0
 31
0.0
  0
LINE
  5
D1A
330
765
100
AcDbEntity
  8
241
100
AcDbLine
 10
125.17691454
 20
39.28251206
 30
0.0
 11
125.17691454
 21
0.0
 31
0.0
  0
LINE
  5
D1B
330
765
100
AcDbEntity
  8
240
100
AcDbLine
 10
129.89777748
 20
22.38149964
 30
0.0
 11
125.57411221
 21
38.51763809
 31
0.0
  0
LINE
  5
D1C
330
765
100
AcDbEntity
  8
240
100
AcDbLine
 10
123.64226056
 20
-40.0
 30
0.0
 11
99.3660254
 21
-40.0
 31
0.0
  0
LWPOLYLINE
  5
D1D
330
765
100
AcDbEntity
  8
241
100
AcDbPolyline
 90
        6
 70
     1
 43
0.0
 10
108.0
 20
-2.30940108
 10
112.0
 20
-4.61880215
 10
116.0
 20
-2.30940108
 10
116.0
 20
2.30940108
 10
112.0
 20
4.61880215
 10
108.0
 20
2.30940108
  0
CIRCLE
  5
D1E
330
765
100
AcDbEntity
  8
241
100
AcDbCircle
 10
112.0
 20
0.0
 30
0.0
 40
8.0
  0
CIRCLE
  5
D1F
330
765
100
AcDbEntity
  8
242
100
AcDbCircle
 10
112.0
 20
0.0
 30
0.0
 40
7.25
  0
LINE
  5
D20
330
765
100
AcDbEntity
  8
241
100
AcDbLine
 10
60.6339746
 20
-39.9925
 30
0.0
 11
60.6339746
 21
0.0
 31
0.0
  0
LINE
  5
D21
330
765
100
AcDbEntity
  8
241
100
AcDbLine
 10
99.3660254
 20
-40.0
 30
0.0
 11
99.3660254
 21
0.0
 31
0.0
  0
LINE
  5
D22
330
765
100
AcDbEntity
  8
241
100
AcDbLine
 10
97.6339746
 20
-40.0
 30
0.0
 11
97.6339746
 21
0.0
 31
0.0
  0
LINE
  5
D23
330
765
100
AcDbEntity
  8
241
100
AcDbLine
 10
94.3660254
 20
-40.0
 30
0.0
 11
94.3660254
 21
0.0
 31
0.0
  0
LINE
  5
D24
330
765
100
AcDbEntity
  8
241
100
AcDbLine
 10
92.6339746
 20
-40.0
 30
0.0
 11
92.6339746
 21
0.0
 31
0.0
  0
LINE
  5
D25
330
765
100
AcDbEntity
  8
241
100
AcDbLine
 10
67.3660254
 20
-40.0
 30
0.0
 11
67.3660254
 21
0.0
 31
0.0
  0
LINE
  5
D26
330
765
100
AcDbEntity
  8
241
100
AcDbLine
 10
65.6339746
 20
-40.0
 30
0.0
 11
65.6339746
 21
0.0
 31
0.0
  0
LINE
  5
D27
330
765
100
AcDbEntity
  8
241
100
AcDbLine
 10
62.3660254
 20
-40.0
 30
0.0
 11
62.3660254
 21
0.0
 31
0.0
  0
LINE
  5
D28
330
765
100
AcDbEntity
  8
240
100
AcDbLine
 10
67.3660254
 20
-40.0
 30
0.0
 11
92.6339746
 21
-40.0
 31
0.0
  0
LINE
  5
D29
330
765
100
AcDbEntity
  8
240
100
AcDbLine
 10
66.1339746
 20
-39.5
 30
0.0
 11
66.8660254
 21
-39.5
 31
0.0
  0
LINE
  5
D2A
330
765
100
AcDbEntity
  8
240
100
AcDbLine
 10
61.1264746
 20
-39.5
 30
0.0
 11
61.8660254
 21
-39.5
 31
0.0
  0
LINE
  5
D2B
330
765
100
AcDbEntity
  8
240
100
AcDbLine
 10
61.1264746
 20
-39.5
 30
0.0
 11
60.6339746
 21
-39.9925
 31
0.0
  0
LINE
  5
D2C
330
765
100
AcDbEntity
  8
240
100
AcDbLine
 10
66.1339746
 20
-39.5
 30
0.0
 11
65.6339746
 21
-40.0
 31
0.0
  0
LINE
  5
D2D
330
765
100
AcDbEntity
  8
240
100
AcDbLine
 10
62.3660254
 20
-40.0
 30
0.0
 11
65.6339746
 21
-40.0
 31
0.0
  0
LINE
  5
D2E
330
765
100
AcDbEntity
  8
240
100
AcDbLine
 10
62.3660254
 20
-40.0
 30
0.0
 11
61.8660254
 21
-39.5
 31
0.0
  0
LINE
  5
D2F
330
765
100
AcDbEntity
  8
240
100
AcDbLine
 10
67.3660254
 20
-40.0
 30
0.0
 11
66.8660254
 21
-39.5
 31
0.0
  0
LINE
  5
D30
330
765
100
AcDbEntity
  8
240
100
AcDbLine
 10
94.3660254
 20
-40.0
 30
0.0
 11
93.8660254
 21
-39.5
 31
0.0
  0
LINE
  5
D31
330
765
100
AcDbEntity
  8
240
100
AcDbLine
 10
93.1339746
 20
-39.5
 30
0.0
 11
92.6339746
 21
-40.0
 31
0.0
  0
LINE
  5
D32
330
765
100
AcDbEntity
  8
240
100
AcDbLine
 10
93.1339746
 20
-39.5
 30
0.0
 11
93.8660254
 21
-39.5
 31
0.0
  0
LINE
  5
D33
330
765
100
AcDbEntity
  8
240
100
AcDbLine
 10
98.1339746
 20
-39.5
 30
0.0
 11
98.8660254
 21
-39.5
 31
0.0
  0
LINE
  5
D34
330
765
100
AcDbEntity
  8
240
100
AcDbLine
 10
98.1339746
 20
-39.5
 30
0.0
 11
97.6339746
 21
-40.0
 31
0.0
  0
LINE
  5
D35
330
765
100
AcDbEntity
  8
240
100
AcDbLine
 10
94.3660254
 20
-40.0
 30
0.0
 11
97.6339746
 21
-40.0
 31
0.0
  0
LINE
  5
D36
330
765
100
AcDbEntity
  8
240
100
AcDbLine
 10
99.3660254
 20
-40.0
 30
0.0
 11
98.8660254
 21
-39.5
 31
0.0
  0
CIRCLE
  5
D37
330
765
100
AcDbEntity
  8
242
100
AcDbCircle
 10
80.0
 20
0.0
 30
0.0
 40
7.25
  0
CIRCLE
  5
D38
330
765
100
AcDbEntity
  8
241
100
AcDbCircle
 10
80.0
 20
0.0
 30
0.0
 40
8.0
  0
CIRCLE
  5
D39
330
765
100
AcDbEntity
  8
241
100
AcDbCircle
 10
48.0
 20
0.0
 30
0.0
 40
8.0
  0
LWPOLYLINE
  5
D3A
330
765
100
AcDbEntity
  8
241
100
AcDbPolyline
 90
        6
 70
     1
 43
0.0
 10
44.0
 20
-2.30940108
 10
48.0
 20
-4.61880215
 10
52.0
 20
-2.30940108
 10
52.0
 20
2.30940108
 10
48.0
 20
4.61880215
 10
44.0
 20
2.30940108
  0
LINE
  5
D3B
330
765
100
AcDbEntity
  8
245
100
AcDbLine
 10
48.0
 20
9.0
 30
0.0
 11
48.0
 21
-9.0
 31
0.0
  0
CIRCLE
  5
D3C
330
765
100
AcDbEntity
  8
242
100
AcDbCircle
 10
48.0
 20
0.0
 30
0.0
 40
7.25
  0
LINE
  5
D3D
330
765
100
AcDbEntity
  8
245
100
AcDbLine
 10
112.0
 20
9.0
 30
0.0
 11
112.0
 21
-9.0
 31
0.0
  0
LWPOLYLINE
  5
D3E
330
765
100
AcDbEntity
  8
241
100
AcDbPolyline
 90
        6
 70
     1
 43
0.0
 10
76.0
 20
-2.30940108
 10
80.0
 20
-4.61880215
 10
84.0
 20
-2.30940108
 10
84.0
 20
2.30940108
 10
80.0
 20
4.61880215
 10
76.0
 20
2.30940108
  0
LINE
  5
D3F
330
765
100
AcDbEntity
  8
245
100
AcDbLine
 10
80.0
 20
9.0
 30
0.0
 11
80.0
 21
-9.0
 31
0.0
  0
LINE
  5
D40
330
765
100
AcDbEntity
  8
241
100
AcDbLine
 10
125.17691454
 20
-39.28251206
 30
0.0
 11
125.17691454
 21
0.0
 31
0.0
  0
LINE
  5
D41
330
765
100
AcDbEntity
  8
240
100
AcDbLine
 10
129.89777748
 20
-22.38149964
 30
0.0
 11
125.57411221
 21
-38.51763809
 31
0.0
  0
ARC
  5
D42
330
765
100
AcDbEntity
  8
240
100
AcDbCircle
 10
123.64226056
 20
-38.0
 30
0.0
 40
2.0
100
AcDbArc
 50
270.0
 51
345.0
  0
LINE
  5
D43
330
765
100
AcDbEntity
  8
240
100
AcDbLine
 10
130.0
 20
-21.60504251
 30
0.0
 11
130.0
 21
0.0
 31
0.0
  0
ARC
  5
D44
330
765
100
AcDbEntity
  8
240
100
AcDbCircle
 10
127.0
 20
-21.60504251
 30
0.0
 40
3.0
100
AcDbArc
 50
345.0
 51
0.0
  0
LINE
  5
D45
330
765
100
AcDbEntity
  8
240
100
AcDbLine
 10
130.0
 20
21.60504251
 30
0.0
 11
130.0
 21
0.0
 31
0.0
  0
ARC
  5
D46
330
765
100
AcDbEntity
  8
240
100
AcDbCircle
 10
127.0
 20
21.60504251
 30
0.0
 40
3.0
100
AcDbArc
 50
0.0
 51
15.0
  0
LINE
  5
D47
330
765
100
AcDbEntity
  8
240
100
AcDbLine
 10
123.64226056
 20
40.0
 30
0.0
 11
99.3660254
 21
40.0
 31
0.0
  0
LINE
  5
D48
330
765
100
AcDbEntity
  8
240
100
AcDbLine
 10
67.3660254
 20
40.0
 30
0.0
 11
92.6339746
 21
40.0
 31
0.0
  0
LINE
  5
D49
330
765
100
AcDbEntity
  8
240
100
AcDbLine
 10
66.1339746
 20
39.5
 30
0.0
 11
66.8660254
 21
39.5
 31
0.0
  0
LINE
  5
D4A
330
765
100
AcDbEntity
  8
240
100
AcDbLine
 10
61.1264746
 20
39.5
 30
0.0
 11
61.8660254
 21
39.5
 31
0.0
  0
LINE
  5
D4B
330
765
100
AcDbEntity
  8
240
100
AcDbLine
 10
61.1264746
 20
39.5
 30
0.0
 11
60.6339746
 21
39.9925
 31
0.0
  0
LINE
  5
D4C
330
765
100
AcDbEntity
  8
240
100
AcDbLine
 10
62.3660254
 20
40.0
 30
0.0
 11
61.8660254
 21
39.5
 31
0.0
  0
LINE
  5
D4D
330
765
100
AcDbEntity
  8
240
100
AcDbLine
 10
62.3660254
 20
40.0
 30
0.0
 11
65.6339746
 21
40.0
 31
0.0
  0
LINE
  5
D4E
330
765
100
AcDbEntity
  8
240
100
AcDbLine
 10
66.1339746
 20
39.5
 30
0.0
 11
65.6339746
 21
40.0
 31
0.0
  0
LINE
  5
D4F
330
765
100
AcDbEntity
  8
240
100
AcDbLine
 10
67.3660254
 20
40.0
 30
0.0
 11
66.8660254
 21
39.5
 31
0.0
  0
LINE
  5
D50
330
765
100
AcDbEntity
  8
240
100
AcDbLine
 10
94.3660254
 20
40.0
 30
0.0
 11
93.8660254
 21
39.5
 31
0.0
  0
LINE
  5
D51
330
765
100
AcDbEntity
  8
240
100
AcDbLine
 10
93.1339746
 20
39.5
 30
0.0
 11
93.8660254
 21
39.5
 31
0.0
  0
LINE
  5
D52
330
765
100
AcDbEntity
  8
240
100
AcDbLine
 10
93.1339746
 20
39.5
 30
0.0
 11
92.6339746
 21
40.0
 31
0.0
  0
LINE
  5
D53
330
765
100
AcDbEntity
  8
240
100
AcDbLine
 10
98.1339746
 20
39.5
 30
0.0
 11
98.8660254
 21
39.5
 31
0.0
  0
LINE
  5
D54
330
765
100
AcDbEntity
  8
240
100
AcDbLine
 10
94.3660254
 20
40.0
 30
0.0
 11
97.6339746
 21
40.0
 31
0.0
  0
LINE
  5
D55
330
765
100
AcDbEntity
  8
240
100
AcDbLine
 10
98.1339746
 20
39.5
 30
0.0
 11
97.6339746
 21
40.0
 31
0.0
  0
LINE
  5
D56
330
765
100
AcDbEntity
  8
240
100
AcDbLine
 10
99.3660254
 20
40.0
 30
0.0
 11
98.8660254
 21
39.5
 31
0.0
  0
ARC
  5
D57
330
765
100
AcDbEntity
  8
240
100
AcDbCircle
 10
123.64226056
 20
38.0
 30
0.0
 40
2.0
100
AcDbArc
 50
15.0
 51
90.0
  0
ENDBLK
  5
7C1
330
765
100
AcDbEntity
  8
0
100
AcDbBlockEnd
  0
BLOCK
  5
81E
330
814
100
AcDbEntity
  8
0
100
AcDbBlockBegin
  2
*D4
 70
     1
 10
0.0
 20
0.0
 30
0.0
  3
*D4
  1

  0
LINE
  5
C7A
330
814
100
AcDbEntity
  8
250
  6
CONTINUOUS
 62
     3
100
AcDbLine
 10
37.0
 20
20.5
 30
0.0
 11
37.0
 21
57.0
 31
0.0
  0
LINE
  5
C7B
330
814
100
AcDbEntity
  8
250
  6
CONTINUOUS
 62
     3
100
AcDbLine
 10
130.0
 20
22.10504251
 30
0.0
 11
130.0
 21
57.0
 31
0.0
  0
LINE
  5
C7C
330
814
100
AcDbEntity
  8
250
  6
CONTINUOUS
 62
     3
100
AcDbLine
 10
39.23
 20
56.0
 30
0.0
 11
127.77
 21
56.0
 31
0.0
  0
INSERT
  5
C7D
330
814
100
AcDbEntity
  8
250
  6
CONTINUOUS
 62
     3
100
AcDbBlockReference
  2
_OPEN
 10
37.0
 20
56.0
 30
0.0
 41
2.23
 42
2.23
 43
2.23
 50
180.0
  0
INSERT
  5
C7E
330
814
100
AcDbEntity
  8
250
  6
CONTINUOUS
 62
     3
100
AcDbBlockReference
  2
_OPEN
 10
130.0
 20
56.0
 30
0.0
 41
2.23
 42
2.23
 43
2.23
  0
MTEXT
  5
C7F
330
814
100
AcDbEntity
  8
250
  6
CONTINUOUS
 62
    40
100
AcDbMText
 10
84.93488592
 20
58.5
 30
0.0
 40
3.0
 41
0.0
 71
     5
 72
     1
  1
\A1;（max.93）
1001
ACAD
1000
MTEXTBEGIN
1070
    73
1070
     1
1070
    44
1040
1.0
1070
    74
1070
     0
1000
MTEXTEND
1000
MTEXTBEGIN
1070
    73
1070
     1
1070
    44
1040
1.0
1070
    74
1070
     0
1000
MTEXTEND
  0
POINT
  5
C80
330
814
100
AcDbEntity
  8
DEFPOINTS
  6
CONTINUOUS
 62
     0
100
AcDbPoint
 10
37.0
 20
20.0
 30
0.0
  0
POINT
  5
C81
330
814
100
AcDbEntity
  8
DEFPOINTS
  6
CONTINUOUS
 62
     0
100
AcDbPoint
 10
130.0
 20
21.60504251
 30
0.0
  0
POINT
  5
C82
330
814
100
AcDbEntity
  8
DEFPOINTS
  6
CONTINUOUS
 62
     0
100
AcDbPoint
 10
130.0
 20
56.0
 30
0.0
  0
ENDBLK
  5
81F
330
814
100
AcDbEntity
  8
0
100
AcDbBlockEnd
  0
BLOCK
  5
82A
330
820
100
AcDbEntity
  8
0
100
AcDbBlockBegin
  2
*D5
 70
     1
 10
0.0
 20
0.0
 30
0.0
  3
*D5
  1

  0
LINE
  5
C71
330
820
100
AcDbEntity
  8
250
  6
CONTINUOUS
 62
     3
100
AcDbLine
 10
0.0
 20
40.4925
 30
0.0
 11
0.0
 21
64.0
 31
0.0
  0
LINE
  5
C72
330
820
100
AcDbEntity
  8
250
  6
CONTINUOUS
 62
     3
100
AcDbLine
 10
130.0
 20
22.10504251
 30
0.0
 11
130.0
 21
64.0
 31
0.0
  0
LINE
  5
C73
330
820
100
AcDbEntity
  8
250
  6
CONTINUOUS
 62
     3
100
AcDbLine
 10
2.23
 20
63.0
 30
0.0
 11
127.77
 21
63.0
 31
0.0
  0
INSERT
  5
C74
330
820
100
AcDbEntity
  8
250
  6
CONTINUOUS
 62
     3
100
AcDbBlockReference
  2
_OPEN
 10
0.0
 20
63.0
 30
0.0
 41
2.23
 42
2.23
 43
2.23
 50
180.0
  0
INSERT
  5
C75
330
820
100
AcDbEntity
  8
250
  6
CONTINUOUS
 62
     3
100
AcDbBlockReference
  2
_OPEN
 10
130.0
 20
63.0
 30
0.0
 41
2.23
 42
2.23
 43
2.23
  0
MTEXT
  5
C76
330
820
100
AcDbEntity
  8
250
  6
CONTINUOUS
 62
    40
100
AcDbMText
 10
67.7388042
 20
65.5
 30
0.0
 40
3.0
 41
0.0
 71
     5
 72
     1
  1
\A1;130
1001
ACAD
1000
MTEXTBEGIN
1070
    73
1070
     1
1070
    44
1040
1.0
1070
    74
1070
     0
1000
MTEXTEND
1000
MTEXTBEGIN
1070
    73
1070
     1
1070
    44
1040
1.0
1070
    74
1070
     0
1000
MTEXTEND
  0
POINT
  5
C77
330
820
100
AcDbEntity
  8
DEFPOINTS
  6
CONTINUOUS
 62
     0
100
AcDbPoint
 10
0.0
 20
39.9925
 30
0.0
  0
POINT
  5
C78
330
820
100
AcDbEntity
  8
DEFPOINTS
  6
CONTINUOUS
 62
     0
100
AcDbPoint
 10
130.0
 20
21.60504251
 30
0.0
  0
POINT
  5
C79
330
820
100
AcDbEntity
  8
DEFPOINTS
  6
CONTINUOUS
 62
     0
100
AcDbPoint
 10
130.0
 20
63.0
 30
0.0
  0
ENDBLK
  5
82B
330
820
100
AcDbEntity
  8
0
100
AcDbBlockEnd
  0
BLOCK
  5
A73
330
A6B
100
AcDbEntity
  8
0
100
AcDbBlockBegin
  2
*D6
 70
     1
 10
0.0
 20
0.0
 30
0.0
  3
*D6
  1

  0
LINE
  5
AE5
330
A6B
100
AcDbEntity
  8
250
  6
CONTINUOUS
 62
     3
100
AcDbLine
 10
130.5
 20
20.0
 30
0.0
 11
144.5
 21
20.0
 31
0.0
  0
LINE
  5
AE6
330
A6B
100
AcDbEntity
  8
250
  6
CONTINUOUS
 62
     3
100
AcDbLine
 10
143.5
 20
-20.0
 30
0.0
 11
143.5
 21
17.77
 31
0.0
  0
INSERT
  5
AE7
330
A6B
100
AcDbEntity
  8
250
  6
CONTINUOUS
 62
     3
100
AcDbBlockReference
  2
_OPEN
 10
143.5
 20
20.0
 30
0.0
 41
2.23
 42
2.23
 43
2.23
 50
90.0
  0
MTEXT
  5
AE8
330
A6B
100
AcDbEntity
  8
250
  6
CONTINUOUS
 62
    40
100
AcDbMText
 10
141.0
 20
0.0
 30
0.0
 40
3.0
 41
0.0
 71
     5
 72
     1
  1
\A1;{\H3;\U+2205}40
 11
0.0
 21
1.0
 31
0.0
1001
ACAD
1000
MTEXTBEGIN
1070
    73
1070
     1
1070
    44
1040
1.0
1070
    74
1070
     0
1000
MTEXTEND
1000
MTEXTBEGIN
1070
    73
1070
     1
1070
    44
1040
1.0
1070
    74
1070
     0
1000
MTEXTEND
1000
MTEXTBEGIN
1070
    73
1070
     1
1070
    44
1040
1.0
1070
    74
1070
     0
1000
MTEXTEND
  0
POINT
  5
AE9
330
A6B
100
AcDbEntity
  8
DEFPOINTS
  6
CONTINUOUS
 62
     0
100
AcDbPoint
 10
130.0
 20
-20.0
 30
0.0
  0
POINT
  5
AEA
330
A6B
100
AcDbEntity
  8
DEFPOINTS
  6
CONTINUOUS
 62
     0
100
AcDbPoint
 10
130.0
 20
20.0
 30
0.0
  0
POINT
  5
AEB
330
A6B
100
AcDbEntity
  8
DEFPOINTS
  6
CONTINUOUS
 62
     0
100
AcDbPoint
 10
143.5
 20
20.0
 30
0.0
  0
ENDBLK
  5
A74
330
A6B
100
AcDbEntity
  8
0
100
AcDbBlockEnd
  0
BLOCK
  5
AA6
330
A9C
100
AcDbEntity
  8
0
100
AcDbBlockBegin
  2
*D7
 70
     1
 10
0.0
 20
0.0
 30
0.0
  3
*D7
  1

  0
LINE
  5
ACA
330
A9C
100
AcDbEntity
  8
250
  6
CONTINUOUS
 62
     3
100
AcDbLine
 10
124.14226056
 20
-40.0
 30
0.0
 11
151.5
 21
-40.0
 31
0.0
  0
LINE
  5
ACB
330
A9C
100
AcDbEntity
  8
250
  6
CONTINUOUS
 62
     3
100
AcDbLine
 10
124.14226056
 20
40.0
 30
0.0
 11
151.5
 21
40.0
 31
0.0
  0
LINE
  5
ACC
330
A9C
100
AcDbEntity
  8
250
  6
CONTINUOUS
 62
     3
100
AcDbLine
 10
150.5
 20
-37.77
 30
0.0
 11
150.5
 21
37.77
 31
0.0
  0
INSERT
  5
ACD
330
A9C
100
AcDbEntity
  8
250
  6
CONTINUOUS
 62
     3
100
AcDbBlockReference
  2
_OPEN
 10
150.5
 20
-40.0
 30
0.0
 41
2.23
 42
2.23
 43
2.23
 50
270.0
  0
INSERT
  5
ACE
330
A9C
100
AcDbEntity
  8
250
  6
CONTINUOUS
 62
     3
100
AcDbBlockReference
  2
_OPEN
 10
150.5
 20
40.0
 30
0.0
 41
2.23
 42
2.23
 43
2.23
 50
90.0
  0
MTEXT
  5
ACF
330
A9C
100
AcDbEntity
  8
250
  6
CONTINUOUS
 62
    40
100
AcDbMText
 10
148.0
 20
0.0
 30
0.0
 40
3.0
 41
0.0
 71
     5
 72
     1
  1
\A1;{\H3;\U+2205}80
 11
0.0
 21
1.0
 31
0.0
1001
ACAD
1000
MTEXTBEGIN
1070
    73
1070
     1
1070
    44
1040
1.0
1070
    74
1070
     0
1000
MTEXTEND
1000
MTEXTBEGIN
1070
    73
1070
     1
1070
    44
1040
1.0
1070
    74
1070
     0
1000
MTEXTEND
1000
MTEXTBEGIN
1070
    73
1070
     1
1070
    44
1040
1.0
1070
    74
1070
     0
1000
MTEXTEND
  0
POINT
  5
AD0
330
A9C
100
AcDbEntity
  8
DEFPOINTS
  6
CONTINUOUS
 62
     0
100
AcDbPoint
 10
123.64226056
 20
-40.0
 30
0.0
  0
POINT
  5
AD1
330
A9C
100
AcDbEntity
  8
DEFPOINTS
  6
CONTINUOUS
 62
     0
100
AcDbPoint
 10
123.64226056
 20
40.0
 30
0.0
  0
POINT
  5
AD2
330
A9C
100
AcDbEntity
  8
DEFPOINTS
  6
CONTINUOUS
 62
     0
100
AcDbPoint
 10
150.5
 20
40.0
 30
0.0
  0
ENDBLK
  5
AA7
330
A9C
100
AcDbEntity
  8
0
100
AcDbBlockEnd
  0
ENDSEC
  0
SECTION
  2
ENTITIES
  0
INSERT
  5
6E6
330
1A
100
AcDbEntity
  8
245
100
AcDbBlockReference
  2
矢印なし
 10
175.62382697
 20
90.55123572
 30
0.0
  0
TEXT
  5
802
330
1A
100
AcDbEntity
  8
241
100
AcDbText
 10
-48.0
 20
77.0
 30
0.0
 40
5.0
  1
C8-BSL40-130
  7
YOKO
 11
-48.0
 21
77.0
 31
0.0
100
AcDbText
 73
     1
  0
DIMENSION
  5
805
330
1A
100
AcDbEntity
  8
250
  6
CONTINUOUS
100
AcDbDimension
  2
*D4
 10
130.0
 20
56.0
 30
0.0
 11
84.93488592
 21
56.0
 31
0.0
 70
   160
  1
（max.<>）
  3
BIGT$0
100
AcDbAlignedDimension
 13
37.0
 23
20.0
 33
0.0
 14
130.0
 24
21.60504251
 34
0.0
100
AcDbRotatedDimension
  0
DIMENSION
  5
806
330
1A
100
AcDbEntity
  8
250
  6
CONTINUOUS
100
AcDbDimension
  2
*D5
 10
130.0
 20
63.0
 30
0.0
 11
67.7388042
 21
63.0
 31
0.0
 70
   160
  3
BIGT$0
100
AcDbAlignedDimension
 13
0.0
 23
39.9925
 33
0.0
 14
130.0
 24
21.60504251
 34
0.0
100
AcDbRotatedDimension
  0
DIMENSION
  5
A6A
330
1A
100
AcDbEntity
  8
250
  6
CONTINUOUS
100
AcDbDimension
  2
*D6
 10
143.5
 20
20.0
 30
0.0
 11
143.5
 21
0.0
 31
0.0
 70
   160
  1
{\H3;\U+2205}<>
  3
BIGT$0
100
AcDbAlignedDimension
 13
130.0
 23
-20.0
 33
0.0
 14
130.0
 24
20.0
 34
0.0
 50
90.0
100
AcDbRotatedDimension
1001
ACAD
1000
DSTYLE
1002
{
1070
     5
1000

1070
   173
1070
     1
1070
     7
1000
OPEN
1070
    75
1070
     1
1070
     6
1000
NONE
1002
}
  0
DIMENSION
  5
A9B
330
1A
100
AcDbEntity
  8
250
  6
CONTINUOUS
100
AcDbDimension
  2
*D7
 10
150.5
 20
40.0
 30
0.0
 11
148.0
 21
0.0
 31
0.0
 70
    32
  1
{\H3;\U+2205}<>
  3
BIGT$0
100
AcDbAlignedDimension
 13
123.64226056
 23
-40.0
 33
0.0
 14
123.64226056
 24
40.0
 34
0.0
 50
90.0
100
AcDbRotatedDimension
  0
MTEXT
  5
C42
330
1A
100
AcDbEntity
  8
251
  6
CONTINUOUS
100
AcDbMText
 10
-34.24230726
 20
-34.07208548
 30
0.0
 40
2.8
 41
0.0
 71
     7
 72
     1
  1
C8
  7
YOKO
1001
ITEMNAME
1000
LNSP3
1001
ACAD
1000
MTEXTBEGIN
1070
    73
1070
     1
1070
    44
1040
1.0
1070
    74
1070
     0
1000
MTEXTEND
1000
MTEXTBEGIN
1070
    73
1070
     1
1070
    44
1040
1.0
1070
    74
1070
     0
1000
MTEXTEND
1000
MTEXTBEGIN
1070
    73
1070
     1
1070
    44
1040
1.0
1070
    74
1070
     0
1000
MTEXTEND
1000
MTEXTBEGIN
1070
    73
1070
     1
1070
    44
1040
1.0
1070
    74
1070
     0
1000
MTEXTEND
  0
LEADER
  5
C43
330
1A
100
AcDbEntity
  8
250
  6
CONTINUOUS
100
AcDbLeader
  3
BIGT$7
 76
     2
 10
-22.12784265
 20
-27.02186329
 30
0.0
 10
-26.7756406
 20
-35.07208548
 30
0.0
1001
ACAD
1000
DSTYLE
1002
{
1070
     5
1000
OPEN
1070
    41
1040
2.0
1070
    42
1040
2.0
1070
    44
1040
2.0
1070
   140
1040
4.0
1070
   342
1005
594
1002
}
  0
LINE
  5
C49
330
1A
100
AcDbEntity
  8
250
  6
CONTINUOUS
100
AcDbLine
 10
-26.7756406
 20
-35.07208548
 30
0.0
 11
-37.04230726
 21
-35.07208548
 31
0.0
1001
ITEMNAME
1000
LNSP2
  0
INSERT
  5
D58
330
1A
100
AcDbEntity
  8
245
100
AcDbBlockReference
  2
1
 10
0.0
 20
0.0
 30
0.0
  0
VIEWPORT
  5
22
330
17
100
AcDbEntity
 67
     1
  8
0
100
AcDbViewport
 10
261.51769912
 20
148.5
 30
0.0
 40
523.03539823
 41
297.0
 68
     1
 69
     1
1001
ACAD
1000
MVIEW
1002
{
1070
    16
1010
0.0
1020
0.0
1030
0.0
1010
0.0
1020
0.0
1030
1.0
1040
0.0
1040
297.0
1040
261.51769912
1040
148.5
1040
50.0
1040
0.0
1040
0.0
1070
     0
1070
   100
1070
     1
1070
     1
1070
     0
1070
     0
1070
     0
1070
     0
1040
0.0
1040
0.0
1040
0.0
1040
1.0
1040
1.0
1040
10.0
1040
10.0
1070
     0
1002
{
1002
}
1002
}
  0
ENDSEC
  0
SECTION
  2
OBJECTS
  0
DICTIONARY
  5
C
330
0
100
AcDbDictionary
  3
ACAD_GROUP
350
D
  3
ACAD_LAYOUT
350
565
  3
ACAD_MLINESTYLE
350
E
  3
ACAD_PLOTSETTINGS
350
566
  3
ACAD_PLOTSTYLENAME
350
563
  3
ACDBHEADERROUNDTRIPXREC
350
DAF
  3
GRADE_DWG
350
540
  0
DICTIONARY
  5
B94
330
1A
100
AcDbDictionary
280
     1
  3
ACAD_LAYOUTSELFREF
360
DD1
  0
DICTIONARY
  5
B92
330
17
100
AcDbDictionary
280
     1
  3
ACAD_LAYOUTSELFREF
360
DD0
  0
DICTIONARY
  5
D
102
{ACAD_REACTORS
330
C
102
}
330
C
100
AcDbDictionary
  3
*A1
350
6C7
  3
*A2
350
6C8
  3
*A3
350
6D4
  3
*A4
350
6D5
  3
DREC-1
350
5FC
  3
DREC-2
350
654
  3
DREC-3
350
673
  0
DICTIONARY
  5
565
102
{ACAD_REACTORS
330
C
102
}
330
C
100
AcDbDictionary
  0
DICTIONARY
  5
E
102
{ACAD_REACTORS
330
C
102
}
330
C
100
AcDbDictionary
  3
STANDARD
350
13
  0
DICTIONARY
  5
566
102
{ACAD_REACTORS
330
C
102
}
330
C
100
AcDbDictionary
  3
A3_0_5倍_
350
758
  3
A3_1倍_
350
757
  3
A3_1倍__2000_
350
707
  3
A3_2倍_
350
759
  3
A4_0_5倍_
350
755
  3
A4_1倍_
350
754
  3
A4_1倍__2000_
350
708
  3
A4_2倍_
350
756
  0
ACDBDICTIONARYWDFLT
  5
563
102
{ACAD_REACTORS
330
C
102
}
330
C
100
AcDbDictionary
281
     1
  3
Normal
350
564
100
AcDbDictionaryWithDefault
340
564
  0
DICTIONARY
  5
DAF
102
{ACAD_REACTORS
330
C
102
}
330
C
100
AcDbDictionary
  3
CEPSNTYPE
350
DB9
  3
DIMSTYLEDATA
350
DBD
  3
FINGERPRINTGUID
350
DBA
  3
HYPERLINKBASE
350
DB2
  3
INSUNITS
350
DB8
  3
LAYOUTDICT
350
DB4
  3
LWETCUNION
350
DB7
  3
PLOTSETDICT
350
DB5
  3
PLOTSTYLNAMDICT
350
DB6
  3
PSVPSCALE
350
DBC
  3
PUCSBASE
350
DC0
  3
PUCSORGBACK
350
DC6
  3
PUCSORGBOTTOM
350
DC2
  3
PUCSORGFRONT
350
DC5
  3
PUCSORGLEFT
350
DC3
  3
PUCSORGRIGHT
350
DC4
  3
PUCSORGTOP
350
DC1
  3
PUCSORTHOREF
350
DBE
  3
PUCSORTHOVIEW
350
DBF
  3
STYLESHEET
350
DB3
  3
TSTACKALIGN
350
DB0
  3
TSTACKSIZE
350
DB1
  3
UCSBASE
350
DC9
  3
UCSORGBACK
350
DCF
  3
UCSORGBOTTOM
350
DCB
  3
UCSORGFRONT
350
DCE
  3
UCSORGLEFT
350
DCC
  3
UCSORGRIGHT
350
DCD
  3
UCSORGTOP
350
DCA
  3
UCSORTHOREF
350
DC7
  3
UCSORTHOVIEW
350
DC8
  3
VERSIONGUID
350
DBB
  0
DICTIONARY
  5
540
102
{ACAD_REACTORS
330
C
102
}
330
C
100
AcDbDictionary
  3
VERSION
350
560
  0
XRECORD
  5
DD1
102
{ACAD_REACTORS
330
B94
102
}
330
B94
100
AcDbXrecord
340
1A
  0
XRECORD
  5
DD0
102
{ACAD_REACTORS
330
B92
102
}
330
B92
100
AcDbXrecord
340
17
  0
GROUP
  5
6C7
102
{ACAD_REACTORS
330
D
102
}
330
D
100
AcDbGroup
300

 70
     0
 71
     1
1001
GRPNAME
1000
DMA00
  0
GROUP
  5
6C8
102
{ACAD_REACTORS
330
D
102
}
330
D
100
AcDbGroup
300

 70
     0
 71
     1
1001
GRPNAME
1000
DMA00
  0
GROUP
  5
6D4
102
{ACAD_REACTORS
330
D
102
}
330
D
100
AcDbGroup
300

 70
     0
 71
     1
1001
GRPNAME
1000
DMA00
  0
GROUP
  5
6D5
102
{ACAD_REACTORS
330
D
102
}
330
D
100
AcDbGroup
300

 70
     0
 71
     1
1001
GRPNAME
1000
DMA00
  0
GROUP
  5
5FC
102
{ACAD_REACTORS
330
D
102
}
330
D
100
AcDbGroup
300

 70
     0
 71
     1
1001
GRPNAME
1000
DREC-
1001
GPARA
1000
xsiz
1000
44.182
1000
ysiz
1000
40.677
1000
angl
1000
0
1000
ctyp
1000
0
1000
csiz
1000
5
1000
lfnt
1000
cont
1000
hcnt
1000
hoff
1000
vcnt
1000
voff
1000
opnt
1000
4
1000
dxpt
1000
0
1000
dypt
1000
0
  0
GROUP
  5
654
102
{ACAD_REACTORS
330
D
102
}
330
D
100
AcDbGroup
300

 70
     0
 71
     1
1001
GRPNAME
1000
DREC-
1001
GPARA
1000
xsiz
1000
54.592
1000
ysiz
1000
53.036
1000
angl
1000
0
1000
ctyp
1000
0
1000
csiz
1000
5
1000
lfnt
1000
cont
1000
hcnt
1000
hoff
1000
vcnt
1000
voff
1000
opnt
1000
4
1000
dxpt
1000
0
1000
dypt
1000
0
  0
GROUP
  5
673
102
{ACAD_REACTORS
330
D
102
}
330
D
100
AcDbGroup
300

 70
     0
 71
     1
1001
GRPNAME
1000
DREC-
1001
GPARA
1000
xsiz
1000
30.363
1000
ysiz
1000
36.175
1000
angl
1000
0
1000
ctyp
1000
0
1000
csiz
1000
5
1000
lfnt
1000
cont
1000
hcnt
1000
hoff
1000
vcnt
1000
voff
1000
opnt
1000
4
1000
dxpt
1000
0
1000
dypt
1000
0
  0
MLINESTYLE
  5
13
102
{ACAD_REACTORS
330
E
102
}
330
E
100
AcDbMlineStyle
  2
STANDARD
 70
     0
  3

 62
     0
 51
90.0
 52
90.0
 71
     2
 49
0.5
 62
   256
  6
BYLAYER
 49
-0.5
 62
   256
  6
BYLAYER
  0
PLOTSETTINGS
  5
758
102
{ACAD_REACTORS
330
566
102
}
330
566
100
AcDbPlotSettings
  1
A3(0.5倍)
  2
\\AWTECPC05\HP DeskJet 1120C
  4
A3
  6

 40
5.95841646
 41
13.49375153
 42
6.04309082
 43
3.67242432
 44
296.92599487
 45
419.94665527
 46
89.96
 47
127.14
 48
0.0
 49
0.0
140
0.0
141
0.0
142
1.0
143
2.0
 70
  1716
 72
     1
 73
     1
 74
     2
  7
big.ctb
 75
    17
147
0.5
148
0.0
149
0.0
  0
PLOTSETTINGS
  5
757
102
{ACAD_REACTORS
330
566
102
}
330
566
100
AcDbPlotSettings
  1
A3(1倍)
  2
\\AWTECPC05\HP DeskJet 1120C
  4
A3
  6

 40
5.95841646
 41
13.49375153
 42
6.04309082
 43
3.67242432
 44
296.92599487
 45
419.94665527
 46
37.46
 47
52.89
 48
0.0
 49
0.0
140
0.0
141
0.0
142
1.0
143
1.0
 70
  1716
 72
     1
 73
     1
 74
     2
  7
big.ctb
 75
    16
147
1.0
148
0.0
149
0.0
  0
PLOTSETTINGS
  5
707
102
{ACAD_REACTORS
330
566
102
}
330
566
100
AcDbPlotSettings
  1
A3(1倍)(2000)
  2
SII LS-1300 (D-SCAN)
  4
User258
  6

 40
3.17499995
 41
3.17499995
 42
3.17498779
 43
3.17498779
 44
419.98898315
 45
296.98950195
 46
58.32
 47
40.32
 48
0.0
 49
0.0
140
0.0
141
0.0
142
1.0
143
1.0
 70
  1716
 72
     1
 73
     0
 74
     2
  7
big.ctb
 75
    16
147
1.0
148
0.0
149
0.0
  0
PLOTSETTINGS
  5
759
102
{ACAD_REACTORS
330
566
102
}
330
566
100
AcDbPlotSettings
  1
A3(2倍)
  2
\\AWTECPC05\HP DeskJet 1120C
  4
A3
  6

 40
5.95841646
 41
13.49375153
 42
6.04309082
 43
3.67242432
 44
296.92599487
 45
419.94665527
 46
-67.54
 47
-95.61
 48
0.0
 49
0.0
140
0.0
141
0.0
142
1.0
143
0.5
 70
  1716
 72
     1
 73
     1
 74
     2
  7
big.ctb
 75
    27
147
2.0
148
0.0
149
0.0
  0
PLOTSETTINGS
  5
755
102
{ACAD_REACTORS
330
566
102
}
330
566
100
AcDbPlotSettings
  1
A4(0.5倍)
  2
\\AWTECPC05\HP DeskJet 1120C
  4
A4
  6

 40
4.18041658
 41
13.49374962
 42
4.18040466
 43
3.92642212
 44
209.97332764
 45
296.92599487
 46
48.31
 47
65.5
 48
0.0
 49
0.0
140
0.0
141
0.0
142
1.0
143
2.0
 70
  1716
 72
     1
 73
     1
 74
     2
  7
big.ctb
 75
    17
147
0.5
148
0.0
149
0.0
  0
PLOTSETTINGS
  5
754
102
{ACAD_REACTORS
330
566
102
}
330
566
100
AcDbPlotSettings
  1
A4(1倍)
  2
\\AWTECPC05\HP DeskJet 1120C
  4
A4
  6

 40
4.18041658
 41
13.49374962
 42
4.18040466
 43
3.92642212
 44
209.97332764
 45
296.92599487
 46
-4.19
 47
-8.75
 48
0.0
 49
0.0
140
0.0
141
0.0
142
1.0
143
1.0
 70
  1716
 72
     1
 73
     1
 74
     2
  7
big.ctb
 75
    16
147
1.0
148
0.0
149
0.0
  0
PLOTSETTINGS
  5
708
102
{ACAD_REACTORS
330
566
102
}
330
566
100
AcDbPlotSettings
  1
A4(1倍)(2000)
  2
SII LS-1300 (D-SCAN)
  4
User259
  6

 40
3.17499995
 41
3.17499995
 42
3.17498779
 43
3.17500305
 44
296.98950195
 45
209.99449158
 46
-3.18
 47
-3.18
 48
0.0
 49
0.0
140
0.0
141
0.0
142
1.0
143
1.0
 70
  1716
 72
     1
 73
     0
 74
     2
  7
big.ctb
 75
    16
147
1.0
148
0.0
149
0.0
  0
PLOTSETTINGS
  5
756
102
{ACAD_REACTORS
330
566
102
}
330
566
100
AcDbPlotSettings
  1
A4(2倍)
  2
\\AWTECPC05\HP DeskJet 1120C
  4
A4
  6

 40
4.18041658
 41
13.49374962
 42
4.18040466
 43
3.92642212
 44
209.97332764
 45
296.92599487
 46
-109.19
 47
-157.25
 48
0.0
 49
0.0
140
0.0
141
0.0
142
1.0
143
0.5
 70
  1716
 72
     1
 73
     1
 74
     2
  7
big.ctb
 75
    27
147
2.0
148
0.0
149
0.0
  0
ACDBPLACEHOLDER
  5
564
102
{ACAD_REACTORS
330
563
102
}
330
563
100
AcDbPlaceHolder
280
     0
  0
XRECORD
  5
DB9
102
{ACAD_REACTORS
330
DAF
102
}
330
DAF
100
AcDbXrecord
 90
        0
  0
XRECORD
  5
DBD
102
{ACAD_REACTORS
330
DAF
102
}
330
DAF
100
AcDbXrecord
1000
DSTYLE
1002
{
1070
    79
 70
     2
1070
   179
 70
     3
1070
   341
340
594
1070
   343
340
594
1070
   344
340
594
1070
   371
 70
    -1
1070
   372
 70
    -1
1002
}
  0
XRECORD
  5
DBA
102
{ACAD_REACTORS
330
DAF
102
}
330
DAF
100
AcDbXrecord
  1
{51294030-9CB4-11D3-8E18-00A0C925D94D}
  0
XRECORD
  5
DB2
102
{ACAD_REACTORS
330
DAF
102
}
330
DAF
100
AcDbXrecord
  1

  0
XRECORD
  5
DB8
102
{ACAD_REACTORS
330
DAF
102
}
330
DAF
100
AcDbXrecord
 90
        0
  0
XRECORD
  5
DB4
102
{ACAD_REACTORS
330
DAF
102
}
330
DAF
100
AcDbXrecord
340
565
  0
XRECORD
  5
DB7
102
{ACAD_REACTORS
330
DAF
102
}
330
DAF
100
AcDbXrecord
 90
    10781
  0
XRECORD
  5
DB5
102
{ACAD_REACTORS
330
DAF
102
}
330
DAF
100
AcDbXrecord
340
566
  0
XRECORD
  5
DB6
102
{ACAD_REACTORS
330
DAF
102
}
330
DAF
100
AcDbXrecord
340
563
  0
XRECORD
  5
DBC
102
{ACAD_REACTORS
330
DAF
102
}
330
DAF
100
AcDbXrecord
 40
0.0
  0
XRECORD
  5
DC0
102
{ACAD_REACTORS
330
DAF
102
}
330
DAF
100
AcDbXrecord
340
0
  0
XRECORD
  5
DC6
102
{ACAD_REACTORS
330
DAF
102
}
330
DAF
100
AcDbXrecord
 10
0.0
 20
0.0
 30
0.0
  0
XRECORD
  5
DC2
102
{ACAD_REACTORS
330
DAF
102
}
330
DAF
100
AcDbXrecord
 10
0.0
 20
0.0
 30
0.0
  0
XRECORD
  5
DC5
102
{ACAD_REACTORS
330
DAF
102
}
330
DAF
100
AcDbXrecord
 10
0.0
 20
0.0
 30
0.0
  0
XRECORD
  5
DC3
102
{ACAD_REACTORS
330
DAF
102
}
330
DAF
100
AcDbXrecord
 10
0.0
 20
0.0
 30
0.0
  0
XRECORD
  5
DC4
102
{ACAD_REACTORS
330
DAF
102
}
330
DAF
100
AcDbXrecord
 10
0.0
 20
0.0
 30
0.0
  0
XRECORD
  5
DC1
102
{ACAD_REACTORS
330
DAF
102
}
330
DAF
100
AcDbXrecord
 10
0.0
 20
0.0
 30
0.0
  0
XRECORD
  5
DBE
102
{ACAD_REACTORS
330
DAF
102
}
330
DAF
100
AcDbXrecord
340
0
  0
XRECORD
  5
DBF
102
{ACAD_REACTORS
330
DAF
102
}
330
DAF
100
AcDbXrecord
 70
     0
  0
XRECORD
  5
DB3
102
{ACAD_REACTORS
330
DAF
102
}
330
DAF
100
AcDbXrecord
  1
big.ctb
  0
XRECORD
  5
DB0
102
{ACAD_REACTORS
330
DAF
102
}
330
DAF
100
AcDbXrecord
 90
        1
  0
XRECORD
  5
DB1
102
{ACAD_REACTORS
330
DAF
102
}
330
DAF
100
AcDbXrecord
 90
       70
  0
XRECORD
  5
DC9
102
{ACAD_REACTORS
330
DAF
102
}
330
DAF
100
AcDbXrecord
340
0
  0
XRECORD
  5
DCF
102
{ACAD_REACTORS
330
DAF
102
}
330
DAF
100
AcDbXrecord
 10
0.0
 20
0.0
 30
0.0
  0
XRECORD
  5
DCB
102
{ACAD_REACTORS
330
DAF
102
}
330
DAF
100
AcDbXrecord
 10
0.0
 20
0.0
 30
0.0
  0
XRECORD
  5
DCE
102
{ACAD_REACTORS
330
DAF
102
}
330
DAF
100
AcDbXrecord
 10
0.0
 20
0.0
 30
0.0
  0
XRECORD
  5
DCC
102
{ACAD_REACTORS
330
DAF
102
}
330
DAF
100
AcDbXrecord
 10
0.0
 20
0.0
 30
0.0
  0
XRECORD
  5
DCD
102
{ACAD_REACTORS
330
DAF
102
}
330
DAF
100
AcDbXrecord
 10
0.0
 20
0.0
 30
0.0
  0
XRECORD
  5
DCA
102
{ACAD_REACTORS
330
DAF
102
}
330
DAF
100
AcDbXrecord
 10
0.0
 20
0.0
 30
0.0
  0
XRECORD
  5
DC7
102
{ACAD_REACTORS
330
DAF
102
}
330
DAF
100
AcDbXrecord
340
0
  0
XRECORD
  5
DC8
102
{ACAD_REACTORS
330
DAF
102
}
330
DAF
100
AcDbXrecord
 70
     0
  0
XRECORD
  5
DBB
102
{ACAD_REACTORS
330
DAF
102
}
330
DAF
100
AcDbXrecord
  1
{518C7EEA-7126-41B9-A313-239D4E023161}
  0
XRECORD
  5
560
102
{ACAD_REACTORS
330
540
102
}
330
540
100
AcDbXrecord
  1
2.0.0
  0
ENDSEC
  0
EOF
