  0
SECTION
  2
HEADER
  9
$ACADVER
  1
AC1014
  9
$ACADMAINTVER
 70
     9
  9
$DWGCODEPAGE
  3
ANSI_932
  9
$INSBASE
 10
0.0
 20
0.0
 30
0.0
  9
$EXTMIN
 10
-49.01431165
 20
-66.01107704
 30
-0.00152582
  9
$EXTMAX
 10
309.0189829
 20
89.02386535
 30
0.00000003
  9
$LIMMIN
 10
0.0
 20
0.0
  9
$LIMMAX
 10
420.0
 20
297.0
  9
$ORTHOMODE
 70
     1
  9
$REGENMODE
 70
     1
  9
$FILLMODE
 70
     1
  9
$QTEXTMODE
 70
     0
  9
$MIRRTEXT
 70
     1
  9
$DRAGMODE
 70
     2
  9
$LTSCALE
 40
10.0
  9
$OSMODE
 70
   549
  9
$ATTMODE
 70
     1
  9
$TEXTSIZE
 40
3.0
  9
$TRACEWID
 40
1.0
  9
$TEXTSTYLE
  7
YOKO
  9
$CLAYER
  8
245
  9
$CELTYPE
  6
BYLAYER
  9
$CECOLOR
 62
   256
  9
$CELTSCALE
 40
1.0
  9
$DELOBJ
 70
     1
  9
$DISPSILH
 70
     0
  9
$DIMSCALE
 40
1.0
  9
$DIMASZ
 40
2.23
  9
$DIMEXO
 40
0.5
  9
$DIMDLI
 40
2.5
  9
$DIMRND
 40
0.0
  9
$DIMDLE
 40
0.0
  9
$DIMEXE
 40
1.0
  9
$DIMTP
 40
0.0
  9
$DIMTM
 40
0.0
  9
$DIMTXT
 40
2.8
  9
$DIMCEN
 40
0.0
  9
$DIMTSZ
 40
0.0
  9
$DIMTOL
 70
     0
  9
$DIMLIM
 70
     0
  9
$DIMTIH
 70
     0
  9
$DIMTOH
 70
     0
  9
$DIMSE1
 70
     0
  9
$DIMSE2
 70
     0
  9
$DIMTAD
 70
     3
  9
$DIMZIN
 70
     8
  9
$DIMBLK
  1

  9
$DIMASO
 70
     1
  9
$DIMSHO
 70
     1
  9
$DIMPOST
  1

  9
$DIMAPOST
  1

  9
$DIMALT
 70
     0
  9
$DIMALTD
 70
     2
  9
$DIMALTF
 40
25.4
  9
$DIMLFAC
 40
1.0
  9
$DIMTOFL
 70
     1
  9
$DIMTVP
 40
0.0
  9
$DIMTIX
 70
     1
  9
$DIMSOXD
 70
     0
  9
$DIMSAH
 70
     1
  9
$DIMBLK1
  1
OPEN
  9
$DIMBLK2
  1
OPEN
  9
$DIMSTYLE
  2
BIGT
  9
$DIMCLRD
 70
   256
  9
$DIMCLRE
 70
   256
  9
$DIMCLRT
 70
    40
  9
$DIMTFAC
 40
1.0
  9
$DIMGAP
 40
1.0
  9
$DIMJUST
 70
     0
  9
$DIMSD1
 70
     0
  9
$DIMSD2
 70
     0
  9
$DIMTOLJ
 70
     1
  9
$DIMTZIN
 70
     8
  9
$DIMALTZ
 70
     0
  9
$DIMALTTZ
 70
     0
  9
$DIMFIT
 70
     3
  9
$DIMUPT
 70
     0
  9
$DIMUNIT
 70
     2
  9
$DIMDEC
 70
     3
  9
$DIMTDEC
 70
     3
  9
$DIMALTU
 70
     2
  9
$DIMALTTD
 70
     2
  9
$DIMTXSTY
  7
STANDARD
  9
$DIMAUNIT
 70
     0
  9
$LUNITS
 70
     2
  9
$LUPREC
 70
     3
  9
$SKETCHINC
 40
1.0
  9
$FILLETRAD
 40
0.0
  9
$AUNITS
 70
     0
  9
$AUPREC
 70
     3
  9
$MENU
  1
.
  9
$ELEVATION
 40
0.0
  9
$PELEVATION
 40
0.0
  9
$THICKNESS
 40
0.0
  9
$LIMCHECK
 70
     0
  9
$BLIPMODE
 70
     0
  9
$CHAMFERA
 40
10.0
  9
$CHAMFERB
 40
10.0
  9
$CHAMFERC
 40
0.0
  9
$CHAMFERD
 40
0.0
  9
$SKPOLY
 70
     0
  9
$TDCREATE
 40
2455106.700175590
  9
$TDUPDATE
 40
2455391.655139965
  9
$TDINDWG
 40
0.0321723148
  9
$TDUSRTIMER
 40
0.0321721412
  9
$USRTIMER
 70
     1
  9
$ANGBASE
 50
0.0
  9
$ANGDIR
 70
     0
  9
$PDMODE
 70
     1
  9
$PDSIZE
 40
-5.0
  9
$PLINEWID
 40
0.0
  9
$COORDS
 70
     1
  9
$SPLFRAME
 70
     0
  9
$SPLINETYPE
 70
     6
  9
$SPLINESEGS
 70
     8
  9
$ATTDIA
 70
     0
  9
$ATTREQ
 70
     1
  9
$HANDLING
 70
-16383
  9
$HANDSEED
  5
C9E
  9
$SURFTAB1
 70
     6
  9
$SURFTAB2
 70
     6
  9
$SURFTYPE
 70
     6
  9
$SURFU
 70
     6
  9
$SURFV
 70
     6
  9
$UCSNAME
  2

  9
$UCSORG
 10
0.0
 20
0.0
 30
0.0
  9
$UCSXDIR
 10
1.0
 20
0.0
 30
0.0
  9
$UCSYDIR
 10
0.0
 20
1.0
 30
0.0
  9
$PUCSNAME
  2

  9
$PUCSORG
 10
0.0
 20
0.0
 30
0.0
  9
$PUCSXDIR
 10
1.0
 20
0.0
 30
0.0
  9
$PUCSYDIR
 10
0.0
 20
1.0
 30
0.0
  9
$USERI1
 70
     1
  9
$USERI2
 70
     0
  9
$USERI3
 70
     0
  9
$USERI4
 70
     0
  9
$USERI5
 70
     0
  9
$USERR1
 40
0.0
  9
$USERR2
 40
0.0
  9
$USERR3
 40
0.0
  9
$USERR4
 40
0.0
  9
$USERR5
 40
0.0
  9
$WORLDVIEW
 70
     1
  9
$SHADEDGE
 70
     3
  9
$SHADEDIF
 70
    70
  9
$TILEMODE
 70
     1
  9
$MAXACTVP
 70
    16
  9
$PINSBASE
 10
0.0
 20
0.0
 30
0.0
  9
$PLIMCHECK
 70
     0
  9
$PEXTMIN
 10
1.00000000E+20
 20
1.00000000E+20
 30
1.00000000E+20
  9
$PEXTMAX
 10
-1.00000000E+20
 20
-1.00000000E+20
 30
-1.00000000E+20
  9
$PLIMMIN
 10
0.0
 20
0.0
  9
$PLIMMAX
 10
420.0
 20
297.0
  9
$UNITMODE
 70
     0
  9
$VISRETAIN
 70
     0
  9
$PLINEGEN
 70
     0
  9
$PSLTSCALE
 70
     1
  9
$TREEDEPTH
 70
  3020
  9
$PICKSTYLE
 70
     0
  9
$CMLSTYLE
  2
STANDARD
  9
$CMLJUST
 70
     0
  9
$CMLSCALE
 40
1.0
  9
$PROXYGRAPHICS
 70
     1
  9
$MEASUREMENT
 70
     1
  0
ENDSEC
  0
SECTION
  2
CLASSES
  0
CLASS
  1
XRECORD
  2
AcDbXrecord
  3
AutoCAD 2000
 90
        0
280
     0
281
     0
  0
CLASS
  1
ACDBDICTIONARYWDFLT
  2
AcDbDictionaryWithDefault
  3
AutoCAD 2000
 90
        0
280
     0
281
     0
  0
CLASS
  1
ACDBPLACEHOLDER
  2
AcDbPlaceHolder
  3
AutoCAD 2000
 90
        0
280
     0
281
     0
  0
CLASS
  1
LAYOUT
  2
AcDbLayout
  3
AutoCAD 2000
 90
        0
280
     0
281
     0
  0
CLASS
  1
PLOTSETTINGS
  2
AcDbPlotSettings
  3
AutoCAD 2000
 90
        0
280
     0
281
     0
  0
CLASS
  1
LONG_TRANSACTION
  2
AcDbLongTransaction
  3
AutoCAD 2000
 90
        0
280
     0
281
     0
  0
CLASS
  1
LWPOLYLINE
  2
AcDbPolyline
  3
AutoCAD 2000
 90
        0
280
     0
281
     1
  0
CLASS
  1
HATCH
  2
AcDbHatch
  3
AutoCAD 2000
 90
        0
280
     0
281
     1
  0
CLASS
  1
XRECORD
  2
AcDbXrecord
  3
AutoCAD 2000
 90
        0
280
     0
281
     0
  0
CLASS
  1
LONG_TRANSACTION
  2
AcDbLongTransaction
  3
AutoCAD 2000
 90
        0
280
     0
281
     0
  0
CLASS
  1
LWPOLYLINE
  2
AcDbPolyline
  3
AutoCAD 2000
 90
        0
280
     0
281
     1
  0
CLASS
  1
HATCH
  2
AcDbHatch
  3
AutoCAD 2000
 90
        0
280
     0
281
     1
  0
CLASS
  1
XRECORD
  2
AcDbXrecord
  3
AutoCAD 2000
 90
        0
280
     0
281
     0
  0
ENDSEC
  0
SECTION
  2
TABLES
  0
TABLE
  2
VPORT
  5
8
330
0
100
AcDbSymbolTable
 70
     2
  0
VPORT
  5
C73
330
8
100
AcDbSymbolTableRecord
100
AcDbViewportTableRecord
  2
*ACTIVE
 70
     0
 10
0.0
 20
0.0
 11
1.0
 21
1.0
 12
130.00233562
 22
11.50639416
 13
0.0
 23
0.0
 14
7.0
 24
7.0
 15
7.0
 25
7.0
 16
0.0
 26
0.0
 36
1.0
 17
0.0
 27
0.0
 37
0.0
 40
247.21997205
 41
1.45595855
 42
50.0
 43
0.0
 44
0.0
 50
0.0
 51
0.0
 71
     0
 72
  2000
 73
     1
 74
     0
 75
     0
 76
     0
 77
     0
 78
     0
  0
ENDTAB
  0
TABLE
  2
LTYPE
  5
5
330
0
100
AcDbSymbolTable
 70
     4
  0
LTYPE
  5
14
330
5
100
AcDbSymbolTableRecord
100
AcDbLinetypeTableRecord
  2
BYBLOCK
 70
     0
  3

 72
    65
 73
     0
 40
0.0
  0
LTYPE
  5
15
330
5
100
AcDbSymbolTableRecord
100
AcDbLinetypeTableRecord
  2
BYLAYER
 70
     0
  3

 72
    65
 73
     0
 40
0.0
  0
LTYPE
  5
16
330
5
100
AcDbSymbolTableRecord
100
AcDbLinetypeTableRecord
  2
CONTINUOUS
 70
     0
  3
Solid line
 72
    65
 73
     0
 40
0.0
  0
LTYPE
  5
258
330
5
100
AcDbSymbolTableRecord
100
AcDbLinetypeTableRecord
  2
CENTER2
 70
     0
  3
___ _ ___ _ ___ _ ___ _ ___ _ ___ _ ___ _ ___ _
 72
    65
 73
     4
 40
1.125
 49
0.75
 74
     0
 49
-0.125
 74
     0
 49
0.125
 74
     0
 49
-0.125
 74
     0
  0
LTYPE
  5
25C
330
5
100
AcDbSymbolTableRecord
100
AcDbLinetypeTableRecord
  2
HIDDEN2
 70
     0
  3
_ _ _ _ _ _ _ _ _ _ _ _ _ _ _ _ _ _ _ _ _ _ _ _
 72
    65
 73
     2
 40
0.1875
 49
0.125
 74
     0
 49
-0.0625
 74
     0
  0
LTYPE
  5
25D
330
5
100
AcDbSymbolTableRecord
100
AcDbLinetypeTableRecord
  2
PHANTOM2
 70
     0
  3
___ _ _ ___ _ _ ___ _ _ ___ _ _ ___ _ _ ___ _ _
 72
    65
 73
     6
 40
1.25
 49
0.625
 74
     0
 49
-0.125
 74
     0
 49
0.125
 74
     0
 49
-0.125
 74
     0
 49
0.125
 74
     0
 49
-0.125
 74
     0
  0
ENDTAB
  0
TABLE
  2
LAYER
  5
2
330
0
100
AcDbSymbolTable
 70
    10
  0
LAYER
  5
F
330
2
100
AcDbSymbolTableRecord
100
AcDbLayerTableRecord
  2
0
 70
     0
 62
     7
  6
CONTINUOUS
  0
LAYER
  5
1AA
330
2
100
AcDbSymbolTableRecord
100
AcDbLayerTableRecord
  2
240
 70
     0
 62
     4
  6
CONTINUOUS
  0
LAYER
  5
1AB
330
2
100
AcDbSymbolTableRecord
100
AcDbLayerTableRecord
  2
241
 70
     0
 62
   211
  6
CONTINUOUS
  0
LAYER
  5
1AC
330
2
100
AcDbSymbolTableRecord
100
AcDbLayerTableRecord
  2
242
 70
     0
 62
     3
  6
CONTINUOUS
  0
LAYER
  5
1AF
330
2
100
AcDbSymbolTableRecord
100
AcDbLayerTableRecord
  2
245
 70
     0
 62
     2
  6
CENTER2
  0
LAYER
  5
21A
330
2
100
AcDbSymbolTableRecord
100
AcDbLayerTableRecord
  2
246
 70
     0
 62
     3
  6
PHANTOM2
  0
LAYER
  5
21E
330
2
100
AcDbSymbolTableRecord
100
AcDbLayerTableRecord
  2
250
 70
     0
 62
     3
  6
CONTINUOUS
  0
LAYER
  5
21F
330
2
100
AcDbSymbolTableRecord
100
AcDbLayerTableRecord
  2
251
 70
     0
 62
    40
  6
CONTINUOUS
  0
LAYER
  5
5C4
330
2
100
AcDbSymbolTableRecord
100
AcDbLayerTableRecord
  2
DEFPOINTS
 70
     0
 62
     7
  6
CONTINUOUS
  0
ENDTAB
  0
TABLE
  2
STYLE
  5
3
330
0
100
AcDbSymbolTable
 70
     2
  0
STYLE
  5
10
330
3
100
AcDbSymbolTableRecord
100
AcDbTextStyleTableRecord
  2
STANDARD
 70
     0
 40
0.0
 41
1.0
 50
0.0
 71
     0
 42
3.0
  3
romans.shx
  4
BIGFONT.SHX
  0
STYLE
  5
339
330
3
100
AcDbSymbolTableRecord
100
AcDbTextStyleTableRecord
  2
YOKO
 70
     0
 40
0.0
 41
1.0
 50
0.0
 71
     0
 42
3.0
  3
romans.shx
  4
extfont.shx
  0
ENDTAB
  0
TABLE
  2
VIEW
  5
6
330
0
100
AcDbSymbolTable
 70
     0
  0
ENDTAB
  0
TABLE
  2
UCS
  5
7
330
0
100
AcDbSymbolTable
 70
     0
  0
ENDTAB
  0
TABLE
  2
APPID
  5
9
330
0
100
AcDbSymbolTable
 70
     9
  0
APPID
  5
11
330
9
100
AcDbSymbolTableRecord
100
AcDbRegAppTableRecord
  2
ACAD
 70
     0
  0
APPID
  5
1B1
330
9
100
AcDbSymbolTableRecord
100
AcDbRegAppTableRecord
  2
GLOBAL
 70
     0
  0
APPID
  5
2A4
330
9
100
AcDbSymbolTableRecord
100
AcDbRegAppTableRecord
  2
DETAIL
 70
     0
  0
APPID
  5
5FD
330
9
100
AcDbSymbolTableRecord
100
AcDbRegAppTableRecord
  2
GRPNAME
 70
     0
  0
APPID
  5
5FE
330
9
100
AcDbSymbolTableRecord
100
AcDbRegAppTableRecord
  2
GPARA
 70
     0
  0
APPID
  5
6C4
330
9
100
AcDbSymbolTableRecord
100
AcDbRegAppTableRecord
  2
DCO15
 70
     0
  0
APPID
  5
6C5
330
9
100
AcDbSymbolTableRecord
100
AcDbRegAppTableRecord
  2
ITEMNAME
 70
     0
  0
APPID
  5
6C6
330
9
100
AcDbSymbolTableRecord
100
AcDbRegAppTableRecord
  2
GRADE_0
 70
     0
  0
APPID
  5
B08
330
9
100
AcDbSymbolTableRecord
100
AcDbRegAppTableRecord
  2
CONTENTBLOCKICON
 70
     0
  0
ENDTAB
  0
TABLE
  2
DIMSTYLE
  5
A
330
0
100
AcDbSymbolTable
 70
     3
  0
DIMSTYLE
105
725
102
{ACAD_REACTORS
330
9A3
102
}
330
A
100
AcDbSymbolTableRecord
100
AcDbDimStyleTableRecord
  2
BIGT
 70
     0
  3

  4

  5

  6
OPEN
  7
OPEN
 40
1.0
 41
2.23
 42
0.5
 43
2.5
 44
1.0
 45
0.0
 46
0.0
 47
0.0
 48
0.0
140
2.8
141
0.0
142
0.0
143
25.4
144
1.0
145
0.0
146
1.0
147
1.0
 71
     0
 72
     0
 73
     0
 74
     0
 75
     0
 76
     0
 77
     3
 78
     8
170
     0
171
     2
172
     1
173
     1
174
     1
175
     0
176
   256
177
   256
178
    40
270
     2
271
     3
272
     3
273
     2
274
     2
340
10
275
     0
280
     0
281
     0
282
     0
283
     1
284
     8
285
     0
286
     0
287
     3
288
     0
  0
DIMSTYLE
105
7FB
102
{ACAD_REACTORS
330
80A
330
905
330
959
330
968
330
996
102
}
330
A
100
AcDbSymbolTableRecord
100
AcDbDimStyleTableRecord
  2
BIGT$0
 70
     0
  3

  4
"
  5
OPEN
  6

  7

 40
1.0
 41
2.23
 42
0.5
 43
7.0
 44
1.0
 45
0.0
 46
0.0
 47
0.1
 48
0.1
140
3.0
141
0.0
142
0.0
143
0.0393701
144
1.0
145
0.0
146
0.71
147
1.0
 71
     0
 72
     0
 73
     0
 74
     0
 75
     0
 76
     0
 77
     3
 78
     8
170
     0
171
     2
172
     1
173
     0
174
     0
175
     0
176
     3
177
     3
178
    40
270
     2
271
     3
272
     3
273
     2
274
     2
340
10
275
     0
280
     0
281
     0
282
     0
283
     1
284
     8
285
     0
286
     0
287
     3
288
     0
  0
DIMSTYLE
105
8D1
330
A
100
AcDbSymbolTableRecord
100
AcDbDimStyleTableRecord
  2
BIGT$7
 70
     0
  3

  4
"
  5
OPEN
  6

  7

 40
1.0
 41
2.5
 42
0.5
 43
7.0
 44
1.0
 45
0.0
 46
0.0
 47
0.1
 48
0.1
140
5.0
141
0.0
142
0.0
143
0.0393701
144
1.0
145
0.0
146
0.71
147
1.5
 71
     0
 72
     0
 73
     0
 74
     0
 75
     0
 76
     0
 77
     3
 78
     8
170
     0
171
     2
172
     1
173
     0
174
     0
175
     0
176
     3
177
     3
178
    40
270
     2
271
     3
272
     3
273
     2
274
     2
340
10
275
     0
280
     0
281
     0
282
     0
283
     1
284
     8
285
     0
286
     0
287
     3
288
     0
  0
ENDTAB
  0
TABLE
  2
BLOCK_RECORD
  5
1
330
0
100
AcDbSymbolTable
 70
    10
  0
BLOCK_RECORD
  5
1A
102
{ACAD_XDICTIONARY
360
B06
102
}
330
1
100
AcDbSymbolTableRecord
100
AcDbBlockTableRecord
  2
*MODEL_SPACE
  0
BLOCK_RECORD
  5
17
102
{ACAD_XDICTIONARY
360
B04
102
}
330
1
100
AcDbSymbolTableRecord
100
AcDbBlockTableRecord
  2
*PAPER_SPACE
  0
BLOCK_RECORD
  5
594
330
1
100
AcDbSymbolTableRecord
100
AcDbBlockTableRecord
  2
_OPEN
  0
BLOCK_RECORD
  5
6E3
330
1
100
AcDbSymbolTableRecord
100
AcDbBlockTableRecord
  2
矢印なし
  0
BLOCK_RECORD
  5
78F
330
1
100
AcDbSymbolTableRecord
100
AcDbBlockTableRecord
  2
1
1001
CONTENTBLOCKICON
1071
        0
1004
2800000020000000200000000100080000000000000400000000000000000000000000000000000000000000000080000080000000808000800000008000800080800000C0C0C000C0DCC000F0CAA6000020400000206000002080000020A0000020C0000020E00000400000004020000040400000406000004080000040A0
1004
000040C0000040E00000600000006020000060400000606000006080000060A0000060C0000060E00000800000008020000080400000806000008080000080A0000080C0000080E00000A0000000A0200000A0400000A0600000A0800000A0A00000A0C00000A0E00000C0000000C0200000C0400000C0600000C0800000C0
1004
A00000C0C00000C0E00000E0000000E0200000E0400000E0600000E0800000E0A00000E0C00000E0E00040000000400020004000400040006000400080004000A0004000C0004000E00040200000402020004020400040206000402080004020A0004020C0004020E000404000004040200040404000404060004040800040
1004
40A0004040C0004040E00040600000406020004060400040606000406080004060A0004060C0004060E00040800000408020004080400040806000408080004080A0004080C0004080E00040A0000040A0200040A0400040A0600040A0800040A0A00040A0C00040A0E00040C0000040C0200040C0400040C0600040C08000
1004
40C0A00040C0C00040C0E00040E0000040E0200040E0400040E0600040E0800040E0A00040E0C00040E0E00080000000800020008000400080006000800080008000A0008000C0008000E00080200000802020008020400080206000802080008020A0008020C0008020E00080400000804020008040400080406000804080
1004
008040A0008040C0008040E00080600000806020008060400080606000806080008060A0008060C0008060E00080800000808020008080400080806000808080008080A0008080C0008080E00080A0000080A0200080A0400080A0600080A0800080A0A00080A0C00080A0E00080C0000080C0200080C0400080C0600080C0
1004
800080C0A00080C0C00080C0E00080E0000080E0200080E0400080E0600080E0800080E0A00080E0C00080E0E000C0000000C0002000C0004000C0006000C0008000C000A000C000C000C000E000C0200000C0202000C0204000C0206000C0208000C020A000C020C000C020E000C0400000C0402000C0404000C0406000C0
1004
408000C040A000C040C000C040E000C0600000C0602000C0604000C0606000C0608000C060A000C060C000C060E000C0800000C0802000C0804000C0806000C0808000C080A000C080C000C080E000C0A00000C0A02000C0A04000C0A06000C0A08000C0A0A000C0A0C000C0A0E000C0C00000C0C02000C0C04000C0C06000
1004
C0C08000C0C0A000F0FBFF00A4A0A000808080000000FF0000FF000000FFFF00FF000000FF00FF00FFFF0000FFFFFF0000000000000000000000000000000000000000000000000000000000000000000000000000000000000000000000000000000000000000000000000000000000000000000000000000000000000000
1004
00000000000000000000000000000000000000000000000000000000000000000000000000000000000000000000000000000000000000000000000000000000000000000000000000000000000000000000000000000000000000000000000000000000000000000000000000000000000000000000000000000000000000
1004
00000000000000000000000000000000000000000000000000000000000000000000000000000000000000000000000000000000000000000000000000000000000000000000000000000000000000000000000000000000000000000000000000000000000000000000000000000000000000000000000000000000000000
1004
00000000000000000000FAFBFAFA0000000000000000000000000000000000000000000000000000FAFA00FB00FAFA000000000000000000FEE7E7E7FEFE000000000000000000FA0000FEFEFEFEFEFE00000000FEE7FEFEFEE7E7E70000FEFEFEFEFE000000FAFA00E7E7E7E7E7E7FEFE000000FEE70000E7E7E7E7000000
1004
000000FEFE0000FA00E7E7E7E7E7E7E7E7E7000000E7E70000E7E7E7E700000000000000FE0000FA00FEE700FB00000000FE000000E7E7FBFBE7E7E7E7E7E7E7E7E7E7E7E70000FBFBFBE7E7E7E7E7E7FBFEFB0000FEE70000E7E7E7E7E7E7E7E7E7FBFBFE0000FA00FEE7E7E70000E700FE000000FEFEFEFEFEE7E7E7E7E7
1004
E7E7E7FBFAFE0000FAFA00FEFEE70000E700FE00000000000000FEE7E7E7E7FEFEFEFEFEFEFE000000FA0000FEE7FEFEFEFE000000000000000000000000000000000000000000000000FAFA00FB00FAFA000000000000000000000000000000000000000000000000000000FAFBFAFA000000000000000000000000000000
1004
00000000000000000000000000000000000000000000000000000000000000000000000000000000000000000000000000000000000000000000000000000000000000000000000000000000000000000000000000000000000000000000000000000000000000000000000000000000000000000000000000000000000000
1004
00000000000000000000000000000000000000000000000000000000000000000000000000000000000000000000000000000000000000000000000000000000000000000000000000000000000000000000000000000000000000000000000000000000000000000000000000000000000000000000000000000000000000
1004
0000000000000000000000000000000000000000000000000000000000000000000000000000000000000000000000000000000000000000
  0
BLOCK_RECORD
  5
81B
330
1
100
AcDbSymbolTableRecord
100
AcDbBlockTableRecord
  2
*D3
  0
BLOCK_RECORD
  5
906
330
1
100
AcDbSymbolTableRecord
100
AcDbBlockTableRecord
  2
*D4
  0
BLOCK_RECORD
  5
95A
330
1
100
AcDbSymbolTableRecord
100
AcDbBlockTableRecord
  2
*D5
  0
BLOCK_RECORD
  5
969
330
1
100
AcDbSymbolTableRecord
100
AcDbBlockTableRecord
  2
*D6
  0
BLOCK_RECORD
  5
997
330
1
100
AcDbSymbolTableRecord
100
AcDbBlockTableRecord
  2
*D7
  0
BLOCK_RECORD
  5
9A4
330
1
100
AcDbSymbolTableRecord
100
AcDbBlockTableRecord
  2
*D8
  0
ENDTAB
  0
ENDSEC
  0
SECTION
  2
BLOCKS
  0
BLOCK
  5
1B
330
1A
100
AcDbEntity
  8
0
100
AcDbBlockBegin
  2
*MODEL_SPACE
 70
     0
 10
0.0
 20
0.0
 30
0.0
  3
*MODEL_SPACE
  1

  0
ENDBLK
  5
1C
330
1A
100
AcDbEntity
  8
0
100
AcDbBlockEnd
  0
BLOCK
  5
18
330
17
100
AcDbEntity
 67
     1
  8
0
100
AcDbBlockBegin
  2
*PAPER_SPACE
 70
     0
 10
0.0
 20
0.0
 30
0.0
  3
*PAPER_SPACE
  1

  0
ENDBLK
  5
19
330
17
100
AcDbEntity
 67
     1
  8
0
100
AcDbBlockEnd
  0
BLOCK
  5
598
330
594
100
AcDbEntity
  8
0
100
AcDbBlockBegin
  2
_OPEN
 70
     0
 10
0.0
 20
0.0
 30
0.0
  3
_OPEN
  1

  0
LINE
  5
595
330
594
100
AcDbEntity
  8
0
  6
BYBLOCK
 62
     0
100
AcDbLine
 10
-1.0
 20
0.16666667
 30
0.0
 11
0.0
 21
0.0
 31
0.0
  0
LINE
  5
596
330
594
100
AcDbEntity
  8
0
  6
BYBLOCK
 62
     0
100
AcDbLine
 10
-1.0
 20
-0.16666667
 30
0.0
 11
0.0
 21
0.0
 31
0.0
  0
LINE
  5
597
330
594
100
AcDbEntity
  8
0
  6
BYBLOCK
 62
     0
100
AcDbLine
 10
0.0
 20
0.0
 30
0.0
 11
-1.0
 21
0.0
 31
0.0
  0
ENDBLK
  5
599
330
594
100
AcDbEntity
  8
0
100
AcDbBlockEnd
  0
BLOCK
  5
6E4
330
6E3
100
AcDbEntity
  8
0
100
AcDbBlockBegin
  2
矢印なし
 70
     0
 10
0.0
 20
0.0
 30
0.0
  3
矢印なし
  1

  0
ENDBLK
  5
6E5
330
6E3
100
AcDbEntity
  8
0
100
AcDbBlockEnd
  0
BLOCK
  5
7F9
330
78F
100
AcDbEntity
  8
0
100
AcDbBlockBegin
  2
1
 70
     0
 10
0.0
 20
0.0
 30
0.0
  3
1
  1

  0
CIRCLE
  5
C1D
330
78F
100
AcDbEntity
  8
246
100
AcDbCircle
 10
231.0
 20
0.0
 30
0.0
 40
64.0
  0
ARC
  5
C1E
330
78F
100
AcDbEntity
  8
240
  6
CONTINUOUS
100
AcDbCircle
 10
231.0
 20
0.0
 30
0.0
 40
40.0
100
AcDbArc
 50
180.0
 51
269.8567604
  0
ARC
  5
C1F
330
78F
100
AcDbEntity
  8
240
  6
CONTINUOUS
100
AcDbCircle
 10
231.0
 20
0.0
 30
0.0
 40
40.0
100
AcDbArc
 50
90.1432396
 51
180.0
  0
LINE
  5
C20
330
78F
100
AcDbEntity
  8
245
100
AcDbLine
 10
165.0
 20
0.0
 30
0.0
 11
297.0
 21
0.0
 31
0.0
  0
LINE
  5
C21
330
78F
100
AcDbEntity
  8
240
  6
CONTINUOUS
100
AcDbLine
 10
124.0
 20
40.0
 30
0.0
 11
0.0
 21
40.0
 31
0.0
  0
LINE
  5
C22
330
78F
100
AcDbEntity
  8
240
  6
CONTINUOUS
100
AcDbLine
 10
32.08572539
 20
-39.9925
 30
0.0
 11
102.55554826
 21
-33.8271893
 31
0.0
  0
LINE
  5
C23
330
78F
100
AcDbEntity
  8
245
  6
CENTER2
100
AcDbLine
 10
-49.0
 20
0.0
 30
0.0
 11
126.0
 21
0.0
 31
0.0
  0
LINE
  5
C24
330
78F
100
AcDbEntity
  8
241
100
AcDbLine
 10
30.0
 20
0.0
 30
0.0
 11
30.0
 21
40.0
 31
0.0
  0
CIRCLE
  5
C25
330
78F
100
AcDbEntity
  8
241
  6
CONTINUOUS
100
AcDbCircle
 10
12.0
 20
0.0
 30
0.0
 40
6.0
  0
SPLINE
  5
C26
330
78F
100
AcDbEntity
  8
241
  6
HIDDEN2
100
AcDbSpline
210
0.0
220
0.0
230
1.0
 70
     8
 71
     3
 72
     9
 73
     5
 74
     3
 42
0.0000000001
 43
0.0000000001
 44
0.0000000001
 40
0.0
 40
0.0
 40
0.0
 40
0.0
 40
5.045058020553436
 40
10.0901160411069
 40
10.0901160411069
 40
10.0901160411069
 40
10.0901160411069
 10
-40.0000000000013
 20
4.418000000000056
 30
0.0
 10
-38.78202150770857
 20
2.945333333333394
 30
0.0
 10
-36.34606452312311
 20
0.0000000000000644
 30
0.0
 10
-38.78202150770857
 20
-2.945333333333275
 30
0.0
 10
-40.0000000000013
 20
-4.417999999999949
 30
0.0
 11
-40.0000000000013
 21
4.418000000000056
 31
0.0
 11
-37.56404301541584
 21
0.0000000000000711
 31
0.0
 11
-40.0000000000013
 21
-4.417999999999949
 31
0.0
  0
LINE
  5
C27
330
78F
100
AcDbEntity
  8
241
  6
HIDDEN2
100
AcDbLine
 10
-40.0
 20
-4.418
 30
0.0
 11
-40.0
 21
4.418
 31
0.0
  0
LINE
  5
C28
330
78F
100
AcDbEntity
  8
241
100
AcDbLine
 10
-1.94069442
 20
27.52650809
 30
0.0
 11
-1.94069442
 21
0.0
 31
0.0
  0
LINE
  5
C29
330
78F
100
AcDbEntity
  8
241
  6
CONTINUOUS
100
AcDbLine
 10
0.0
 20
27.52650809
 30
0.0
 11
0.0
 21
0.0
 31
0.0
  0
LINE
  5
C2A
330
78F
100
AcDbEntity
  8
241
100
AcDbLine
 10
-46.5
 20
26.4126003
 30
0.0
 11
-46.5
 21
0.0
 31
0.0
  0
LINE
  5
C2B
330
78F
100
AcDbEntity
  8
240
  6
CONTINUOUS
100
AcDbLine
 10
-48.0
 20
25.54657489
 30
0.0
 11
-48.0
 21
0.0
 31
0.0
  0
LINE
  5
C2C
330
78F
100
AcDbEntity
  8
240
  6
CONTINUOUS
100
AcDbLine
 10
-1.94069442
 20
-27.52650809
 30
0.0
 11
-46.5
 21
-26.4126003
 31
0.0
  0
LINE
  5
C2D
330
78F
100
AcDbEntity
  8
240
  6
CONTINUOUS
100
AcDbLine
 10
-46.5
 20
-26.4126003
 30
0.0
 11
-48.0
 21
-25.54657489
 31
0.0
  0
LINE
  5
C2E
330
78F
100
AcDbEntity
  8
241
100
AcDbLine
 10
-46.5
 20
-26.4126003
 30
0.0
 11
-46.5
 21
0.0
 31
0.0
  0
LINE
  5
C2F
330
78F
100
AcDbEntity
  8
240
  6
CONTINUOUS
100
AcDbLine
 10
-48.0
 20
-25.54657489
 30
0.0
 11
-48.0
 21
0.0
 31
0.0
  0
LINE
  5
C30
330
78F
100
AcDbEntity
  8
241
  6
HIDDEN2
100
AcDbLine
 10
-46.5
 20
-4.418
 30
0.0
 11
-40.0
 21
-4.418
 31
0.0
  0
LINE
  5
C31
330
78F
100
AcDbEntity
  8
241
  6
HIDDEN2
100
AcDbLine
 10
-46.5
 20
-4.418
 30
0.0
 11
-48.0
 21
-3.5519746
 31
0.0
  0
LINE
  5
C32
330
78F
100
AcDbEntity
  8
240
  6
CONTINUOUS
100
AcDbLine
 10
0.0
 20
-39.9925
 30
0.0
 11
32.08572539
 21
-39.9925
 31
0.0
  0
LINE
  5
C33
330
78F
100
AcDbEntity
  8
241
  6
CONTINUOUS
100
AcDbLine
 10
0.0
 20
-27.52650809
 30
0.0
 11
0.0
 21
0.0
 31
0.0
  0
LINE
  5
C34
330
78F
100
AcDbEntity
  8
241
100
AcDbLine
 10
-1.94069442
 20
-27.52650809
 30
0.0
 11
-1.94069442
 21
0.0
 31
0.0
  0
LINE
  5
C35
330
78F
100
AcDbEntity
  8
240
  6
CONTINUOUS
100
AcDbLine
 10
0.0
 20
-27.52650809
 30
0.0
 11
0.0
 21
-39.9925
 31
0.0
  0
LINE
  5
C36
330
78F
100
AcDbEntity
  8
240
100
AcDbLine
 10
-1.94069442
 20
-27.52650809
 30
0.0
 11
0.0
 21
-27.52650809
 31
0.0
  0
LINE
  5
C37
330
78F
100
AcDbEntity
  8
241
100
AcDbLine
 10
30.0
 20
0.0
 30
0.0
 11
30.0
 21
-39.9925
 31
0.0
  0
SPLINE
  5
C38
330
78F
100
AcDbEntity
  8
241
  6
CONTINUOUS
100
AcDbSpline
210
0.0
220
0.0
230
1.0
 70
     8
 71
     3
 72
     9
 73
     5
 74
     3
 42
0.0000000001
 43
0.0000000001
 44
0.0000000001
 40
0.0
 40
0.0
 40
0.0
 40
0.0
 40
13.46435379310565
 40
26.92870758621126
 40
26.92870758621126
 40
26.92870758621126
 40
26.92870758621126
 10
9.949999999999988
 20
-11.77167261950441
 30
0.0
 10
8.685084494826554
 20
-16.17985665131773
 30
0.0
 10
6.155253484479687
 20
-24.99622471494437
 30
0.0
 10
8.685084494826556
 20
-33.81259277857101
 30
0.0
 10
9.949999999999988
 20
-38.22077681038432
 30
0.0
 11
9.949999999999988
 21
-11.77167261950441
 31
0.0
 11
7.42016898965312
 21
-24.99622471494439
 31
0.0
 11
9.949999999999988
 21
-38.22077681038432
 31
0.0
1001
GRPNAME
1000
PASTMD1I
  0
SPLINE
  5
C39
330
78F
100
AcDbEntity
  8
241
  6
CONTINUOUS
100
AcDbSpline
210
0.0
220
0.0
230
1.0
 70
     8
 71
     3
 72
     9
 73
     5
 74
     3
 42
0.0000000001
 43
0.0000000001
 44
0.0000000001
 40
0.0
 40
0.0
 40
0.0
 40
0.0
 40
13.46435379310556
 40
26.92870758621117
 40
26.92870758621117
 40
26.92870758621117
 40
26.92870758621117
 10
14.05000000000001
 20
-38.22077681038431
 30
0.0
 10
15.31491550517341
 20
-33.81259277857102
 30
0.0
 10
17.84474651552022
 20
-24.9962247149444
 30
0.0
 10
15.31491550517341
 20
-16.17985665131778
 30
0.0
 10
14.05000000000001
 20
-11.77167261950447
 30
0.0
 11
14.05000000000001
 21
-38.22077681038431
 31
0.0
 11
16.57983101034682
 21
-24.99622471494442
 31
0.0
 11
14.05000000000001
 21
-11.77167261950447
 31
0.0
1001
GRPNAME
1000
PASTMD1I
  0
LINE
  5
C3A
330
78F
100
AcDbEntity
  8
241
  6
CONTINUOUS
100
AcDbLine
 10
14.05
 20
-11.77167262
 30
0.0
 11
14.05
 21
-38.22077681
 31
0.0
1001
GRPNAME
1000
PASTMD1I
  0
LINE
  5
C3B
330
78F
100
AcDbEntity
  8
241
  6
CONTINUOUS
100
AcDbLine
 10
9.95
 20
-11.77167262
 30
0.0
 11
9.95
 21
-38.22077681
 31
0.0
1001
GRPNAME
1000
PASTMD1I
  0
LINE
  5
C3C
330
78F
100
AcDbEntity
  8
241
  6
CONTINUOUS
100
AcDbLine
 10
9.95
 20
-38.22077681
 30
0.0
 11
14.05
 21
-38.22077681
 31
0.0
1001
GRPNAME
1000
PASTMD1I
  0
LINE
  5
C3D
330
78F
100
AcDbEntity
  8
241
  6
CONTINUOUS
100
AcDbLine
 10
9.95
 20
-11.77167262
 30
0.0
 11
14.05
 21
-11.77167262
 31
0.0
1001
GRPNAME
1000
PASTMD1I
  0
LINE
  5
C3E
330
78F
100
AcDbEntity
  8
240
  6
CONTINUOUS
100
AcDbLine
 10
-1.94069442
 20
27.52650809
 30
0.0
 11
-46.5
 21
26.4126003
 31
0.0
  0
LINE
  5
C3F
330
78F
100
AcDbEntity
  8
241
  6
HIDDEN2
100
AcDbLine
 10
-46.5
 20
4.418
 30
0.0
 11
-40.0
 21
4.418
 31
0.0
  0
LINE
  5
C40
330
78F
100
AcDbEntity
  8
241
  6
HIDDEN2
100
AcDbLine
 10
-48.0
 20
3.5519746
 30
0.0
 11
-46.5
 21
4.418
 31
0.0
  0
LINE
  5
C41
330
78F
100
AcDbEntity
  8
240
  6
CONTINUOUS
100
AcDbLine
 10
-46.5
 20
26.4126003
 30
0.0
 11
-48.0
 21
25.54657489
 31
0.0
  0
LINE
  5
C42
330
78F
100
AcDbEntity
  8
240
  6
CONTINUOUS
100
AcDbLine
 10
0.0
 20
27.52650809
 30
0.0
 11
0.0
 21
40.0
 31
0.0
  0
LINE
  5
C43
330
78F
100
AcDbEntity
  8
240
100
AcDbLine
 10
-1.94069442
 20
27.52650809
 30
0.0
 11
0.0
 21
27.52650809
 31
0.0
  0
LINE
  5
C44
330
78F
100
AcDbEntity
  8
241
  6
CONTINUOUS
100
AcDbLine
 10
9.95
 20
11.77167262
 30
0.0
 11
9.95
 21
38.22077681
 31
0.0
1001
GRPNAME
1000
PASTMD1I
  0
LINE
  5
C45
330
78F
100
AcDbEntity
  8
241
  6
CONTINUOUS
100
AcDbLine
 10
14.05
 20
11.77167262
 30
0.0
 11
14.05
 21
38.22077681
 31
0.0
1001
GRPNAME
1000
PASTMD1I
  0
SPLINE
  5
C46
330
78F
100
AcDbEntity
  8
241
  6
CONTINUOUS
100
AcDbSpline
210
0.0
220
0.0
230
1.0
 70
     8
 71
     3
 72
     9
 73
     5
 74
     3
 42
0.0000000001
 43
0.0000000001
 44
0.0000000001
 40
0.0
 40
0.0
 40
0.0
 40
0.0
 40
13.46435379310555
 40
26.92870758621117
 40
26.92870758621117
 40
26.92870758621117
 40
26.92870758621117
 10
14.05000000000001
 20
38.22077681038439
 30
0.0
 10
15.31491550517341
 20
33.8125927785711
 30
0.0
 10
17.84474651552023
 20
24.99622471494449
 30
0.0
 10
15.31491550517342
 20
16.17985665131787
 30
0.0
 10
14.05000000000001
 20
11.77167261950454
 30
0.0
 11
14.05000000000001
 21
38.22077681038439
 31
0.0
 11
16.57983101034682
 21
24.9962247149445
 31
0.0
 11
14.05000000000001
 21
11.77167261950454
 31
0.0
1001
GRPNAME
1000
PASTMD1I
  0
SPLINE
  5
C47
330
78F
100
AcDbEntity
  8
241
  6
CONTINUOUS
100
AcDbSpline
210
0.0
220
0.0
230
1.0
 70
     8
 71
     3
 72
     9
 73
     5
 74
     3
 42
0.0000000001
 43
0.0000000001
 44
0.0000000001
 40
0.0
 40
0.0
 40
0.0
 40
0.0
 40
13.46435379310562
 40
26.92870758621124
 40
26.92870758621124
 40
26.92870758621124
 40
26.92870758621124
 10
9.949999999999988
 20
11.7716726195045
 30
0.0
 10
8.685084494826556
 20
16.17985665131781
 30
0.0
 10
6.155253484479686
 20
24.99622471494443
 30
0.0
 10
8.685084494826554
 20
33.81259277857108
 30
0.0
 10
9.949999999999988
 20
38.22077681038439
 30
0.0
 11
9.949999999999988
 21
11.7716726195045
 31
0.0
 11
7.42016898965312
 21
24.99622471494444
 31
0.0
 11
9.949999999999988
 21
38.22077681038439
 31
0.0
1001
GRPNAME
1000
PASTMD1I
  0
LINE
  5
C48
330
78F
100
AcDbEntity
  8
241
  6
CONTINUOUS
100
AcDbLine
 10
9.95
 20
11.77167262
 30
0.0
 11
14.05
 21
11.77167262
 31
0.0
1001
GRPNAME
1000
PASTMD1I
  0
LINE
  5
C49
330
78F
100
AcDbEntity
  8
241
  6
CONTINUOUS
100
AcDbLine
 10
9.95
 20
38.22077681
 30
0.0
 11
14.05
 21
38.22077681
 31
0.0
1001
GRPNAME
1000
PASTMD1I
  0
LINE
  5
C4A
330
78F
100
AcDbEntity
  8
240
  6
CONTINUOUS
100
AcDbLine
 10
125.0
 20
-13.02932132
 30
0.0
 11
125.0
 21
39.0
 31
0.0
  0
ARC
  5
C4B
330
78F
100
AcDbEntity
  8
240
  6
CONTINUOUS
100
AcDbCircle
 10
100.81243338
 20
-13.90329534
 30
0.0
 40
20.0
100
AcDbArc
 50
275.00000007
 51
315.00000009
  0
LINE
  5
C4C
330
78F
100
AcDbEntity
  8
240
  6
CONTINUOUS
100
AcDbLine
 10
114.95456902
 20
-28.04543094
 30
0.0
 11
121.48519952
 21
-21.51480042
 31
0.0
  0
ARC
  5
C4D
330
78F
100
AcDbEntity
  8
240
  6
CONTINUOUS
100
AcDbCircle
 10
112.99972039
 20
-13.02932132
 30
0.0
 40
12.00027969082819
100
AcDbArc
 50
314.99998249
 51
0.0
  0
LWPOLYLINE
  5
C4E
330
78F
100
AcDbEntity
  8
241
100
AcDbPolyline
 90
        6
 70
     1
 43
0.0
 10
104.5
 20
21.69059892
 10
108.5
 20
19.38119785
 10
112.5
 20
21.69059892
 10
112.5
 20
26.30940108
 10
108.5
 20
28.61880215
 10
104.5
 20
26.30940108
  0
CIRCLE
  5
C4F
330
78F
100
AcDbEntity
  8
241
100
AcDbCircle
 10
108.5
 20
24.0
 30
0.0
 40
8.0
  0
CIRCLE
  5
C50
330
78F
100
AcDbEntity
  8
242
100
AcDbCircle
 10
108.5
 20
24.0
 30
0.0
 40
7.0
  0
LINE
  5
C51
330
78F
100
AcDbEntity
  8
241
  6
HIDDEN2
100
AcDbLine
 10
40.0
 20
5.0
 30
0.0
 11
125.0
 21
5.0
 31
0.0
  0
LINE
  5
C52
330
78F
100
AcDbEntity
  8
245
100
AcDbLine
 10
53.5
 20
24.0
 30
0.0
 11
117.5
 21
24.0
 31
0.0
  0
LINE
  5
C53
330
78F
100
AcDbEntity
  8
245
100
AcDbLine
 10
62.5
 20
33.0
 30
0.0
 11
62.5
 21
15.0
 31
0.0
  0
LINE
  5
C54
330
78F
100
AcDbEntity
  8
241
  6
HIDDEN2
100
AcDbLine
 10
40.0
 20
5.0
 30
0.0
 11
40.0
 21
40.0
 31
0.0
  0
CIRCLE
  5
C55
330
78F
100
AcDbEntity
  8
242
100
AcDbCircle
 10
62.5
 20
24.0
 30
0.0
 40
7.0
  0
CIRCLE
  5
C56
330
78F
100
AcDbEntity
  8
241
100
AcDbCircle
 10
62.5
 20
24.0
 30
0.0
 40
8.0
  0
LWPOLYLINE
  5
C57
330
78F
100
AcDbEntity
  8
241
100
AcDbPolyline
 90
        6
 70
     1
 43
0.0
 10
58.5
 20
21.69059892
 10
62.5
 20
19.38119785
 10
66.5
 20
21.69059892
 10
66.5
 20
26.30940108
 10
62.5
 20
28.61880215
 10
58.5
 20
26.30940108
  0
LINE
  5
C58
330
78F
100
AcDbEntity
  8
245
100
AcDbLine
 10
108.5
 20
33.0
 30
0.0
 11
108.5
 21
15.0
 31
0.0
  0
LINE
  5
C59
330
78F
100
AcDbEntity
  8
245
100
AcDbLine
 10
85.5
 20
33.0
 30
0.0
 11
85.5
 21
15.0
 31
0.0
  0
CIRCLE
  5
C5A
330
78F
100
AcDbEntity
  8
241
100
AcDbCircle
 10
85.5
 20
24.0
 30
0.0
 40
8.0
  0
CIRCLE
  5
C5B
330
78F
100
AcDbEntity
  8
242
100
AcDbCircle
 10
85.5
 20
24.0
 30
0.0
 40
7.0
  0
LWPOLYLINE
  5
C5C
330
78F
100
AcDbEntity
  8
241
100
AcDbPolyline
 90
        6
 70
     1
 43
0.0
 10
81.5
 20
21.69059892
 10
85.5
 20
19.38119785
 10
89.5
 20
21.69059892
 10
89.5
 20
26.30940108
 10
85.5
 20
28.61880215
 10
81.5
 20
26.30940108
  0
ARC
  5
C5D
330
78F
100
AcDbEntity
  8
240
  6
CONTINUOUS
100
AcDbCircle
 10
124.0
 20
39.0
 30
0.0
 40
1.0
100
AcDbArc
 50
0.0
 51
90.0
  0
ARC
  5
C5E
330
78F
100
AcDbEntity
  8
240
  6
CONTINUOUS
100
AcDbCircle
 10
231.0
 20
0.0
 30
0.0
 40
64.0
100
AcDbArc
 50
337.97568716
 51
22.61986495
  0
ELLIPSE
  5
C5F
330
78F
100
AcDbEntity
  8
241
100
AcDbEllipse
 10
207.0
 20
4.80040111
 30
0.0
 11
6.0
 21
0.0000000000000002
 31
0.0
210
0.0
220
0.0
230
1.0
 40
0.8660254
 41
1.570796326794896
 42
7.853981633974482
  0
ARC
  5
C60
330
78F
100
AcDbEntity
  8
241
100
AcDbCircle
 10
207.0
 20
7.44615242
 30
0.0
 40
7.949539980538482
100
AcDbArc
 50
168.72817914
 51
11.27182086
  0
LINE
  5
C61
330
78F
100
AcDbEntity
  8
245
100
AcDbLine
 10
231.0
 20
66.0
 30
0.0
 11
231.0
 21
-66.0
 31
0.0
  0
LINE
  5
C62
330
78F
100
AcDbEntity
  8
241
100
AcDbLine
 10
292.41661013
 20
-17.99999999
 30
0.0
 11
195.27885783
 21
-18.00000005
 31
0.0
  0
SPLINE
  5
C63
330
78F
100
AcDbEntity
  8
240
  6
CONTINUOUS
100
AcDbSpline
210
0.0
220
0.0
230
1.0
 70
     8
 71
     3
 72
    20
 73
    16
 74
     0
 42
0.0000000001
 43
0.0000000001
 40
39.01802542563887
 40
39.01802542563887
 40
39.01802542563887
 40
39.01802542563887
 40
40.11450111382778
 40
40.11450111382778
 40
41.21097680201669
 40
41.21097680201669
 40
42.30745249020559
 40
42.30745249020559
 40
43.40392817839449
 40
43.40392817839449
 40
45.04031770227171
 40
45.04031770227171
 40
45.85851246421031
 40
45.85851246421031
 40
45.99177846502653
 40
45.99177846502653
 40
45.99177846502653
 40
45.99177846502653
 10
258.453195138942
 20
-39.99999999999983
 30
0.0
 10
258.8186870350049
 20
-39.99999999999983
 30
0.0
 10
259.201943814873
 20
-39.99905296268349
 30
0.0
 10
259.9838450875898
 20
-39.99474182151931
 30
0.0
 10
260.3824876875509
 20
-39.99137511025338
 30
0.0
 10
261.175247799939
 20
-39.98201747107538
 30
0.0
 10
261.5694476066674
 20
-39.97602277716629
 30
0.0
 10
262.3341128550253
 20
-39.96159533319
 30
0.0
 10
262.7045717263583
 20
-39.95315993804735
 30
0.0
 10
263.5756337328181
 20
-39.92992183692541
 30
0.0
 10
264.1368486721035
 20
-39.91160553177389
 30
0.0
 10
264.9429991000044
 20
-39.87791091373429
 30
0.0
 10
265.2059710572763
 20
-39.86566821753222
 30
0.0
 10
265.4971292371454
 20
-39.85054538492846
 30
0.0
 10
265.5375786193888
 20
-39.84840735426274
 30
0.0
 10
265.5776697352137
 20
-39.84625098238103
 30
0.0
  0
LINE
  5
C64
330
78F
100
AcDbEntity
  8
241
100
AcDbLine
 10
284.1471496
 20
-33.19274749
 30
0.0
 11
208.67868452
 21
-33.19274748
 31
0.0
  0
LINE
  5
C65
330
78F
100
AcDbEntity
  8
240
  6
CONTINUOUS
100
AcDbLine
 10
231.0
 20
-40.0
 30
0.0
 11
258.45319514
 21
-40.0
 31
0.0
  0
ARC
  5
C66
330
78F
100
AcDbEntity
  8
240
  6
CONTINUOUS
100
AcDbCircle
 10
267.0
 20
-15.0
 30
0.0
 40
25.0
100
AcDbArc
 50
327.88491089
 51
337.38013505
  0
ARC
  5
C67
330
78F
100
AcDbEntity
  8
240
  6
CONTINUOUS
100
AcDbCircle
 10
267.0
 20
-15.0
 30
0.0
 40
25.00000000000005
100
AcDbArc
 50
281.74123139
 51
311.24658418
  0
SPLINE
  5
C68
330
78F
100
AcDbEntity
  8
240
  6
CONTINUOUS
100
AcDbSpline
210
0.0
220
0.0
230
1.0
 70
    12
 71
     2
 72
     6
 73
     3
 74
     0
 42
0.0000000001
 43
0.0000000001
 40
0.0
 40
0.0
 40
0.0
 40
8.214601460039892
 40
8.214601460039892
 40
8.214601460039892
 10
265.5776697352135
 20
-39.84625098238103
 30
0.0
 41
1.0
 10
268.7156210035504
 20
-39.67747069922899
 30
0.0
 41
1.003181153449884
 10
272.0872978654069
 20
-39.4769156641226
 30
0.0
 41
1.003263788648069
  0
SPLINE
  5
C69
330
78F
100
AcDbEntity
  8
240
  6
CONTINUOUS
100
AcDbSpline
210
0.0
220
0.0
230
1.0
 70
     8
 71
     3
 72
    18
 73
    14
 74
     0
 42
0.0000000001
 43
0.0000000001
 40
7.974226101069488
 40
7.974226101069488
 40
7.974226101069488
 40
7.974226101069488
 40
9.107312271789217
 40
9.107312271789217
 40
12.14308302905228
 40
12.14308302905228
 40
14.88881448881143
 40
14.88881448881143
 40
17.63454594857058
 40
17.63454594857058
 40
20.38027740832972
 40
20.38027740832972
 40
21.48522733956029
 40
21.48522733956029
 40
21.48522733956029
 40
21.48522733956029
 10
288.1745486429688
 20
-28.29054136469068
 30
0.0
 10
288.0104225786498
 20
-28.55202772834905
 30
0.0
 10
287.8452419721603
 20
-28.80441909148095
 30
0.0
 10
287.2386424694001
 20
-29.69746183263469
 30
0.0
 10
286.7991991734255
 20
-30.27793266600889
 30
0.0
 10
286.0167694475986
 20
-31.23911741569537
 30
0.0
 10
285.6373444495726
 20
-31.6710737537831
 30
0.0
 10
284.9214578789485
 20
-32.43836734841266
 30
0.0
 10
284.5853963133817
 20
-32.77380670402255
 30
0.0
 10
284.0181311906221
 20
-33.31768653587669
 30
0.0
 10
283.7873329442485
 20
-33.52642617623796
 30
0.0
 10
283.5701821535556
 20
-33.71993668616102
 30
0.0
 10
283.5199890271393
 20
-33.76412655364998
 30
0.0
 10
283.4825247824076
 20
-33.79697786340448
 30
0.0
  0
LINE
  5
C6A
330
78F
100
AcDbEntity
  8
241
100
AcDbLine
 10
230.5
 20
8.0
 30
0.0
 11
263.0
 21
8.0
 31
0.0
  0
LINE
  5
C6B
330
78F
100
AcDbEntity
  8
240
  6
CONTINUOUS
100
AcDbLine
 10
266.99966014
 20
40.0
 30
0.0
 11
231.0
 21
40.0
 31
0.0
  0
ELLIPSE
  5
C6C
330
78F
100
AcDbEntity
  8
241
100
AcDbEllipse
 10
207.0
 20
6.92820323
 30
0.0
 11
-0.0000000000000264
 21
9.237604307034015
 31
0.0
210
0.0
220
0.0
230
1.0
 40
0.8660254
 41
4.938591674121191
 42
7.62777894023798
  0
LINE
  5
C6D
330
78F
100
AcDbEntity
  8
241
100
AcDbLine
 10
230.5
 20
33.99985294
 30
0.0
 11
230.5
 21
8.0
 31
0.0
  0
LINE
  5
C6E
330
78F
100
AcDbEntity
  8
241
100
AcDbLine
 10
230.5
 20
33.99985294
 30
0.0
 11
230.5
 21
40.0
 31
0.0
  0
LINE
  5
C6F
330
78F
100
AcDbEntity
  8
241
100
AcDbLine
 10
263.0
 20
8.0
 30
0.0
 11
263.0
 21
40.0
 31
0.0
  0
ARC
  5
C70
330
78F
100
AcDbEntity
  8
240
  6
CONTINUOUS
100
AcDbCircle
 10
267.00019273
 20
15.0002114
 30
0.0
 40
24.99974078260704
100
AcDbArc
 50
22.61958761
 51
72.66981199
  0
ARC
  5
C71
330
78F
100
AcDbEntity
  8
240
  6
CONTINUOUS
100
AcDbCircle
 10
266.99966014
 20
14.99776994
 30
0.0
 40
25.00223006206059
100
AcDbArc
 50
72.67031349
 51
90.0
  0
ENDBLK
  5
7FA
330
78F
100
AcDbEntity
  8
0
100
AcDbBlockEnd
  0
BLOCK
  5
825
330
81B
100
AcDbEntity
  8
0
100
AcDbBlockBegin
  2
*D3
 70
     1
 10
0.0
 20
0.0
 30
0.0
  3
*D3
  1

  0
LINE
  5
BE8
330
81B
100
AcDbEntity
  8
250
  6
CONTINUOUS
 62
     3
100
AcDbLine
 10
0.0
 20
40.5
 30
0.0
 11
0.0
 21
71.0
 31
0.0
  0
LINE
  5
BE9
330
81B
100
AcDbEntity
  8
250
  6
CONTINUOUS
 62
     3
100
AcDbLine
 10
125.0
 20
39.5
 30
0.0
 11
125.0
 21
71.0
 31
0.0
  0
LINE
  5
BEA
330
81B
100
AcDbEntity
  8
250
  6
CONTINUOUS
 62
     3
100
AcDbLine
 10
2.23
 20
70.0
 30
0.0
 11
122.77
 21
70.0
 31
0.0
  0
INSERT
  5
BEB
330
81B
100
AcDbEntity
  8
250
  6
CONTINUOUS
 62
     3
100
AcDbBlockReference
  2
_OPEN
 10
0.0
 20
70.0
 30
0.0
 41
2.23
 42
2.23
 43
2.23
 50
180.0
  0
INSERT
  5
BEC
330
81B
100
AcDbEntity
  8
250
  6
CONTINUOUS
 62
     3
100
AcDbBlockReference
  2
_OPEN
 10
125.0
 20
70.0
 30
0.0
 41
2.23
 42
2.23
 43
2.23
  0
MTEXT
  5
BED
330
81B
100
AcDbEntity
  8
250
  6
CONTINUOUS
 62
    40
100
AcDbMText
 10
63.0
 20
72.5
 30
0.0
 40
3.0
 41
0.0
 71
     5
 72
     1
  1
\A1;125
1001
ACAD
1000
MTEXTBEGIN
1070
    73
1070
     1
1070
    44
1040
1.0
1070
    74
1070
     0
1000
MTEXTEND
  0
POINT
  5
BEE
330
81B
100
AcDbEntity
  8
DEFPOINTS
  6
CONTINUOUS
 62
     0
100
AcDbPoint
 10
0.0
 20
40.0
 30
0.0
  0
POINT
  5
BEF
330
81B
100
AcDbEntity
  8
DEFPOINTS
  6
CONTINUOUS
 62
     0
100
AcDbPoint
 10
125.0
 20
39.0
 30
0.0
  0
POINT
  5
BF0
330
81B
100
AcDbEntity
  8
DEFPOINTS
  6
CONTINUOUS
 62
     0
100
AcDbPoint
 10
125.0
 20
70.0
 30
0.0
  0
ENDBLK
  5
826
330
81B
100
AcDbEntity
  8
0
100
AcDbBlockEnd
  0
BLOCK
  5
910
330
906
100
AcDbEntity
  8
0
100
AcDbBlockBegin
  2
*D4
 70
     1
 10
0.0
 20
0.0
 30
0.0
  3
*D4
  1

  0
LINE
  5
A0B
330
906
100
AcDbEntity
  8
250
  6
CONTINUOUS
 62
     3
100
AcDbLine
 10
40.0
 20
40.5
 30
0.0
 11
40.0
 21
64.0
 31
0.0
  0
LINE
  5
A0C
330
906
100
AcDbEntity
  8
250
  6
CONTINUOUS
 62
     3
100
AcDbLine
 10
125.0
 20
39.5
 30
0.0
 11
125.0
 21
64.0
 31
0.0
  0
LINE
  5
A0D
330
906
100
AcDbEntity
  8
250
  6
CONTINUOUS
 62
     3
100
AcDbLine
 10
42.23
 20
63.0
 30
0.0
 11
122.77
 21
63.0
 31
0.0
  0
INSERT
  5
A0E
330
906
100
AcDbEntity
  8
250
  6
CONTINUOUS
 62
     3
100
AcDbBlockReference
  2
_OPEN
 10
40.0
 20
63.0
 30
0.0
 41
2.23
 42
2.23
 43
2.23
 50
180.0
  0
INSERT
  5
A0F
330
906
100
AcDbEntity
  8
250
  6
CONTINUOUS
 62
     3
100
AcDbBlockReference
  2
_OPEN
 10
125.0
 20
63.0
 30
0.0
 41
2.23
 42
2.23
 43
2.23
  0
MTEXT
  5
A10
330
906
100
AcDbEntity
  8
250
  6
CONTINUOUS
 62
    40
100
AcDbMText
 10
82.5
 20
65.5
 30
0.0
 40
3.0
 41
0.0
 71
     5
 72
     1
  1
\A1;85
1001
ACAD
1000
MTEXTBEGIN
1070
    73
1070
     1
1070
    44
1040
1.0
1070
    74
1070
     0
1000
MTEXTEND
1000
MTEXTBEGIN
1070
    73
1070
     1
1070
    44
1040
1.0
1070
    74
1070
     0
1000
MTEXTEND
  0
POINT
  5
A11
330
906
100
AcDbEntity
  8
DEFPOINTS
  6
CONTINUOUS
 62
     0
100
AcDbPoint
 10
40.0
 20
40.0
 30
0.0
  0
POINT
  5
A12
330
906
100
AcDbEntity
  8
DEFPOINTS
  6
CONTINUOUS
 62
     0
100
AcDbPoint
 10
125.0
 20
39.0
 30
0.0
  0
POINT
  5
A13
330
906
100
AcDbEntity
  8
DEFPOINTS
  6
CONTINUOUS
 62
     0
100
AcDbPoint
 10
125.0
 20
63.0
 30
0.0
  0
ENDBLK
  5
911
330
906
100
AcDbEntity
  8
0
100
AcDbBlockEnd
  0
BLOCK
  5
964
330
95A
100
AcDbEntity
  8
0
100
AcDbBlockBegin
  2
*D5
 70
     1
 10
0.0
 20
0.0
 30
0.0
  3
*D5
  1

  0
LINE
  5
A1D
330
95A
100
AcDbEntity
  8
250
  6
CONTINUOUS
 62
     3
100
AcDbLine
 10
126.5
 20
0.0
 30
0.0
 11
141.0
 21
0.0
 31
0.0
  0
LINE
  5
A1E
330
95A
100
AcDbEntity
  8
250
  6
CONTINUOUS
 62
     3
100
AcDbLine
 10
124.5
 20
40.0
 30
0.0
 11
141.0
 21
40.0
 31
0.0
  0
LINE
  5
A1F
330
95A
100
AcDbEntity
  8
250
  6
CONTINUOUS
 62
     3
100
AcDbLine
 10
140.0
 20
2.23
 30
0.0
 11
140.0
 21
37.77
 31
0.0
  0
INSERT
  5
A20
330
95A
100
AcDbEntity
  8
250
  6
CONTINUOUS
 62
     3
100
AcDbBlockReference
  2
_OPEN
 10
140.0
 20
0.0
 30
0.0
 41
2.23
 42
2.23
 43
2.23
 50
270.0
  0
INSERT
  5
A21
330
95A
100
AcDbEntity
  8
250
  6
CONTINUOUS
 62
     3
100
AcDbBlockReference
  2
_OPEN
 10
140.0
 20
40.0
 30
0.0
 41
2.23
 42
2.23
 43
2.23
 50
90.0
  0
MTEXT
  5
A22
330
95A
100
AcDbEntity
  8
250
  6
CONTINUOUS
 62
    40
100
AcDbMText
 10
137.5
 20
20.0
 30
0.0
 40
3.0
 41
0.0
 71
     5
 72
     1
  1
\A1;40
 11
0.0
 21
1.0
 31
0.0
1001
ACAD
1000
MTEXTBEGIN
1070
    73
1070
     1
1070
    44
1040
1.0
1070
    74
1070
     0
1000
MTEXTEND
1000
MTEXTBEGIN
1070
    73
1070
     1
1070
    44
1040
1.0
1070
    74
1070
     0
1000
MTEXTEND
  0
POINT
  5
A23
330
95A
100
AcDbEntity
  8
DEFPOINTS
  6
CONTINUOUS
 62
     0
100
AcDbPoint
 10
126.0
 20
0.0
 30
0.0
  0
POINT
  5
A24
330
95A
100
AcDbEntity
  8
DEFPOINTS
  6
CONTINUOUS
 62
     0
100
AcDbPoint
 10
124.0
 20
40.0
 30
0.0
  0
POINT
  5
A25
330
95A
100
AcDbEntity
  8
DEFPOINTS
  6
CONTINUOUS
 62
     0
100
AcDbPoint
 10
140.0
 20
40.0
 30
0.0
  0
ENDBLK
  5
965
330
95A
100
AcDbEntity
  8
0
100
AcDbBlockEnd
  0
BLOCK
  5
973
330
969
100
AcDbEntity
  8
0
100
AcDbBlockBegin
  2
*D6
 70
     1
 10
0.0
 20
0.0
 30
0.0
  3
*D6
  1

  0
LINE
  5
C06
330
969
100
AcDbEntity
  8
250
  6
CONTINUOUS
 62
     3
100
AcDbLine
 10
231.0
 20
66.5
 30
0.0
 11
231.0
 21
71.0
 31
0.0
  0
LINE
  5
C07
330
969
100
AcDbEntity
  8
250
  6
CONTINUOUS
 62
     3
100
AcDbLine
 10
263.0
 20
40.5
 30
0.0
 11
263.0
 21
71.0
 31
0.0
  0
LINE
  5
C08
330
969
100
AcDbEntity
  8
250
  6
CONTINUOUS
 62
     3
100
AcDbLine
 10
233.23
 20
70.0
 30
0.0
 11
260.77
 21
70.0
 31
0.0
  0
INSERT
  5
C09
330
969
100
AcDbEntity
  8
250
  6
CONTINUOUS
 62
     3
100
AcDbBlockReference
  2
_OPEN
 10
231.0
 20
70.0
 30
0.0
 41
2.23
 42
2.23
 43
2.23
 50
180.0
  0
INSERT
  5
C0A
330
969
100
AcDbEntity
  8
250
  6
CONTINUOUS
 62
     3
100
AcDbBlockReference
  2
_OPEN
 10
263.0
 20
70.0
 30
0.0
 41
2.23
 42
2.23
 43
2.23
  0
MTEXT
  5
C0B
330
969
100
AcDbEntity
  8
250
  6
CONTINUOUS
 62
    40
100
AcDbMText
 10
247.0
 20
72.5
 30
0.0
 40
3.0
 41
0.0
 71
     5
 72
     1
  1
\A1;□32
1001
ACAD
1000
MTEXTBEGIN
1070
    73
1070
     1
1070
    44
1040
1.0
1070
    74
1070
     0
1000
MTEXTEND
  0
POINT
  5
C0C
330
969
100
AcDbEntity
  8
DEFPOINTS
  6
CONTINUOUS
 62
     0
100
AcDbPoint
 10
231.0
 20
66.0
 30
0.0
  0
POINT
  5
C0D
330
969
100
AcDbEntity
  8
DEFPOINTS
  6
CONTINUOUS
 62
     0
100
AcDbPoint
 10
263.0
 20
40.0
 30
0.0
  0
POINT
  5
C0E
330
969
100
AcDbEntity
  8
DEFPOINTS
  6
CONTINUOUS
 62
     0
100
AcDbPoint
 10
263.0
 20
70.0
 30
0.0
  0
ENDBLK
  5
974
330
969
100
AcDbEntity
  8
0
100
AcDbBlockEnd
  0
BLOCK
  5
9A1
330
997
100
AcDbEntity
  8
0
100
AcDbBlockBegin
  2
*D7
 70
     1
 10
0.0
 20
0.0
 30
0.0
  3
*D7
  1

  0
LINE
  5
BFD
330
997
100
AcDbEntity
  8
250
  6
CONTINUOUS
 62
     3
100
AcDbLine
 10
263.5
 20
8.0
 30
0.0
 11
309.0
 21
8.0
 31
0.0
  0
LINE
  5
BFE
330
997
100
AcDbEntity
  8
250
  6
CONTINUOUS
 62
     3
100
AcDbLine
 10
267.5
 20
40.0
 30
0.0
 11
309.0
 21
40.0
 31
0.0
  0
LINE
  5
BFF
330
997
100
AcDbEntity
  8
250
  6
CONTINUOUS
 62
     3
100
AcDbLine
 10
308.0
 20
10.23
 30
0.0
 11
308.0
 21
37.77
 31
0.0
  0
INSERT
  5
C00
330
997
100
AcDbEntity
  8
250
  6
CONTINUOUS
 62
     3
100
AcDbBlockReference
  2
_OPEN
 10
308.0
 20
8.0
 30
0.0
 41
2.23
 42
2.23
 43
2.23
 50
270.0
  0
INSERT
  5
C01
330
997
100
AcDbEntity
  8
250
  6
CONTINUOUS
 62
     3
100
AcDbBlockReference
  2
_OPEN
 10
308.0
 20
40.0
 30
0.0
 41
2.23
 42
2.23
 43
2.23
 50
90.0
  0
MTEXT
  5
C02
330
997
100
AcDbEntity
  8
250
  6
CONTINUOUS
 62
    40
100
AcDbMText
 10
305.5
 20
24.0
 30
0.0
 40
3.0
 41
0.0
 71
     5
 72
     1
  1
\A1;32
 11
0.0
 21
1.0
 31
0.0
1001
ACAD
1000
MTEXTBEGIN
1070
    73
1070
     1
1070
    44
1040
1.0
1070
    74
1070
     0
1000
MTEXTEND
  0
POINT
  5
C03
330
997
100
AcDbEntity
  8
DEFPOINTS
  6
CONTINUOUS
 62
     0
100
AcDbPoint
 10
263.0
 20
8.0
 30
0.0
  0
POINT
  5
C04
330
997
100
AcDbEntity
  8
DEFPOINTS
  6
CONTINUOUS
 62
     0
100
AcDbPoint
 10
267.0
 20
40.0
 30
0.0
  0
POINT
  5
C05
330
997
100
AcDbEntity
  8
DEFPOINTS
  6
CONTINUOUS
 62
     0
100
AcDbPoint
 10
308.0
 20
40.0
 30
0.0
  0
ENDBLK
  5
9A2
330
997
100
AcDbEntity
  8
0
100
AcDbBlockEnd
  0
BLOCK
  5
9AB
330
9A4
100
AcDbEntity
  8
0
100
AcDbBlockBegin
  2
*D8
 70
     1
 10
0.0
 20
0.0
 30
0.0
  3
*D8
  1

  0
LINE
  5
C98
330
9A4
100
AcDbEntity
  8
250
  6
CONTINUOUS
100
AcDbLine
 10
192.73654481
 20
-48.49165801
 30
0.0
 11
269.26345519
 21
48.49165801
 31
0.0
  0
INSERT
  5
C99
330
9A4
100
AcDbEntity
  8
250
  6
CONTINUOUS
100
AcDbBlockReference
  2
_OPEN
 10
191.35517028
 20
-50.24228773
 30
0.0
 41
2.23
 42
2.23
 43
2.23
 50
231.72398443
  0
INSERT
  5
C9A
330
9A4
100
AcDbEntity
  8
250
  6
CONTINUOUS
100
AcDbBlockReference
  2
_OPEN
 10
270.64482972
 20
50.24228773
 30
0.0
 41
2.23
 42
2.23
 43
2.23
 50
51.72398443
  0
MTEXT
  5
C9B
330
9A4
100
AcDbEntity
  8
250
  6
CONTINUOUS
 62
    40
100
AcDbMText
 10
247.0934608
 20
24.26980503
 30
0.0
 40
2.8
 41
0.0
 71
     5
 72
     1
  1
\A1;（{\H2.8;\U+2205}128）
 11
0.61945046
 21
0.78503575
 31
0.0
  0
POINT
  5
C9C
330
9A4
100
AcDbEntity
  8
DEFPOINTS
  6
CONTINUOUS
 62
     0
100
AcDbPoint
 10
270.64482972
 20
50.24228773
 30
0.0
  0
POINT
  5
C9D
330
9A4
100
AcDbEntity
  8
DEFPOINTS
  6
CONTINUOUS
 62
     0
100
AcDbPoint
 10
191.35517028
 20
-50.24228773
 30
0.0
  0
ENDBLK
  5
9AC
330
9A4
100
AcDbEntity
  8
0
100
AcDbBlockEnd
  0
ENDSEC
  0
SECTION
  2
ENTITIES
  0
INSERT
  5
6E6
330
1A
100
AcDbEntity
  8
245
100
AcDbBlockReference
  2
矢印なし
 10
175.62382697
 20
90.55123572
 30
0.0
  0
DIMENSION
  5
80A
330
1A
100
AcDbEntity
  8
250
  6
CONTINUOUS
100
AcDbDimension
  2
*D3
 10
125.0
 20
70.0
 30
0.0
 11
63.0
 21
70.0
 31
0.0
 70
   160
  3
BIGT$0
100
AcDbAlignedDimension
 13
0.0
 23
40.0
 33
0.0
 14
125.0
 24
39.0
 34
0.0
100
AcDbRotatedDimension
  0
TEXT
  5
80B
330
1A
100
AcDbEntity
  8
241
100
AcDbText
 10
-48.0
 20
84.0
 30
0.0
 40
5.0
  1
C8-180-BH32R-40125
  7
YOKO
 11
-48.0
 21
84.0
 31
0.0
100
AcDbText
 73
     1
  0
DIMENSION
  5
905
330
1A
100
AcDbEntity
  8
250
  6
CONTINUOUS
100
AcDbDimension
  2
*D4
 10
125.0
 20
63.0
 30
0.0
 11
82.5
 21
65.5
 31
0.0
 70
    32
  3
BIGT$0
100
AcDbAlignedDimension
 13
40.0
 23
40.0
 33
0.0
 14
125.0
 24
39.0
 34
0.0
100
AcDbRotatedDimension
  0
DIMENSION
  5
959
330
1A
100
AcDbEntity
  8
250
  6
CONTINUOUS
100
AcDbDimension
  2
*D5
 10
140.0
 20
40.0
 30
0.0
 11
137.5
 21
20.0
 31
0.0
 70
    32
  3
BIGT$0
100
AcDbAlignedDimension
 13
126.0
 23
0.0
 33
0.0
 14
124.0
 24
40.0
 34
0.0
 50
90.0
100
AcDbRotatedDimension
  0
DIMENSION
  5
968
330
1A
100
AcDbEntity
  8
250
  6
CONTINUOUS
100
AcDbDimension
  2
*D6
 10
263.0
 20
70.0
 30
0.0
 11
247.0
 21
72.5
 31
0.0
 70
    32
  1
□<>
  3
BIGT$0
100
AcDbAlignedDimension
 13
231.0
 23
66.0
 33
0.0
 14
263.0
 24
40.0
 34
0.0
100
AcDbRotatedDimension
  0
DIMENSION
  5
996
330
1A
100
AcDbEntity
  8
250
  6
CONTINUOUS
100
AcDbDimension
  2
*D7
 10
308.0
 20
40.0
 30
0.0
 11
305.5
 21
24.0
 31
0.0
 70
    32
  3
BIGT$0
100
AcDbAlignedDimension
 13
263.0
 23
8.0
 33
0.0
 14
267.0
 24
40.0
 34
0.0
 50
90.0
100
AcDbRotatedDimension
  0
DIMENSION
  5
9A3
330
1A
100
AcDbEntity
  8
250
  6
CONTINUOUS
100
AcDbDimension
  2
*D8
 10
191.35517028
 20
-50.24228773
 30
0.0
 11
248.97754659
 21
22.78312392
 31
0.0
 70
   163
  1
（{\H2.8;\U+2205}<>）
  3
BIGT
100
AcDbDiametricDimension
 15
270.64482972
 25
50.24228773
 35
0.0
 40
0.0
1001
ACAD
1000
DSTYLE
1002
{
1070
   287
1070
     0
1070
   287
1070
     0
1070
     3
1000
<>
1070
   288
1070
     1
1070
   289
1070
     0
1002
}
  0
MTEXT
  5
BBF
330
1A
100
AcDbEntity
  8
251
  6
CONTINUOUS
100
AcDbMText
 10
-34.24230726
 20
-34.07208548
 30
0.0
 40
2.8
 41
0.0
 71
     7
 72
     1
  1
C8
  7
YOKO
1001
ITEMNAME
1000
LNSP3
1001
ACAD
1000
MTEXTBEGIN
1070
    73
1070
     1
1070
    44
1040
1.0
1070
    74
1070
     0
1000
MTEXTEND
1000
MTEXTBEGIN
1070
    73
1070
     1
1070
    44
1040
1.0
1070
    74
1070
     0
1000
MTEXTEND
1000
MTEXTBEGIN
1070
    73
1070
     1
1070
    44
1040
1.0
1070
    74
1070
     0
1000
MTEXTEND
  0
LEADER
  5
BC0
330
1A
100
AcDbEntity
  8
250
  6
CONTINUOUS
100
AcDbLeader
  3
BIGT$7
 76
     2
 10
-22.12784265
 20
-27.02186329
 30
0.0
 10
-26.7756406
 20
-35.07208548
 30
0.0
1001
ACAD
1000
DSTYLE
1002
{
1070
     5
1000
OPEN
1070
    41
1040
2.0
1070
    42
1040
2.0
1070
    44
1040
2.0
1070
   140
1040
4.0
1070
   342
1005
594
1002
}
  0
LINE
  5
BC6
330
1A
100
AcDbEntity
  8
250
  6
CONTINUOUS
100
AcDbLine
 10
-26.7756406
 20
-35.07208548
 30
0.0
 11
-37.04230726
 21
-35.07208548
 31
0.0
1001
ITEMNAME
1000
LNSP2
  0
INSERT
  5
C72
330
1A
100
AcDbEntity
  8
245
100
AcDbBlockReference
  2
1
 10
0.0
 20
0.0
 30
0.0
  0
VIEWPORT
  5
22
330
17
100
AcDbEntity
 67
     1
  8
0
100
AcDbViewport
 10
261.51769912
 20
148.5
 30
0.0
 40
523.03539823
 41
297.0
 68
     1
 69
     1
1001
ACAD
1000
MVIEW
1002
{
1070
    16
1010
0.0
1020
0.0
1030
0.0
1010
0.0
1020
0.0
1030
1.0
1040
0.0
1040
297.0
1040
261.51769912
1040
148.5
1040
50.0
1040
0.0
1040
0.0
1070
     0
1070
   100
1070
     1
1070
     1
1070
     0
1070
     0
1070
     0
1070
     0
1040
0.0
1040
0.0
1040
0.0
1040
1.0
1040
1.0
1040
10.0
1040
10.0
1070
     0
1002
{
1002
}
1002
}
  0
ENDSEC
  0
SECTION
  2
OBJECTS
  0
DICTIONARY
  5
C
330
0
100
AcDbDictionary
  3
ACAD_GROUP
350
D
  3
ACAD_LAYOUT
350
565
  3
ACAD_MLINESTYLE
350
E
  3
ACAD_PLOTSETTINGS
350
566
  3
ACAD_PLOTSTYLENAME
350
563
  3
ACDBHEADERROUNDTRIPXREC
350
C74
  3
GRADE_DWG
350
540
  0
DICTIONARY
  5
B06
330
1A
100
AcDbDictionary
280
     1
  3
ACAD_LAYOUTSELFREF
360
C96
  0
DICTIONARY
  5
B04
330
17
100
AcDbDictionary
280
     1
  3
ACAD_LAYOUTSELFREF
360
C95
  0
DICTIONARY
  5
D
102
{ACAD_REACTORS
330
C
102
}
330
C
100
AcDbDictionary
  3
*A1
350
6C7
  3
*A2
350
6C8
  3
*A3
350
6D4
  3
*A4
350
6D5
  3
DREC-1
350
5FC
  3
DREC-2
350
654
  3
DREC-3
350
673
  0
DICTIONARY
  5
565
102
{ACAD_REACTORS
330
C
102
}
330
C
100
AcDbDictionary
  0
DICTIONARY
  5
E
102
{ACAD_REACTORS
330
C
102
}
330
C
100
AcDbDictionary
  3
STANDARD
350
13
  0
DICTIONARY
  5
566
102
{ACAD_REACTORS
330
C
102
}
330
C
100
AcDbDictionary
  3
A3_0_5倍_
350
758
  3
A3_1倍_
350
757
  3
A3_1倍__2000_
350
707
  3
A3_2倍_
350
759
  3
A4_0_5倍_
350
755
  3
A4_1倍_
350
754
  3
A4_1倍__2000_
350
708
  3
A4_2倍_
350
756
  0
ACDBDICTIONARYWDFLT
  5
563
102
{ACAD_REACTORS
330
C
102
}
330
C
100
AcDbDictionary
281
     1
  3
Normal
350
564
100
AcDbDictionaryWithDefault
340
564
  0
DICTIONARY
  5
C74
102
{ACAD_REACTORS
330
C
102
}
330
C
100
AcDbDictionary
  3
CEPSNTYPE
350
C7E
  3
DIMSTYLEDATA
350
C82
  3
FINGERPRINTGUID
350
C7F
  3
HYPERLINKBASE
350
C77
  3
INSUNITS
350
C7D
  3
LAYOUTDICT
350
C79
  3
LWETCUNION
350
C7C
  3
PLOTSETDICT
350
C7A
  3
PLOTSTYLNAMDICT
350
C7B
  3
PSVPSCALE
350
C81
  3
PUCSBASE
350
C85
  3
PUCSORGBACK
350
C8B
  3
PUCSORGBOTTOM
350
C87
  3
PUCSORGFRONT
350
C8A
  3
PUCSORGLEFT
350
C88
  3
PUCSORGRIGHT
350
C89
  3
PUCSORGTOP
350
C86
  3
PUCSORTHOREF
350
C83
  3
PUCSORTHOVIEW
350
C84
  3
STYLESHEET
350
C78
  3
TSTACKALIGN
350
C75
  3
TSTACKSIZE
350
C76
  3
UCSBASE
350
C8E
  3
UCSORGBACK
350
C94
  3
UCSORGBOTTOM
350
C90
  3
UCSORGFRONT
350
C93
  3
UCSORGLEFT
350
C91
  3
UCSORGRIGHT
350
C92
  3
UCSORGTOP
350
C8F
  3
UCSORTHOREF
350
C8C
  3
UCSORTHOVIEW
350
C8D
  3
VERSIONGUID
350
C80
  0
DICTIONARY
  5
540
102
{ACAD_REACTORS
330
C
102
}
330
C
100
AcDbDictionary
  3
VERSION
350
560
  0
XRECORD
  5
C96
102
{ACAD_REACTORS
330
B06
102
}
330
B06
100
AcDbXrecord
340
1A
  0
XRECORD
  5
C95
102
{ACAD_REACTORS
330
B04
102
}
330
B04
100
AcDbXrecord
340
17
  0
GROUP
  5
6C7
102
{ACAD_REACTORS
330
D
102
}
330
D
100
AcDbGroup
300

 70
     0
 71
     1
1001
GRPNAME
1000
DMA00
  0
GROUP
  5
6C8
102
{ACAD_REACTORS
330
D
102
}
330
D
100
AcDbGroup
300

 70
     0
 71
     1
1001
GRPNAME
1000
DMA00
  0
GROUP
  5
6D4
102
{ACAD_REACTORS
330
D
102
}
330
D
100
AcDbGroup
300

 70
     0
 71
     1
1001
GRPNAME
1000
DMA00
  0
GROUP
  5
6D5
102
{ACAD_REACTORS
330
D
102
}
330
D
100
AcDbGroup
300

 70
     0
 71
     1
1001
GRPNAME
1000
DMA00
  0
GROUP
  5
5FC
102
{ACAD_REACTORS
330
D
102
}
330
D
100
AcDbGroup
300

 70
     0
 71
     1
1001
GRPNAME
1000
DREC-
1001
GPARA
1000
xsiz
1000
44.182
1000
ysiz
1000
40.677
1000
angl
1000
0
1000
ctyp
1000
0
1000
csiz
1000
5
1000
lfnt
1000
cont
1000
hcnt
1000
hoff
1000
vcnt
1000
voff
1000
opnt
1000
4
1000
dxpt
1000
0
1000
dypt
1000
0
  0
GROUP
  5
654
102
{ACAD_REACTORS
330
D
102
}
330
D
100
AcDbGroup
300

 70
     0
 71
     1
1001
GRPNAME
1000
DREC-
1001
GPARA
1000
xsiz
1000
54.592
1000
ysiz
1000
53.036
1000
angl
1000
0
1000
ctyp
1000
0
1000
csiz
1000
5
1000
lfnt
1000
cont
1000
hcnt
1000
hoff
1000
vcnt
1000
voff
1000
opnt
1000
4
1000
dxpt
1000
0
1000
dypt
1000
0
  0
GROUP
  5
673
102
{ACAD_REACTORS
330
D
102
}
330
D
100
AcDbGroup
300

 70
     0
 71
     1
1001
GRPNAME
1000
DREC-
1001
GPARA
1000
xsiz
1000
30.363
1000
ysiz
1000
36.175
1000
angl
1000
0
1000
ctyp
1000
0
1000
csiz
1000
5
1000
lfnt
1000
cont
1000
hcnt
1000
hoff
1000
vcnt
1000
voff
1000
opnt
1000
4
1000
dxpt
1000
0
1000
dypt
1000
0
  0
MLINESTYLE
  5
13
102
{ACAD_REACTORS
330
E
102
}
330
E
100
AcDbMlineStyle
  2
STANDARD
 70
     0
  3

 62
     0
 51
90.0
 52
90.0
 71
     2
 49
0.5
 62
   256
  6
BYLAYER
 49
-0.5
 62
   256
  6
BYLAYER
  0
PLOTSETTINGS
  5
758
102
{ACAD_REACTORS
330
566
102
}
330
566
100
AcDbPlotSettings
  1
A3(0.5倍)
  2
\\AWTECPC05\HP DeskJet 1120C
  4
A3
  6

 40
5.95841646
 41
13.49375153
 42
6.04309082
 43
3.67242432
 44
296.92599487
 45
419.94665527
 46
89.96
 47
127.14
 48
0.0
 49
0.0
140
0.0
141
0.0
142
1.0
143
2.0
 70
  1716
 72
     1
 73
     1
 74
     2
  7
big.ctb
 75
    17
147
0.5
148
0.0
149
0.0
  0
PLOTSETTINGS
  5
757
102
{ACAD_REACTORS
330
566
102
}
330
566
100
AcDbPlotSettings
  1
A3(1倍)
  2
\\AWTECPC05\HP DeskJet 1120C
  4
A3
  6

 40
5.95841646
 41
13.49375153
 42
6.04309082
 43
3.67242432
 44
296.92599487
 45
419.94665527
 46
37.46
 47
52.89
 48
0.0
 49
0.0
140
0.0
141
0.0
142
1.0
143
1.0
 70
  1716
 72
     1
 73
     1
 74
     2
  7
big.ctb
 75
    16
147
1.0
148
0.0
149
0.0
  0
PLOTSETTINGS
  5
707
102
{ACAD_REACTORS
330
566
102
}
330
566
100
AcDbPlotSettings
  1
A3(1倍)(2000)
  2
SII LS-1300 (D-SCAN)
  4
User258
  6

 40
3.17499995
 41
3.17499995
 42
3.17498779
 43
3.17498779
 44
419.98898315
 45
296.98950195
 46
58.32
 47
40.32
 48
0.0
 49
0.0
140
0.0
141
0.0
142
1.0
143
1.0
 70
  1716
 72
     1
 73
     0
 74
     2
  7
big.ctb
 75
    16
147
1.0
148
0.0
149
0.0
  0
PLOTSETTINGS
  5
759
102
{ACAD_REACTORS
330
566
102
}
330
566
100
AcDbPlotSettings
  1
A3(2倍)
  2
\\AWTECPC05\HP DeskJet 1120C
  4
A3
  6

 40
5.95841646
 41
13.49375153
 42
6.04309082
 43
3.67242432
 44
296.92599487
 45
419.94665527
 46
-67.54
 47
-95.61
 48
0.0
 49
0.0
140
0.0
141
0.0
142
1.0
143
0.5
 70
  1716
 72
     1
 73
     1
 74
     2
  7
big.ctb
 75
    27
147
2.0
148
0.0
149
0.0
  0
PLOTSETTINGS
  5
755
102
{ACAD_REACTORS
330
566
102
}
330
566
100
AcDbPlotSettings
  1
A4(0.5倍)
  2
\\AWTECPC05\HP DeskJet 1120C
  4
A4
  6

 40
4.18041658
 41
13.49374962
 42
4.18040466
 43
3.92642212
 44
209.97332764
 45
296.92599487
 46
48.31
 47
65.5
 48
0.0
 49
0.0
140
0.0
141
0.0
142
1.0
143
2.0
 70
  1716
 72
     1
 73
     1
 74
     2
  7
big.ctb
 75
    17
147
0.5
148
0.0
149
0.0
  0
PLOTSETTINGS
  5
754
102
{ACAD_REACTORS
330
566
102
}
330
566
100
AcDbPlotSettings
  1
A4(1倍)
  2
\\AWTECPC05\HP DeskJet 1120C
  4
A4
  6

 40
4.18041658
 41
13.49374962
 42
4.18040466
 43
3.92642212
 44
209.97332764
 45
296.92599487
 46
-4.19
 47
-8.75
 48
0.0
 49
0.0
140
0.0
141
0.0
142
1.0
143
1.0
 70
  1716
 72
     1
 73
     1
 74
     2
  7
big.ctb
 75
    16
147
1.0
148
0.0
149
0.0
  0
PLOTSETTINGS
  5
708
102
{ACAD_REACTORS
330
566
102
}
330
566
100
AcDbPlotSettings
  1
A4(1倍)(2000)
  2
SII LS-1300 (D-SCAN)
  4
User259
  6

 40
3.17499995
 41
3.17499995
 42
3.17498779
 43
3.17500305
 44
296.98950195
 45
209.99449158
 46
-3.18
 47
-3.18
 48
0.0
 49
0.0
140
0.0
141
0.0
142
1.0
143
1.0
 70
  1716
 72
     1
 73
     0
 74
     2
  7
big.ctb
 75
    16
147
1.0
148
0.0
149
0.0
  0
PLOTSETTINGS
  5
756
102
{ACAD_REACTORS
330
566
102
}
330
566
100
AcDbPlotSettings
  1
A4(2倍)
  2
\\AWTECPC05\HP DeskJet 1120C
  4
A4
  6

 40
4.18041658
 41
13.49374962
 42
4.18040466
 43
3.92642212
 44
209.97332764
 45
296.92599487
 46
-109.19
 47
-157.25
 48
0.0
 49
0.0
140
0.0
141
0.0
142
1.0
143
0.5
 70
  1716
 72
     1
 73
     1
 74
     2
  7
big.ctb
 75
    27
147
2.0
148
0.0
149
0.0
  0
ACDBPLACEHOLDER
  5
564
102
{ACAD_REACTORS
330
563
102
}
330
563
100
AcDbPlaceHolder
280
     0
  0
XRECORD
  5
C7E
102
{ACAD_REACTORS
330
C74
102
}
330
C74
100
AcDbXrecord
 90
        0
  0
XRECORD
  5
C82
102
{ACAD_REACTORS
330
C74
102
}
330
C74
100
AcDbXrecord
1000
DSTYLE
1002
{
1070
    79
 70
     2
1070
   179
 70
     3
1070
   341
340
594
1070
   343
340
594
1070
   344
340
594
1070
   371
 70
    -1
1070
   372
 70
    -1
1002
}
  0
XRECORD
  5
C7F
102
{ACAD_REACTORS
330
C74
102
}
330
C74
100
AcDbXrecord
  1
{51294030-9CB4-11D3-8E18-00A0C925D94D}
  0
XRECORD
  5
C77
102
{ACAD_REACTORS
330
C74
102
}
330
C74
100
AcDbXrecord
  1

  0
XRECORD
  5
C7D
102
{ACAD_REACTORS
330
C74
102
}
330
C74
100
AcDbXrecord
 90
        0
  0
XRECORD
  5
C79
102
{ACAD_REACTORS
330
C74
102
}
330
C74
100
AcDbXrecord
340
565
  0
XRECORD
  5
C7C
102
{ACAD_REACTORS
330
C74
102
}
330
C74
100
AcDbXrecord
 90
    10781
  0
XRECORD
  5
C7A
102
{ACAD_REACTORS
330
C74
102
}
330
C74
100
AcDbXrecord
340
566
  0
XRECORD
  5
C7B
102
{ACAD_REACTORS
330
C74
102
}
330
C74
100
AcDbXrecord
340
563
  0
XRECORD
  5
C81
102
{ACAD_REACTORS
330
C74
102
}
330
C74
100
AcDbXrecord
 40
0.0
  0
XRECORD
  5
C85
102
{ACAD_REACTORS
330
C74
102
}
330
C74
100
AcDbXrecord
340
0
  0
XRECORD
  5
C8B
102
{ACAD_REACTORS
330
C74
102
}
330
C74
100
AcDbXrecord
 10
0.0
 20
0.0
 30
0.0
  0
XRECORD
  5
C87
102
{ACAD_REACTORS
330
C74
102
}
330
C74
100
AcDbXrecord
 10
0.0
 20
0.0
 30
0.0
  0
XRECORD
  5
C8A
102
{ACAD_REACTORS
330
C74
102
}
330
C74
100
AcDbXrecord
 10
0.0
 20
0.0
 30
0.0
  0
XRECORD
  5
C88
102
{ACAD_REACTORS
330
C74
102
}
330
C74
100
AcDbXrecord
 10
0.0
 20
0.0
 30
0.0
  0
XRECORD
  5
C89
102
{ACAD_REACTORS
330
C74
102
}
330
C74
100
AcDbXrecord
 10
0.0
 20
0.0
 30
0.0
  0
XRECORD
  5
C86
102
{ACAD_REACTORS
330
C74
102
}
330
C74
100
AcDbXrecord
 10
0.0
 20
0.0
 30
0.0
  0
XRECORD
  5
C83
102
{ACAD_REACTORS
330
C74
102
}
330
C74
100
AcDbXrecord
340
0
  0
XRECORD
  5
C84
102
{ACAD_REACTORS
330
C74
102
}
330
C74
100
AcDbXrecord
 70
     0
  0
XRECORD
  5
C78
102
{ACAD_REACTORS
330
C74
102
}
330
C74
100
AcDbXrecord
  1
big.ctb
  0
XRECORD
  5
C75
102
{ACAD_REACTORS
330
C74
102
}
330
C74
100
AcDbXrecord
 90
        1
  0
XRECORD
  5
C76
102
{ACAD_REACTORS
330
C74
102
}
330
C74
100
AcDbXrecord
 90
       70
  0
XRECORD
  5
C8E
102
{ACAD_REACTORS
330
C74
102
}
330
C74
100
AcDbXrecord
340
0
  0
XRECORD
  5
C94
102
{ACAD_REACTORS
330
C74
102
}
330
C74
100
AcDbXrecord
 10
0.0
 20
0.0
 30
0.0
  0
XRECORD
  5
C90
102
{ACAD_REACTORS
330
C74
102
}
330
C74
100
AcDbXrecord
 10
0.0
 20
0.0
 30
0.0
  0
XRECORD
  5
C93
102
{ACAD_REACTORS
330
C74
102
}
330
C74
100
AcDbXrecord
 10
0.0
 20
0.0
 30
0.0
  0
XRECORD
  5
C91
102
{ACAD_REACTORS
330
C74
102
}
330
C74
100
AcDbXrecord
 10
0.0
 20
0.0
 30
0.0
  0
XRECORD
  5
C92
102
{ACAD_REACTORS
330
C74
102
}
330
C74
100
AcDbXrecord
 10
0.0
 20
0.0
 30
0.0
  0
XRECORD
  5
C8F
102
{ACAD_REACTORS
330
C74
102
}
330
C74
100
AcDbXrecord
 10
0.0
 20
0.0
 30
0.0
  0
XRECORD
  5
C8C
102
{ACAD_REACTORS
330
C74
102
}
330
C74
100
AcDbXrecord
340
0
  0
XRECORD
  5
C8D
102
{ACAD_REACTORS
330
C74
102
}
330
C74
100
AcDbXrecord
 70
     0
  0
XRECORD
  5
C80
102
{ACAD_REACTORS
330
C74
102
}
330
C74
100
AcDbXrecord
  1
{6B89560D-3F18-4896-AE03-4B22859FE4A7}
  0
XRECORD
  5
560
102
{ACAD_REACTORS
330
540
102
}
330
540
100
AcDbXrecord
  1
2.0.0
  0
ENDSEC
  0
EOF
