  0
SECTION
  2
HEADER
  9
$ACADVER
  1
AC1014
  9
$ACADMAINTVER
 70
     9
  9
$DWGCODEPAGE
  3
ANSI_932
  9
$INSBASE
 10
0.0
 20
0.0
 30
0.0
  9
$EXTMIN
 10
-49.01431165
 20
-57.0108024
 30
-0.00152582
  9
$EXTMAX
 10
281.00178621
 20
88.9677435
 30
0.00000003
  9
$LIMMIN
 10
0.0
 20
0.0
  9
$LIMMAX
 10
420.0
 20
297.0
  9
$ORTHOMODE
 70
     0
  9
$REGENMODE
 70
     1
  9
$FILLMODE
 70
     1
  9
$QTEXTMODE
 70
     0
  9
$MIRRTEXT
 70
     1
  9
$DRAGMODE
 70
     2
  9
$LTSCALE
 40
10.0
  9
$OSMODE
 70
   549
  9
$ATTMODE
 70
     1
  9
$TEXTSIZE
 40
3.0
  9
$TRACEWID
 40
1.0
  9
$TEXTSTYLE
  7
YOKO
  9
$CLAYER
  8
245
  9
$CELTYPE
  6
BYLAYER
  9
$CECOLOR
 62
   256
  9
$CELTSCALE
 40
1.0
  9
$DELOBJ
 70
     1
  9
$DISPSILH
 70
     0
  9
$DIMSCALE
 40
1.0
  9
$DIMASZ
 40
2.23
  9
$DIMEXO
 40
0.5
  9
$DIMDLI
 40
2.5
  9
$DIMRND
 40
0.0
  9
$DIMDLE
 40
0.0
  9
$DIMEXE
 40
1.0
  9
$DIMTP
 40
0.0
  9
$DIMTM
 40
0.0
  9
$DIMTXT
 40
2.8
  9
$DIMCEN
 40
0.0
  9
$DIMTSZ
 40
0.0
  9
$DIMTOL
 70
     0
  9
$DIMLIM
 70
     0
  9
$DIMTIH
 70
     0
  9
$DIMTOH
 70
     0
  9
$DIMSE1
 70
     0
  9
$DIMSE2
 70
     0
  9
$DIMTAD
 70
     3
  9
$DIMZIN
 70
     8
  9
$DIMBLK
  1

  9
$DIMASO
 70
     1
  9
$DIMSHO
 70
     1
  9
$DIMPOST
  1

  9
$DIMAPOST
  1

  9
$DIMALT
 70
     0
  9
$DIMALTD
 70
     2
  9
$DIMALTF
 40
25.4
  9
$DIMLFAC
 40
1.0
  9
$DIMTOFL
 70
     1
  9
$DIMTVP
 40
0.0
  9
$DIMTIX
 70
     1
  9
$DIMSOXD
 70
     0
  9
$DIMSAH
 70
     1
  9
$DIMBLK1
  1
OPEN
  9
$DIMBLK2
  1
OPEN
  9
$DIMSTYLE
  2
BIGT
  9
$DIMCLRD
 70
   256
  9
$DIMCLRE
 70
   256
  9
$DIMCLRT
 70
    40
  9
$DIMTFAC
 40
1.0
  9
$DIMGAP
 40
1.0
  9
$DIMJUST
 70
     0
  9
$DIMSD1
 70
     0
  9
$DIMSD2
 70
     0
  9
$DIMTOLJ
 70
     1
  9
$DIMTZIN
 70
     8
  9
$DIMALTZ
 70
     0
  9
$DIMALTTZ
 70
     0
  9
$DIMFIT
 70
     3
  9
$DIMUPT
 70
     0
  9
$DIMUNIT
 70
     2
  9
$DIMDEC
 70
     3
  9
$DIMTDEC
 70
     3
  9
$DIMALTU
 70
     2
  9
$DIMALTTD
 70
     2
  9
$DIMTXSTY
  7
STANDARD
  9
$DIMAUNIT
 70
     0
  9
$LUNITS
 70
     2
  9
$LUPREC
 70
     3
  9
$SKETCHINC
 40
1.0
  9
$FILLETRAD
 40
1.0
  9
$AUNITS
 70
     0
  9
$AUPREC
 70
     3
  9
$MENU
  1
.
  9
$ELEVATION
 40
0.0
  9
$PELEVATION
 40
0.0
  9
$THICKNESS
 40
0.0
  9
$LIMCHECK
 70
     0
  9
$BLIPMODE
 70
     0
  9
$CHAMFERA
 40
10.0
  9
$CHAMFERB
 40
10.0
  9
$CHAMFERC
 40
0.0
  9
$CHAMFERD
 40
0.0
  9
$SKPOLY
 70
     0
  9
$TDCREATE
 40
2455107.395167453
  9
$TDUPDATE
 40
2455391.670866065
  9
$TDINDWG
 40
0.0472375926
  9
$TDUSRTIMER
 40
0.0472375926
  9
$USRTIMER
 70
     1
  9
$ANGBASE
 50
0.0
  9
$ANGDIR
 70
     0
  9
$PDMODE
 70
     1
  9
$PDSIZE
 40
-5.0
  9
$PLINEWID
 40
0.0
  9
$COORDS
 70
     1
  9
$SPLFRAME
 70
     0
  9
$SPLINETYPE
 70
     6
  9
$SPLINESEGS
 70
     8
  9
$ATTDIA
 70
     0
  9
$ATTREQ
 70
     1
  9
$HANDLING
 70
-16383
  9
$HANDSEED
  5
DEA
  9
$SURFTAB1
 70
     6
  9
$SURFTAB2
 70
     6
  9
$SURFTYPE
 70
     6
  9
$SURFU
 70
     6
  9
$SURFV
 70
     6
  9
$UCSNAME
  2

  9
$UCSORG
 10
0.0
 20
0.0
 30
0.0
  9
$UCSXDIR
 10
1.0
 20
0.0
 30
0.0
  9
$UCSYDIR
 10
0.0
 20
1.0
 30
0.0
  9
$PUCSNAME
  2

  9
$PUCSORG
 10
0.0
 20
0.0
 30
0.0
  9
$PUCSXDIR
 10
1.0
 20
0.0
 30
0.0
  9
$PUCSYDIR
 10
0.0
 20
1.0
 30
0.0
  9
$USERI1
 70
     1
  9
$USERI2
 70
     0
  9
$USERI3
 70
     0
  9
$USERI4
 70
     0
  9
$USERI5
 70
     0
  9
$USERR1
 40
0.0
  9
$USERR2
 40
0.0
  9
$USERR3
 40
0.0
  9
$USERR4
 40
0.0
  9
$USERR5
 40
0.0
  9
$WORLDVIEW
 70
     1
  9
$SHADEDGE
 70
     3
  9
$SHADEDIF
 70
    70
  9
$TILEMODE
 70
     1
  9
$MAXACTVP
 70
    16
  9
$PINSBASE
 10
0.0
 20
0.0
 30
0.0
  9
$PLIMCHECK
 70
     0
  9
$PEXTMIN
 10
1.00000000E+20
 20
1.00000000E+20
 30
1.00000000E+20
  9
$PEXTMAX
 10
-1.00000000E+20
 20
-1.00000000E+20
 30
-1.00000000E+20
  9
$PLIMMIN
 10
0.0
 20
0.0
  9
$PLIMMAX
 10
420.0
 20
297.0
  9
$UNITMODE
 70
     0
  9
$VISRETAIN
 70
     0
  9
$PLINEGEN
 70
     0
  9
$PSLTSCALE
 70
     1
  9
$TREEDEPTH
 70
  3020
  9
$PICKSTYLE
 70
     0
  9
$CMLSTYLE
  2
STANDARD
  9
$CMLJUST
 70
     0
  9
$CMLSCALE
 40
1.0
  9
$PROXYGRAPHICS
 70
     1
  9
$MEASUREMENT
 70
     1
  0
ENDSEC
  0
SECTION
  2
CLASSES
  0
CLASS
  1
XRECORD
  2
AcDbXrecord
  3
AutoCAD 2000
 90
        0
280
     0
281
     0
  0
CLASS
  1
ACDBDICTIONARYWDFLT
  2
AcDbDictionaryWithDefault
  3
AutoCAD 2000
 90
        0
280
     0
281
     0
  0
CLASS
  1
ACDBPLACEHOLDER
  2
AcDbPlaceHolder
  3
AutoCAD 2000
 90
        0
280
     0
281
     0
  0
CLASS
  1
LAYOUT
  2
AcDbLayout
  3
AutoCAD 2000
 90
        0
280
     0
281
     0
  0
CLASS
  1
PLOTSETTINGS
  2
AcDbPlotSettings
  3
AutoCAD 2000
 90
        0
280
     0
281
     0
  0
CLASS
  1
LONG_TRANSACTION
  2
AcDbLongTransaction
  3
AutoCAD 2000
 90
        0
280
     0
281
     0
  0
CLASS
  1
LWPOLYLINE
  2
AcDbPolyline
  3
AutoCAD 2000
 90
        0
280
     0
281
     1
  0
CLASS
  1
HATCH
  2
AcDbHatch
  3
AutoCAD 2000
 90
        0
280
     0
281
     1
  0
CLASS
  1
XRECORD
  2
AcDbXrecord
  3
AutoCAD 2000
 90
        0
280
     0
281
     0
  0
CLASS
  1
LONG_TRANSACTION
  2
AcDbLongTransaction
  3
AutoCAD 2000
 90
        0
280
     0
281
     0
  0
CLASS
  1
LWPOLYLINE
  2
AcDbPolyline
  3
AutoCAD 2000
 90
        0
280
     0
281
     1
  0
CLASS
  1
HATCH
  2
AcDbHatch
  3
AutoCAD 2000
 90
        0
280
     0
281
     1
  0
CLASS
  1
XRECORD
  2
AcDbXrecord
  3
AutoCAD 2000
 90
        0
280
     0
281
     0
  0
ENDSEC
  0
SECTION
  2
TABLES
  0
TABLE
  2
VPORT
  5
8
330
0
100
AcDbSymbolTable
 70
     2
  0
VPORT
  5
DBF
330
8
100
AcDbSymbolTableRecord
100
AcDbViewportTableRecord
  2
*ACTIVE
 70
     0
 10
0.0
 20
0.0
 11
1.0
 21
1.0
 12
115.99373728
 22
15.97847055
 13
0.0
 23
0.0
 14
7.0
 24
7.0
 15
7.0
 25
7.0
 16
0.0
 26
0.0
 36
1.0
 17
0.0
 27
0.0
 37
0.0
 40
227.87425564
 41
1.45595855
 42
50.0
 43
0.0
 44
0.0
 50
0.0
 51
0.0
 71
     0
 72
  2000
 73
     1
 74
     0
 75
     0
 76
     0
 77
     0
 78
     0
  0
ENDTAB
  0
TABLE
  2
LTYPE
  5
5
330
0
100
AcDbSymbolTable
 70
     4
  0
LTYPE
  5
14
330
5
100
AcDbSymbolTableRecord
100
AcDbLinetypeTableRecord
  2
BYBLOCK
 70
     0
  3

 72
    65
 73
     0
 40
0.0
  0
LTYPE
  5
15
330
5
100
AcDbSymbolTableRecord
100
AcDbLinetypeTableRecord
  2
BYLAYER
 70
     0
  3

 72
    65
 73
     0
 40
0.0
  0
LTYPE
  5
16
330
5
100
AcDbSymbolTableRecord
100
AcDbLinetypeTableRecord
  2
CONTINUOUS
 70
     0
  3
Solid line
 72
    65
 73
     0
 40
0.0
  0
LTYPE
  5
258
330
5
100
AcDbSymbolTableRecord
100
AcDbLinetypeTableRecord
  2
CENTER2
 70
     0
  3
___ _ ___ _ ___ _ ___ _ ___ _ ___ _ ___ _ ___ _
 72
    65
 73
     4
 40
1.125
 49
0.75
 74
     0
 49
-0.125
 74
     0
 49
0.125
 74
     0
 49
-0.125
 74
     0
  0
LTYPE
  5
25C
330
5
100
AcDbSymbolTableRecord
100
AcDbLinetypeTableRecord
  2
HIDDEN2
 70
     0
  3
_ _ _ _ _ _ _ _ _ _ _ _ _ _ _ _ _ _ _ _ _ _ _ _
 72
    65
 73
     2
 40
0.1875
 49
0.125
 74
     0
 49
-0.0625
 74
     0
  0
LTYPE
  5
25D
330
5
100
AcDbSymbolTableRecord
100
AcDbLinetypeTableRecord
  2
PHANTOM2
 70
     0
  3
___ _ _ ___ _ _ ___ _ _ ___ _ _ ___ _ _ ___ _ _
 72
    65
 73
     6
 40
1.25
 49
0.625
 74
     0
 49
-0.125
 74
     0
 49
0.125
 74
     0
 49
-0.125
 74
     0
 49
0.125
 74
     0
 49
-0.125
 74
     0
  0
ENDTAB
  0
TABLE
  2
LAYER
  5
2
330
0
100
AcDbSymbolTable
 70
     9
  0
LAYER
  5
F
330
2
100
AcDbSymbolTableRecord
100
AcDbLayerTableRecord
  2
0
 70
     0
 62
     7
  6
CONTINUOUS
  0
LAYER
  5
1AA
330
2
100
AcDbSymbolTableRecord
100
AcDbLayerTableRecord
  2
240
 70
     0
 62
     4
  6
CONTINUOUS
  0
LAYER
  5
1AB
330
2
100
AcDbSymbolTableRecord
100
AcDbLayerTableRecord
  2
241
 70
     0
 62
   211
  6
CONTINUOUS
  0
LAYER
  5
1AC
330
2
100
AcDbSymbolTableRecord
100
AcDbLayerTableRecord
  2
242
 70
     0
 62
     3
  6
CONTINUOUS
  0
LAYER
  5
1AF
330
2
100
AcDbSymbolTableRecord
100
AcDbLayerTableRecord
  2
245
 70
     0
 62
     2
  6
CENTER2
  0
LAYER
  5
21E
330
2
100
AcDbSymbolTableRecord
100
AcDbLayerTableRecord
  2
250
 70
     0
 62
     3
  6
CONTINUOUS
  0
LAYER
  5
21F
330
2
100
AcDbSymbolTableRecord
100
AcDbLayerTableRecord
  2
251
 70
     0
 62
    40
  6
CONTINUOUS
  0
LAYER
  5
5C4
330
2
100
AcDbSymbolTableRecord
100
AcDbLayerTableRecord
  2
DEFPOINTS
 70
     0
 62
     7
  6
CONTINUOUS
  0
ENDTAB
  0
TABLE
  2
STYLE
  5
3
330
0
100
AcDbSymbolTable
 70
     2
  0
STYLE
  5
10
330
3
100
AcDbSymbolTableRecord
100
AcDbTextStyleTableRecord
  2
STANDARD
 70
     0
 40
0.0
 41
1.0
 50
0.0
 71
     0
 42
3.0
  3
romans.shx
  4
BIGFONT.SHX
  0
STYLE
  5
339
330
3
100
AcDbSymbolTableRecord
100
AcDbTextStyleTableRecord
  2
YOKO
 70
     0
 40
0.0
 41
1.0
 50
0.0
 71
     0
 42
3.0
  3
romans.shx
  4
extfont.shx
  0
ENDTAB
  0
TABLE
  2
VIEW
  5
6
330
0
100
AcDbSymbolTable
 70
     0
  0
ENDTAB
  0
TABLE
  2
UCS
  5
7
330
0
100
AcDbSymbolTable
 70
     0
  0
ENDTAB
  0
TABLE
  2
APPID
  5
9
330
0
100
AcDbSymbolTable
 70
     9
  0
APPID
  5
11
330
9
100
AcDbSymbolTableRecord
100
AcDbRegAppTableRecord
  2
ACAD
 70
     0
  0
APPID
  5
1B1
330
9
100
AcDbSymbolTableRecord
100
AcDbRegAppTableRecord
  2
GLOBAL
 70
     0
  0
APPID
  5
2A4
330
9
100
AcDbSymbolTableRecord
100
AcDbRegAppTableRecord
  2
DETAIL
 70
     0
  0
APPID
  5
5FD
330
9
100
AcDbSymbolTableRecord
100
AcDbRegAppTableRecord
  2
GRPNAME
 70
     0
  0
APPID
  5
5FE
330
9
100
AcDbSymbolTableRecord
100
AcDbRegAppTableRecord
  2
GPARA
 70
     0
  0
APPID
  5
6C4
330
9
100
AcDbSymbolTableRecord
100
AcDbRegAppTableRecord
  2
DCO15
 70
     0
  0
APPID
  5
6C5
330
9
100
AcDbSymbolTableRecord
100
AcDbRegAppTableRecord
  2
ITEMNAME
 70
     0
  0
APPID
  5
6C6
330
9
100
AcDbSymbolTableRecord
100
AcDbRegAppTableRecord
  2
GRADE_0
 70
     0
  0
APPID
  5
BC0
330
9
100
AcDbSymbolTableRecord
100
AcDbRegAppTableRecord
  2
CONTENTBLOCKICON
 70
     0
  0
ENDTAB
  0
TABLE
  2
DIMSTYLE
  5
A
330
0
100
AcDbSymbolTable
 70
     3
  0
DIMSTYLE
105
725
102
{ACAD_REACTORS
330
A3B
102
}
330
A
100
AcDbSymbolTableRecord
100
AcDbDimStyleTableRecord
  2
BIGT
 70
     0
  3

  4

  5

  6
OPEN
  7
OPEN
 40
1.0
 41
2.23
 42
0.5
 43
2.5
 44
1.0
 45
0.0
 46
0.0
 47
0.0
 48
0.0
140
2.8
141
0.0
142
0.0
143
25.4
144
1.0
145
0.0
146
1.0
147
1.0
 71
     0
 72
     0
 73
     0
 74
     0
 75
     0
 76
     0
 77
     3
 78
     8
170
     0
171
     2
172
     1
173
     1
174
     1
175
     0
176
   256
177
   256
178
    40
270
     2
271
     3
272
     3
273
     2
274
     2
340
10
275
     0
280
     0
281
     0
282
     0
283
     1
284
     8
285
     0
286
     0
287
     3
288
     0
  0
DIMSTYLE
105
8B0
102
{ACAD_REACTORS
330
8BE
330
9CB
330
9FD
330
A15
330
A24
102
}
330
A
100
AcDbSymbolTableRecord
100
AcDbDimStyleTableRecord
  2
BIGT$0
 70
     0
  3

  4
"
  5
OPEN
  6

  7

 40
1.0
 41
2.23
 42
0.5
 43
7.0
 44
1.0
 45
0.0
 46
0.0
 47
0.1
 48
0.1
140
3.0
141
0.0
142
0.0
143
0.0393701
144
1.0
145
0.0
146
0.71
147
1.0
 71
     0
 72
     0
 73
     0
 74
     0
 75
     0
 76
     0
 77
     3
 78
     8
170
     0
171
     2
172
     1
173
     0
174
     0
175
     0
176
     3
177
     3
178
    40
270
     2
271
     3
272
     3
273
     2
274
     2
340
10
275
     0
280
     0
281
     0
282
     0
283
     1
284
     8
285
     0
286
     0
287
     3
288
     0
  0
DIMSTYLE
105
988
330
A
100
AcDbSymbolTableRecord
100
AcDbDimStyleTableRecord
  2
BIGT$7
 70
     0
  3

  4
"
  5
OPEN
  6

  7

 40
1.0
 41
2.5
 42
0.5
 43
7.0
 44
1.0
 45
0.0
 46
0.0
 47
0.1
 48
0.1
140
5.0
141
0.0
142
0.0
143
0.0393701
144
1.0
145
0.0
146
0.71
147
1.5
 71
     0
 72
     0
 73
     0
 74
     0
 75
     0
 76
     0
 77
     3
 78
     8
170
     0
171
     2
172
     1
173
     0
174
     0
175
     0
176
     3
177
     3
178
    40
270
     2
271
     3
272
     3
273
     2
274
     2
340
10
275
     0
280
     0
281
     0
282
     0
283
     1
284
     8
285
     0
286
     0
287
     3
288
     0
  0
ENDTAB
  0
TABLE
  2
BLOCK_RECORD
  5
1
330
0
100
AcDbSymbolTable
 70
    10
  0
BLOCK_RECORD
  5
1A
102
{ACAD_XDICTIONARY
360
BBE
102
}
330
1
100
AcDbSymbolTableRecord
100
AcDbBlockTableRecord
  2
*MODEL_SPACE
  0
BLOCK_RECORD
  5
17
102
{ACAD_XDICTIONARY
360
BBC
102
}
330
1
100
AcDbSymbolTableRecord
100
AcDbBlockTableRecord
  2
*PAPER_SPACE
  0
BLOCK_RECORD
  5
594
330
1
100
AcDbSymbolTableRecord
100
AcDbBlockTableRecord
  2
_OPEN
  0
BLOCK_RECORD
  5
6E3
330
1
100
AcDbSymbolTableRecord
100
AcDbBlockTableRecord
  2
矢印なし
  0
BLOCK_RECORD
  5
804
330
1
100
AcDbSymbolTableRecord
100
AcDbBlockTableRecord
  2
1
1001
CONTENTBLOCKICON
1071
        0
1004
2800000020000000200000000100080000000000000400000000000000000000000000000000000000000000000080000080000000808000800000008000800080800000C0C0C000C0DCC000F0CAA6000020400000206000002080000020A0000020C0000020E00000400000004020000040400000406000004080000040A0
1004
000040C0000040E00000600000006020000060400000606000006080000060A0000060C0000060E00000800000008020000080400000806000008080000080A0000080C0000080E00000A0000000A0200000A0400000A0600000A0800000A0A00000A0C00000A0E00000C0000000C0200000C0400000C0600000C0800000C0
1004
A00000C0C00000C0E00000E0000000E0200000E0400000E0600000E0800000E0A00000E0C00000E0E00040000000400020004000400040006000400080004000A0004000C0004000E00040200000402020004020400040206000402080004020A0004020C0004020E000404000004040200040404000404060004040800040
1004
40A0004040C0004040E00040600000406020004060400040606000406080004060A0004060C0004060E00040800000408020004080400040806000408080004080A0004080C0004080E00040A0000040A0200040A0400040A0600040A0800040A0A00040A0C00040A0E00040C0000040C0200040C0400040C0600040C08000
1004
40C0A00040C0C00040C0E00040E0000040E0200040E0400040E0600040E0800040E0A00040E0C00040E0E00080000000800020008000400080006000800080008000A0008000C0008000E00080200000802020008020400080206000802080008020A0008020C0008020E00080400000804020008040400080406000804080
1004
008040A0008040C0008040E00080600000806020008060400080606000806080008060A0008060C0008060E00080800000808020008080400080806000808080008080A0008080C0008080E00080A0000080A0200080A0400080A0600080A0800080A0A00080A0C00080A0E00080C0000080C0200080C0400080C0600080C0
1004
800080C0A00080C0C00080C0E00080E0000080E0200080E0400080E0600080E0800080E0A00080E0C00080E0E000C0000000C0002000C0004000C0006000C0008000C000A000C000C000C000E000C0200000C0202000C0204000C0206000C0208000C020A000C020C000C020E000C0400000C0402000C0404000C0406000C0
1004
408000C040A000C040C000C040E000C0600000C0602000C0604000C0606000C0608000C060A000C060C000C060E000C0800000C0802000C0804000C0806000C0808000C080A000C080C000C080E000C0A00000C0A02000C0A04000C0A06000C0A08000C0A0A000C0A0C000C0A0E000C0C00000C0C02000C0C04000C0C06000
1004
C0C08000C0C0A000F0FBFF00A4A0A000808080000000FF0000FF000000FFFF00FF000000FF00FF00FFFF0000FFFFFF0000000000000000000000000000000000000000000000000000000000000000000000000000000000000000000000000000000000000000000000000000000000000000000000000000000000000000
1004
00000000000000000000000000000000000000000000000000000000000000000000000000000000000000000000000000000000000000000000000000000000000000000000000000000000000000000000000000000000000000000000000000000000000000000000000000000000000000000000000000000000000000
1004
00000000000000000000000000000000000000000000000000000000000000000000000000000000000000000000000000000000000000000000000000000000000000000000000000000000000000000000000000000000000000000000000000000000000000000000000000000000000000000000000000000000000000
1004
00000000000000000000000000000000000000000000000000000000FEFEFEFEFEFEFEFEFE00000000FAFAFEFEFEFA00000000000000000000E7E7FEE700000000000000FE000000FAFEFE00FBE7E7FA00000000FEFEFEFEFEE7E7E7E7E7000000000000FE000000FAE7E7E7E7E700FEFA000000FEE7000000E7E7E7E7E7FA
1004
FAFAFAE7E7E70000FAFEE7E7E7FBE700E7FA000000E7E7000000E7E7E7E7E7E7E7E7E7E7E7FE0000FAFEE7E7E7FBE7E7E7FE000000E7E7FBFBFBE7E7E7E7E7E7E7E7E7E7E7E70000FEFBFBE7E7FBE7E7FBE7FB0000FEE7000000E7E7E7E7E7E7E7E7E7E7E7E70000FEE7E7E7E7E7E7E700FE000000FEFEFEFEFEE7E7E7E700
1004
E7E7E7E7FBE7FB0000E7FE00E7E7E700E7E7FE0000000000000000E7E7FEE7FEFAE7FAE7E7E7FE000000FAFEE7E7E7FEE7FE00000000000000000000000000000000000000000000000000FAFAFAFBFAFA00000000000000000000000000000000000000000000000000000000000000000000000000000000000000000000
1004
00000000000000000000000000000000000000000000000000000000000000000000000000000000000000000000000000000000000000000000000000000000000000000000000000000000000000000000000000000000000000000000000000000000000000000000000000000000000000000000000000000000000000
1004
00000000000000000000000000000000000000000000000000000000000000000000000000000000000000000000000000000000000000000000000000000000000000000000000000000000000000000000000000000000000000000000000000000000000000000000000000000000000000000000000000000000000000
1004
0000000000000000000000000000000000000000000000000000000000000000000000000000000000000000000000000000000000000000
  0
BLOCK_RECORD
  5
8C5
330
1
100
AcDbSymbolTableRecord
100
AcDbBlockTableRecord
  2
*D3
  0
BLOCK_RECORD
  5
9CC
330
1
100
AcDbSymbolTableRecord
100
AcDbBlockTableRecord
  2
*D4
  0
BLOCK_RECORD
  5
9FE
330
1
100
AcDbSymbolTableRecord
100
AcDbBlockTableRecord
  2
*D5
  0
BLOCK_RECORD
  5
A16
330
1
100
AcDbSymbolTableRecord
100
AcDbBlockTableRecord
  2
*D6
  0
BLOCK_RECORD
  5
A25
330
1
100
AcDbSymbolTableRecord
100
AcDbBlockTableRecord
  2
*D7
  0
BLOCK_RECORD
  5
A3C
330
1
100
AcDbSymbolTableRecord
100
AcDbBlockTableRecord
  2
*D8
  0
ENDTAB
  0
ENDSEC
  0
SECTION
  2
BLOCKS
  0
BLOCK
  5
1B
330
1A
100
AcDbEntity
  8
0
100
AcDbBlockBegin
  2
*MODEL_SPACE
 70
     0
 10
0.0
 20
0.0
 30
0.0
  3
*MODEL_SPACE
  1

  0
ENDBLK
  5
1C
330
1A
100
AcDbEntity
  8
0
100
AcDbBlockEnd
  0
BLOCK
  5
18
330
17
100
AcDbEntity
 67
     1
  8
0
100
AcDbBlockBegin
  2
*PAPER_SPACE
 70
     0
 10
0.0
 20
0.0
 30
0.0
  3
*PAPER_SPACE
  1

  0
ENDBLK
  5
19
330
17
100
AcDbEntity
 67
     1
  8
0
100
AcDbBlockEnd
  0
BLOCK
  5
598
330
594
100
AcDbEntity
  8
0
100
AcDbBlockBegin
  2
_OPEN
 70
     0
 10
0.0
 20
0.0
 30
0.0
  3
_OPEN
  1

  0
LINE
  5
595
330
594
100
AcDbEntity
  8
0
  6
BYBLOCK
 62
     0
100
AcDbLine
 10
-1.0
 20
0.16666667
 30
0.0
 11
0.0
 21
0.0
 31
0.0
  0
LINE
  5
596
330
594
100
AcDbEntity
  8
0
  6
BYBLOCK
 62
     0
100
AcDbLine
 10
-1.0
 20
-0.16666667
 30
0.0
 11
0.0
 21
0.0
 31
0.0
  0
LINE
  5
597
330
594
100
AcDbEntity
  8
0
  6
BYBLOCK
 62
     0
100
AcDbLine
 10
0.0
 20
0.0
 30
0.0
 11
-1.0
 21
0.0
 31
0.0
  0
ENDBLK
  5
599
330
594
100
AcDbEntity
  8
0
100
AcDbBlockEnd
  0
BLOCK
  5
6E4
330
6E3
100
AcDbEntity
  8
0
100
AcDbBlockBegin
  2
矢印なし
 70
     0
 10
0.0
 20
0.0
 30
0.0
  3
矢印なし
  1

  0
ENDBLK
  5
6E5
330
6E3
100
AcDbEntity
  8
0
100
AcDbBlockEnd
  0
BLOCK
  5
88B
330
804
100
AcDbEntity
  8
0
100
AcDbBlockBegin
  2
1
 70
     0
 10
0.0
 20
0.0
 30
0.0
  3
1
  1

  0
LINE
  5
D28
330
804
100
AcDbEntity
  8
241
100
AcDbLine
 10
199.77949174
 20
-10.17320485
 30
0.0
 11
178.12885731
 21
-22.67320729
 31
0.0
  0
LINE
  5
D29
330
804
100
AcDbEntity
  8
240
100
AcDbLine
 10
186.37822178
 20
-36.96152568
 30
0.0
 11
165.03847498
 21
0.0
 31
0.0
  0
LINE
  5
D2A
330
804
100
AcDbEntity
  8
241
100
AcDbLine
 10
187.1794909
 20
11.65063583
 30
0.0
 11
167.00000049
 21
-0.00000071
 31
0.0
  0
LINE
  5
D2B
330
804
100
AcDbEntity
  8
241
100
AcDbLine
 10
178.88750491
 20
29.95726466
 30
0.0
 11
192.80127046
 21
37.99038008
 31
0.0
  0
LINE
  5
D2C
330
804
100
AcDbEntity
  8
240
100
AcDbLine
 10
190.30127201
 20
42.32050911
 30
0.0
 11
176.38750356
 21
34.28739309
 31
0.0
  0
LINE
  5
D2D
330
804
100
AcDbEntity
  8
245
100
AcDbLine
 10
160.0
 20
0.0
 30
0.0
 11
274.0
 21
0.0
 31
0.0
  0
CIRCLE
  5
D2E
330
804
100
AcDbEntity
  8
242
  6
PHANTOM2
100
AcDbCircle
 10
217.0
 20
0.0
 30
0.0
 40
55.0
  0
LINE
  5
D2F
330
804
100
AcDbEntity
  8
241
100
AcDbLine
 10
190.70834835
 20
-34.46152434
 30
0.0
 11
182.45898542
 21
-20.17320506
 31
0.0
  0
ARC
  5
D30
330
804
100
AcDbEntity
  8
241
100
AcDbCircle
 10
113.06779038
 20
-26.19207474
 30
0.0
 40
81.37919117110895
100
AcDbArc
 50
152.89967847
 51
171.72481843
  0
LINE
  5
D31
330
804
100
AcDbEntity
  8
240
100
AcDbLine
 10
32.00000256
 20
45.0
 30
0.0
 11
129.00000256
 21
45.0
 31
0.0
  0
LINE
  5
D32
330
804
100
AcDbEntity
  8
245
  6
CENTER2
100
AcDbLine
 10
-49.0
 20
0.0
 30
0.0
 11
131.00000256
 21
0.0
 31
0.0
  0
ARC
  5
D33
330
804
100
AcDbEntity
  8
240
100
AcDbCircle
 10
41.23760687
 20
-49.0
 30
0.0
 40
6.000000000000016
100
AcDbArc
 50
210.0
 51
272.4219286
  0
ARC
  5
D34
330
804
100
AcDbEntity
  8
241
100
AcDbCircle
 10
41.38849671
 20
-50.0302354
 30
0.0
 40
5.032150118662039
100
AcDbArc
 50
207.00465967
 51
254.60364305
  0
LINE
  5
D35
330
804
100
AcDbEntity
  8
241
100
AcDbLine
 10
32.00000256
 20
0.0
 30
0.0
 11
32.00000256
 21
39.9925
 31
0.0
  0
LINE
  5
D36
330
804
100
AcDbEntity
  8
241
100
AcDbLine
 10
-1.94069442
 20
27.52650809
 30
0.0
 11
-1.94069442
 21
0.0
 31
0.0
  0
LINE
  5
D37
330
804
100
AcDbEntity
  8
241
  6
CONTINUOUS
100
AcDbLine
 10
0.0
 20
27.52650809
 30
0.0
 11
0.0
 21
0.0
 31
0.0
  0
LINE
  5
D38
330
804
100
AcDbEntity
  8
241
100
AcDbLine
 10
-46.5
 20
26.4126003
 30
0.0
 11
-46.5
 21
0.0
 31
0.0
  0
LINE
  5
D39
330
804
100
AcDbEntity
  8
240
  6
CONTINUOUS
100
AcDbLine
 10
-48.0
 20
25.54657489
 30
0.0
 11
-48.0
 21
0.0
 31
0.0
  0
LINE
  5
D3A
330
804
100
AcDbEntity
  8
240
  6
CONTINUOUS
100
AcDbLine
 10
-1.94069442
 20
-27.52650809
 30
0.0
 11
-46.5
 21
-26.4126003
 31
0.0
  0
LINE
  5
D3B
330
804
100
AcDbEntity
  8
240
  6
CONTINUOUS
100
AcDbLine
 10
-48.0
 20
-25.54657489
 30
0.0
 11
-48.0
 21
0.0
 31
0.0
  0
LINE
  5
D3C
330
804
100
AcDbEntity
  8
241
100
AcDbLine
 10
-46.5
 20
-26.4126003
 30
0.0
 11
-46.5
 21
0.0
 31
0.0
  0
LINE
  5
D3D
330
804
100
AcDbEntity
  8
240
  6
CONTINUOUS
100
AcDbLine
 10
-46.5
 20
-26.4126003
 30
0.0
 11
-48.0
 21
-25.54657489
 31
0.0
  0
LINE
  5
D3E
330
804
100
AcDbEntity
  8
241
  6
HIDDEN2
100
AcDbLine
 10
-46.5
 20
-4.418
 30
0.0
 11
-40.0
 21
-4.418
 31
0.0
  0
LINE
  5
D3F
330
804
100
AcDbEntity
  8
241
  6
HIDDEN2
100
AcDbLine
 10
-46.5
 20
4.418
 30
0.0
 11
-40.0
 21
4.418
 31
0.0
  0
LINE
  5
D40
330
804
100
AcDbEntity
  8
241
  6
HIDDEN2
100
AcDbLine
 10
-46.5
 20
-4.418
 30
0.0
 11
-48.0
 21
-3.5519746
 31
0.0
  0
LINE
  5
D41
330
804
100
AcDbEntity
  8
241
  6
HIDDEN2
100
AcDbLine
 10
-48.0
 20
3.5519746
 30
0.0
 11
-46.5
 21
4.418
 31
0.0
  0
SPLINE
  5
D42
330
804
100
AcDbEntity
  8
241
  6
HIDDEN2
100
AcDbSpline
210
0.0
220
0.0
230
1.0
 70
     8
 71
     3
 72
     9
 73
     5
 74
     3
 42
0.0000000001
 43
0.0000000001
 44
0.0000000001
 40
0.0
 40
0.0
 40
0.0
 40
0.0
 40
5.045058020553436
 40
10.0901160411069
 40
10.0901160411069
 40
10.0901160411069
 40
10.0901160411069
 10
-40.0000000000013
 20
4.418000000000056
 30
0.0
 10
-38.78202150770857
 20
2.945333333333394
 30
0.0
 10
-36.34606452312311
 20
0.0000000000000644
 30
0.0
 10
-38.78202150770857
 20
-2.945333333333275
 30
0.0
 10
-40.0000000000013
 20
-4.417999999999949
 30
0.0
 11
-40.0000000000013
 21
4.418000000000056
 31
0.0
 11
-37.56404301541584
 21
0.0000000000000711
 31
0.0
 11
-40.0000000000013
 21
-4.417999999999949
 31
0.0
  0
LINE
  5
D43
330
804
100
AcDbEntity
  8
241
  6
HIDDEN2
100
AcDbLine
 10
-40.0
 20
-4.418
 30
0.0
 11
-40.0
 21
4.418
 31
0.0
  0
LWPOLYLINE
  5
D44
330
804
100
AcDbEntity
  8
241
100
AcDbPolyline
 90
        3
 70
   128
 43
0.0
 10
36.04145445
 20
-50.44269862
 10
35.2681967
 20
-47.3787794
 10
34.90895937
 20
-44.2820323
  0
LINE
  5
D45
330
804
100
AcDbEntity
  8
240
100
AcDbLine
 10
32.53590095
 20
-45.92820323
 30
0.0
 11
36.04145445
 21
-52.0
 31
0.0
  0
ARC
  5
D46
330
804
100
AcDbEntity
  8
240
100
AcDbCircle
 10
36.00000256
 20
-43.92820323
 30
0.0
 40
4.000000000000006
100
AcDbArc
 50
180.0
 51
210.0
  0
ARC
  5
D47
330
804
100
AcDbEntity
  8
241
100
AcDbCircle
 10
43.43570726
 20
-48.16925773
 30
0.0
 40
7.735858587073836
100
AcDbArc
 50
197.09059682
 51
212.41241203
  0
LINE
  5
D48
330
804
100
AcDbEntity
  8
240
  6
CONTINUOUS
100
AcDbLine
 10
0.0
 20
-39.9925
 30
0.0
 11
32.00000256
 21
-39.9925
 31
0.0
  0
LINE
  5
D49
330
804
100
AcDbEntity
  8
241
  6
CONTINUOUS
100
AcDbLine
 10
0.0
 20
-27.52650809
 30
0.0
 11
0.0
 21
0.0
 31
0.0
  0
LINE
  5
D4A
330
804
100
AcDbEntity
  8
241
100
AcDbLine
 10
-1.94069442
 20
-27.52650809
 30
0.0
 11
-1.94069442
 21
0.0
 31
0.0
  0
LINE
  5
D4B
330
804
100
AcDbEntity
  8
240
  6
CONTINUOUS
100
AcDbLine
 10
0.0
 20
-27.52650809
 30
0.0
 11
0.0
 21
-39.9925
 31
0.0
  0
LINE
  5
D4C
330
804
100
AcDbEntity
  8
240
100
AcDbLine
 10
-1.94069442
 20
-27.52650809
 30
0.0
 11
0.0
 21
-27.52650809
 31
0.0
  0
LINE
  5
D4D
330
804
100
AcDbEntity
  8
241
100
AcDbLine
 10
32.00000256
 20
0.0
 30
0.0
 11
32.00000256
 21
-39.9925
 31
0.0
  0
SPLINE
  5
D4E
330
804
100
AcDbEntity
  8
241
  6
CONTINUOUS
100
AcDbSpline
210
0.0
220
0.0
230
1.0
 70
     8
 71
     3
 72
     9
 73
     5
 74
     3
 42
0.0000000001
 43
0.0000000001
 44
0.0000000001
 40
0.0
 40
0.0
 40
0.0
 40
0.0
 40
13.46435379310565
 40
26.92870758621126
 40
26.92870758621126
 40
26.92870758621126
 40
26.92870758621126
 10
9.949999999999988
 20
-11.77167261950441
 30
0.0
 10
8.685084494826554
 20
-16.17985665131773
 30
0.0
 10
6.155253484479687
 20
-24.99622471494437
 30
0.0
 10
8.685084494826556
 20
-33.81259277857101
 30
0.0
 10
9.949999999999988
 20
-38.22077681038432
 30
0.0
 11
9.949999999999988
 21
-11.77167261950441
 31
0.0
 11
7.42016898965312
 21
-24.99622471494439
 31
0.0
 11
9.949999999999988
 21
-38.22077681038432
 31
0.0
1001
GRPNAME
1000
PASTMD1I
  0
SPLINE
  5
D4F
330
804
100
AcDbEntity
  8
241
  6
CONTINUOUS
100
AcDbSpline
210
0.0
220
0.0
230
1.0
 70
     8
 71
     3
 72
     9
 73
     5
 74
     3
 42
0.0000000001
 43
0.0000000001
 44
0.0000000001
 40
0.0
 40
0.0
 40
0.0
 40
0.0
 40
13.46435379310556
 40
26.92870758621117
 40
26.92870758621117
 40
26.92870758621117
 40
26.92870758621117
 10
14.05000000000001
 20
-38.22077681038431
 30
0.0
 10
15.31491550517341
 20
-33.81259277857102
 30
0.0
 10
17.84474651552022
 20
-24.9962247149444
 30
0.0
 10
15.31491550517341
 20
-16.17985665131778
 30
0.0
 10
14.05000000000001
 20
-11.77167261950447
 30
0.0
 11
14.05000000000001
 21
-38.22077681038431
 31
0.0
 11
16.57983101034682
 21
-24.99622471494442
 31
0.0
 11
14.05000000000001
 21
-11.77167261950447
 31
0.0
1001
GRPNAME
1000
PASTMD1I
  0
LINE
  5
D50
330
804
100
AcDbEntity
  8
241
  6
CONTINUOUS
100
AcDbLine
 10
14.05
 20
-11.77167262
 30
0.0
 11
14.05
 21
-38.22077681
 31
0.0
1001
GRPNAME
1000
PASTMD1I
  0
LINE
  5
D51
330
804
100
AcDbEntity
  8
241
  6
CONTINUOUS
100
AcDbLine
 10
9.95
 20
-11.77167262
 30
0.0
 11
9.95
 21
-38.22077681
 31
0.0
1001
GRPNAME
1000
PASTMD1I
  0
ARC
  5
D52
330
804
100
AcDbEntity
  8
241
100
AcDbCircle
 10
117.80440635
 20
-22.53857082
 30
0.0
 40
85.64247275326328
100
AcDbArc
 50
174.64366129
 51
185.35633871
  0
LINE
  5
D53
330
804
100
AcDbEntity
  8
241
  6
CONTINUOUS
100
AcDbLine
 10
9.95
 20
-38.22077681
 30
0.0
 11
14.05
 21
-38.22077681
 31
0.0
1001
GRPNAME
1000
PASTMD1I
  0
LINE
  5
D54
330
804
100
AcDbEntity
  8
241
100
AcDbLine
 10
33.73113668
 20
-36.96152423
 30
0.0
 11
32.53590095
 21
-30.45612273
 31
0.0
  0
ARC
  5
D55
330
804
100
AcDbEntity
  8
241
100
AcDbCircle
 10
-2.91425436
 20
-46.61253816
 30
0.0
 40
37.89494364614844
100
AcDbArc
 50
3.52586523
 51
14.75451455
  0
LINE
  5
D56
330
804
100
AcDbEntity
  8
240
100
AcDbLine
 10
32.00000256
 20
-39.9925
 30
0.0
 11
32.00000256
 21
-43.92820323
 31
0.0
  0
CIRCLE
  5
D57
330
804
100
AcDbEntity
  8
241
  6
CONTINUOUS
100
AcDbCircle
 10
12.0
 20
0.0
 30
0.0
 40
6.0
  0
LINE
  5
D58
330
804
100
AcDbEntity
  8
241
  6
CONTINUOUS
100
AcDbLine
 10
9.95
 20
-11.77167262
 30
0.0
 11
14.05
 21
-11.77167262
 31
0.0
1001
GRPNAME
1000
PASTMD1I
  0
LINE
  5
D59
330
804
100
AcDbEntity
  8
240
  6
CONTINUOUS
100
AcDbLine
 10
-1.94069442
 20
27.52650809
 30
0.0
 11
-46.5
 21
26.4126003
 31
0.0
  0
LINE
  5
D5A
330
804
100
AcDbEntity
  8
240
  6
CONTINUOUS
100
AcDbLine
 10
-46.5
 20
26.4126003
 30
0.0
 11
-48.0
 21
25.54657489
 31
0.0
  0
LINE
  5
D5B
330
804
100
AcDbEntity
  8
240
  6
CONTINUOUS
100
AcDbLine
 10
0.0
 20
39.9925
 30
0.0
 11
32.00000256
 21
39.9925
 31
0.0
  0
LINE
  5
D5C
330
804
100
AcDbEntity
  8
240
  6
CONTINUOUS
100
AcDbLine
 10
0.0
 20
27.52650809
 30
0.0
 11
0.0
 21
39.9925
 31
0.0
  0
LINE
  5
D5D
330
804
100
AcDbEntity
  8
240
100
AcDbLine
 10
-1.94069442
 20
27.52650809
 30
0.0
 11
0.0
 21
27.52650809
 31
0.0
  0
LINE
  5
D5E
330
804
100
AcDbEntity
  8
241
  6
CONTINUOUS
100
AcDbLine
 10
9.95
 20
11.77167262
 30
0.0
 11
9.95
 21
38.22077681
 31
0.0
1001
GRPNAME
1000
PASTMD1I
  0
LINE
  5
D5F
330
804
100
AcDbEntity
  8
241
  6
CONTINUOUS
100
AcDbLine
 10
14.05
 20
11.77167262
 30
0.0
 11
14.05
 21
38.22077681
 31
0.0
1001
GRPNAME
1000
PASTMD1I
  0
SPLINE
  5
D60
330
804
100
AcDbEntity
  8
241
  6
CONTINUOUS
100
AcDbSpline
210
0.0
220
0.0
230
1.0
 70
     8
 71
     3
 72
     9
 73
     5
 74
     3
 42
0.0000000001
 43
0.0000000001
 44
0.0000000001
 40
0.0
 40
0.0
 40
0.0
 40
0.0
 40
13.46435379310555
 40
26.92870758621117
 40
26.92870758621117
 40
26.92870758621117
 40
26.92870758621117
 10
14.05000000000001
 20
38.22077681038439
 30
0.0
 10
15.31491550517341
 20
33.8125927785711
 30
0.0
 10
17.84474651552023
 20
24.99622471494449
 30
0.0
 10
15.31491550517342
 20
16.17985665131787
 30
0.0
 10
14.05000000000001
 20
11.77167261950454
 30
0.0
 11
14.05000000000001
 21
38.22077681038439
 31
0.0
 11
16.57983101034682
 21
24.9962247149445
 31
0.0
 11
14.05000000000001
 21
11.77167261950454
 31
0.0
1001
GRPNAME
1000
PASTMD1I
  0
SPLINE
  5
D61
330
804
100
AcDbEntity
  8
241
  6
CONTINUOUS
100
AcDbSpline
210
0.0
220
0.0
230
1.0
 70
     8
 71
     3
 72
     9
 73
     5
 74
     3
 42
0.0000000001
 43
0.0000000001
 44
0.0000000001
 40
0.0
 40
0.0
 40
0.0
 40
0.0
 40
13.46435379310562
 40
26.92870758621124
 40
26.92870758621124
 40
26.92870758621124
 40
26.92870758621124
 10
9.949999999999988
 20
11.7716726195045
 30
0.0
 10
8.685084494826556
 20
16.17985665131781
 30
0.0
 10
6.155253484479686
 20
24.99622471494443
 30
0.0
 10
8.685084494826554
 20
33.81259277857108
 30
0.0
 10
9.949999999999988
 20
38.22077681038439
 30
0.0
 11
9.949999999999988
 21
11.7716726195045
 31
0.0
 11
7.42016898965312
 21
24.99622471494444
 31
0.0
 11
9.949999999999988
 21
38.22077681038439
 31
0.0
1001
GRPNAME
1000
PASTMD1I
  0
LINE
  5
D62
330
804
100
AcDbEntity
  8
241
  6
CONTINUOUS
100
AcDbLine
 10
9.95
 20
11.77167262
 30
0.0
 11
14.05
 21
11.77167262
 31
0.0
1001
GRPNAME
1000
PASTMD1I
  0
LINE
  5
D63
330
804
100
AcDbEntity
  8
241
  6
CONTINUOUS
100
AcDbLine
 10
9.95
 20
38.22077681
 30
0.0
 11
14.05
 21
38.22077681
 31
0.0
1001
GRPNAME
1000
PASTMD1I
  0
LINE
  5
D64
330
804
100
AcDbEntity
  8
240
100
AcDbLine
 10
32.00000256
 20
39.9925
 30
0.0
 11
32.00000256
 21
45.0
 31
0.0
  0
ARC
  5
D65
330
804
100
AcDbEntity
  8
240
100
AcDbCircle
 10
177.79045635
 20
7.91287425
 30
0.0
 40
14.99997576565351
100
AcDbArc
 50
168.59034378
 51
211.83841758
  0
LINE
  5
D66
330
804
100
AcDbEntity
  8
240
100
AcDbLine
 10
130.00000256
 20
44.0
 30
0.0
 11
130.00000256
 21
0.0
 31
0.0
  0
ARC
  5
D67
330
804
100
AcDbEntity
  8
241
100
AcDbCircle
 10
217.0
 20
0.0
 30
0.0
 40
50.00000000000002
100
AcDbArc
 50
151.00271913
 51
180.0
  0
LWPOLYLINE
  5
D68
330
804
100
AcDbEntity
  8
241
100
AcDbPolyline
 90
       35
 70
   128
 43
0.0
 10
117.00000256
 20
-13.84820508
 10
117.94631258
 20
-13.89204935
 10
118.86039714
 20
-14.02208909
 10
119.7111282
 20
-14.23389596
 10
120.46953513
 20
-14.52025712
 10
121.10979128
 20
-14.87142089
 10
121.61009351
 20
-15.27542881
 10
121.95340463
 20
-15.71852288
 10
122.12803357
 20
-16.18561406
 10
122.12803357
 20
-16.66079611
 10
121.95340463
 20
-17.12788728
 10
121.61009351
 20
-17.57098135
 10
121.10979128
 20
-17.97498927
 10
120.46953513
 20
-18.32615304
 10
119.7111282
 20
-18.61251421
 10
118.86039714
 20
-18.82432107
 10
117.94631258
 20
-18.95436081
 10
117.00000256
 20
-18.99820508
 10
116.05369255
 20
-18.95436081
 10
115.13960798
 20
-18.82432107
 10
114.28887692
 20
-18.61251421
 10
113.53047
 20
-18.32615304
 10
112.89021384
 20
-17.97498927
 10
112.38991161
 20
-17.57098135
 10
112.0466005
 20
-17.12788728
 10
111.87197156
 20
-16.66079611
 10
111.87197156
 20
-16.18561406
 10
112.0466005
 20
-15.71852288
 10
112.38991161
 20
-15.27542881
 10
112.89021384
 20
-14.87142089
 10
113.53047
 20
-14.52025712
 10
114.28887692
 20
-14.23389596
 10
115.13960798
 20
-14.02208909
 10
116.05369255
 20
-13.89204935
 10
117.00000256
 20
-13.84820508
  0
ELLIPSE
  5
D69
330
804
100
AcDbEntity
  8
242
  6
CONTINUOUS
100
AcDbEllipse
 10
117.00000256
 20
-16.42320508
 30
0.0
 11
-6.149999999997987
 21
0.0
 31
0.0
210
0.0
220
0.0
230
1.0
 40
0.5
 41
0.0
 42
6.283185307179584
  0
LINE
  5
D6A
330
804
100
AcDbEntity
  8
241
100
AcDbLine
 10
49.99900246
 20
-0.84936491
 30
0.0
 11
130.00000256
 21
-0.84936491
 31
0.0
  0
LINE
  5
D6B
330
804
100
AcDbEntity
  8
241
100
AcDbLine
 10
49.99900246
 20
-10.17320508
 30
0.0
 11
130.00000256
 21
-10.17320508
 31
0.0
  0
LINE
  5
D6C
330
804
100
AcDbEntity
  8
241
100
AcDbLine
 10
49.99900246
 20
-22.67320508
 30
0.0
 11
125.00000256
 21
-22.67320508
 31
0.0
  0
LINE
  5
D6D
330
804
100
AcDbEntity
  8
240
100
AcDbLine
 10
41.49115696
 20
-54.9946403
 30
0.0
 11
125.00000256
 21
-54.9946403
 31
0.0
  0
LWPOLYLINE
  5
D6E
330
804
100
AcDbEntity
  8
241
100
AcDbPolyline
 90
       35
 70
   128
 43
0.0
 10
67.00000256
 20
-13.84820508
 10
67.94631258
 20
-13.89204935
 10
68.86039714
 20
-14.02208909
 10
69.7111282
 20
-14.23389596
 10
70.46953513
 20
-14.52025712
 10
71.10979128
 20
-14.87142089
 10
71.61009351
 20
-15.27542881
 10
71.95340463
 20
-15.71852288
 10
72.12803357
 20
-16.18561406
 10
72.12803357
 20
-16.66079611
 10
71.95340463
 20
-17.12788728
 10
71.61009351
 20
-17.57098135
 10
71.10979128
 20
-17.97498927
 10
70.46953513
 20
-18.32615304
 10
69.7111282
 20
-18.61251421
 10
68.86039714
 20
-18.82432107
 10
67.94631258
 20
-18.95436081
 10
67.00000256
 20
-18.99820508
 10
66.05369255
 20
-18.95436081
 10
65.13960798
 20
-18.82432107
 10
64.28887692
 20
-18.61251421
 10
63.53047
 20
-18.32615304
 10
62.89021384
 20
-17.97498927
 10
62.38991161
 20
-17.57098135
 10
62.0466005
 20
-17.12788728
 10
61.87197156
 20
-16.66079611
 10
61.87197156
 20
-16.18561406
 10
62.0466005
 20
-15.71852288
 10
62.38991161
 20
-15.27542881
 10
62.89021384
 20
-14.87142089
 10
63.53047
 20
-14.52025712
 10
64.28887692
 20
-14.23389596
 10
65.13960798
 20
-14.02208909
 10
66.05369255
 20
-13.89204935
 10
67.00000256
 20
-13.84820508
  0
ELLIPSE
  5
D6F
330
804
100
AcDbEntity
  8
242
  6
CONTINUOUS
100
AcDbEllipse
 10
67.00000256
 20
-16.42320508
 30
0.0
 11
-6.149999999997987
 21
0.0
 31
0.0
210
0.0
220
0.0
230
1.0
 40
0.5
 41
0.0
 42
6.283185307179584
  0
LINE
  5
D70
330
804
100
AcDbEntity
  8
241
100
AcDbLine
 10
49.99900246
 20
-10.17320508
 30
0.0
 11
49.99900246
 21
-22.67320508
 31
0.0
  0
LINE
  5
D71
330
804
100
AcDbEntity
  8
241
100
AcDbLine
 10
40.00000256
 20
-0.93596745
 30
0.0
 11
40.00000256
 21
-22.58660254
 31
0.0
  0
LWPOLYLINE
  5
D72
330
804
100
AcDbEntity
  8
241
100
AcDbPolyline
 90
       17
 70
   128
 43
0.0
 10
40.00000256
 20
-22.58660254
 10
40.0948606
 20
-23.42605875
 10
40.37583548
 20
-24.23366329
 10
40.83226612
 20
-24.97877305
 10
41.44683408
 20
-25.63311617
 10
42.19622067
 20
-26.17186478
 10
43.05199176
 20
-26.57457702
 10
43.98167663
 20
-26.82597268
 10
44.95000006
 20
-26.91651303
 10
45.92022075
 20
-26.84276265
 10
46.8555254
 20
-26.60751988
 10
47.72042556
 20
-26.21971058
 10
48.48210412
 20
-25.69404949
 10
49.11166056
 20
-25.05048188
 10
49.58520748
 20
-24.31342676
 10
49.88477699
 20
-23.51085039
 10
49.99900246
 20
-22.67320508
  0
LWPOLYLINE
  5
D73
330
804
100
AcDbEntity
  8
241
100
AcDbPolyline
 90
       17
 70
   128
 43
0.0
 10
40.00000256
 20
-10.08660254
 10
40.0948606
 20
-10.92605875
 10
40.37583548
 20
-11.73366329
 10
40.83226612
 20
-12.47877305
 10
41.44683408
 20
-13.13311617
 10
42.19622067
 20
-13.67186478
 10
43.05199176
 20
-14.07457702
 10
43.98167663
 20
-14.32597268
 10
44.95000006
 20
-14.41651303
 10
45.92022075
 20
-14.34276265
 10
46.8555254
 20
-14.10751988
 10
47.72042556
 20
-13.71971058
 10
48.48210412
 20
-13.19404949
 10
49.11166056
 20
-12.55048188
 10
49.58520748
 20
-11.81342676
 10
49.88477699
 20
-11.01085039
 10
49.99900246
 20
-10.17320508
  0
ARC
  5
D74
330
804
100
AcDbEntity
  8
241
100
AcDbCircle
 10
45.0014329
 20
-1.5461437
 30
0.0
 40
5.140575316286582
100
AcDbArc
 50
22.48473909
 51
157.59877988
  0
ARC
  5
D75
330
804
100
AcDbEntity
  8
241
100
AcDbCircle
 10
43.80273182
 20
-0.9409071
 30
0.0
 40
3.803069372457091
100
AcDbArc
 50
159.14698252
 51
179.23372274
  0
ARC
  5
D76
330
804
100
AcDbEntity
  8
241
100
AcDbCircle
 10
46.19212962
 20
-0.94208506
 30
0.0
 40
3.808295522679491
100
AcDbArc
 50
1.56617091
 51
20.84203159
  0
LWPOLYLINE
  5
D77
330
804
100
AcDbEntity
  8
241
100
AcDbPolyline
 90
       35
 70
   128
 43
0.0
 10
92.00000256
 20
-13.84820508
 10
92.94631258
 20
-13.89204935
 10
93.86039714
 20
-14.02208909
 10
94.7111282
 20
-14.23389596
 10
95.46953513
 20
-14.52025712
 10
96.10979128
 20
-14.87142089
 10
96.61009351
 20
-15.27542881
 10
96.95340463
 20
-15.71852288
 10
97.12803357
 20
-16.18561406
 10
97.12803357
 20
-16.66079611
 10
96.95340463
 20
-17.12788728
 10
96.61009351
 20
-17.57098135
 10
96.10979128
 20
-17.97498927
 10
95.46953513
 20
-18.32615304
 10
94.7111282
 20
-18.61251421
 10
93.86039714
 20
-18.82432107
 10
92.94631258
 20
-18.95436081
 10
92.00000256
 20
-18.99820508
 10
91.05369255
 20
-18.95436081
 10
90.13960798
 20
-18.82432107
 10
89.28887692
 20
-18.61251421
 10
88.53047
 20
-18.32615304
 10
87.89021384
 20
-17.97498927
 10
87.38991161
 20
-17.57098135
 10
87.0466005
 20
-17.12788728
 10
86.87197156
 20
-16.66079611
 10
86.87197156
 20
-16.18561406
 10
87.0466005
 20
-15.71852288
 10
87.38991161
 20
-15.27542881
 10
87.89021384
 20
-14.87142089
 10
88.53047
 20
-14.52025712
 10
89.28887692
 20
-14.23389596
 10
90.13960798
 20
-14.02208909
 10
91.05369255
 20
-13.89204935
 10
92.00000256
 20
-13.84820508
  0
ELLIPSE
  5
D78
330
804
100
AcDbEntity
  8
242
  6
CONTINUOUS
100
AcDbEllipse
 10
92.00000256
 20
-16.42320508
 30
0.0
 11
-6.149999999997987
 21
0.0
 31
0.0
210
0.0
220
0.0
230
1.0
 40
0.5
 41
0.0
 42
6.283185307179584
  0
LINE
  5
D79
330
804
100
AcDbEntity
  8
240
100
AcDbLine
 10
130.00000256
 20
-49.9946403
 30
0.0
 11
130.00000256
 21
0.0
 31
0.0
  0
ARC
  5
D7A
330
804
100
AcDbEntity
  8
240
100
AcDbCircle
 10
125.00000256
 20
-49.9946403
 30
0.0
 40
5.0
100
AcDbArc
 50
270.0
 51
0.0
  0
LWPOLYLINE
  5
D7B
330
804
100
AcDbEntity
  8
241
100
AcDbPolyline
 90
        9
 70
   128
 43
0.0
 10
125.00000256
 20
-22.67320508
 10
125.97545417
 20
-22.62516828
 10
126.91341972
 20
-22.48290391
 10
127.77785373
 20
-22.25187911
 10
128.53553647
 20
-21.94097203
 10
129.15735062
 20
-21.56213066
 10
129.61940023
 20
-21.12991366
 10
129.90392897
 20
-20.66093089
 10
130.00000256
 20
-20.17320508
  0
LINE
  5
D7C
330
804
100
AcDbEntity
  8
241
100
AcDbLine
 10
40.62320041
 20
10.8802079
 30
0.0
 11
130.00000256
 21
10.8802079
 31
0.0
  0
CIRCLE
  5
D7D
330
804
100
AcDbEntity
  8
241
100
AcDbCircle
 10
117.00000256
 20
32.5
 30
0.0
 40
6.0
  0
CIRCLE
  5
D7E
330
804
100
AcDbEntity
  8
242
100
AcDbCircle
 10
117.00000256
 20
32.5
 30
0.0
 40
5.149999999999976
  0
LINE
  5
D7F
330
804
100
AcDbEntity
  8
245
100
AcDbLine
 10
60.00000256
 20
32.5
 30
0.0
 11
124.00000256
 21
32.5
 31
0.0
  0
LINE
  5
D80
330
804
100
AcDbEntity
  8
241
  6
HIDDEN2
100
AcDbLine
 10
40.00000256
 20
20.0
 30
0.0
 11
130.00000256
 21
20.0
 31
0.0
  0
CIRCLE
  5
D81
330
804
100
AcDbEntity
  8
241
100
AcDbCircle
 10
67.00000256
 20
32.5
 30
0.0
 40
6.0
  0
CIRCLE
  5
D82
330
804
100
AcDbEntity
  8
242
100
AcDbCircle
 10
67.00000256
 20
32.5
 30
0.0
 40
5.149999999999976
  0
LINE
  5
D83
330
804
100
AcDbEntity
  8
245
100
AcDbLine
 10
67.00000256
 20
39.5
 30
0.0
 11
67.00000256
 21
25.5
 31
0.0
  0
LINE
  5
D84
330
804
100
AcDbEntity
  8
241
  6
HIDDEN2
100
AcDbLine
 10
40.00000256
 20
20.0
 30
0.0
 11
40.00000256
 21
45.0
 31
0.0
  0
LWPOLYLINE
  5
D85
330
804
100
AcDbEntity
  8
241
100
AcDbPolyline
 90
        6
 70
     1
 43
0.0
 10
64.00000256
 20
30.76794919
 10
67.00000256
 20
29.03589838
 10
70.00000256
 20
30.76794919
 10
70.00000256
 20
34.23205081
 10
67.00000256
 20
35.96410162
 10
64.00000256
 20
34.23205081
  0
CIRCLE
  5
D86
330
804
100
AcDbEntity
  8
241
100
AcDbCircle
 10
92.00000256
 20
32.5
 30
0.0
 40
6.0
  0
CIRCLE
  5
D87
330
804
100
AcDbEntity
  8
242
100
AcDbCircle
 10
92.00000256
 20
32.5
 30
0.0
 40
5.149999999999976
  0
LINE
  5
D88
330
804
100
AcDbEntity
  8
245
100
AcDbLine
 10
92.00000256
 20
39.5
 30
0.0
 11
92.00000256
 21
25.5
 31
0.0
  0
LWPOLYLINE
  5
D89
330
804
100
AcDbEntity
  8
241
100
AcDbPolyline
 90
        6
 70
     1
 43
0.0
 10
89.00000256
 20
30.76794919
 10
92.00000256
 20
29.03589838
 10
95.00000256
 20
30.76794919
 10
95.00000256
 20
34.23205081
 10
92.00000256
 20
35.96410162
 10
89.00000256
 20
34.23205081
  0
LINE
  5
D8A
330
804
100
AcDbEntity
  8
245
100
AcDbLine
 10
117.00000256
 20
39.5
 30
0.0
 11
117.00000256
 21
25.5
 31
0.0
  0
LWPOLYLINE
  5
D8B
330
804
100
AcDbEntity
  8
241
100
AcDbPolyline
 90
        6
 70
     1
 43
0.0
 10
114.00000256
 20
30.76794919
 10
117.00000256
 20
29.03589838
 10
120.00000256
 20
30.76794919
 10
120.00000256
 20
34.23205081
 10
117.00000256
 20
35.96410162
 10
114.00000256
 20
34.23205081
  0
ARC
  5
D8C
330
804
100
AcDbEntity
  8
240
100
AcDbCircle
 10
129.00000256
 20
44.0
 30
0.0
 40
1.0
100
AcDbArc
 50
360.0
 51
90.0
  0
ARC
  5
D8D
330
804
100
AcDbEntity
  8
240
100
AcDbCircle
 10
217.0
 20
0.0
 30
0.0
 40
54.99999999999998
100
AcDbArc
 50
151.00271913
 51
168.59037789
  0
ARC
  5
D8E
330
804
100
AcDbEntity
  8
241
100
AcDbCircle
 10
186.387505
 20
16.96688392
 30
0.0
 40
15.00000000000003
100
AcDbArc
 50
120.0
 51
151.00271913
  0
ARC
  5
D8F
330
804
100
AcDbEntity
  8
240
100
AcDbCircle
 10
186.387505
 20
16.96688392
 30
0.0
 40
20.00000000000001
100
AcDbArc
 50
120.0
 51
151.00271913
  0
LWPOLYLINE
  5
D90
330
804
100
AcDbEntity
  8
241
100
AcDbPolyline
 90
        5
 70
   128
 43
0.0
 10
168.8946521
 20
26.66224539
 10
168.87089592
 20
26.61934122
 10
168.72631368
 20
26.35637298
 10
168.66922733
 20
26.25140734
 10
168.67843997
 20
26.268268
  0
LINE
  5
D91
330
804
100
AcDbEntity
  8
241
100
AcDbLine
 10
262.00000179
 20
18.02775636
 30
0.0
 11
262.00000179
 21
1.96152413
 31
0.0
  0
LINE
  5
D92
330
804
100
AcDbEntity
  8
240
100
AcDbLine
 10
267.0
 20
1.9615233
 30
0.0
 11
267.0
 21
18.02775638
 31
0.0
  0
LINE
  5
D93
330
804
100
AcDbEntity
  8
241
100
AcDbLine
 10
187.1794909
 20
11.65063583
 30
0.0
 11
199.77949174
 21
-10.17320485
 31
0.0
  0
LINE
  5
D94
330
804
100
AcDbEntity
  8
245
100
AcDbLine
 10
217.0
 20
57.0
 30
0.0
 11
217.0
 21
-57.0
 31
0.0
  0
LINE
  5
D95
330
804
100
AcDbEntity
  8
240
100
AcDbLine
 10
242.74557006
 20
-45.40736481
 30
0.0
 11
264.32240268
 21
-8.0351935
 31
0.0
  0
LINE
  5
D96
330
804
100
AcDbEntity
  8
241
100
AcDbLine
 10
259.99038276
 20
-5.5384757
 30
0.0
 11
251.74101797
 21
-19.82679404
 31
0.0
  0
ARC
  5
D97
330
804
100
AcDbEntity
  8
240
100
AcDbCircle
 10
229.75200887
 20
-37.91287866
 30
0.0
 40
14.99999850402665
100
AcDbArc
 50
288.59036893
 51
330.02429567
  0
LINE
  5
D98
330
804
100
AcDbEntity
  8
241
100
AcDbLine
 10
210.11249517
 20
-47.98502102
 30
0.0
 11
196.19872962
 21
-39.95190561
 31
0.0
  0
LINE
  5
D99
330
804
100
AcDbEntity
  8
240
100
AcDbLine
 10
193.69873014
 20
-44.28203404
 30
0.0
 11
207.61249476
 21
-52.31514946
 31
0.0
  0
ARC
  5
D9A
330
804
100
AcDbEntity
  8
241
100
AcDbCircle
 10
217.0
 20
0.0
 30
0.0
 40
50.00000000000007
100
AcDbArc
 50
271.00271913
 51
300.0
  0
ARC
  5
D9B
330
804
100
AcDbEntity
  8
240
100
AcDbCircle
 10
217.0
 20
0.0
 30
0.0
 40
55.0
100
AcDbArc
 50
271.00271913
 51
288.59037789
  0
ARC
  5
D9C
330
804
100
AcDbEntity
  8
241
100
AcDbCircle
 10
217.612495
 20
-34.9946403
 30
0.0
 40
15.00000000000003
100
AcDbArc
 50
240.0
 51
271.00271913
  0
ARC
  5
D9D
330
804
100
AcDbEntity
  8
240
100
AcDbCircle
 10
217.612495
 20
-34.9946403
 30
0.0
 40
20.00000000000003
100
AcDbArc
 50
240.0
 51
271.00271913
  0
LINE
  5
D9E
330
804
100
AcDbEntity
  8
241
100
AcDbLine
 10
221.82050795
 20
-31.65063635
 30
0.0
 11
243.47114376
 21
-44.15063427
 31
0.0
  0
LINE
  5
D9F
330
804
100
AcDbEntity
  8
241
100
AcDbLine
 10
221.82050795
 20
-31.65063635
 30
0.0
 11
234.42050797
 21
-9.8267952
 31
0.0
  0
LWPOLYLINE
  5
DA0
330
804
100
AcDbEntity
  8
241
100
AcDbPolyline
 90
       38
 70
   128
 43
0.0
 10
204.36965448
 20
-20.57118958
 10
204.94138534
 20
-21.41197264
 10
205.62612536
 20
-22.15382598
 10
206.4041758
 20
-22.77540783
 10
207.25315358
 20
-23.25883641
 10
208.14863514
 20
-23.59020437
 10
209.06485911
 20
-23.75997884
 10
209.97546741
 20
-23.76327573
 10
210.85426348
 20
-23.60000019
 10
211.67596596
 20
-23.27484936
 10
212.41693597
 20
-22.79717724
 10
213.05585715
 20
-22.18072559
 10
213.5743489
 20
-21.44322859
 10
213.95749516
 20
-20.60590269
 10
214.19427351
 20
-19.69283624
 10
214.27787226
 20
-18.7302965
 10
214.20588643
 20
-17.74597397
 10
213.98038692
 20
-16.76818583
 10
213.60786095
 20
-15.82506127
 10
213.0990254
 20
-14.94373225
 10
212.46851855
 20
-14.149553
 10
211.73447894
 20
-13.46537063
 10
210.91802354
 20
-12.91086782
 10
210.04264029
 20
-12.50199658
 10
209.13351238
 20
-12.25051942
 10
208.21679375
 20
-12.16367087
 10
207.31885674
 20
-12.2439494
 10
206.46553336
 20
-12.48904554
 10
205.68137216
 20
-12.89190833
 10
204.98893205
 20
-13.44094814
 10
204.40813325
 20
-14.1203701
 10
203.95568429
 20
-14.91062846
 10
203.64460131
 20
-15.78898893
 10
203.48383359
 20
-16.73018269
 10
203.47800614
 20
-17.7071333
 10
203.62728659
 20
-18.69173568
 10
203.92738042
 20
-19.6556646
 10
204.36965448
 20
-20.57118958
  0
ELLIPSE
  5
DA1
330
804
100
AcDbEntity
  8
241
100
AcDbEllipse
 10
207.25
 20
-18.90822132
 30
0.0
 11
-8.000000000000026
 21
-4.618802153516978
 31
0.0
210
0.0
220
0.0
230
-1.0
 40
0.8660254
 41
5.054861112631565
 42
7.511509501727642
  0
ARC
  5
DA2
330
804
100
AcDbEntity
  8
241
100
AcDbCircle
 10
206.57836663
 20
-19.29598902
 30
0.0
 40
7.886420890741084
100
AcDbArc
 50
282.84161044
 51
137.15838956
  0
ARC
  5
DA3
330
804
100
AcDbEntity
  8
241
100
AcDbCircle
 10
203.69872981
 20
-26.96152423
 30
0.0
 40
15.00000000000001
100
AcDbArc
 50
210.0
 51
240.0
  0
ARC
  5
DA4
330
804
100
AcDbEntity
  8
240
100
AcDbCircle
 10
203.69872981
 20
-26.96152423
 30
0.0
 40
20.00000000000001
100
AcDbArc
 50
210.0
 51
240.0
  0
LINE
  5
DA5
330
804
100
AcDbEntity
  8
241
100
AcDbLine
 10
234.42050797
 20
-9.8267952
 30
0.0
 11
255.89793899
 21
-22.22679297
 31
0.0
  0
LINE
  5
DA6
330
804
100
AcDbEntity
  8
241
100
AcDbLine
 10
255.89793899
 20
-22.22679297
 30
0.0
 11
256.17114408
 21
-22.15358787
 31
0.0
  0
LWPOLYLINE
  5
DA7
330
804
100
AcDbEntity
  8
241
100
AcDbPolyline
 90
       38
 70
   128
 43
0.0
 10
241.13034552
 20
-0.65260529
 10
241.57261958
 20
0.26291969
 10
241.87271341
 20
1.22684861
 10
242.02199386
 20
2.21145098
 10
242.01616641
 20
3.1884016
 10
241.85539869
 20
4.12959536
 10
241.54431571
 20
5.00795583
 10
241.09186675
 20
5.79821419
 10
240.51106795
 20
6.47763614
 10
239.81862784
 20
7.02667595
 10
239.03446664
 20
7.42953875
 10
238.18114326
 20
7.67463489
 10
237.28320625
 20
7.75491342
 10
236.36648762
 20
7.66806487
 10
235.45735971
 20
7.4165877
 10
234.58197646
 20
7.00771647
 10
233.76552106
 20
6.45321365
 10
233.03148145
 20
5.76903128
 10
232.4009746
 20
4.97485204
 10
231.89213905
 20
4.09352302
 10
231.51961308
 20
3.15039845
 10
231.29411357
 20
2.17261031
 10
231.22212774
 20
1.18828779
 10
231.30572649
 20
0.22574804
 10
231.54250484
 20
-0.68731841
 10
231.9256511
 20
-1.5246443
 10
232.44414285
 20
-2.2621413
 10
233.08306403
 20
-2.87859295
 10
233.82403404
 20
-3.35626507
 10
234.64573652
 20
-3.6814159
 10
235.52453259
 20
-3.84469144
 10
236.43514089
 20
-3.84139455
 10
237.35136486
 20
-3.67162008
 10
238.24684642
 20
-3.34025213
 10
239.0958242
 20
-2.85682354
 10
239.87387464
 20
-2.23524169
 10
240.55861466
 20
-1.49338835
 10
241.13034552
 20
-0.65260529
  0
ARC
  5
DA8
330
804
100
AcDbEntity
  8
241
100
AcDbCircle
 10
238.92163337
 20
0.62259526
 30
0.0
 40
7.886420890741129
100
AcDbArc
 50
42.84161044
 51
257.15838956
  0
ELLIPSE
  5
DA9
330
804
100
AcDbEntity
  8
241
100
AcDbEllipse
 10
238.25
 20
1.01036297
 30
0.0
 11
-7.999999999999968
 21
4.618802153517093
 31
0.0
210
0.0
220
0.0
230
-1.0
 40
0.8660254
 41
1.91326845904175
 42
4.369916848137833
  0
ARC
  5
DAA
330
804
100
AcDbEntity
  8
240
100
AcDbCircle
 10
247.0
 20
1.96152423
 30
0.0
 40
20.0
100
AcDbArc
 50
330.01131778
 51
0.0
  0
ARC
  5
DAB
330
804
100
AcDbEntity
  8
241
100
AcDbCircle
 10
247.0
 20
1.96152423
 30
0.0
 40
15.0
100
AcDbArc
 50
330.0
 51
0.0
  0
ARC
  5
DAC
330
804
100
AcDbEntity
  8
240
100
AcDbCircle
 10
217.00008283
 20
0.00007616
 30
0.0
 40
54.99988809713705
100
AcDbArc
 50
31.36357935
 51
48.59727386
  0
ARC
  5
DAD
330
804
100
AcDbEntity
  8
241
100
AcDbCircle
 10
217.0
 20
0.0
 30
0.0
 40
50.00000000000003
100
AcDbArc
 50
31.00271913
 51
60.0
  0
LINE
  5
DAE
330
804
100
AcDbEntity
  8
240
100
AcDbLine
 10
200.30127019
 20
45.0
 30
0.0
 11
243.45285711
 21
45.0000016
 31
0.0
  0
LINE
  5
DAF
330
804
100
AcDbEntity
  8
241
100
AcDbLine
 10
242.00000115
 20
20.00000052
 30
0.0
 11
216.8000003
 21
20.00000005
 31
0.0
  0
LINE
  5
DB0
330
804
100
AcDbEntity
  8
241
100
AcDbLine
 10
216.8000003
 20
20.00000005
 30
0.0
 11
216.79999784
 21
45.00000061
 31
0.0
  0
LWPOLYLINE
  5
DB1
330
804
100
AcDbEntity
  8
241
100
AcDbPolyline
 90
       38
 70
   128
 43
0.0
 10
205.5
 20
21.22379487
 10
204.48599508
 20
21.14905295
 10
203.50116123
 20
20.92697737
 10
202.57383034
 20
20.56395685
 10
201.73068002
 20
20.07043482
 10
200.99596617
 20
19.46060901
 10
200.39082517
 20
18.75202301
 10
199.93266584
 20
17.96506154
 10
199.63466857
 20
17.12236405
 10
199.5054062
 20
16.24817341
 10
199.54859739
 20
15.3676385
 10
199.76299959
 20
14.5060907
 10
200.14244485
 20
13.68831517
 10
200.67601722
 20
12.93783783
 10
201.34836679
 20
12.27624854
 10
202.14015128
 20
11.72258003
 10
203.02859251
 20
11.29276032
 10
203.98813163
 20
10.99915455
 10
204.99116445
 20
10.85020922
 10
206.00883555
 20
10.85020922
 10
207.01186837
 20
10.99915455
 10
207.97140749
 20
11.29276032
 10
208.85984872
 20
11.72258003
 10
209.65163321
 20
12.27624854
 10
210.32398278
 20
12.93783783
 10
210.85755515
 20
13.68831517
 10
211.23700041
 20
14.5060907
 10
211.45140261
 20
15.3676385
 10
211.4945938
 20
16.24817341
 10
211.36533143
 20
17.12236405
 10
211.06733416
 20
17.96506154
 10
210.60917483
 20
18.75202301
 10
210.00403383
 20
19.46060901
 10
209.26931998
 20
20.07043482
 10
208.42616966
 20
20.56395685
 10
207.49883877
 20
20.92697737
 10
206.51400492
 20
21.14905295
 10
205.5
 20
21.22379487
  0
ELLIPSE
  5
DB2
330
804
100
AcDbEntity
  8
241
100
AcDbEllipse
 10
205.5
 20
17.89785834
 30
0.0
 11
-0.0000000000000006
 21
-9.237604307034018
 31
0.0
210
0.0
220
0.0
230
-1.0
 40
0.8660254
 41
1.913268459041758
 42
4.369916848137838
  0
ARC
  5
DB3
330
804
100
AcDbEntity
  8
241
100
AcDbCircle
 10
205.5
 20
18.67339376
 30
0.0
 40
7.886420890741088
100
AcDbArc
 50
162.84161044
 51
17.15838956
  0
LINE
  5
DB4
330
804
100
AcDbEntity
  8
241
100
AcDbLine
 10
200.30127075
 20
39.99999911
 30
0.0
 11
216.80000001
 21
39.99999911
 31
0.0
  0
ARC
  5
DB5
330
804
100
AcDbEntity
  8
240
100
AcDbCircle
 10
200.30127019
 20
25.0
 30
0.0
 40
20.0
100
AcDbArc
 50
90.0
 51
120.0
  0
ARC
  5
DB6
330
804
100
AcDbEntity
  8
241
100
AcDbCircle
 10
200.30127019
 20
25.0
 30
0.0
 40
14.99999999999998
100
AcDbArc
 50
90.0
 51
120.0
  0
LINE
  5
DB7
330
804
100
AcDbEntity
  8
241
100
AcDbLine
 10
216.80000001
 20
39.99999911
 30
0.0
 11
216.80000001
 21
44.79999766
 31
0.0
  0
LINE
  5
DB8
330
804
100
AcDbEntity
  8
241
100
AcDbLine
 10
242.00000115
 20
20.00000052
 30
0.0
 11
241.99999914
 21
43.30127012
 31
0.0
  0
ARC
  5
DB9
330
804
100
AcDbEntity
  8
240
100
AcDbCircle
 10
243.45751126
 20
30.00000015
 30
0.0
 40
15.00000216919548
100
AcDbArc
 50
48.5903771
 51
90.01777752
  0
LINE
  5
DBA
330
804
100
AcDbEntity
  8
241
100
AcDbLine
 10
242.00000037
 20
43.30126941
 30
0.0
 11
242.00000037
 21
45.00000155
 31
0.0
  0
LINE
  5
DBB
330
804
100
AcDbEntity
  8
241
100
AcDbLine
 10
241.99999914
 20
43.30127012
 30
0.0
 11
241.99999924
 21
44.80000009
 31
0.0
  0
ARC
  5
DBC
330
804
100
AcDbEntity
  8
241
100
AcDbCircle
 10
247.0
 20
18.02775638
 30
0.0
 40
15.0
100
AcDbArc
 50
0.0
 51
31.00271913
  0
ARC
  5
DBD
330
804
100
AcDbEntity
  8
240
100
AcDbCircle
 10
247.0
 20
18.02775638
 30
0.0
 40
20.00000000000001
100
AcDbArc
 50
0.0
 51
31.00271913
  0
ENDBLK
  5
88C
330
804
100
AcDbEntity
  8
0
100
AcDbBlockEnd
  0
BLOCK
  5
8CF
330
8C5
100
AcDbEntity
  8
0
100
AcDbBlockBegin
  2
*D3
 70
     1
 10
0.0
 20
0.0
 30
0.0
  3
*D3
  1

  0
LINE
  5
CFC
330
8C5
100
AcDbEntity
  8
250
  6
CONTINUOUS
 62
     3
100
AcDbLine
 10
0.0
 20
40.4925
 30
0.0
 11
0.0
 21
71.0
 31
0.0
  0
LINE
  5
CFD
330
8C5
100
AcDbEntity
  8
250
  6
CONTINUOUS
 62
     3
100
AcDbLine
 10
130.00000256
 20
44.5
 30
0.0
 11
130.00000256
 21
71.0
 31
0.0
  0
LINE
  5
CFE
330
8C5
100
AcDbEntity
  8
250
  6
CONTINUOUS
 62
     3
100
AcDbLine
 10
2.23
 20
70.0
 30
0.0
 11
127.77000256
 21
70.0
 31
0.0
  0
INSERT
  5
CFF
330
8C5
100
AcDbEntity
  8
250
  6
CONTINUOUS
 62
     3
100
AcDbBlockReference
  2
_OPEN
 10
0.0
 20
70.0
 30
0.0
 41
2.23
 42
2.23
 43
2.23
 50
180.0
  0
INSERT
  5
D00
330
8C5
100
AcDbEntity
  8
250
  6
CONTINUOUS
 62
     3
100
AcDbBlockReference
  2
_OPEN
 10
130.00000256
 20
70.0
 30
0.0
 41
2.23
 42
2.23
 43
2.23
  0
MTEXT
  5
D01
330
8C5
100
AcDbEntity
  8
250
  6
CONTINUOUS
 62
    40
100
AcDbMText
 10
63.0
 20
72.5
 30
0.0
 40
3.0
 41
0.0
 71
     5
 72
     1
  1
\A1;130
1001
ACAD
1000
MTEXTBEGIN
1070
    73
1070
     1
1070
    44
1040
1.0
1070
    74
1070
     0
1000
MTEXTEND
  0
POINT
  5
D02
330
8C5
100
AcDbEntity
  8
DEFPOINTS
  6
CONTINUOUS
 62
     0
100
AcDbPoint
 10
0.0
 20
39.9925
 30
0.0
  0
POINT
  5
D03
330
8C5
100
AcDbEntity
  8
DEFPOINTS
  6
CONTINUOUS
 62
     0
100
AcDbPoint
 10
130.00000256
 20
44.0
 30
0.0
  0
POINT
  5
D04
330
8C5
100
AcDbEntity
  8
DEFPOINTS
  6
CONTINUOUS
 62
     0
100
AcDbPoint
 10
130.00000256
 20
70.0
 30
0.0
  0
ENDBLK
  5
8D0
330
8C5
100
AcDbEntity
  8
0
100
AcDbBlockEnd
  0
BLOCK
  5
9D6
330
9CC
100
AcDbEntity
  8
0
100
AcDbBlockBegin
  2
*D4
 70
     1
 10
0.0
 20
0.0
 30
0.0
  3
*D4
  1

  0
LINE
  5
AA2
330
9CC
100
AcDbEntity
  8
250
  6
CONTINUOUS
 62
     3
100
AcDbLine
 10
131.50000256
 20
0.0
 30
0.0
 11
144.5
 21
0.0
 31
0.0
  0
LINE
  5
AA3
330
9CC
100
AcDbEntity
  8
250
  6
CONTINUOUS
 62
     3
100
AcDbLine
 10
129.50000256
 20
45.0
 30
0.0
 11
144.5
 21
45.0
 31
0.0
  0
LINE
  5
AA4
330
9CC
100
AcDbEntity
  8
250
  6
CONTINUOUS
 62
     3
100
AcDbLine
 10
143.5
 20
2.23
 30
0.0
 11
143.5
 21
42.77
 31
0.0
  0
INSERT
  5
AA5
330
9CC
100
AcDbEntity
  8
250
  6
CONTINUOUS
 62
     3
100
AcDbBlockReference
  2
_OPEN
 10
143.5
 20
0.0
 30
0.0
 41
2.23
 42
2.23
 43
2.23
 50
270.0
  0
INSERT
  5
AA6
330
9CC
100
AcDbEntity
  8
250
  6
CONTINUOUS
 62
     3
100
AcDbBlockReference
  2
_OPEN
 10
143.5
 20
45.0
 30
0.0
 41
2.23
 42
2.23
 43
2.23
 50
90.0
  0
MTEXT
  5
AA7
330
9CC
100
AcDbEntity
  8
250
  6
CONTINUOUS
 62
    40
100
AcDbMText
 10
141.0
 20
22.5
 30
0.0
 40
3.0
 41
0.0
 71
     5
 72
     1
  1
\A1;45
 11
0.0
 21
1.0
 31
0.0
1001
ACAD
1000
MTEXTBEGIN
1070
    73
1070
     1
1070
    44
1040
1.0
1070
    74
1070
     0
1000
MTEXTEND
1000
MTEXTBEGIN
1070
    73
1070
     1
1070
    44
1040
1.0
1070
    74
1070
     0
1000
MTEXTEND
  0
POINT
  5
AA8
330
9CC
100
AcDbEntity
  8
DEFPOINTS
  6
CONTINUOUS
 62
     0
100
AcDbPoint
 10
131.00000256
 20
0.0
 30
0.0
  0
POINT
  5
AA9
330
9CC
100
AcDbEntity
  8
DEFPOINTS
  6
CONTINUOUS
 62
     0
100
AcDbPoint
 10
129.00000256
 20
45.0
 30
0.0
  0
POINT
  5
AAA
330
9CC
100
AcDbEntity
  8
DEFPOINTS
  6
CONTINUOUS
 62
     0
100
AcDbPoint
 10
143.5
 20
45.0
 30
0.0
  0
ENDBLK
  5
9D7
330
9CC
100
AcDbEntity
  8
0
100
AcDbBlockEnd
  0
BLOCK
  5
A08
330
9FE
100
AcDbEntity
  8
0
100
AcDbBlockBegin
  2
*D5
 70
     1
 10
0.0
 20
0.0
 30
0.0
  3
*D5
  1

  0
LINE
  5
CF3
330
9FE
100
AcDbEntity
  8
250
  6
CONTINUOUS
 62
     3
100
AcDbLine
 10
40.00000256
 20
45.5
 30
0.0
 11
40.00000256
 21
64.0
 31
0.0
  0
LINE
  5
CF4
330
9FE
100
AcDbEntity
  8
250
  6
CONTINUOUS
 62
     3
100
AcDbLine
 10
130.00000256
 20
44.5
 30
0.0
 11
130.00000256
 21
64.0
 31
0.0
  0
LINE
  5
CF5
330
9FE
100
AcDbEntity
  8
250
  6
CONTINUOUS
 62
     3
100
AcDbLine
 10
42.23000256
 20
63.0
 30
0.0
 11
127.77000256
 21
63.0
 31
0.0
  0
INSERT
  5
CF6
330
9FE
100
AcDbEntity
  8
250
  6
CONTINUOUS
 62
     3
100
AcDbBlockReference
  2
_OPEN
 10
40.00000256
 20
63.0
 30
0.0
 41
2.23
 42
2.23
 43
2.23
 50
180.0
  0
INSERT
  5
CF7
330
9FE
100
AcDbEntity
  8
250
  6
CONTINUOUS
 62
     3
100
AcDbBlockReference
  2
_OPEN
 10
130.00000256
 20
63.0
 30
0.0
 41
2.23
 42
2.23
 43
2.23
  0
MTEXT
  5
CF8
330
9FE
100
AcDbEntity
  8
250
  6
CONTINUOUS
 62
    40
100
AcDbMText
 10
85.00000256
 20
65.5
 30
0.0
 40
3.0
 41
0.0
 71
     5
 72
     1
  1
\A1;90
1001
ACAD
1000
MTEXTBEGIN
1070
    73
1070
     1
1070
    44
1040
1.0
1070
    74
1070
     0
1000
MTEXTEND
  0
POINT
  5
CF9
330
9FE
100
AcDbEntity
  8
DEFPOINTS
  6
CONTINUOUS
 62
     0
100
AcDbPoint
 10
40.00000256
 20
45.0
 30
0.0
  0
POINT
  5
CFA
330
9FE
100
AcDbEntity
  8
DEFPOINTS
  6
CONTINUOUS
 62
     0
100
AcDbPoint
 10
130.00000256
 20
44.0
 30
0.0
  0
POINT
  5
CFB
330
9FE
100
AcDbEntity
  8
DEFPOINTS
  6
CONTINUOUS
 62
     0
100
AcDbPoint
 10
130.00000256
 20
63.0
 30
0.0
  0
ENDBLK
  5
A09
330
9FE
100
AcDbEntity
  8
0
100
AcDbBlockEnd
  0
BLOCK
  5
A20
330
A16
100
AcDbEntity
  8
0
100
AcDbBlockBegin
  2
*D6
 70
     1
 10
0.0
 20
0.0
 30
0.0
  3
*D6
  1

  0
LINE
  5
D1C
330
A16
100
AcDbEntity
  8
250
  6
CONTINUOUS
 62
     3
100
AcDbLine
 10
217.0
 20
57.5
 30
0.0
 11
217.0
 21
71.0
 31
0.0
  0
LINE
  5
D1D
330
A16
100
AcDbEntity
  8
250
  6
CONTINUOUS
 62
     3
100
AcDbLine
 10
242.00000037
 20
45.50000155
 30
0.0
 11
242.00000037
 21
71.0
 31
0.0
  0
LINE
  5
D1E
330
A16
100
AcDbEntity
  8
250
  6
CONTINUOUS
 62
     3
100
AcDbLine
 10
219.23
 20
70.0
 30
0.0
 11
239.77000037
 21
70.0
 31
0.0
  0
INSERT
  5
D1F
330
A16
100
AcDbEntity
  8
250
  6
CONTINUOUS
 62
     3
100
AcDbBlockReference
  2
_OPEN
 10
217.0
 20
70.0
 30
0.0
 41
2.23
 42
2.23
 43
2.23
 50
180.0
  0
INSERT
  5
D20
330
A16
100
AcDbEntity
  8
250
  6
CONTINUOUS
 62
     3
100
AcDbBlockReference
  2
_OPEN
 10
242.00000037
 20
70.0
 30
0.0
 41
2.23
 42
2.23
 43
2.23
  0
MTEXT
  5
D21
330
A16
100
AcDbEntity
  8
250
  6
CONTINUOUS
 62
    40
100
AcDbMText
 10
229.50000019
 20
72.5
 30
0.0
 40
3.0
 41
0.0
 71
     5
 72
     1
  1
\A1;□25
1001
ACAD
1000
MTEXTBEGIN
1070
    73
1070
     1
1070
    44
1040
1.0
1070
    74
1070
     0
1000
MTEXTEND
  0
POINT
  5
D22
330
A16
100
AcDbEntity
  8
DEFPOINTS
  6
CONTINUOUS
 62
     0
100
AcDbPoint
 10
217.0
 20
57.0
 30
0.0
  0
POINT
  5
D23
330
A16
100
AcDbEntity
  8
DEFPOINTS
  6
CONTINUOUS
 62
     0
100
AcDbPoint
 10
242.00000037
 20
45.00000155
 30
0.0
  0
POINT
  5
D24
330
A16
100
AcDbEntity
  8
DEFPOINTS
  6
CONTINUOUS
 62
     0
100
AcDbPoint
 10
242.00000037
 20
70.0
 30
0.0
  0
ENDBLK
  5
A21
330
A16
100
AcDbEntity
  8
0
100
AcDbBlockEnd
  0
BLOCK
  5
A2F
330
A25
100
AcDbEntity
  8
0
100
AcDbBlockBegin
  2
*D7
 70
     1
 10
0.0
 20
0.0
 30
0.0
  3
*D7
  1

  0
LINE
  5
A90
330
A25
100
AcDbEntity
  8
250
  6
CONTINUOUS
 62
     3
100
AcDbLine
 10
242.50000115
 20
20.00000052
 30
0.0
 11
281.0
 21
20.00000052
 31
0.0
  0
LINE
  5
A91
330
A25
100
AcDbEntity
  8
250
  6
CONTINUOUS
 62
     3
100
AcDbLine
 10
243.95285711
 20
45.0000016
 30
0.0
 11
281.0
 21
45.0000016
 31
0.0
  0
LINE
  5
A92
330
A25
100
AcDbEntity
  8
250
  6
CONTINUOUS
 62
     3
100
AcDbLine
 10
280.0
 20
22.23000052
 30
0.0
 11
280.0
 21
42.7700016
 31
0.0
  0
INSERT
  5
A93
330
A25
100
AcDbEntity
  8
250
  6
CONTINUOUS
 62
     3
100
AcDbBlockReference
  2
_OPEN
 10
280.0
 20
20.00000052
 30
0.0
 41
2.23
 42
2.23
 43
2.23
 50
270.0
  0
INSERT
  5
A94
330
A25
100
AcDbEntity
  8
250
  6
CONTINUOUS
 62
     3
100
AcDbBlockReference
  2
_OPEN
 10
280.0
 20
45.0000016
 30
0.0
 41
2.23
 42
2.23
 43
2.23
 50
90.0
  0
MTEXT
  5
A95
330
A25
100
AcDbEntity
  8
250
  6
CONTINUOUS
 62
    40
100
AcDbMText
 10
277.5
 20
32.50000106
 30
0.0
 40
3.0
 41
0.0
 71
     5
 72
     1
  1
\A1;25
 11
0.0
 21
1.0
 31
0.0
1001
ACAD
1000
MTEXTBEGIN
1070
    73
1070
     1
1070
    44
1040
1.0
1070
    74
1070
     0
1000
MTEXTEND
1000
MTEXTBEGIN
1070
    73
1070
     1
1070
    44
1040
1.0
1070
    74
1070
     0
1000
MTEXTEND
  0
POINT
  5
A96
330
A25
100
AcDbEntity
  8
DEFPOINTS
  6
CONTINUOUS
 62
     0
100
AcDbPoint
 10
242.00000115
 20
20.00000052
 30
0.0
  0
POINT
  5
A97
330
A25
100
AcDbEntity
  8
DEFPOINTS
  6
CONTINUOUS
 62
     0
100
AcDbPoint
 10
243.45285711
 20
45.0000016
 30
0.0
  0
POINT
  5
A98
330
A25
100
AcDbEntity
  8
DEFPOINTS
  6
CONTINUOUS
 62
     0
100
AcDbPoint
 10
280.0
 20
45.0000016
 30
0.0
  0
ENDBLK
  5
A30
330
A25
100
AcDbEntity
  8
0
100
AcDbBlockEnd
  0
BLOCK
  5
A43
330
A3C
100
AcDbEntity
  8
0
100
AcDbBlockBegin
  2
*D8
 70
     1
 10
0.0
 20
0.0
 30
0.0
  3
*D8
  1

  0
LINE
  5
DE4
330
A3C
100
AcDbEntity
  8
250
  6
CONTINUOUS
100
AcDbLine
 10
196.2509547
 20
-48.51958388
 30
0.0
 11
237.7490453
 21
48.51958388
 31
0.0
  0
INSERT
  5
DE5
330
A3C
100
AcDbEntity
  8
250
  6
CONTINUOUS
100
AcDbBlockReference
  2
_OPEN
 10
195.37412372
 20
-50.56996614
 30
0.0
 41
2.23
 42
2.23
 43
2.23
 50
246.84638031
  0
INSERT
  5
DE6
330
A3C
100
AcDbEntity
  8
250
  6
CONTINUOUS
100
AcDbBlockReference
  2
_OPEN
 10
238.62587628
 20
50.56996614
 30
0.0
 41
2.23
 42
2.23
 43
2.23
 50
66.84638031
  0
MTEXT
  5
DE7
330
A3C
100
AcDbEntity
  8
250
  6
CONTINUOUS
 62
    40
100
AcDbMText
 10
228.54650097
 20
33.10414587
 30
0.0
 40
2.8
 41
0.0
 71
     5
 72
     1
  1
\A1;（{\H2.8;\U+2205}110）
 11
0.39319775
 21
0.91945393
 31
0.0
  0
POINT
  5
DE8
330
A3C
100
AcDbEntity
  8
DEFPOINTS
  6
CONTINUOUS
 62
     0
100
AcDbPoint
 10
238.62587628
 20
50.56996614
 30
0.0
  0
POINT
  5
DE9
330
A3C
100
AcDbEntity
  8
DEFPOINTS
  6
CONTINUOUS
 62
     0
100
AcDbPoint
 10
195.37412372
 20
-50.56996614
 30
0.0
  0
ENDBLK
  5
A44
330
A3C
100
AcDbEntity
  8
0
100
AcDbBlockEnd
  0
ENDSEC
  0
SECTION
  2
ENTITIES
  0
INSERT
  5
6E6
330
1A
100
AcDbEntity
  8
245
100
AcDbBlockReference
  2
矢印なし
 10
175.62382697
 20
90.55123572
 30
0.0
  0
DIMENSION
  5
8BE
330
1A
100
AcDbEntity
  8
250
  6
CONTINUOUS
100
AcDbDimension
  2
*D3
 10
130.00000256
 20
70.0
 30
0.0
 11
63.0
 21
70.0
 31
0.0
 70
   160
  3
BIGT$0
100
AcDbAlignedDimension
 13
0.0
 23
39.9925
 33
0.0
 14
130.00000256
 24
44.0
 34
0.0
100
AcDbRotatedDimension
  0
TEXT
  5
8C2
330
1A
100
AcDbEntity
  8
241
100
AcDbText
 10
-48.0
 20
83.96735587
 30
0.0
 40
5.0
  1
C8-180-3BH25R-130
  7
YOKO
 11
-48.0
 21
83.96735587
 31
0.0
100
AcDbText
 73
     1
  0
DIMENSION
  5
9CB
330
1A
100
AcDbEntity
  8
250
  6
CONTINUOUS
100
AcDbDimension
  2
*D4
 10
143.5
 20
45.0
 30
0.0
 11
141.0
 21
22.5
 31
0.0
 70
    32
  3
BIGT$0
100
AcDbAlignedDimension
 13
131.00000256
 23
0.0
 33
0.0
 14
129.00000256
 24
45.0
 34
0.0
 50
90.0
100
AcDbRotatedDimension
  0
DIMENSION
  5
9FD
330
1A
100
AcDbEntity
  8
250
  6
CONTINUOUS
100
AcDbDimension
  2
*D5
 10
130.00000256
 20
63.0
 30
0.0
 11
85.00000256
 21
65.5
 31
0.0
 70
    32
  3
BIGT$0
100
AcDbAlignedDimension
 13
40.00000256
 23
45.0
 33
0.0
 14
130.00000256
 24
44.0
 34
0.0
100
AcDbRotatedDimension
  0
DIMENSION
  5
A15
330
1A
100
AcDbEntity
  8
250
  6
CONTINUOUS
100
AcDbDimension
  2
*D6
 10
242.00000037
 20
70.0
 30
0.0
 11
229.50000019
 21
72.5
 31
0.0
 70
    32
  1
□<>
  3
BIGT$0
100
AcDbAlignedDimension
 13
217.0
 23
57.0
 33
0.0
 14
242.00000037
 24
45.00000155
 34
0.0
100
AcDbRotatedDimension
  0
DIMENSION
  5
A24
330
1A
100
AcDbEntity
  8
250
  6
CONTINUOUS
100
AcDbDimension
  2
*D7
 10
280.0
 20
45.0000016
 30
0.0
 11
280.0
 21
32.50000106
 31
0.0
 70
   160
  3
BIGT$0
100
AcDbAlignedDimension
 13
242.00000115
 23
20.00000052
 33
0.0
 14
243.45285711
 24
45.0000016
 34
0.0
 50
90.0
100
AcDbRotatedDimension
  0
DIMENSION
  5
A3B
330
1A
100
AcDbEntity
  8
250
  6
CONTINUOUS
100
AcDbDimension
  2
*D8
 10
195.37412372
 20
-50.56996614
 30
0.0
 11
230.7531904
 21
32.16047127
 31
0.0
 70
   163
  1
（{\H2.8;\U+2205}<>）
  3
BIGT
100
AcDbDiametricDimension
 15
238.62587628
 25
50.56996614
 35
0.0
 40
0.0
1001
ACAD
1000
DSTYLE
1002
{
1070
   287
1070
     0
1070
   287
1070
     0
1070
     3
1000
<>
1070
   288
1070
     1
1070
   289
1070
     0
1002
}
  0
MTEXT
  5
CBC
330
1A
100
AcDbEntity
  8
251
  6
CONTINUOUS
100
AcDbMText
 10
-34.24230726
 20
-34.07208548
 30
0.0
 40
2.8
 41
0.0
 71
     7
 72
     1
  1
C8
  7
YOKO
1001
ITEMNAME
1000
LNSP3
1001
ACAD
1000
MTEXTBEGIN
1070
    73
1070
     1
1070
    44
1040
1.0
1070
    74
1070
     0
1000
MTEXTEND
1000
MTEXTBEGIN
1070
    73
1070
     1
1070
    44
1040
1.0
1070
    74
1070
     0
1000
MTEXTEND
1000
MTEXTBEGIN
1070
    73
1070
     1
1070
    44
1040
1.0
1070
    74
1070
     0
1000
MTEXTEND
  0
LEADER
  5
CBD
330
1A
100
AcDbEntity
  8
250
  6
CONTINUOUS
100
AcDbLeader
  3
BIGT$7
 76
     2
 10
-22.12784265
 20
-27.02186329
 30
0.0
 10
-26.7756406
 20
-35.07208548
 30
0.0
1001
ACAD
1000
DSTYLE
1002
{
1070
     5
1000
OPEN
1070
    41
1040
2.0
1070
    42
1040
2.0
1070
    44
1040
2.0
1070
   140
1040
4.0
1070
   342
1005
594
1002
}
  0
LINE
  5
CC3
330
1A
100
AcDbEntity
  8
250
  6
CONTINUOUS
100
AcDbLine
 10
-26.7756406
 20
-35.07208548
 30
0.0
 11
-37.04230726
 21
-35.07208548
 31
0.0
1001
ITEMNAME
1000
LNSP2
  0
INSERT
  5
DBE
330
1A
100
AcDbEntity
  8
245
100
AcDbBlockReference
  2
1
 10
0.0
 20
0.0
 30
0.0
  0
VIEWPORT
  5
22
330
17
100
AcDbEntity
 67
     1
  8
0
100
AcDbViewport
 10
261.51769912
 20
148.5
 30
0.0
 40
523.03539823
 41
297.0
 68
     1
 69
     1
1001
ACAD
1000
MVIEW
1002
{
1070
    16
1010
0.0
1020
0.0
1030
0.0
1010
0.0
1020
0.0
1030
1.0
1040
0.0
1040
297.0
1040
261.51769912
1040
148.5
1040
50.0
1040
0.0
1040
0.0
1070
     0
1070
   100
1070
     1
1070
     1
1070
     0
1070
     0
1070
     0
1070
     0
1040
0.0
1040
0.0
1040
0.0
1040
1.0
1040
1.0
1040
10.0
1040
10.0
1070
     0
1002
{
1002
}
1002
}
  0
ENDSEC
  0
SECTION
  2
OBJECTS
  0
DICTIONARY
  5
C
330
0
100
AcDbDictionary
  3
ACAD_GROUP
350
D
  3
ACAD_LAYOUT
350
565
  3
ACAD_MLINESTYLE
350
E
  3
ACAD_PLOTSETTINGS
350
566
  3
ACAD_PLOTSTYLENAME
350
563
  3
ACDBHEADERROUNDTRIPXREC
350
DC0
  3
GRADE_DWG
350
540
  0
DICTIONARY
  5
BBE
330
1A
100
AcDbDictionary
280
     1
  3
ACAD_LAYOUTSELFREF
360
DE2
  0
DICTIONARY
  5
BBC
330
17
100
AcDbDictionary
280
     1
  3
ACAD_LAYOUTSELFREF
360
DE1
  0
DICTIONARY
  5
D
102
{ACAD_REACTORS
330
C
102
}
330
C
100
AcDbDictionary
  3
*A1
350
6C7
  3
*A2
350
6C8
  3
*A3
350
6D4
  3
*A4
350
6D5
  3
DREC-1
350
5FC
  3
DREC-2
350
654
  3
DREC-3
350
673
  0
DICTIONARY
  5
565
102
{ACAD_REACTORS
330
C
102
}
330
C
100
AcDbDictionary
  0
DICTIONARY
  5
E
102
{ACAD_REACTORS
330
C
102
}
330
C
100
AcDbDictionary
  3
STANDARD
350
13
  0
DICTIONARY
  5
566
102
{ACAD_REACTORS
330
C
102
}
330
C
100
AcDbDictionary
  3
A3_0_5倍_
350
758
  3
A3_1倍_
350
757
  3
A3_1倍__2000_
350
707
  3
A3_2倍_
350
759
  3
A4_0_5倍_
350
755
  3
A4_1倍_
350
754
  3
A4_1倍__2000_
350
708
  3
A4_2倍_
350
756
  0
ACDBDICTIONARYWDFLT
  5
563
102
{ACAD_REACTORS
330
C
102
}
330
C
100
AcDbDictionary
281
     1
  3
Normal
350
564
100
AcDbDictionaryWithDefault
340
564
  0
DICTIONARY
  5
DC0
102
{ACAD_REACTORS
330
C
102
}
330
C
100
AcDbDictionary
  3
CEPSNTYPE
350
DCA
  3
DIMSTYLEDATA
350
DCE
  3
FINGERPRINTGUID
350
DCB
  3
HYPERLINKBASE
350
DC3
  3
INSUNITS
350
DC9
  3
LAYOUTDICT
350
DC5
  3
LWETCUNION
350
DC8
  3
PLOTSETDICT
350
DC6
  3
PLOTSTYLNAMDICT
350
DC7
  3
PSVPSCALE
350
DCD
  3
PUCSBASE
350
DD1
  3
PUCSORGBACK
350
DD7
  3
PUCSORGBOTTOM
350
DD3
  3
PUCSORGFRONT
350
DD6
  3
PUCSORGLEFT
350
DD4
  3
PUCSORGRIGHT
350
DD5
  3
PUCSORGTOP
350
DD2
  3
PUCSORTHOREF
350
DCF
  3
PUCSORTHOVIEW
350
DD0
  3
STYLESHEET
350
DC4
  3
TSTACKALIGN
350
DC1
  3
TSTACKSIZE
350
DC2
  3
UCSBASE
350
DDA
  3
UCSORGBACK
350
DE0
  3
UCSORGBOTTOM
350
DDC
  3
UCSORGFRONT
350
DDF
  3
UCSORGLEFT
350
DDD
  3
UCSORGRIGHT
350
DDE
  3
UCSORGTOP
350
DDB
  3
UCSORTHOREF
350
DD8
  3
UCSORTHOVIEW
350
DD9
  3
VERSIONGUID
350
DCC
  0
DICTIONARY
  5
540
102
{ACAD_REACTORS
330
C
102
}
330
C
100
AcDbDictionary
  3
VERSION
350
560
  0
XRECORD
  5
DE2
102
{ACAD_REACTORS
330
BBE
102
}
330
BBE
100
AcDbXrecord
340
1A
  0
XRECORD
  5
DE1
102
{ACAD_REACTORS
330
BBC
102
}
330
BBC
100
AcDbXrecord
340
17
  0
GROUP
  5
6C7
102
{ACAD_REACTORS
330
D
102
}
330
D
100
AcDbGroup
300

 70
     0
 71
     1
1001
GRPNAME
1000
DMA00
  0
GROUP
  5
6C8
102
{ACAD_REACTORS
330
D
102
}
330
D
100
AcDbGroup
300

 70
     0
 71
     1
1001
GRPNAME
1000
DMA00
  0
GROUP
  5
6D4
102
{ACAD_REACTORS
330
D
102
}
330
D
100
AcDbGroup
300

 70
     0
 71
     1
1001
GRPNAME
1000
DMA00
  0
GROUP
  5
6D5
102
{ACAD_REACTORS
330
D
102
}
330
D
100
AcDbGroup
300

 70
     0
 71
     1
1001
GRPNAME
1000
DMA00
  0
GROUP
  5
5FC
102
{ACAD_REACTORS
330
D
102
}
330
D
100
AcDbGroup
300

 70
     0
 71
     1
1001
GRPNAME
1000
DREC-
1001
GPARA
1000
xsiz
1000
44.182
1000
ysiz
1000
40.677
1000
angl
1000
0
1000
ctyp
1000
0
1000
csiz
1000
5
1000
lfnt
1000
cont
1000
hcnt
1000
hoff
1000
vcnt
1000
voff
1000
opnt
1000
4
1000
dxpt
1000
0
1000
dypt
1000
0
  0
GROUP
  5
654
102
{ACAD_REACTORS
330
D
102
}
330
D
100
AcDbGroup
300

 70
     0
 71
     1
1001
GRPNAME
1000
DREC-
1001
GPARA
1000
xsiz
1000
54.592
1000
ysiz
1000
53.036
1000
angl
1000
0
1000
ctyp
1000
0
1000
csiz
1000
5
1000
lfnt
1000
cont
1000
hcnt
1000
hoff
1000
vcnt
1000
voff
1000
opnt
1000
4
1000
dxpt
1000
0
1000
dypt
1000
0
  0
GROUP
  5
673
102
{ACAD_REACTORS
330
D
102
}
330
D
100
AcDbGroup
300

 70
     0
 71
     1
1001
GRPNAME
1000
DREC-
1001
GPARA
1000
xsiz
1000
30.363
1000
ysiz
1000
36.175
1000
angl
1000
0
1000
ctyp
1000
0
1000
csiz
1000
5
1000
lfnt
1000
cont
1000
hcnt
1000
hoff
1000
vcnt
1000
voff
1000
opnt
1000
4
1000
dxpt
1000
0
1000
dypt
1000
0
  0
MLINESTYLE
  5
13
102
{ACAD_REACTORS
330
E
102
}
330
E
100
AcDbMlineStyle
  2
STANDARD
 70
     0
  3

 62
     0
 51
90.0
 52
90.0
 71
     2
 49
0.5
 62
   256
  6
BYLAYER
 49
-0.5
 62
   256
  6
BYLAYER
  0
PLOTSETTINGS
  5
758
102
{ACAD_REACTORS
330
566
102
}
330
566
100
AcDbPlotSettings
  1
A3(0.5倍)
  2
\\AWTECPC05\HP DeskJet 1120C
  4
A3
  6

 40
5.95841646
 41
13.49375153
 42
6.04309082
 43
3.67242432
 44
296.92599487
 45
419.94665527
 46
89.96
 47
127.14
 48
0.0
 49
0.0
140
0.0
141
0.0
142
1.0
143
2.0
 70
  1716
 72
     1
 73
     1
 74
     2
  7
big.ctb
 75
    17
147
0.5
148
0.0
149
0.0
  0
PLOTSETTINGS
  5
757
102
{ACAD_REACTORS
330
566
102
}
330
566
100
AcDbPlotSettings
  1
A3(1倍)
  2
\\AWTECPC05\HP DeskJet 1120C
  4
A3
  6

 40
5.95841646
 41
13.49375153
 42
6.04309082
 43
3.67242432
 44
296.92599487
 45
419.94665527
 46
37.46
 47
52.89
 48
0.0
 49
0.0
140
0.0
141
0.0
142
1.0
143
1.0
 70
  1716
 72
     1
 73
     1
 74
     2
  7
big.ctb
 75
    16
147
1.0
148
0.0
149
0.0
  0
PLOTSETTINGS
  5
707
102
{ACAD_REACTORS
330
566
102
}
330
566
100
AcDbPlotSettings
  1
A3(1倍)(2000)
  2
SII LS-1300 (D-SCAN)
  4
User258
  6

 40
3.17499995
 41
3.17499995
 42
3.17498779
 43
3.17498779
 44
419.98898315
 45
296.98950195
 46
58.32
 47
40.32
 48
0.0
 49
0.0
140
0.0
141
0.0
142
1.0
143
1.0
 70
  1716
 72
     1
 73
     0
 74
     2
  7
big.ctb
 75
    16
147
1.0
148
0.0
149
0.0
  0
PLOTSETTINGS
  5
759
102
{ACAD_REACTORS
330
566
102
}
330
566
100
AcDbPlotSettings
  1
A3(2倍)
  2
\\AWTECPC05\HP DeskJet 1120C
  4
A3
  6

 40
5.95841646
 41
13.49375153
 42
6.04309082
 43
3.67242432
 44
296.92599487
 45
419.94665527
 46
-67.54
 47
-95.61
 48
0.0
 49
0.0
140
0.0
141
0.0
142
1.0
143
0.5
 70
  1716
 72
     1
 73
     1
 74
     2
  7
big.ctb
 75
    27
147
2.0
148
0.0
149
0.0
  0
PLOTSETTINGS
  5
755
102
{ACAD_REACTORS
330
566
102
}
330
566
100
AcDbPlotSettings
  1
A4(0.5倍)
  2
\\AWTECPC05\HP DeskJet 1120C
  4
A4
  6

 40
4.18041658
 41
13.49374962
 42
4.18040466
 43
3.92642212
 44
209.97332764
 45
296.92599487
 46
48.31
 47
65.5
 48
0.0
 49
0.0
140
0.0
141
0.0
142
1.0
143
2.0
 70
  1716
 72
     1
 73
     1
 74
     2
  7
big.ctb
 75
    17
147
0.5
148
0.0
149
0.0
  0
PLOTSETTINGS
  5
754
102
{ACAD_REACTORS
330
566
102
}
330
566
100
AcDbPlotSettings
  1
A4(1倍)
  2
\\AWTECPC05\HP DeskJet 1120C
  4
A4
  6

 40
4.18041658
 41
13.49374962
 42
4.18040466
 43
3.92642212
 44
209.97332764
 45
296.92599487
 46
-4.19
 47
-8.75
 48
0.0
 49
0.0
140
0.0
141
0.0
142
1.0
143
1.0
 70
  1716
 72
     1
 73
     1
 74
     2
  7
big.ctb
 75
    16
147
1.0
148
0.0
149
0.0
  0
PLOTSETTINGS
  5
708
102
{ACAD_REACTORS
330
566
102
}
330
566
100
AcDbPlotSettings
  1
A4(1倍)(2000)
  2
SII LS-1300 (D-SCAN)
  4
User259
  6

 40
3.17499995
 41
3.17499995
 42
3.17498779
 43
3.17500305
 44
296.98950195
 45
209.99449158
 46
-3.18
 47
-3.18
 48
0.0
 49
0.0
140
0.0
141
0.0
142
1.0
143
1.0
 70
  1716
 72
     1
 73
     0
 74
     2
  7
big.ctb
 75
    16
147
1.0
148
0.0
149
0.0
  0
PLOTSETTINGS
  5
756
102
{ACAD_REACTORS
330
566
102
}
330
566
100
AcDbPlotSettings
  1
A4(2倍)
  2
\\AWTECPC05\HP DeskJet 1120C
  4
A4
  6

 40
4.18041658
 41
13.49374962
 42
4.18040466
 43
3.92642212
 44
209.97332764
 45
296.92599487
 46
-109.19
 47
-157.25
 48
0.0
 49
0.0
140
0.0
141
0.0
142
1.0
143
0.5
 70
  1716
 72
     1
 73
     1
 74
     2
  7
big.ctb
 75
    27
147
2.0
148
0.0
149
0.0
  0
ACDBPLACEHOLDER
  5
564
102
{ACAD_REACTORS
330
563
102
}
330
563
100
AcDbPlaceHolder
280
     0
  0
XRECORD
  5
DCA
102
{ACAD_REACTORS
330
DC0
102
}
330
DC0
100
AcDbXrecord
 90
        0
  0
XRECORD
  5
DCE
102
{ACAD_REACTORS
330
DC0
102
}
330
DC0
100
AcDbXrecord
1000
DSTYLE
1002
{
1070
    79
 70
     2
1070
   179
 70
     3
1070
   341
340
594
1070
   343
340
594
1070
   344
340
594
1070
   371
 70
    -1
1070
   372
 70
    -1
1002
}
  0
XRECORD
  5
DCB
102
{ACAD_REACTORS
330
DC0
102
}
330
DC0
100
AcDbXrecord
  1
{51294030-9CB4-11D3-8E18-00A0C925D94D}
  0
XRECORD
  5
DC3
102
{ACAD_REACTORS
330
DC0
102
}
330
DC0
100
AcDbXrecord
  1

  0
XRECORD
  5
DC9
102
{ACAD_REACTORS
330
DC0
102
}
330
DC0
100
AcDbXrecord
 90
        0
  0
XRECORD
  5
DC5
102
{ACAD_REACTORS
330
DC0
102
}
330
DC0
100
AcDbXrecord
340
565
  0
XRECORD
  5
DC8
102
{ACAD_REACTORS
330
DC0
102
}
330
DC0
100
AcDbXrecord
 90
    10781
  0
XRECORD
  5
DC6
102
{ACAD_REACTORS
330
DC0
102
}
330
DC0
100
AcDbXrecord
340
566
  0
XRECORD
  5
DC7
102
{ACAD_REACTORS
330
DC0
102
}
330
DC0
100
AcDbXrecord
340
563
  0
XRECORD
  5
DCD
102
{ACAD_REACTORS
330
DC0
102
}
330
DC0
100
AcDbXrecord
 40
0.0
  0
XRECORD
  5
DD1
102
{ACAD_REACTORS
330
DC0
102
}
330
DC0
100
AcDbXrecord
340
0
  0
XRECORD
  5
DD7
102
{ACAD_REACTORS
330
DC0
102
}
330
DC0
100
AcDbXrecord
 10
0.0
 20
0.0
 30
0.0
  0
XRECORD
  5
DD3
102
{ACAD_REACTORS
330
DC0
102
}
330
DC0
100
AcDbXrecord
 10
0.0
 20
0.0
 30
0.0
  0
XRECORD
  5
DD6
102
{ACAD_REACTORS
330
DC0
102
}
330
DC0
100
AcDbXrecord
 10
0.0
 20
0.0
 30
0.0
  0
XRECORD
  5
DD4
102
{ACAD_REACTORS
330
DC0
102
}
330
DC0
100
AcDbXrecord
 10
0.0
 20
0.0
 30
0.0
  0
XRECORD
  5
DD5
102
{ACAD_REACTORS
330
DC0
102
}
330
DC0
100
AcDbXrecord
 10
0.0
 20
0.0
 30
0.0
  0
XRECORD
  5
DD2
102
{ACAD_REACTORS
330
DC0
102
}
330
DC0
100
AcDbXrecord
 10
0.0
 20
0.0
 30
0.0
  0
XRECORD
  5
DCF
102
{ACAD_REACTORS
330
DC0
102
}
330
DC0
100
AcDbXrecord
340
0
  0
XRECORD
  5
DD0
102
{ACAD_REACTORS
330
DC0
102
}
330
DC0
100
AcDbXrecord
 70
     0
  0
XRECORD
  5
DC4
102
{ACAD_REACTORS
330
DC0
102
}
330
DC0
100
AcDbXrecord
  1
big.ctb
  0
XRECORD
  5
DC1
102
{ACAD_REACTORS
330
DC0
102
}
330
DC0
100
AcDbXrecord
 90
        1
  0
XRECORD
  5
DC2
102
{ACAD_REACTORS
330
DC0
102
}
330
DC0
100
AcDbXrecord
 90
       70
  0
XRECORD
  5
DDA
102
{ACAD_REACTORS
330
DC0
102
}
330
DC0
100
AcDbXrecord
340
0
  0
XRECORD
  5
DE0
102
{ACAD_REACTORS
330
DC0
102
}
330
DC0
100
AcDbXrecord
 10
0.0
 20
0.0
 30
0.0
  0
XRECORD
  5
DDC
102
{ACAD_REACTORS
330
DC0
102
}
330
DC0
100
AcDbXrecord
 10
0.0
 20
0.0
 30
0.0
  0
XRECORD
  5
DDF
102
{ACAD_REACTORS
330
DC0
102
}
330
DC0
100
AcDbXrecord
 10
0.0
 20
0.0
 30
0.0
  0
XRECORD
  5
DDD
102
{ACAD_REACTORS
330
DC0
102
}
330
DC0
100
AcDbXrecord
 10
0.0
 20
0.0
 30
0.0
  0
XRECORD
  5
DDE
102
{ACAD_REACTORS
330
DC0
102
}
330
DC0
100
AcDbXrecord
 10
0.0
 20
0.0
 30
0.0
  0
XRECORD
  5
DDB
102
{ACAD_REACTORS
330
DC0
102
}
330
DC0
100
AcDbXrecord
 10
0.0
 20
0.0
 30
0.0
  0
XRECORD
  5
DD8
102
{ACAD_REACTORS
330
DC0
102
}
330
DC0
100
AcDbXrecord
340
0
  0
XRECORD
  5
DD9
102
{ACAD_REACTORS
330
DC0
102
}
330
DC0
100
AcDbXrecord
 70
     0
  0
XRECORD
  5
DCC
102
{ACAD_REACTORS
330
DC0
102
}
330
DC0
100
AcDbXrecord
  1
{1E051736-3AB0-471F-887A-90591480FC59}
  0
XRECORD
  5
560
102
{ACAD_REACTORS
330
540
102
}
330
540
100
AcDbXrecord
  1
2.0.0
  0
ENDSEC
  0
EOF
