  0
SECTION
  2
HEADER
  9
$ACADVER
  1
AC1014
  9
$ACADMAINTVER
 70
     9
  9
$DWGCODEPAGE
  3
ANSI_932
  9
$INSBASE
 10
0.0
 20
0.0
 30
0.0
  9
$EXTMIN
 10
-39.0140065
 20
-31.52526042
 30
-0.00152582
  9
$EXTMAX
 10
150.0181282
 20
68.02784876
 30
0.00000003
  9
$LIMMIN
 10
0.0
 20
0.0
  9
$LIMMAX
 10
420.0
 20
297.0
  9
$ORTHOMODE
 70
     0
  9
$REGENMODE
 70
     1
  9
$FILLMODE
 70
     1
  9
$QTEXTMODE
 70
     0
  9
$MIRRTEXT
 70
     1
  9
$DRAGMODE
 70
     2
  9
$LTSCALE
 40
10.0
  9
$OSMODE
 70
   549
  9
$ATTMODE
 70
     1
  9
$TEXTSIZE
 40
3.0
  9
$TRACEWID
 40
1.0
  9
$TEXTSTYLE
  7
YOKO
  9
$CLAYER
  8
245
  9
$CELTYPE
  6
BYLAYER
  9
$CECOLOR
 62
   256
  9
$CELTSCALE
 40
1.0
  9
$DELOBJ
 70
     1
  9
$DISPSILH
 70
     0
  9
$DIMSCALE
 40
1.0
  9
$DIMASZ
 40
2.0
  9
$DIMEXO
 40
2.0
  9
$DIMDLI
 40
2.5
  9
$DIMRND
 40
0.0
  9
$DIMDLE
 40
0.0
  9
$DIMEXE
 40
2.0
  9
$DIMTP
 40
0.0
  9
$DIMTM
 40
0.0
  9
$DIMTXT
 40
4.0
  9
$DIMCEN
 40
0.0
  9
$DIMTSZ
 40
0.0
  9
$DIMTOL
 70
     0
  9
$DIMLIM
 70
     0
  9
$DIMTIH
 70
     0
  9
$DIMTOH
 70
     0
  9
$DIMSE1
 70
     0
  9
$DIMSE2
 70
     0
  9
$DIMTAD
 70
     3
  9
$DIMZIN
 70
     8
  9
$DIMBLK
  1

  9
$DIMASO
 70
     1
  9
$DIMSHO
 70
     1
  9
$DIMPOST
  1

  9
$DIMAPOST
  1

  9
$DIMALT
 70
     0
  9
$DIMALTD
 70
     2
  9
$DIMALTF
 40
25.4
  9
$DIMLFAC
 40
1.0
  9
$DIMTOFL
 70
     1
  9
$DIMTVP
 40
0.0
  9
$DIMTIX
 70
     1
  9
$DIMSOXD
 70
     0
  9
$DIMSAH
 70
     1
  9
$DIMBLK1
  1
OPEN
  9
$DIMBLK2
  1
OPEN
  9
$DIMSTYLE
  2
BIGT
  9
$DIMCLRD
 70
   256
  9
$DIMCLRE
 70
   256
  9
$DIMCLRT
 70
    40
  9
$DIMTFAC
 40
1.0
  9
$DIMGAP
 40
1.0
  9
$DIMJUST
 70
     0
  9
$DIMSD1
 70
     0
  9
$DIMSD2
 70
     0
  9
$DIMTOLJ
 70
     1
  9
$DIMTZIN
 70
     8
  9
$DIMALTZ
 70
     0
  9
$DIMALTTZ
 70
     0
  9
$DIMFIT
 70
     3
  9
$DIMUPT
 70
     0
  9
$DIMUNIT
 70
     2
  9
$DIMDEC
 70
     3
  9
$DIMTDEC
 70
     3
  9
$DIMALTU
 70
     2
  9
$DIMALTTD
 70
     2
  9
$DIMTXSTY
  7
STANDARD
  9
$DIMAUNIT
 70
     0
  9
$LUNITS
 70
     2
  9
$LUPREC
 70
     3
  9
$SKETCHINC
 40
1.0
  9
$FILLETRAD
 40
0.3
  9
$AUNITS
 70
     0
  9
$AUPREC
 70
     3
  9
$MENU
  1
.
  9
$ELEVATION
 40
0.0
  9
$PELEVATION
 40
0.0
  9
$THICKNESS
 40
0.0
  9
$LIMCHECK
 70
     0
  9
$BLIPMODE
 70
     0
  9
$CHAMFERA
 40
10.0
  9
$CHAMFERB
 40
10.0
  9
$CHAMFERC
 40
0.0
  9
$CHAMFERD
 40
0.0
  9
$SKPOLY
 70
     0
  9
$TDCREATE
 40
2455100.490955393
  9
$TDUPDATE
 40
2455300.439785335
  9
$TDINDWG
 40
0.0136046065
  9
$TDUSRTIMER
 40
0.0136044329
  9
$USRTIMER
 70
     1
  9
$ANGBASE
 50
0.0
  9
$ANGDIR
 70
     0
  9
$PDMODE
 70
     1
  9
$PDSIZE
 40
-5.0
  9
$PLINEWID
 40
0.0
  9
$COORDS
 70
     2
  9
$SPLFRAME
 70
     0
  9
$SPLINETYPE
 70
     6
  9
$SPLINESEGS
 70
     8
  9
$ATTDIA
 70
     0
  9
$ATTREQ
 70
     1
  9
$HANDLING
 70
-16383
  9
$HANDSEED
  5
D67
  9
$SURFTAB1
 70
     6
  9
$SURFTAB2
 70
     6
  9
$SURFTYPE
 70
     6
  9
$SURFU
 70
     6
  9
$SURFV
 70
     6
  9
$UCSNAME
  2

  9
$UCSORG
 10
0.0
 20
0.0
 30
0.0
  9
$UCSXDIR
 10
1.0
 20
0.0
 30
0.0
  9
$UCSYDIR
 10
0.0
 20
1.0
 30
0.0
  9
$PUCSNAME
  2

  9
$PUCSORG
 10
0.0
 20
0.0
 30
0.0
  9
$PUCSXDIR
 10
1.0
 20
0.0
 30
0.0
  9
$PUCSYDIR
 10
0.0
 20
1.0
 30
0.0
  9
$USERI1
 70
     1
  9
$USERI2
 70
     0
  9
$USERI3
 70
     0
  9
$USERI4
 70
     0
  9
$USERI5
 70
     0
  9
$USERR1
 40
0.0
  9
$USERR2
 40
0.0
  9
$USERR3
 40
0.0
  9
$USERR4
 40
0.0
  9
$USERR5
 40
0.0
  9
$WORLDVIEW
 70
     1
  9
$SHADEDGE
 70
     3
  9
$SHADEDIF
 70
    70
  9
$TILEMODE
 70
     1
  9
$MAXACTVP
 70
    16
  9
$PINSBASE
 10
0.0
 20
0.0
 30
0.0
  9
$PLIMCHECK
 70
     0
  9
$PEXTMIN
 10
1.00000000E+20
 20
1.00000000E+20
 30
1.00000000E+20
  9
$PEXTMAX
 10
-1.00000000E+20
 20
-1.00000000E+20
 30
-1.00000000E+20
  9
$PLIMMIN
 10
0.0
 20
0.0
  9
$PLIMMAX
 10
420.0
 20
297.0
  9
$UNITMODE
 70
     0
  9
$VISRETAIN
 70
     0
  9
$PLINEGEN
 70
     0
  9
$PSLTSCALE
 70
     1
  9
$TREEDEPTH
 70
  3020
  9
$PICKSTYLE
 70
     0
  9
$CMLSTYLE
  2
STANDARD
  9
$CMLJUST
 70
     0
  9
$CMLSCALE
 40
1.0
  9
$PROXYGRAPHICS
 70
     1
  9
$MEASUREMENT
 70
     1
  0
ENDSEC
  0
SECTION
  2
CLASSES
  0
CLASS
  1
XRECORD
  2
AcDbXrecord
  3
AutoCAD 2000
 90
        0
280
     0
281
     0
  0
CLASS
  1
ACDBDICTIONARYWDFLT
  2
AcDbDictionaryWithDefault
  3
AutoCAD 2000
 90
        0
280
     0
281
     0
  0
CLASS
  1
ACDBPLACEHOLDER
  2
AcDbPlaceHolder
  3
AutoCAD 2000
 90
        0
280
     0
281
     0
  0
CLASS
  1
LAYOUT
  2
AcDbLayout
  3
AutoCAD 2000
 90
        0
280
     0
281
     0
  0
CLASS
  1
PLOTSETTINGS
  2
AcDbPlotSettings
  3
AutoCAD 2000
 90
        0
280
     0
281
     0
  0
CLASS
  1
LONG_TRANSACTION
  2
AcDbLongTransaction
  3
AutoCAD 2000
 90
        0
280
     0
281
     0
  0
CLASS
  1
LWPOLYLINE
  2
AcDbPolyline
  3
AutoCAD 2000
 90
        0
280
     0
281
     1
  0
CLASS
  1
HATCH
  2
AcDbHatch
  3
AutoCAD 2000
 90
        0
280
     0
281
     1
  0
CLASS
  1
XRECORD
  2
AcDbXrecord
  3
AutoCAD 2000
 90
        0
280
     0
281
     0
  0
CLASS
  1
LONG_TRANSACTION
  2
AcDbLongTransaction
  3
AutoCAD 2000
 90
        0
280
     0
281
     0
  0
CLASS
  1
LWPOLYLINE
  2
AcDbPolyline
  3
AutoCAD 2000
 90
        0
280
     0
281
     1
  0
CLASS
  1
HATCH
  2
AcDbHatch
  3
AutoCAD 2000
 90
        0
280
     0
281
     1
  0
CLASS
  1
XRECORD
  2
AcDbXrecord
  3
AutoCAD 2000
 90
        0
280
     0
281
     0
  0
CLASS
  1
LONG_TRANSACTION
  2
AcDbLongTransaction
  3
AutoCAD 2000
 90
        0
280
     0
281
     0
  0
CLASS
  1
LWPOLYLINE
  2
AcDbPolyline
  3
AutoCAD 2000
 90
        0
280
     0
281
     1
  0
CLASS
  1
HATCH
  2
AcDbHatch
  3
AutoCAD 2000
 90
        0
280
     0
281
     1
  0
CLASS
  1
XRECORD
  2
AcDbXrecord
  3
AutoCAD 2000
 90
        0
280
     0
281
     0
  0
CLASS
  1
LONG_TRANSACTION
  2
AcDbLongTransaction
  3
AutoCAD 2000
 90
        0
280
     0
281
     0
  0
CLASS
  1
LWPOLYLINE
  2
AcDbPolyline
  3
AutoCAD 2000
 90
        0
280
     0
281
     1
  0
CLASS
  1
HATCH
  2
AcDbHatch
  3
AutoCAD 2000
 90
        0
280
     0
281
     1
  0
CLASS
  1
XRECORD
  2
AcDbXrecord
  3
AutoCAD 2000
 90
        0
280
     0
281
     0
  0
CLASS
  1
LONG_TRANSACTION
  2
AcDbLongTransaction
  3
AutoCAD 2000
 90
        0
280
     0
281
     0
  0
CLASS
  1
LWPOLYLINE
  2
AcDbPolyline
  3
AutoCAD 2000
 90
        0
280
     0
281
     1
  0
CLASS
  1
HATCH
  2
AcDbHatch
  3
AutoCAD 2000
 90
        0
280
     0
281
     1
  0
CLASS
  1
XRECORD
  2
AcDbXrecord
  3
AutoCAD 2000
 90
        0
280
     0
281
     0
  0
ENDSEC
  0
SECTION
  2
TABLES
  0
TABLE
  2
VPORT
  5
8
330
0
100
AcDbSymbolTable
 70
     2
  0
VPORT
  5
D42
330
8
100
AcDbSymbolTableRecord
100
AcDbViewportTableRecord
  2
*ACTIVE
 70
     0
 10
0.0
 20
0.0
 11
1.0
 21
1.0
 12
55.50206085
 22
18.25129417
 13
0.0
 23
0.0
 14
7.0
 24
7.0
 15
7.0
 25
7.0
 16
0.0
 26
0.0
 36
1.0
 17
0.0
 27
0.0
 37
0.0
 40
132.72360907
 41
1.43184713
 42
50.0
 43
0.0
 44
0.0
 50
0.0
 51
0.0
 71
     0
 72
  2000
 73
     1
 74
     0
 75
     0
 76
     0
 77
     0
 78
     0
  0
ENDTAB
  0
TABLE
  2
LTYPE
  5
5
330
0
100
AcDbSymbolTable
 70
     3
  0
LTYPE
  5
14
330
5
100
AcDbSymbolTableRecord
100
AcDbLinetypeTableRecord
  2
BYBLOCK
 70
     0
  3

 72
    65
 73
     0
 40
0.0
  0
LTYPE
  5
15
330
5
100
AcDbSymbolTableRecord
100
AcDbLinetypeTableRecord
  2
BYLAYER
 70
     0
  3

 72
    65
 73
     0
 40
0.0
  0
LTYPE
  5
16
330
5
100
AcDbSymbolTableRecord
100
AcDbLinetypeTableRecord
  2
CONTINUOUS
 70
     0
  3
Solid line
 72
    65
 73
     0
 40
0.0
  0
LTYPE
  5
258
330
5
100
AcDbSymbolTableRecord
100
AcDbLinetypeTableRecord
  2
CENTER2
 70
     0
  3
___ _ ___ _ ___ _ ___ _ ___ _ ___ _ ___ _ ___ _
 72
    65
 73
     4
 40
1.125
 49
0.75
 74
     0
 49
-0.125
 74
     0
 49
0.125
 74
     0
 49
-0.125
 74
     0
  0
LTYPE
  5
25C
330
5
100
AcDbSymbolTableRecord
100
AcDbLinetypeTableRecord
  2
HIDDEN2
 70
     0
  3
_ _ _ _ _ _ _ _ _ _ _ _ _ _ _ _ _ _ _ _ _ _ _ _
 72
    65
 73
     2
 40
0.1875
 49
0.125
 74
     0
 49
-0.0625
 74
     0
  0
ENDTAB
  0
TABLE
  2
LAYER
  5
2
330
0
100
AcDbSymbolTable
 70
     9
  0
LAYER
  5
F
330
2
100
AcDbSymbolTableRecord
100
AcDbLayerTableRecord
  2
0
 70
     0
 62
     7
  6
CONTINUOUS
  0
LAYER
  5
1AA
330
2
100
AcDbSymbolTableRecord
100
AcDbLayerTableRecord
  2
240
 70
     0
 62
     4
  6
CONTINUOUS
  0
LAYER
  5
1AB
330
2
100
AcDbSymbolTableRecord
100
AcDbLayerTableRecord
  2
241
 70
     0
 62
   211
  6
CONTINUOUS
  0
LAYER
  5
1AF
330
2
100
AcDbSymbolTableRecord
100
AcDbLayerTableRecord
  2
245
 70
     0
 62
     2
  6
CENTER2
  0
LAYER
  5
21E
330
2
100
AcDbSymbolTableRecord
100
AcDbLayerTableRecord
  2
250
 70
     0
 62
     3
  6
CONTINUOUS
  0
LAYER
  5
21F
330
2
100
AcDbSymbolTableRecord
100
AcDbLayerTableRecord
  2
251
 70
     0
 62
    40
  6
CONTINUOUS
  0
LAYER
  5
5C4
330
2
100
AcDbSymbolTableRecord
100
AcDbLayerTableRecord
  2
DEFPOINTS
 70
     0
 62
     7
  6
CONTINUOUS
  0
ENDTAB
  0
TABLE
  2
STYLE
  5
3
330
0
100
AcDbSymbolTable
 70
     2
  0
STYLE
  5
10
330
3
100
AcDbSymbolTableRecord
100
AcDbTextStyleTableRecord
  2
STANDARD
 70
     0
 40
0.0
 41
1.0
 50
0.0
 71
     0
 42
3.0
  3
romans.shx
  4
BIGFONT.SHX
  0
STYLE
  5
339
330
3
100
AcDbSymbolTableRecord
100
AcDbTextStyleTableRecord
  2
YOKO
 70
     0
 40
0.0
 41
1.0
 50
0.0
 71
     0
 42
3.0
  3
romans.shx
  4
extfont.shx
  0
ENDTAB
  0
TABLE
  2
VIEW
  5
6
330
0
100
AcDbSymbolTable
 70
     0
  0
ENDTAB
  0
TABLE
  2
UCS
  5
7
330
0
100
AcDbSymbolTable
 70
     0
  0
ENDTAB
  0
TABLE
  2
APPID
  5
9
330
0
100
AcDbSymbolTable
 70
     9
  0
APPID
  5
11
330
9
100
AcDbSymbolTableRecord
100
AcDbRegAppTableRecord
  2
ACAD
 70
     0
  0
APPID
  5
1B1
330
9
100
AcDbSymbolTableRecord
100
AcDbRegAppTableRecord
  2
GLOBAL
 70
     0
  0
APPID
  5
2A4
330
9
100
AcDbSymbolTableRecord
100
AcDbRegAppTableRecord
  2
DETAIL
 70
     0
  0
APPID
  5
5FD
330
9
100
AcDbSymbolTableRecord
100
AcDbRegAppTableRecord
  2
GRPNAME
 70
     0
  0
APPID
  5
5FE
330
9
100
AcDbSymbolTableRecord
100
AcDbRegAppTableRecord
  2
GPARA
 70
     0
  0
APPID
  5
6C4
330
9
100
AcDbSymbolTableRecord
100
AcDbRegAppTableRecord
  2
DCO15
 70
     0
  0
APPID
  5
6C5
330
9
100
AcDbSymbolTableRecord
100
AcDbRegAppTableRecord
  2
ITEMNAME
 70
     0
  0
APPID
  5
6C6
330
9
100
AcDbSymbolTableRecord
100
AcDbRegAppTableRecord
  2
GRADE_0
 70
     0
  0
APPID
  5
944
330
9
100
AcDbSymbolTableRecord
100
AcDbRegAppTableRecord
  2
CONTENTBLOCKICON
 70
     0
  0
ENDTAB
  0
TABLE
  2
DIMSTYLE
  5
A
330
0
100
AcDbSymbolTable
 70
     5
  0
DIMSTYLE
105
725
102
{ACAD_REACTORS
330
7E9
330
7EE
102
}
330
A
100
AcDbSymbolTableRecord
100
AcDbDimStyleTableRecord
  2
BIGT
 70
     0
  3

  4

  5

  6
OPEN
  7
OPEN
 40
1.0
 41
2.23
 42
0.5
 43
2.5
 44
1.0
 45
0.0
 46
0.0
 47
0.0
 48
0.0
140
2.8
141
0.0
142
0.0
143
25.4
144
1.0
145
0.0
146
1.0
147
1.0
 71
     0
 72
     0
 73
     0
 74
     0
 75
     0
 76
     0
 77
     3
 78
     8
170
     0
171
     2
172
     1
173
     1
174
     1
175
     0
176
   256
177
   256
178
    40
270
     2
271
     3
272
     3
273
     2
274
     2
340
10
275
     0
280
     0
281
     0
282
     0
283
     1
284
     8
285
     0
286
     0
287
     3
288
     0
  0
DIMSTYLE
105
7D9
330
A
100
AcDbSymbolTableRecord
100
AcDbDimStyleTableRecord
  2
BIGT$7
 70
     0
  3

  4
"
  5
OPEN
  6

  7

 40
1.0
 41
2.5
 42
0.5
 43
7.0
 44
1.0
 45
0.0
 46
0.0
 47
0.1
 48
0.1
140
5.0
141
0.0
142
0.0
143
0.0393701
144
1.0
145
0.0
146
0.71
147
1.5
 71
     0
 72
     0
 73
     0
 74
     0
 75
     0
 76
     0
 77
     3
 78
     8
170
     0
171
     2
172
     1
173
     0
174
     0
175
     0
176
     3
177
     3
178
    40
270
     2
271
     3
272
     3
273
     2
274
     2
340
10
275
     0
280
     0
281
     0
282
     0
283
     1
284
     8
285
     0
286
     0
287
     3
288
     0
  0
ENDTAB
  0
TABLE
  2
BLOCK_RECORD
  5
1
330
0
100
AcDbSymbolTable
 70
     7
  0
BLOCK_RECORD
  5
1A
102
{ACAD_XDICTIONARY
360
942
102
}
330
1
100
AcDbSymbolTableRecord
100
AcDbBlockTableRecord
  2
*MODEL_SPACE
  0
BLOCK_RECORD
  5
17
102
{ACAD_XDICTIONARY
360
940
102
}
330
1
100
AcDbSymbolTableRecord
100
AcDbBlockTableRecord
  2
*PAPER_SPACE
  0
BLOCK_RECORD
  5
594
330
1
100
AcDbSymbolTableRecord
100
AcDbBlockTableRecord
  2
_OPEN
  0
BLOCK_RECORD
  5
6E3
330
1
100
AcDbSymbolTableRecord
100
AcDbBlockTableRecord
  2
矢印なし
  0
BLOCK_RECORD
  5
784
330
1
100
AcDbSymbolTableRecord
100
AcDbBlockTableRecord
  2
1
1001
CONTENTBLOCKICON
1071
        0
1004
2800000020000000200000000100080000000000000400000000000000000000000000000000000000000000000080000080000000808000800000008000800080800000C0C0C000C0DCC000F0CAA6000020400000206000002080000020A0000020C0000020E00000400000004020000040400000406000004080000040A0
1004
000040C0000040E00000600000006020000060400000606000006080000060A0000060C0000060E00000800000008020000080400000806000008080000080A0000080C0000080E00000A0000000A0200000A0400000A0600000A0800000A0A00000A0C00000A0E00000C0000000C0200000C0400000C0600000C0800000C0
1004
A00000C0C00000C0E00000E0000000E0200000E0400000E0600000E0800000E0A00000E0C00000E0E00040000000400020004000400040006000400080004000A0004000C0004000E00040200000402020004020400040206000402080004020A0004020C0004020E000404000004040200040404000404060004040800040
1004
40A0004040C0004040E00040600000406020004060400040606000406080004060A0004060C0004060E00040800000408020004080400040806000408080004080A0004080C0004080E00040A0000040A0200040A0400040A0600040A0800040A0A00040A0C00040A0E00040C0000040C0200040C0400040C0600040C08000
1004
40C0A00040C0C00040C0E00040E0000040E0200040E0400040E0600040E0800040E0A00040E0C00040E0E00080000000800020008000400080006000800080008000A0008000C0008000E00080200000802020008020400080206000802080008020A0008020C0008020E00080400000804020008040400080406000804080
1004
008040A0008040C0008040E00080600000806020008060400080606000806080008060A0008060C0008060E00080800000808020008080400080806000808080008080A0008080C0008080E00080A0000080A0200080A0400080A0600080A0800080A0A00080A0C00080A0E00080C0000080C0200080C0400080C0600080C0
1004
800080C0A00080C0C00080C0E00080E0000080E0200080E0400080E0600080E0800080E0A00080E0C00080E0E000C0000000C0002000C0004000C0006000C0008000C000A000C000C000C000E000C0200000C0202000C0204000C0206000C0208000C020A000C020C000C020E000C0400000C0402000C0404000C0406000C0
1004
408000C040A000C040C000C040E000C0600000C0602000C0604000C0606000C0608000C060A000C060C000C060E000C0800000C0802000C0804000C0806000C0808000C080A000C080C000C080E000C0A00000C0A02000C0A04000C0A06000C0A08000C0A0A000C0A0C000C0A0E000C0C00000C0C02000C0C04000C0C06000
1004
C0C08000C0C0A000F0FBFF00A4A0A000808080000000FF0000FF000000FFFF00FF000000FF00FF00FFFF0000FFFFFF0000000000000000000000000000000000000000000000000000000000000000000000000000000000000000000000000000000000000000000000000000000000000000000000000000000000000000
1004
00000000000000000000000000000000000000000000000000000000000000000000000000000000000000000000000000000000000000000000000000000000000000000000000000000000000000000000000000000000000000000000000000000000000000000000000000000000000000000000000000000000000000
1004
0000000000000000000000000000000000000000000000000000000000000000000000000000000000000000000000000000000000000000000000000000000000000000000000000000000000000000000000000000000000000000000000000000000000000000000000000000000000000000000000000000FEFEFEE7FE
1004
FEFEFEFEFEFEFEFEFEFEFEFEFEFEFEE7E700000000000000000000FEE7E7E700000000000000000000000000000000E7E700000000FEFEFEFEFEFEFEE7E7E700000000000000000000000000000000E7E700000000E700000000E7E7E7E7E700000000000000000000000000000000E7E700000000E700000000E7E7E7E7E7
1004
00000000000000000000000000000000E7E700000000E7E7000000E7E7E7E7E700000000000000000000000000000000E7E7000000FBE7E7FBFBFBE7E7E7E7E7FBFBFBFBFBFBFBFBFBFBFBFBFBFBFBFBE7E7FB000000FE00000000E7E7E7E7E700000000000000000000000000000000E7E700000000FE00000000E7E7E7E7
1004
E700000000000000000000000000000000E7E700000000FEFEFEFEFEFEFEE7E7E700000000000000000000000000000000E7E700000000000000000000FEE7E7E700000000000000000000000000000000E7E700000000000000000000FEFEFEE7FEFEFEFEFEFEFEFEFEFEFEFEFEFEFEFEE7E7000000000000000000000000
1004
00000000000000000000000000000000000000000000000000000000000000000000000000000000000000000000000000000000000000000000000000000000000000000000000000000000000000000000000000000000000000000000000000000000000000000000000000000000000000000000000000000000000000
1004
00000000000000000000000000000000000000000000000000000000000000000000000000000000000000000000000000000000000000000000000000000000000000000000000000000000000000000000000000000000000000000000000000000000000000000000000000000000000000000000000000000000000000
1004
0000000000000000000000000000000000000000000000000000000000000000000000000000000000000000000000000000000000000000
  0
BLOCK_RECORD
  5
7F2
330
1
100
AcDbSymbolTableRecord
100
AcDbBlockTableRecord
  2
*D3
  0
BLOCK_RECORD
  5
7FE
330
1
100
AcDbSymbolTableRecord
100
AcDbBlockTableRecord
  2
*D4
  0
ENDTAB
  0
ENDSEC
  0
SECTION
  2
BLOCKS
  0
BLOCK
  5
1B
330
1A
100
AcDbEntity
  8
0
100
AcDbBlockBegin
  2
*MODEL_SPACE
 70
     0
 10
0.0
 20
0.0
 30
0.0
  3
*MODEL_SPACE
  1

  0
ENDBLK
  5
1C
330
1A
100
AcDbEntity
  8
0
100
AcDbBlockEnd
  0
BLOCK
  5
18
330
17
100
AcDbEntity
 67
     1
  8
0
100
AcDbBlockBegin
  2
*PAPER_SPACE
 70
     0
 10
0.0
 20
0.0
 30
0.0
  3
*PAPER_SPACE
  1

  0
ENDBLK
  5
19
330
17
100
AcDbEntity
 67
     1
  8
0
100
AcDbBlockEnd
  0
BLOCK
  5
598
330
594
100
AcDbEntity
  8
0
100
AcDbBlockBegin
  2
_OPEN
 70
     0
 10
0.0
 20
0.0
 30
0.0
  3
_OPEN
  1

  0
LINE
  5
595
330
594
100
AcDbEntity
  8
0
  6
BYBLOCK
 62
     0
100
AcDbLine
 10
-1.0
 20
0.16666667
 30
0.0
 11
0.0
 21
0.0
 31
0.0
  0
LINE
  5
596
330
594
100
AcDbEntity
  8
0
  6
BYBLOCK
 62
     0
100
AcDbLine
 10
-1.0
 20
-0.16666667
 30
0.0
 11
0.0
 21
0.0
 31
0.0
  0
LINE
  5
597
330
594
100
AcDbEntity
  8
0
  6
BYBLOCK
 62
     0
100
AcDbLine
 10
0.0
 20
0.0
 30
0.0
 11
-1.0
 21
0.0
 31
0.0
  0
ENDBLK
  5
599
330
594
100
AcDbEntity
  8
0
100
AcDbBlockEnd
  0
BLOCK
  5
6E4
330
6E3
100
AcDbEntity
  8
0
100
AcDbBlockBegin
  2
矢印なし
 70
     0
 10
0.0
 20
0.0
 30
0.0
  3
矢印なし
  1

  0
ENDBLK
  5
6E5
330
6E3
100
AcDbEntity
  8
0
100
AcDbBlockEnd
  0
BLOCK
  5
7D7
330
784
100
AcDbEntity
  8
0
100
AcDbBlockBegin
  2
1
 70
     0
 10
0.0
 20
0.0
 30
0.0
  3
1
  1

  0
LINE
  5
CF7
330
784
100
AcDbEntity
  8
240
100
AcDbLine
 10
0.0
 20
31.5
 30
0.0
 11
130.0
 21
31.5
 31
0.0
  0
LINE
  5
CF8
330
784
100
AcDbEntity
  8
240
100
AcDbLine
 10
0.0
 20
-31.5
 30
0.0
 11
130.0
 21
-31.5
 31
0.0
  0
LINE
  5
CF9
330
784
100
AcDbEntity
  8
245
  6
CENTER2
100
AcDbLine
 10
-39.0
 20
0.0
 30
0.0
 11
134.5
 21
0.0
 31
0.0
  0
LINE
  5
CFA
330
784
100
AcDbEntity
  8
241
100
AcDbLine
 10
21.5799775
 20
-31.4925
 30
0.0
 11
21.5799775
 21
0.0
 31
0.0
  0
LINE
  5
CFB
330
784
100
AcDbEntity
  8
241
100
AcDbLine
 10
-2.2
 20
-22.07078641
 30
0.0
 11
-2.2
 21
0.0
 31
0.0
  0
LINE
  5
CFC
330
784
100
AcDbEntity
  8
241
100
AcDbLine
 10
0.0
 20
-22.07078641
 30
0.0
 11
0.0
 21
0.0
 31
0.0
  0
LINE
  5
CFD
330
784
100
AcDbEntity
  8
240
  6
CONTINUOUS
100
AcDbLine
 10
-38.0
 20
-20.34731862
 30
0.0
 11
-38.0
 21
0.0
 31
0.0
1001
GRPNAME
1000
PASTMD1D
  0
LINE
  5
CFE
330
784
100
AcDbEntity
  8
241
100
AcDbLine
 10
-36.5
 20
-21.21334402
 30
0.0
 11
-36.5
 21
0.0
 31
0.0
  0
LINE
  5
CFF
330
784
100
AcDbEntity
  8
240
  6
CONTINUOUS
100
AcDbLine
 10
-2.2
 20
-22.07078641
 30
0.0
 11
-36.5
 21
-21.21334402
 31
0.0
1001
GRPNAME
1000
PASTMD1E
  0
LINE
  5
D00
330
784
100
AcDbEntity
  8
240
  6
CONTINUOUS
100
AcDbLine
 10
-36.5
 20
-21.21334402
 30
0.0
 11
-38.0
 21
-20.34731862
 31
0.0
1001
GRPNAME
1000
PASTMD16
  0
LINE
  5
D01
330
784
100
AcDbEntity
  8
241
  6
CONTINUOUS
100
AcDbLine
 10
9.95
 20
-8.99234142
 30
0.0
 11
14.05
 21
-8.99234142
 31
0.0
  0
LINE
  5
D02
330
784
100
AcDbEntity
  8
241
  6
CONTINUOUS
100
AcDbLine
 10
9.95
 20
-30.18137426
 30
0.0
 11
14.05
 21
-30.18137426
 31
0.0
  0
LINE
  5
D03
330
784
100
AcDbEntity
  8
240
  6
CONTINUOUS
100
AcDbLine
 10
0.0
 20
-31.5
 30
0.0
 11
0.0
 21
-22.07078641
 31
0.0
  0
SPLINE
  5
D04
330
784
100
AcDbEntity
  8
241
  6
CONTINUOUS
100
AcDbSpline
210
0.0
220
0.0
230
1.0
 70
     8
 71
     3
 72
     9
 73
     5
 74
     3
 42
0.0000000001
 43
0.0000000001
 44
0.0000000001
 40
0.0
 40
0.0
 40
0.0
 40
0.0
 40
10.74384375536299
 40
21.48768751072609
 40
21.48768751072609
 40
21.48768751072609
 40
21.48768751072609
 10
9.9500000000001
 20
-8.992341421163501
 30
0.0
 10
9.057475418454039
 20
-12.52384689373145
 30
0.0
 10
7.272426255361907
 20
-19.58685783886738
 30
0.0
 10
9.057475418453995
 20
-26.64986878400333
 30
0.0
 10
9.950000000000043
 20
-30.18137425657132
 30
0.0
 11
9.9500000000001
 21
-8.992341421163501
 31
0.0
 11
8.164950836907962
 21
-19.58685783886735
 31
0.0
 11
9.950000000000043
 21
-30.18137425657132
 31
0.0
  0
LINE
  5
D05
330
784
100
AcDbEntity
  8
241
  6
CONTINUOUS
100
AcDbLine
 10
9.95
 20
-8.99234142
 30
0.0
 11
9.95
 21
-30.18137426
 31
0.0
  0
LINE
  5
D06
330
784
100
AcDbEntity
  8
240
100
AcDbLine
 10
-2.2
 20
-22.07078641
 30
0.0
 11
0.0
 21
-22.07078641
 31
0.0
  0
SPLINE
  5
D07
330
784
100
AcDbEntity
  8
241
  6
CONTINUOUS
100
AcDbSpline
210
0.0
220
0.0
230
1.0
 70
     8
 71
     3
 72
     9
 73
     5
 74
     3
 42
0.0000000001
 43
0.0000000001
 44
0.0000000001
 40
0.0
 40
0.0
 40
0.0
 40
0.0
 40
10.74384375536302
 40
21.48768751072608
 40
21.48768751072608
 40
21.48768751072608
 40
21.48768751072608
 10
14.05000000000018
 20
-30.1813742565713
 30
0.0
 10
14.94252458154622
 20
-26.64986878400333
 30
0.0
 10
16.72757374463832
 20
-19.58685783886739
 30
0.0
 10
14.94252458154617
 20
-12.52384689373147
 30
0.0
 10
14.05000000000009
 20
-8.992341421163501
 30
0.0
 11
14.05000000000018
 21
-30.1813742565713
 31
0.0
 11
15.83504916309226
 21
-19.58685783886741
 31
0.0
 11
14.05000000000009
 21
-8.992341421163501
 31
0.0
  0
LINE
  5
D08
330
784
100
AcDbEntity
  8
241
  6
CONTINUOUS
100
AcDbLine
 10
14.05
 20
-8.99234142
 30
0.0
 11
14.05
 21
-30.18137426
 31
0.0
  0
LINE
  5
D09
330
784
100
AcDbEntity
  8
240
  6
CONTINUOUS
100
AcDbLine
 10
-2.2
 20
22.07078641
 30
0.0
 11
-36.5
 21
21.21334402
 31
0.0
1001
GRPNAME
1000
PASTMD15
  0
LINE
  5
D0A
330
784
100
AcDbEntity
  8
241
100
AcDbLine
 10
-36.5
 20
21.21334402
 30
0.0
 11
-36.5
 21
0.0
 31
0.0
  0
LINE
  5
D0B
330
784
100
AcDbEntity
  8
240
  6
CONTINUOUS
100
AcDbLine
 10
-38.0
 20
20.34731862
 30
0.0
 11
-38.0
 21
0.0
 31
0.0
1001
GRPNAME
1000
PASTMD1D
  0
LINE
  5
D0C
330
784
100
AcDbEntity
  8
241
  6
HIDDEN2
100
AcDbLine
 10
-36.5
 20
-3.5945
 30
0.0
 11
-31.8
 21
-3.5945
 31
0.0
  0
LINE
  5
D0D
330
784
100
AcDbEntity
  8
241
  6
HIDDEN2
100
AcDbLine
 10
-36.5
 20
3.5945
 30
0.0
 11
-31.8
 21
3.5945
 31
0.0
  0
LINE
  5
D0E
330
784
100
AcDbEntity
  8
241
  6
HIDDEN2
100
AcDbLine
 10
-38.0
 20
-2.7284746
 30
0.0
 11
-36.5
 21
-3.5945
 31
0.0
  0
LINE
  5
D0F
330
784
100
AcDbEntity
  8
241
  6
HIDDEN2
100
AcDbLine
 10
-38.0
 20
2.7284746
 30
0.0
 11
-36.5
 21
3.5945
 31
0.0
  0
LINE
  5
D10
330
784
100
AcDbEntity
  8
241
  6
HIDDEN2
100
AcDbLine
 10
-31.8
 20
-3.5945
 30
0.0
 11
-31.8
 21
3.5945
 31
0.0
  0
SPLINE
  5
D11
330
784
100
AcDbEntity
  8
241
  6
HIDDEN2
100
AcDbSpline
210
0.0
220
0.0
230
1.0
 70
     8
 71
     3
 72
     9
 73
     5
 74
     3
 42
0.0000000001
 43
0.0000000001
 44
0.0000000001
 40
0.0
 40
0.0
 40
0.0
 40
0.0
 40
4.078991509015585
 40
8.157983018031188
 40
8.157983018031188
 40
8.157983018031188
 40
8.157983018031188
 10
-31.80000000000005
 20
3.594499999999996
 30
0.0
 10
-30.83592771528519
 20
2.396333333333336
 30
0.0
 10
-28.90778314585545
 20
0.000000000000012
 30
0.0
 10
-30.83592771528518
 20
-2.396333333333325
 30
0.0
 10
-31.80000000000004
 20
-3.594499999999996
 30
0.0
 11
-31.80000000000005
 21
3.594499999999996
 31
0.0
 11
-29.87185543057032
 21
0.0000000000000142
 31
0.0
 11
-31.80000000000004
 21
-3.594499999999996
 31
0.0
  0
LINE
  5
D12
330
784
100
AcDbEntity
  8
240
  6
CONTINUOUS
100
AcDbLine
 10
-38.0
 20
20.34731862
 30
0.0
 11
-36.5
 21
21.21334402
 31
0.0
1001
GRPNAME
1000
PASTMD1D
  0
LINE
  5
D13
330
784
100
AcDbEntity
  8
241
  6
CONTINUOUS
100
AcDbLine
 10
9.95
 20
30.18137426
 30
0.0
 11
14.05
 21
30.18137426
 31
0.0
  0
CIRCLE
  5
D14
330
784
100
AcDbEntity
  8
241
100
AcDbCircle
 10
12.0
 20
0.0
 30
0.0
 40
5.0
  0
LINE
  5
D15
330
784
100
AcDbEntity
  8
241
  6
CONTINUOUS
100
AcDbLine
 10
9.95
 20
8.99234142
 30
0.0
 11
14.05
 21
8.99234142
 31
0.0
  0
LINE
  5
D16
330
784
100
AcDbEntity
  8
241
100
AcDbLine
 10
0.0
 20
22.07078641
 30
0.0
 11
0.0
 21
0.0
 31
0.0
  0
LINE
  5
D17
330
784
100
AcDbEntity
  8
241
100
AcDbLine
 10
-2.2
 20
22.07078641
 30
0.0
 11
-2.2
 21
0.0
 31
0.0
  0
LINE
  5
D18
330
784
100
AcDbEntity
  8
241
  6
CONTINUOUS
100
AcDbLine
 10
9.95
 20
8.99234142
 30
0.0
 11
9.95
 21
30.18137426
 31
0.0
  0
SPLINE
  5
D19
330
784
100
AcDbEntity
  8
241
  6
CONTINUOUS
100
AcDbSpline
210
0.0
220
0.0
230
1.0
 70
     8
 71
     3
 72
     9
 73
     5
 74
     3
 42
0.0000000001
 43
0.0000000001
 44
0.0000000001
 40
0.0
 40
0.0
 40
0.0
 40
0.0
 40
10.74384375536296
 40
21.48768751072607
 40
21.48768751072607
 40
21.48768751072607
 40
21.48768751072607
 10
9.9500000000001
 20
8.992341421163501
 30
0.0
 10
9.057475418454039
 20
12.52384689373144
 30
0.0
 10
7.272426255361907
 20
19.58685783886736
 30
0.0
 10
9.057475418453993
 20
26.6498687840033
 30
0.0
 10
9.950000000000043
 20
30.1813742565713
 30
0.0
 11
9.9500000000001
 21
8.992341421163501
 31
0.0
 11
8.164950836907962
 21
19.58685783886732
 31
0.0
 11
9.950000000000043
 21
30.1813742565713
 31
0.0
  0
LINE
  5
D1A
330
784
100
AcDbEntity
  8
240
  6
CONTINUOUS
100
AcDbLine
 10
0.0
 20
31.5
 30
0.0
 11
0.0
 21
22.07078641
 31
0.0
  0
LINE
  5
D1B
330
784
100
AcDbEntity
  8
240
100
AcDbLine
 10
-2.2
 20
22.07078641
 30
0.0
 11
0.0
 21
22.07078641
 31
0.0
  0
LINE
  5
D1C
330
784
100
AcDbEntity
  8
241
100
AcDbLine
 10
21.5799775
 20
31.4925
 30
0.0
 11
21.5799775
 21
0.0
 31
0.0
  0
LINE
  5
D1D
330
784
100
AcDbEntity
  8
241
  6
CONTINUOUS
100
AcDbLine
 10
14.05
 20
8.99234142
 30
0.0
 11
14.05
 21
30.18137426
 31
0.0
  0
SPLINE
  5
D1E
330
784
100
AcDbEntity
  8
241
  6
CONTINUOUS
100
AcDbSpline
210
0.0
220
0.0
230
1.0
 70
     8
 71
     3
 72
     9
 73
     5
 74
     3
 42
0.0000000001
 43
0.0000000001
 44
0.0000000001
 40
0.0
 40
0.0
 40
0.0
 40
0.0
 40
10.74384375536299
 40
21.48768751072605
 40
21.48768751072605
 40
21.48768751072605
 40
21.48768751072605
 10
14.05000000000018
 20
30.1813742565713
 30
0.0
 10
14.94252458154622
 20
26.64986878400334
 30
0.0
 10
16.72757374463832
 20
19.58685783886741
 30
0.0
 10
14.94252458154617
 20
12.52384689373149
 30
0.0
 10
14.05000000000009
 20
8.992341421163525
 30
0.0
 11
14.05000000000018
 21
30.1813742565713
 31
0.0
 11
15.83504916309226
 21
19.58685783886744
 31
0.0
 11
14.05000000000009
 21
8.992341421163525
 31
0.0
  0
LINE
  5
D1F
330
784
100
AcDbEntity
  8
241
100
AcDbLine
 10
129.5
 20
14.98130525
 30
0.0
 11
129.5
 21
-14.98130525
 31
0.0
  0
SPLINE
  5
D20
330
784
100
AcDbEntity
  8
241
100
AcDbSpline
210
0.0
220
0.0
230
1.0
 70
     8
 71
     3
 72
    38
 73
    34
 74
     0
 42
0.0000000001
 43
0.0000000001
 40
77.19047723535736
 40
77.19047723535736
 40
77.19047723535736
 40
77.19047723535736
 40
80.15188843106836
 40
80.15188843106836
 40
83.16003539336767
 40
83.16003539336767
 40
86.16818235566698
 40
86.16818235566698
 40
89.1763293179663
 40
89.1763293179663
 40
92.18447628026559
 40
92.18447628026559
 40
95.19262324256493
 40
95.19262324256493
 40
98.20077020486422
 40
98.20077020486422
 40
101.2089171671635
 40
101.2089171671635
 40
104.2170641294628
 40
104.2170641294628
 40
107.225211091762
 40
107.225211091762
 40
110.2333580540614
 40
110.2333580540614
 40
113.2415050163602
 40
113.2415050163602
 40
116.24965197866
 40
116.24965197866
 40
119.2577989409593
 40
119.2577989409593
 40
122.2659459032586
 40
122.2659459032586
 40
125.2273570989704
 40
125.2273570989704
 40
125.2273570989704
 40
125.2273570989704
 10
125.8764110309479
 20
-22.09299903104818
 30
0.0
 10
125.5042158238915
 20
-21.4410809912748
 30
0.0
 10
125.175736457763
 20
-20.74155342620382
 30
0.0
 10
124.5950103787324
 20
-19.24266837957121
 30
0.0
 10
124.3439832601962
 20
-18.44190950936877
 30
0.0
 10
123.9139053051991
 20
-16.76133859668913
 30
0.0
 10
123.7347441625584
 20
-15.88139790349953
 30
0.0
 10
123.4346806842414
 20
-14.05736222486233
 30
0.0
 10
123.3137120106877
 20
-13.11327760234667
 30
0.0
 10
123.1161087589248
 20
-11.17875479268207
 30
0.0
 10
123.0393180253319
 20
-10.18727331629982
 30
0.0
 10
122.9175951821043
 20
-8.174733191817267
 30
0.0
 10
122.8726277484206
 20
-7.153677107448742
 30
0.0
 10
122.8049547972237
 20
-5.10216133871654
 30
0.0
 10
122.7822328859294
 20
-4.071595025873306
 30
0.0
 10
122.7528556748512
 20
-2.021872519137899
 30
0.0
 10
122.7462124110274
 20
-1.002715654101506
 30
0.0
 10
122.7462124110276
 20
1.002715654097982
 30
0.0
 10
122.7528556748515
 20
2.021872519134261
 30
0.0
 10
122.7822328859299
 20
4.071595025869668
 30
0.0
 10
122.8049547972241
 20
5.102161338713016
 30
0.0
 10
122.8726277484214
 20
7.153677107445105
 30
0.0
 10
122.9175951821052
 20
8.174733191813627
 30
0.0
 10
123.039318025333
 20
10.18727331629622
 30
0.0
 10
123.1161087589259
 20
11.17875479267842
 30
0.0
 10
123.3137120106889
 20
13.11327760234303
 30
0.0
 10
123.4346806842425
 20
14.05736222485859
 30
0.0
 10
123.7347441625599
 20
15.88139790349589
 30
0.0
 10
123.9139053052008
 20
16.76133859668539
 30
0.0
 10
124.3439832601981
 20
18.44190950936502
 30
0.0
 10
124.5950103787343
 20
19.24266837956736
 30
0.0
 10
125.175736457765
 20
20.7415534262002
 30
0.0
 10
125.5042158238935
 20
21.4410809912706
 30
0.0
 10
125.8764110309504
 20
22.09299903104406
 30
0.0
  0
LINE
  5
D21
330
784
100
AcDbEntity
  8
240
  6
CONTINUOUS
100
AcDbLine
 10
133.5
 20
31.23240466
 30
0.0
 11
133.5
 21
-31.23240466
 31
0.0
  0
LINE
  5
D22
330
784
100
AcDbEntity
  8
241
100
AcDbLine
 10
130.0
 20
31.01196223
 30
0.0
 11
130.0
 21
-31.02028745
 31
0.0
  0
LINE
  5
D23
330
784
100
AcDbEntity
  8
241
100
AcDbLine
 10
122.10324744
 20
-29.51694429
 30
0.0
 11
125.88144643
 21
-22.10181125
 31
0.0
  0
LINE
  5
D24
330
784
100
AcDbEntity
  8
241
100
AcDbLine
 10
122.10324744
 20
-29.51694429
 30
0.0
 11
125.88144643
 21
-22.10181125
 31
0.0
  0
LINE
  5
D25
330
784
100
AcDbEntity
  8
241
  6
HIDDEN2
100
AcDbLine
 10
129.5
 20
-20.51327228
 30
0.0
 11
129.5
 21
-22.32716547
 31
0.0
  0
SPLINE
  5
D26
330
784
100
AcDbEntity
  8
241
100
AcDbSpline
210
0.0
220
0.0
230
1.0
 70
     8
 71
     3
 72
    30
 73
    26
 74
     0
 42
0.0000000001
 43
0.0000000001
 40
11.86811076986652
 40
11.86811076986652
 40
11.86811076986652
 40
11.86811076986652
 40
12.5452532593312
 40
12.5452532593312
 40
13.35610579916681
 40
13.35610579916681
 40
14.30717824892107
 40
14.30717824892107
 40
15.25825069867541
 40
15.25825069867541
 40
16.2093231484297
 40
16.2093231484297
 40
17.16039559818399
 40
17.16039559818399
 40
18.00117920379328
 40
18.00117920379328
 40
18.84196280940257
 40
18.84196280940257
 40
19.68274641501185
 40
19.68274641501185
 40
20.52353002062115
 40
20.52353002062115
 40
20.97137292334612
 40
20.97137292334612
 40
21.20207642009492
 40
21.20207642009492
 40
21.20207642009492
 40
21.20207642009492
 10
123.5550418060211
 20
-26.66763740629773
 30
0.0
 10
123.5811780367467
 20
-26.61634216530098
 30
0.0
 10
123.6277213610974
 20
-26.56111955896614
 30
0.0
 10
123.7679662626072
 20
-26.43323180381782
 30
0.0
 10
123.8692444889373
 20
-26.35922166216862
 30
0.0
 10
124.1217376268057
 20
-26.19567196146039
 30
0.0
 10
124.2890660880373
 20
-26.09887634084595
 30
0.0
 10
124.675107450813
 20
-25.89103053643185
 30
0.0
 10
124.8937630719664
 20
-25.77997925930134
 30
0.0
 10
125.3649039870238
 20
-25.54764800398725
 30
0.0
 10
125.6175531976239
 20
-25.42627277092987
 30
0.0
 10
126.1353151014594
 20
-25.17780442951714
 30
0.0
 10
126.4004026522384
 20
-25.05069807230694
 30
0.0
 10
126.8881583286997
 20
-24.81082469060942
 30
0.0
 10
127.1311196364079
 20
-24.68905464111031
 30
0.0
 10
127.6243297776959
 20
-24.42695293695264
 30
0.0
 10
127.8746609874396
 20
-24.2868201685483
 30
0.0
 10
128.3559421551092
 20
-23.9810669188634
 30
0.0
 10
128.586854100094
 20
-23.81580991083712
 30
0.0
 10
128.9935754638323
 20
-23.438707596946
 30
0.0
 10
129.1682286518162
 20
-23.22563674419352
 30
0.0
 10
129.3632367159817
 20
-22.84291186880415
 30
0.0
 10
129.4130460175798
 20
-22.70958326421673
 30
0.0
 10
129.4701853738865
 20
-22.50746050908725
 30
0.0
 10
129.4863839838624
 20
-22.43871869685068
 30
0.0
 10
129.5000000000015
 20
-22.36994568746041
 30
0.0
  0
LINE
  5
D27
330
784
100
AcDbEntity
  8
241
100
AcDbLine
 10
129.5
 20
-26.01344632
 30
0.0
 11
126.99830858
 21
-30.92329219
 31
0.0
  0
LINE
  5
D28
330
784
100
AcDbEntity
  8
241
100
AcDbLine
 10
126.99830858
 20
-30.92329219
 30
0.0
 11
130.0
 21
-30.92329219
 31
0.0
  0
SPLINE
  5
D29
330
784
100
AcDbEntity
  8
241
100
AcDbSpline
210
0.0
220
0.0
230
1.0
 70
     8
 71
     3
 72
    22
 73
    18
 74
     0
 42
0.0000000001
 43
0.0000000001
 40
16.34108532374241
 40
16.34108532374241
 40
16.34108532374241
 40
16.34108532374241
 40
17.37555424898745
 40
17.37555424898745
 40
18.41002317423251
 40
18.41002317423251
 40
19.44449209947757
 40
19.44449209947757
 40
20.47896102472262
 40
20.47896102472262
 40
21.42460078239476
 40
21.42460078239476
 40
22.37024054006692
 40
22.37024054006692
 40
23.31588029773907
 40
23.31588029773907
 40
24.26152005541121
 40
24.26152005541121
 40
24.26152005541121
 40
24.26152005541121
 10
126.9983085765469
 20
-30.92329219213326
 30
0.0
 10
126.6534856014652
 20
-30.92329219213326
 30
0.0
 10
126.2955554232205
 20
-30.91776175163221
 30
0.0
 10
125.5828342594605
 20
-30.89306302903121
 30
0.0
 10
125.228037877783
 20
-30.87390201920442
 30
0.0
 10
124.5491349313226
 20
-30.81993754468163
 30
0.0
 10
124.2245347865005
 20
-30.78506802565283
 30
0.0
 10
123.6294206143605
 20
-30.69814783993177
 30
0.0
 10
123.3589464517236
 20
-30.64603368947353
 30
0.0
 10
122.9105993649877
 20
-30.53016376118573
 30
0.0
 10
122.7164723650049
 20
-30.46504258159842
 30
0.0
 10
122.3949582001791
 20
-30.31535836301912
 30
0.0
 10
122.2675947958964
 20
-30.230730441096
 30
0.0
 10
122.0918148009062
 20
-30.04570754130956
 30
0.0
 10
122.0431160342539
 20
-29.94500148289335
 30
0.0
 10
122.021258077259
 20
-29.73480537693791
 30
0.0
 10
122.0480289616771
 20
-29.62531664653846
 30
0.0
 10
122.1032474372444
 20
-29.5169442862919
 30
0.0
  0
LINE
  5
D2A
330
784
100
AcDbEntity
  8
240
  6
CONTINUOUS
100
AcDbLine
 10
130.0
 20
-31.23240466
 30
0.0
 11
133.5
 21
-31.23240466
 31
0.0
  0
LINE
  5
D2B
330
784
100
AcDbEntity
  8
240
100
AcDbLine
 10
130.0
 20
-31.5
 30
0.0
 11
130.0
 21
-31.23240466
 31
0.0
  0
LINE
  5
D2C
330
784
100
AcDbEntity
  8
241
100
AcDbLine
 10
130.0
 20
-31.02028745
 30
0.0
 11
130.0
 21
-31.23240466
 31
0.0
  0
LINE
  5
D2D
330
784
100
AcDbEntity
  8
241
100
AcDbLine
 10
129.5
 20
-25.99475158
 30
0.0
 11
129.5
 21
-22.32716547
 31
0.0
  0
LINE
  5
D2E
330
784
100
AcDbEntity
  8
241
100
AcDbLine
 10
125.88144643
 20
-22.10181125
 30
0.0
 11
129.5
 21
-15.0
 31
0.0
  0
LINE
  5
D2F
330
784
100
AcDbEntity
  8
241
100
AcDbLine
 10
129.5
 20
-20.51327228
 30
0.0
 11
129.5
 21
-14.98130525
 31
0.0
  0
SPLINE
  5
D30
330
784
100
AcDbEntity
  8
241
100
AcDbSpline
210
0.0
220
0.0
230
1.0
 70
     8
 71
     3
 72
    18
 73
    14
 74
     0
 42
0.0000000001
 43
0.0000000001
 40
23.3342633953109
 40
23.3342633953109
 40
23.3342633953109
 40
23.3342633953109
 40
24.10627324242106
 40
24.10627324242106
 40
25.89764485332102
 40
25.89764485332102
 40
27.68901646422096
 40
27.68901646422096
 40
28.42477156036025
 40
28.42477156036025
 40
29.16052665649952
 40
29.16052665649952
 40
29.88168580166767
 40
29.88168580166767
 40
29.88168580166767
 40
29.88168580166767
 10
129.5000000000015
 20
-20.44617305014861
 30
0.0
 10
129.4754555959227
 20
-20.21262651526996
 30
0.0
 10
129.4466921776982
 20
-19.9792751479602
 30
0.0
 10
129.3450080106831
 20
-19.20856762304248
 30
0.0
 10
129.2651536248552
 20
-18.68206747509526
 30
0.0
 10
129.1262399126562
 20
-17.70647572192677
 30
0.0
 10
129.0663921140829
 20
-17.25709950307197
 30
0.0
 10
129.0180614457131
 20
-16.71762252897787
 30
0.0
 10
129.0078425309799
 20
-16.56587401176813
 30
0.0
 10
129.000365887685
 20
-16.29229373010713
 30
0.0
 10
129.0031417280417
 20
-16.17051089847409
 30
0.0
 10
129.0251416658225
 20
-15.97223607886228
 30
0.0
 10
129.044087822591
 20
-15.89477802897505
 30
0.0
 10
129.0716229454829
 20
-15.8407373075168
 30
0.0
  0
LINE
  5
D31
330
784
100
AcDbEntity
  8
241
  6
HIDDEN2
100
AcDbLine
 10
129.15466695
 20
-15.67775427
 30
0.0
 11
129.08910162
 21
-15.63990011
 31
0.0
  0
LINE
  5
D32
330
784
100
AcDbEntity
  8
241
100
AcDbLine
 10
129.5
 20
22.32716547
 30
0.0
 11
129.5
 21
20.51327228
 31
0.0
  0
LINE
  5
D33
330
784
100
AcDbEntity
  8
241
100
AcDbLine
 10
125.88144643
 20
22.10181125
 30
0.0
 11
129.5
 21
15.0
 31
0.0
  0
LINE
  5
D34
330
784
100
AcDbEntity
  8
241
  6
CONTINUOUS
100
AcDbLine
 10
130.0
 20
-2.50396652
 30
0.0
 11
133.5
 21
-2.50396652
 31
0.0
  0
LINE
  5
D35
330
784
100
AcDbEntity
  8
241
  6
CONTINUOUS
100
AcDbLine
 10
130.0
 20
2.49603348
 30
0.0
 11
133.5
 21
2.49603348
 31
0.0
  0
LINE
  5
D36
330
784
100
AcDbEntity
  8
241
100
AcDbLine
 10
129.5
 20
14.98130525
 30
0.0
 11
129.5
 21
20.51327228
 31
0.0
  0
SPLINE
  5
D37
330
784
100
AcDbEntity
  8
241
100
AcDbSpline
210
0.0
220
0.0
230
1.0
 70
     8
 71
     3
 72
    18
 73
    14
 74
     0
 42
0.0000000001
 43
0.0000000001
 40
23.3342633953109
 40
23.3342633953109
 40
23.3342633953109
 40
23.3342633953109
 40
24.10627324242106
 40
24.10627324242106
 40
25.89764485332102
 40
25.89764485332102
 40
27.68901646422096
 40
27.68901646422096
 40
28.42477156036025
 40
28.42477156036025
 40
29.16052665649952
 40
29.16052665649952
 40
29.88168580166767
 40
29.88168580166767
 40
29.88168580166767
 40
29.88168580166767
 10
129.5000000000017
 20
20.4461730501477
 30
0.0
 10
129.4754555959231
 20
20.21262651526892
 30
0.0
 10
129.4466921776985
 20
19.97927514795937
 30
0.0
 10
129.3450080106832
 20
19.20856762304157
 30
0.0
 10
129.2651536248554
 20
18.68206747509435
 30
0.0
 10
129.1262399126565
 20
17.70647572192586
 30
0.0
 10
129.0663921140831
 20
17.25709950307106
 30
0.0
 10
129.0180614457134
 20
16.71762252897696
 30
0.0
 10
129.0078425309799
 20
16.56587401176733
 30
0.0
 10
129.0003658876855
 20
16.29229373010611
 30
0.0
 10
129.0031417280419
 20
16.17051089847331
 30
0.0
 10
129.0251416658225
 20
15.97223607886138
 30
0.0
 10
129.0440878225913
 20
15.89477802897403
 30
0.0
 10
129.0716229454833
 20
15.840737307516
 30
0.0
  0
LINE
  5
D38
330
784
100
AcDbEntity
  8
241
100
AcDbLine
 10
126.99830858
 20
30.92329219
 30
0.0
 11
130.0
 21
30.92329219
 31
0.0
  0
SPLINE
  5
D39
330
784
100
AcDbEntity
  8
241
100
AcDbSpline
210
0.0
220
0.0
230
1.0
 70
     8
 71
     3
 72
    30
 73
    26
 74
     0
 42
0.0000000001
 43
0.0000000001
 40
11.86811076986652
 40
11.86811076986652
 40
11.86811076986652
 40
11.86811076986652
 40
12.5452532593312
 40
12.5452532593312
 40
13.35610579916681
 40
13.35610579916681
 40
14.30717824892107
 40
14.30717824892107
 40
15.25825069867541
 40
15.25825069867541
 40
16.2093231484297
 40
16.2093231484297
 40
17.16039559818399
 40
17.16039559818399
 40
18.00117920379328
 40
18.00117920379328
 40
18.84196280940257
 40
18.84196280940257
 40
19.68274641501185
 40
19.68274641501185
 40
20.52353002062115
 40
20.52353002062115
 40
20.97137292334612
 40
20.97137292334612
 40
21.20207642009492
 40
21.20207642009492
 40
21.20207642009492
 40
21.20207642009492
 10
123.5550418060213
 20
26.66763740629693
 30
0.0
 10
123.5811780367469
 20
26.61634216530018
 30
0.0
 10
123.6277213610975
 20
26.56111955896534
 30
0.0
 10
123.7679662626075
 20
26.43323180381702
 30
0.0
 10
123.8692444889375
 20
26.35922166216772
 30
0.0
 10
124.1217376268058
 20
26.19567196145947
 30
0.0
 10
124.2890660880374
 20
26.09887634084514
 30
0.0
 10
124.6751074508134
 20
25.89103053643106
 30
0.0
 10
124.8937630719668
 20
25.77997925930043
 30
0.0
 10
125.364903987024
 20
25.54764800398646
 30
0.0
 10
125.6175531976239
 20
25.42627277092896
 30
0.0
 10
126.1353151014594
 20
25.17780442951623
 30
0.0
 10
126.4004026522385
 20
25.05069807230603
 30
0.0
 10
126.8881583286999
 20
24.81082469060851
 30
0.0
 10
127.1311196364081
 20
24.68905464110941
 30
0.0
 10
127.6243297776963
 20
24.42695293695175
 30
0.0
 10
127.8746609874398
 20
24.28682016854742
 30
0.0
 10
128.3559421551094
 20
23.98106691886249
 30
0.0
 10
128.5868541000942
 20
23.81580991083632
 30
0.0
 10
128.9935754638326
 20
23.4387075969452
 30
0.0
 10
129.1682286518164
 20
23.22563674419251
 30
0.0
 10
129.3632367159819
 20
22.84291186880335
 30
0.0
 10
129.4130460175798
 20
22.70958326421595
 30
0.0
 10
129.4701853738868
 20
22.50746050908645
 30
0.0
 10
129.4863839838624
 20
22.43871869684966
 30
0.0
 10
129.5000000000017
 20
22.36994568745962
 30
0.0
  0
LINE
  5
D3A
330
784
100
AcDbEntity
  8
241
100
AcDbLine
 10
129.5
 20
26.01344632
 30
0.0
 11
126.99830858
 21
30.92329219
 31
0.0
  0
LINE
  5
D3B
330
784
100
AcDbEntity
  8
241
100
AcDbLine
 10
122.10324744
 20
29.51694429
 30
0.0
 11
125.88144643
 21
22.10181125
 31
0.0
  0
SPLINE
  5
D3C
330
784
100
AcDbEntity
  8
241
100
AcDbSpline
210
0.0
220
0.0
230
1.0
 70
     8
 71
     3
 72
    22
 73
    18
 74
     0
 42
0.0000000001
 43
0.0000000001
 40
16.34108532374241
 40
16.34108532374241
 40
16.34108532374241
 40
16.34108532374241
 40
17.37555424898745
 40
17.37555424898745
 40
18.41002317423251
 40
18.41002317423251
 40
19.44449209947757
 40
19.44449209947757
 40
20.47896102472262
 40
20.47896102472262
 40
21.42460078239476
 40
21.42460078239476
 40
22.37024054006692
 40
22.37024054006692
 40
23.31588029773907
 40
23.31588029773907
 40
24.26152005541121
 40
24.26152005541121
 40
24.26152005541121
 40
24.26152005541121
 10
126.9983085765469
 20
30.92329219213235
 30
0.0
 10
126.6534856014652
 20
30.92329219213235
 30
0.0
 10
126.2955554232205
 20
30.9177617516313
 30
0.0
 10
125.5828342594609
 20
30.89306302903031
 30
0.0
 10
125.2280378777834
 20
30.87390201920351
 30
0.0
 10
124.5491349313228
 20
30.81993754468084
 30
0.0
 10
124.2245347865009
 20
30.78506802565192
 30
0.0
 10
123.6294206143609
 20
30.69814783993086
 30
0.0
 10
123.3589464517238
 20
30.64603368947262
 30
0.0
 10
122.910599364988
 20
30.5301637611848
 30
0.0
 10
122.7164723650049
 20
30.46504258159751
 30
0.0
 10
122.3949582001794
 20
30.31535836301821
 30
0.0
 10
122.2675947958969
 20
30.23073044109509
 30
0.0
 10
122.0918148009064
 20
30.04570754130867
 30
0.0
 10
122.0431160342541
 20
29.94500148289245
 30
0.0
 10
122.0212580772596
 20
29.73480537693699
 30
0.0
 10
122.0480289616774
 20
29.62531664653755
 30
0.0
 10
122.1032474372448
 20
29.51694428629099
 30
0.0
  0
LINE
  5
D3D
330
784
100
AcDbEntity
  8
241
100
AcDbLine
 10
129.5
 20
22.32716547
 30
0.0
 11
129.5
 21
26.01344632
 31
0.0
  0
LINE
  5
D3E
330
784
100
AcDbEntity
  8
240
  6
CONTINUOUS
100
AcDbLine
 10
130.0
 20
31.23240466
 30
0.0
 11
133.5
 21
31.23240466
 31
0.0
  0
LINE
  5
D3F
330
784
100
AcDbEntity
  8
240
100
AcDbLine
 10
130.0
 20
31.5
 30
0.0
 11
130.0
 21
31.23240466
 31
0.0
  0
LINE
  5
D40
330
784
100
AcDbEntity
  8
241
100
AcDbLine
 10
130.0
 20
30.92329219
 30
0.0
 11
130.0
 21
31.23240466
 31
0.0
  0
ENDBLK
  5
7D8
330
784
100
AcDbEntity
  8
0
100
AcDbBlockEnd
  0
BLOCK
  5
7FC
330
7F2
100
AcDbEntity
  8
0
100
AcDbBlockBegin
  2
*D3
 70
     1
 10
0.0
 20
0.0
 30
0.0
  3
*D3
  1

  0
LINE
  5
CE3
330
7F2
100
AcDbEntity
  8
250
  6
CONTINUOUS
100
AcDbLine
 10
0.0
 20
32.0
 30
0.0
 11
0.0
 21
50.0
 31
0.0
  0
LINE
  5
CE4
330
7F2
100
AcDbEntity
  8
250
  6
CONTINUOUS
100
AcDbLine
 10
130.0
 20
32.0
 30
0.0
 11
130.0
 21
50.0
 31
0.0
  0
LINE
  5
CE5
330
7F2
100
AcDbEntity
  8
250
  6
CONTINUOUS
100
AcDbLine
 10
2.23
 20
49.0
 30
0.0
 11
127.77
 21
49.0
 31
0.0
  0
INSERT
  5
CE6
330
7F2
100
AcDbEntity
  8
250
  6
CONTINUOUS
100
AcDbBlockReference
  2
_OPEN
 10
0.0
 20
49.0
 30
0.0
 41
2.23
 42
2.23
 43
2.23
 50
180.0
  0
INSERT
  5
CE7
330
7F2
100
AcDbEntity
  8
250
  6
CONTINUOUS
100
AcDbBlockReference
  2
_OPEN
 10
130.0
 20
49.0
 30
0.0
 41
2.23
 42
2.23
 43
2.23
  0
MTEXT
  5
CE8
330
7F2
100
AcDbEntity
  8
250
  6
CONTINUOUS
 62
    40
100
AcDbMText
 10
67.5033975
 20
51.4
 30
0.0
 40
2.8
 41
0.0
 71
     5
 72
     1
  1
\A1;130
1001
ACAD
1000
MTEXTBEGIN
1070
    73
1070
     1
1070
    44
1040
1.0
1070
    74
1070
     0
1000
MTEXTEND
  0
POINT
  5
CE9
330
7F2
100
AcDbEntity
  8
DEFPOINTS
  6
CONTINUOUS
 62
     0
100
AcDbPoint
 10
0.0
 20
31.5
 30
0.0
  0
POINT
  5
CEA
330
7F2
100
AcDbEntity
  8
DEFPOINTS
  6
CONTINUOUS
 62
     0
100
AcDbPoint
 10
130.0
 20
31.5
 30
0.0
  0
POINT
  5
CEB
330
7F2
100
AcDbEntity
  8
DEFPOINTS
  6
CONTINUOUS
 62
     0
100
AcDbPoint
 10
130.0
 20
49.0
 30
0.0
  0
ENDBLK
  5
7FD
330
7F2
100
AcDbEntity
  8
0
100
AcDbBlockEnd
  0
BLOCK
  5
808
330
7FE
100
AcDbEntity
  8
0
100
AcDbBlockBegin
  2
*D4
 70
     1
 10
0.0
 20
0.0
 30
0.0
  3
*D4
  1

  0
LINE
  5
CEC
330
7FE
100
AcDbEntity
  8
250
  6
CONTINUOUS
100
AcDbLine
 10
130.5
 20
-31.5
 30
0.0
 11
150.0
 21
-31.5
 31
0.0
  0
LINE
  5
CED
330
7FE
100
AcDbEntity
  8
250
  6
CONTINUOUS
100
AcDbLine
 10
130.5
 20
31.5
 30
0.0
 11
150.0
 21
31.5
 31
0.0
  0
LINE
  5
CEE
330
7FE
100
AcDbEntity
  8
250
  6
CONTINUOUS
100
AcDbLine
 10
149.0
 20
-29.27
 30
0.0
 11
149.0
 21
29.27
 31
0.0
  0
INSERT
  5
CEF
330
7FE
100
AcDbEntity
  8
250
  6
CONTINUOUS
100
AcDbBlockReference
  2
_OPEN
 10
149.0
 20
-31.5
 30
0.0
 41
2.23
 42
2.23
 43
2.23
 50
270.0
  0
INSERT
  5
CF0
330
7FE
100
AcDbEntity
  8
250
  6
CONTINUOUS
100
AcDbBlockReference
  2
_OPEN
 10
149.0
 20
31.5
 30
0.0
 41
2.23
 42
2.23
 43
2.23
 50
90.0
  0
MTEXT
  5
CF1
330
7FE
100
AcDbEntity
  8
250
  6
CONTINUOUS
 62
    40
100
AcDbMText
 10
146.6
 20
0.0
 30
0.0
 40
2.8
 41
0.0
 71
     5
 72
     1
  1
\A1;{\H2.8;\U+2205}63
 11
0.0
 21
1.0
 31
0.0
1001
ACAD
1000
MTEXTBEGIN
1070
    73
1070
     1
1070
    44
1040
1.0
1070
    74
1070
     0
1000
MTEXTEND
  0
POINT
  5
CF2
330
7FE
100
AcDbEntity
  8
DEFPOINTS
  6
CONTINUOUS
 62
     0
100
AcDbPoint
 10
130.0
 20
-31.5
 30
0.0
  0
POINT
  5
CF3
330
7FE
100
AcDbEntity
  8
DEFPOINTS
  6
CONTINUOUS
 62
     0
100
AcDbPoint
 10
130.0
 20
31.5
 30
0.0
  0
POINT
  5
CF4
330
7FE
100
AcDbEntity
  8
DEFPOINTS
  6
CONTINUOUS
 62
     0
100
AcDbPoint
 10
149.0
 20
31.5
 30
0.0
  0
ENDBLK
  5
809
330
7FE
100
AcDbEntity
  8
0
100
AcDbBlockEnd
  0
ENDSEC
  0
SECTION
  2
ENTITIES
  0
INSERT
  5
6E6
330
1A
100
AcDbEntity
  8
245
100
AcDbBlockReference
  2
矢印なし
 10
175.62382697
 20
90.55123572
 30
0.0
  0
DIMENSION
  5
7E9
330
1A
100
AcDbEntity
  8
250
  6
CONTINUOUS
100
AcDbDimension
  2
*D3
 10
130.0
 20
49.0
 30
0.0
 11
67.5033975
 21
49.0
 31
0.0
 70
   160
  3
BIGT
100
AcDbAlignedDimension
 13
0.0
 23
31.5
 33
0.0
 14
130.0
 24
31.5
 34
0.0
100
AcDbRotatedDimension
  0
TEXT
  5
7ED
330
1A
100
AcDbEntity
  8
241
100
AcDbText
 10
-38.0
 20
63.0
 30
0.0
 40
5.0
  1
C6-F63-130
  7
YOKO
 11
-38.0
 21
63.0
 31
0.0
100
AcDbText
 73
     1
  0
DIMENSION
  5
7EE
330
1A
100
AcDbEntity
  8
250
  6
CONTINUOUS
100
AcDbDimension
  2
*D4
 10
149.0
 20
31.5
 30
0.0
 11
146.6
 21
0.0
 31
0.0
 70
    32
  1
{\H2.8;\U+2205}<>
  3
BIGT
100
AcDbAlignedDimension
 13
130.0
 23
-31.5
 33
0.0
 14
130.0
 24
31.5
 34
0.0
 50
90.0
100
AcDbRotatedDimension
  0
LEADER
  5
7EF
330
1A
100
AcDbEntity
  8
250
  6
CONTINUOUS
100
AcDbLeader
  3
BIGT
 76
     2
 10
124.89637029
 20
31.5
 30
0.0
 10
135.0
 20
49.0
 30
0.0
1001
ACAD
1000
DSTYLE
1002
{
1070
     6
1000
OPEN
1070
   343
1005
594
1002
}
  0
LINE
  5
7F0
330
1A
100
AcDbEntity
  8
250
  6
CONTINUOUS
100
AcDbLine
 10
135.0
 20
49.0
 30
0.0
 11
147.4
 21
49.0
 31
0.0
1001
ITEMNAME
1000
LNSP2
  0
MTEXT
  5
7F1
330
1A
100
AcDbEntity
  8
251
  6
CONTINUOUS
100
AcDbMText
 10
137.8
 20
50.0
 30
0.0
 40
2.8
 41
0.0
 71
     7
 72
     1
  1
F63
  7
YOKO
1001
ITEMNAME
1000
LNSP3
1001
ACAD
1000
MTEXTBEGIN
1070
    73
1070
     1
1070
    44
1040
1.0
1070
    74
1070
     0
1000
MTEXTEND
1000
MTEXTBEGIN
1070
    73
1070
     1
1070
    44
1040
1.0
1070
    74
1070
     0
1000
MTEXTEND
1000
MTEXTBEGIN
1070
    73
1070
     1
1070
    44
1040
1.0
1070
    74
1070
     0
1000
MTEXTEND
1000
MTEXTBEGIN
1070
    73
1070
     1
1070
    44
1040
1.0
1070
    74
1070
     0
1000
MTEXTEND
1000
MTEXTBEGIN
1070
    73
1070
     1
1070
    44
1040
1.0
1070
    74
1070
     0
1000
MTEXTEND
1000
MTEXTBEGIN
1070
    73
1070
     1
1070
    44
1040
1.0
1070
    74
1070
     0
1000
MTEXTEND
1000
MTEXTBEGIN
1070
    73
1070
     1
1070
    44
1040
1.0
1070
    74
1070
     0
1000
MTEXTEND
  0
LINE
  5
C9B
330
1A
100
AcDbEntity
  8
250
  6
CONTINUOUS
100
AcDbLine
 10
-22.39241901
 20
-28.40901065
 30
0.0
 11
-32.65908568
 21
-28.40901065
 31
0.0
1001
ITEMNAME
1000
LNSP2
  0
MTEXT
  5
C9C
330
1A
100
AcDbEntity
  8
251
  6
CONTINUOUS
100
AcDbMText
 10
-29.85908568
 20
-27.40901065
 30
0.0
 40
2.8
 41
0.0
 71
     7
 72
     1
  1
C6
  7
YOKO
1001
ITEMNAME
1000
LNSP3
1001
ACAD
1000
MTEXTBEGIN
1070
    73
1070
     1
1070
    44
1040
1.0
1070
    74
1070
     0
1000
MTEXTEND
1000
MTEXTBEGIN
1070
    73
1070
     1
1070
    44
1040
1.0
1070
    74
1070
     0
1000
MTEXTEND
1000
MTEXTBEGIN
1070
    73
1070
     1
1070
    44
1040
1.0
1070
    74
1070
     0
1000
MTEXTEND
1000
MTEXTBEGIN
1070
    73
1070
     1
1070
    44
1040
1.0
1070
    74
1070
     0
1000
MTEXTEND
  0
LEADER
  5
CB0
330
1A
100
AcDbEntity
  8
250
  6
CONTINUOUS
100
AcDbLeader
  3
BIGT$7
 76
     2
 10
-18.49782056
 20
-21.66336827
 30
0.0
 10
-22.39241901
 20
-28.40901065
 30
0.0
1001
ACAD
1000
DSTYLE
1002
{
1070
     3
1000
<>
1070
     5
1000
OPEN
1070
    41
1040
2.0
1070
    42
1040
2.0
1070
    44
1040
2.0
1070
    79
1070
     2
1070
   140
1040
4.0
1070
   179
1070
     3
1070
   288
1070
     1
1070
   342
1005
594
1070
   371
1070
    -1
1070
   372
1070
    -1
1002
}
  0
INSERT
  5
D41
330
1A
100
AcDbEntity
  8
245
100
AcDbBlockReference
  2
1
 10
0.0
 20
0.0
 30
0.0
  0
VIEWPORT
  5
22
330
17
100
AcDbEntity
 67
     1
  8
0
100
AcDbViewport
 10
261.51769912
 20
148.5
 30
0.0
 40
523.03539823
 41
297.0
 68
     1
 69
     1
1001
ACAD
1000
MVIEW
1002
{
1070
    16
1010
0.0
1020
0.0
1030
0.0
1010
0.0
1020
0.0
1030
1.0
1040
0.0
1040
297.0
1040
261.51769912
1040
148.5
1040
50.0
1040
0.0
1040
0.0
1070
     0
1070
   100
1070
     1
1070
     1
1070
     0
1070
     0
1070
     0
1070
     0
1040
0.0
1040
0.0
1040
0.0
1040
1.0
1040
1.0
1040
10.0
1040
10.0
1070
     0
1002
{
1002
}
1002
}
  0
ENDSEC
  0
SECTION
  2
OBJECTS
  0
DICTIONARY
  5
C
330
0
100
AcDbDictionary
  3
ACAD_GROUP
350
D
  3
ACAD_LAYOUT
350
565
  3
ACAD_MLINESTYLE
350
E
  3
ACAD_PLOTSETTINGS
350
566
  3
ACAD_PLOTSTYLENAME
350
563
  3
ACDBHEADERROUNDTRIPXREC
350
D43
  3
GRADE_DWG
350
540
  0
DICTIONARY
  5
942
330
1A
100
AcDbDictionary
280
     1
  3
ACAD_LAYOUTSELFREF
360
D65
  0
DICTIONARY
  5
940
330
17
100
AcDbDictionary
280
     1
  3
ACAD_LAYOUTSELFREF
360
D64
  0
DICTIONARY
  5
D
102
{ACAD_REACTORS
330
C
102
}
330
C
100
AcDbDictionary
  3
*A1
350
6C7
  3
*A2
350
6C8
  3
*A3
350
6D4
  3
*A4
350
6D5
  3
DREC-1
350
5FC
  3
DREC-2
350
654
  3
DREC-3
350
673
  0
DICTIONARY
  5
565
102
{ACAD_REACTORS
330
C
102
}
330
C
100
AcDbDictionary
  0
DICTIONARY
  5
E
102
{ACAD_REACTORS
330
C
102
}
330
C
100
AcDbDictionary
  3
STANDARD
350
13
  0
DICTIONARY
  5
566
102
{ACAD_REACTORS
330
C
102
}
330
C
100
AcDbDictionary
  3
A3_0_5倍_
350
758
  3
A3_1倍_
350
757
  3
A3_1倍__2000_
350
707
  3
A3_2倍_
350
759
  3
A4_0_5倍_
350
755
  3
A4_1倍_
350
754
  3
A4_1倍__2000_
350
708
  3
A4_2倍_
350
756
  0
ACDBDICTIONARYWDFLT
  5
563
102
{ACAD_REACTORS
330
C
102
}
330
C
100
AcDbDictionary
281
     1
  3
Normal
350
564
100
AcDbDictionaryWithDefault
340
564
  0
DICTIONARY
  5
D43
102
{ACAD_REACTORS
330
C
102
}
330
C
100
AcDbDictionary
  3
CEPSNTYPE
350
D4D
  3
DIMSTYLEDATA
350
D51
  3
FINGERPRINTGUID
350
D4E
  3
HYPERLINKBASE
350
D46
  3
INSUNITS
350
D4C
  3
LAYOUTDICT
350
D48
  3
LWETCUNION
350
D4B
  3
PLOTSETDICT
350
D49
  3
PLOTSTYLNAMDICT
350
D4A
  3
PSVPSCALE
350
D50
  3
PUCSBASE
350
D54
  3
PUCSORGBACK
350
D5A
  3
PUCSORGBOTTOM
350
D56
  3
PUCSORGFRONT
350
D59
  3
PUCSORGLEFT
350
D57
  3
PUCSORGRIGHT
350
D58
  3
PUCSORGTOP
350
D55
  3
PUCSORTHOREF
350
D52
  3
PUCSORTHOVIEW
350
D53
  3
STYLESHEET
350
D47
  3
TSTACKALIGN
350
D44
  3
TSTACKSIZE
350
D45
  3
UCSBASE
350
D5D
  3
UCSORGBACK
350
D63
  3
UCSORGBOTTOM
350
D5F
  3
UCSORGFRONT
350
D62
  3
UCSORGLEFT
350
D60
  3
UCSORGRIGHT
350
D61
  3
UCSORGTOP
350
D5E
  3
UCSORTHOREF
350
D5B
  3
UCSORTHOVIEW
350
D5C
  3
VERSIONGUID
350
D4F
  0
DICTIONARY
  5
540
102
{ACAD_REACTORS
330
C
102
}
330
C
100
AcDbDictionary
  3
VERSION
350
560
  0
XRECORD
  5
D65
102
{ACAD_REACTORS
330
942
102
}
330
942
100
AcDbXrecord
340
1A
  0
XRECORD
  5
D64
102
{ACAD_REACTORS
330
940
102
}
330
940
100
AcDbXrecord
340
17
  0
GROUP
  5
6C7
102
{ACAD_REACTORS
330
D
102
}
330
D
100
AcDbGroup
300

 70
     0
 71
     1
1001
GRPNAME
1000
DMA00
  0
GROUP
  5
6C8
102
{ACAD_REACTORS
330
D
102
}
330
D
100
AcDbGroup
300

 70
     0
 71
     1
1001
GRPNAME
1000
DMA00
  0
GROUP
  5
6D4
102
{ACAD_REACTORS
330
D
102
}
330
D
100
AcDbGroup
300

 70
     0
 71
     1
1001
GRPNAME
1000
DMA00
  0
GROUP
  5
6D5
102
{ACAD_REACTORS
330
D
102
}
330
D
100
AcDbGroup
300

 70
     0
 71
     1
1001
GRPNAME
1000
DMA00
  0
GROUP
  5
5FC
102
{ACAD_REACTORS
330
D
102
}
330
D
100
AcDbGroup
300

 70
     0
 71
     1
1001
GRPNAME
1000
DREC-
1001
GPARA
1000
xsiz
1000
44.182
1000
ysiz
1000
40.677
1000
angl
1000
0
1000
ctyp
1000
0
1000
csiz
1000
5
1000
lfnt
1000
cont
1000
hcnt
1000
hoff
1000
vcnt
1000
voff
1000
opnt
1000
4
1000
dxpt
1000
0
1000
dypt
1000
0
  0
GROUP
  5
654
102
{ACAD_REACTORS
330
D
102
}
330
D
100
AcDbGroup
300

 70
     0
 71
     1
1001
GRPNAME
1000
DREC-
1001
GPARA
1000
xsiz
1000
54.592
1000
ysiz
1000
53.036
1000
angl
1000
0
1000
ctyp
1000
0
1000
csiz
1000
5
1000
lfnt
1000
cont
1000
hcnt
1000
hoff
1000
vcnt
1000
voff
1000
opnt
1000
4
1000
dxpt
1000
0
1000
dypt
1000
0
  0
GROUP
  5
673
102
{ACAD_REACTORS
330
D
102
}
330
D
100
AcDbGroup
300

 70
     0
 71
     1
1001
GRPNAME
1000
DREC-
1001
GPARA
1000
xsiz
1000
30.363
1000
ysiz
1000
36.175
1000
angl
1000
0
1000
ctyp
1000
0
1000
csiz
1000
5
1000
lfnt
1000
cont
1000
hcnt
1000
hoff
1000
vcnt
1000
voff
1000
opnt
1000
4
1000
dxpt
1000
0
1000
dypt
1000
0
  0
MLINESTYLE
  5
13
102
{ACAD_REACTORS
330
E
102
}
330
E
100
AcDbMlineStyle
  2
STANDARD
 70
     0
  3

 62
     0
 51
90.0
 52
90.0
 71
     2
 49
0.5
 62
   256
  6
BYLAYER
 49
-0.5
 62
   256
  6
BYLAYER
  0
PLOTSETTINGS
  5
758
102
{ACAD_REACTORS
330
566
102
}
330
566
100
AcDbPlotSettings
  1
A3(0.5倍)
  2
\\AWTECPC05\HP DeskJet 1120C
  4
A3
  6

 40
5.95841646
 41
13.49375153
 42
6.04309082
 43
3.67242432
 44
296.92599487
 45
419.94665527
 46
89.96
 47
127.14
 48
0.0
 49
0.0
140
0.0
141
0.0
142
1.0
143
2.0
 70
  1716
 72
     1
 73
     1
 74
     2
  7
big.ctb
 75
    17
147
0.5
148
0.0
149
0.0
  0
PLOTSETTINGS
  5
757
102
{ACAD_REACTORS
330
566
102
}
330
566
100
AcDbPlotSettings
  1
A3(1倍)
  2
\\AWTECPC05\HP DeskJet 1120C
  4
A3
  6

 40
5.95841646
 41
13.49375153
 42
6.04309082
 43
3.67242432
 44
296.92599487
 45
419.94665527
 46
37.46
 47
52.89
 48
0.0
 49
0.0
140
0.0
141
0.0
142
1.0
143
1.0
 70
  1716
 72
     1
 73
     1
 74
     2
  7
big.ctb
 75
    16
147
1.0
148
0.0
149
0.0
  0
PLOTSETTINGS
  5
707
102
{ACAD_REACTORS
330
566
102
}
330
566
100
AcDbPlotSettings
  1
A3(1倍)(2000)
  2
SII LS-1300 (D-SCAN)
  4
User258
  6

 40
3.17499995
 41
3.17499995
 42
3.17498779
 43
3.17498779
 44
419.98898315
 45
296.98950195
 46
58.32
 47
40.32
 48
0.0
 49
0.0
140
0.0
141
0.0
142
1.0
143
1.0
 70
  1716
 72
     1
 73
     0
 74
     2
  7
big.ctb
 75
    16
147
1.0
148
0.0
149
0.0
  0
PLOTSETTINGS
  5
759
102
{ACAD_REACTORS
330
566
102
}
330
566
100
AcDbPlotSettings
  1
A3(2倍)
  2
\\AWTECPC05\HP DeskJet 1120C
  4
A3
  6

 40
5.95841646
 41
13.49375153
 42
6.04309082
 43
3.67242432
 44
296.92599487
 45
419.94665527
 46
-67.54
 47
-95.61
 48
0.0
 49
0.0
140
0.0
141
0.0
142
1.0
143
0.5
 70
  1716
 72
     1
 73
     1
 74
     2
  7
big.ctb
 75
    27
147
2.0
148
0.0
149
0.0
  0
PLOTSETTINGS
  5
755
102
{ACAD_REACTORS
330
566
102
}
330
566
100
AcDbPlotSettings
  1
A4(0.5倍)
  2
\\AWTECPC05\HP DeskJet 1120C
  4
A4
  6

 40
4.18041658
 41
13.49374962
 42
4.18040466
 43
3.92642212
 44
209.97332764
 45
296.92599487
 46
48.31
 47
65.5
 48
0.0
 49
0.0
140
0.0
141
0.0
142
1.0
143
2.0
 70
  1716
 72
     1
 73
     1
 74
     2
  7
big.ctb
 75
    17
147
0.5
148
0.0
149
0.0
  0
PLOTSETTINGS
  5
754
102
{ACAD_REACTORS
330
566
102
}
330
566
100
AcDbPlotSettings
  1
A4(1倍)
  2
\\AWTECPC05\HP DeskJet 1120C
  4
A4
  6

 40
4.18041658
 41
13.49374962
 42
4.18040466
 43
3.92642212
 44
209.97332764
 45
296.92599487
 46
-4.19
 47
-8.75
 48
0.0
 49
0.0
140
0.0
141
0.0
142
1.0
143
1.0
 70
  1716
 72
     1
 73
     1
 74
     2
  7
big.ctb
 75
    16
147
1.0
148
0.0
149
0.0
  0
PLOTSETTINGS
  5
708
102
{ACAD_REACTORS
330
566
102
}
330
566
100
AcDbPlotSettings
  1
A4(1倍)(2000)
  2
SII LS-1300 (D-SCAN)
  4
User259
  6

 40
3.17499995
 41
3.17499995
 42
3.17498779
 43
3.17500305
 44
296.98950195
 45
209.99449158
 46
-3.18
 47
-3.18
 48
0.0
 49
0.0
140
0.0
141
0.0
142
1.0
143
1.0
 70
  1716
 72
     1
 73
     0
 74
     2
  7
big.ctb
 75
    16
147
1.0
148
0.0
149
0.0
  0
PLOTSETTINGS
  5
756
102
{ACAD_REACTORS
330
566
102
}
330
566
100
AcDbPlotSettings
  1
A4(2倍)
  2
\\AWTECPC05\HP DeskJet 1120C
  4
A4
  6

 40
4.18041658
 41
13.49374962
 42
4.18040466
 43
3.92642212
 44
209.97332764
 45
296.92599487
 46
-109.19
 47
-157.25
 48
0.0
 49
0.0
140
0.0
141
0.0
142
1.0
143
0.5
 70
  1716
 72
     1
 73
     1
 74
     2
  7
big.ctb
 75
    27
147
2.0
148
0.0
149
0.0
  0
ACDBPLACEHOLDER
  5
564
102
{ACAD_REACTORS
330
563
102
}
330
563
100
AcDbPlaceHolder
280
     0
  0
XRECORD
  5
D4D
102
{ACAD_REACTORS
330
D43
102
}
330
D43
100
AcDbXrecord
 90
        0
  0
XRECORD
  5
D51
102
{ACAD_REACTORS
330
D43
102
}
330
D43
100
AcDbXrecord
1000
DSTYLE
1002
{
1070
    79
 70
     2
1070
   179
 70
     3
1070
   341
340
594
1070
   343
340
594
1070
   344
340
594
1070
   371
 70
    -1
1070
   372
 70
    -1
1002
}
  0
XRECORD
  5
D4E
102
{ACAD_REACTORS
330
D43
102
}
330
D43
100
AcDbXrecord
  1
{51294030-9CB4-11D3-8E18-00A0C925D94D}
  0
XRECORD
  5
D46
102
{ACAD_REACTORS
330
D43
102
}
330
D43
100
AcDbXrecord
  1

  0
XRECORD
  5
D4C
102
{ACAD_REACTORS
330
D43
102
}
330
D43
100
AcDbXrecord
 90
        0
  0
XRECORD
  5
D48
102
{ACAD_REACTORS
330
D43
102
}
330
D43
100
AcDbXrecord
340
565
  0
XRECORD
  5
D4B
102
{ACAD_REACTORS
330
D43
102
}
330
D43
100
AcDbXrecord
 90
    10781
  0
XRECORD
  5
D49
102
{ACAD_REACTORS
330
D43
102
}
330
D43
100
AcDbXrecord
340
566
  0
XRECORD
  5
D4A
102
{ACAD_REACTORS
330
D43
102
}
330
D43
100
AcDbXrecord
340
563
  0
XRECORD
  5
D50
102
{ACAD_REACTORS
330
D43
102
}
330
D43
100
AcDbXrecord
 40
0.0
  0
XRECORD
  5
D54
102
{ACAD_REACTORS
330
D43
102
}
330
D43
100
AcDbXrecord
340
0
  0
XRECORD
  5
D5A
102
{ACAD_REACTORS
330
D43
102
}
330
D43
100
AcDbXrecord
 10
0.0
 20
0.0
 30
0.0
  0
XRECORD
  5
D56
102
{ACAD_REACTORS
330
D43
102
}
330
D43
100
AcDbXrecord
 10
0.0
 20
0.0
 30
0.0
  0
XRECORD
  5
D59
102
{ACAD_REACTORS
330
D43
102
}
330
D43
100
AcDbXrecord
 10
0.0
 20
0.0
 30
0.0
  0
XRECORD
  5
D57
102
{ACAD_REACTORS
330
D43
102
}
330
D43
100
AcDbXrecord
 10
0.0
 20
0.0
 30
0.0
  0
XRECORD
  5
D58
102
{ACAD_REACTORS
330
D43
102
}
330
D43
100
AcDbXrecord
 10
0.0
 20
0.0
 30
0.0
  0
XRECORD
  5
D55
102
{ACAD_REACTORS
330
D43
102
}
330
D43
100
AcDbXrecord
 10
0.0
 20
0.0
 30
0.0
  0
XRECORD
  5
D52
102
{ACAD_REACTORS
330
D43
102
}
330
D43
100
AcDbXrecord
340
0
  0
XRECORD
  5
D53
102
{ACAD_REACTORS
330
D43
102
}
330
D43
100
AcDbXrecord
 70
     0
  0
XRECORD
  5
D47
102
{ACAD_REACTORS
330
D43
102
}
330
D43
100
AcDbXrecord
  1
big.ctb
  0
XRECORD
  5
D44
102
{ACAD_REACTORS
330
D43
102
}
330
D43
100
AcDbXrecord
 90
        1
  0
XRECORD
  5
D45
102
{ACAD_REACTORS
330
D43
102
}
330
D43
100
AcDbXrecord
 90
       70
  0
XRECORD
  5
D5D
102
{ACAD_REACTORS
330
D43
102
}
330
D43
100
AcDbXrecord
340
0
  0
XRECORD
  5
D63
102
{ACAD_REACTORS
330
D43
102
}
330
D43
100
AcDbXrecord
 10
0.0
 20
0.0
 30
0.0
  0
XRECORD
  5
D5F
102
{ACAD_REACTORS
330
D43
102
}
330
D43
100
AcDbXrecord
 10
0.0
 20
0.0
 30
0.0
  0
XRECORD
  5
D62
102
{ACAD_REACTORS
330
D43
102
}
330
D43
100
AcDbXrecord
 10
0.0
 20
0.0
 30
0.0
  0
XRECORD
  5
D60
102
{ACAD_REACTORS
330
D43
102
}
330
D43
100
AcDbXrecord
 10
0.0
 20
0.0
 30
0.0
  0
XRECORD
  5
D61
102
{ACAD_REACTORS
330
D43
102
}
330
D43
100
AcDbXrecord
 10
0.0
 20
0.0
 30
0.0
  0
XRECORD
  5
D5E
102
{ACAD_REACTORS
330
D43
102
}
330
D43
100
AcDbXrecord
 10
0.0
 20
0.0
 30
0.0
  0
XRECORD
  5
D5B
102
{ACAD_REACTORS
330
D43
102
}
330
D43
100
AcDbXrecord
340
0
  0
XRECORD
  5
D5C
102
{ACAD_REACTORS
330
D43
102
}
330
D43
100
AcDbXrecord
 70
     0
  0
XRECORD
  5
D4F
102
{ACAD_REACTORS
330
D43
102
}
330
D43
100
AcDbXrecord
  1
{7736A759-CA04-48EA-B293-638F7F04B832}
  0
XRECORD
  5
560
102
{ACAD_REACTORS
330
540
102
}
330
540
100
AcDbXrecord
  1
2.0.0
  0
ENDSEC
  0
EOF
