  0
SECTION
  2
HEADER
  9
$ACADVER
  1
AC1014
  9
$ACADMAINTVER
 70
     9
  9
$DWGCODEPAGE
  3
ANSI_932
  9
$INSBASE
 10
0.0
 20
0.0
 30
0.0
  9
$EXTMIN
 10
-39.0140065
 20
-143.00416865
 30
-0.00152582
  9
$EXTMAX
 10
246.00499049
 20
61.01455834
 30
0.00000003
  9
$LIMMIN
 10
0.0
 20
0.0
  9
$LIMMAX
 10
420.0
 20
297.0
  9
$ORTHOMODE
 70
     0
  9
$REGENMODE
 70
     1
  9
$FILLMODE
 70
     1
  9
$QTEXTMODE
 70
     0
  9
$MIRRTEXT
 70
     1
  9
$DRAGMODE
 70
     2
  9
$LTSCALE
 40
10.0
  9
$OSMODE
 70
   549
  9
$ATTMODE
 70
     1
  9
$TEXTSIZE
 40
3.0
  9
$TRACEWID
 40
1.0
  9
$TEXTSTYLE
  7
YOKO
  9
$CLAYER
  8
245
  9
$CELTYPE
  6
BYLAYER
  9
$CECOLOR
 62
   256
  9
$CELTSCALE
 40
1.0
  9
$DELOBJ
 70
     1
  9
$DISPSILH
 70
     0
  9
$DIMSCALE
 40
1.0
  9
$DIMASZ
 40
2.23
  9
$DIMEXO
 40
0.5
  9
$DIMDLI
 40
2.5
  9
$DIMRND
 40
0.0
  9
$DIMDLE
 40
0.0
  9
$DIMEXE
 40
1.0
  9
$DIMTP
 40
0.0
  9
$DIMTM
 40
0.0
  9
$DIMTXT
 40
2.8
  9
$DIMCEN
 40
0.0
  9
$DIMTSZ
 40
0.0
  9
$DIMTOL
 70
     0
  9
$DIMLIM
 70
     0
  9
$DIMTIH
 70
     0
  9
$DIMTOH
 70
     0
  9
$DIMSE1
 70
     0
  9
$DIMSE2
 70
     0
  9
$DIMTAD
 70
     3
  9
$DIMZIN
 70
     8
  9
$DIMBLK
  1

  9
$DIMASO
 70
     1
  9
$DIMSHO
 70
     1
  9
$DIMPOST
  1
<>
  9
$DIMAPOST
  1

  9
$DIMALT
 70
     0
  9
$DIMALTD
 70
     2
  9
$DIMALTF
 40
25.4
  9
$DIMLFAC
 40
1.0
  9
$DIMTOFL
 70
     1
  9
$DIMTVP
 40
0.0
  9
$DIMTIX
 70
     1
  9
$DIMSOXD
 70
     0
  9
$DIMSAH
 70
     1
  9
$DIMBLK1
  1
OPEN
  9
$DIMBLK2
  1
OPEN
  9
$DIMSTYLE
  2
BIGT
  9
$DIMCLRD
 70
   256
  9
$DIMCLRE
 70
   256
  9
$DIMCLRT
 70
    40
  9
$DIMTFAC
 40
1.0
  9
$DIMGAP
 40
1.0
  9
$DIMJUST
 70
     0
  9
$DIMSD1
 70
     0
  9
$DIMSD2
 70
     0
  9
$DIMTOLJ
 70
     1
  9
$DIMTZIN
 70
     8
  9
$DIMALTZ
 70
     0
  9
$DIMALTTZ
 70
     0
  9
$DIMFIT
 70
     3
  9
$DIMUPT
 70
     0
  9
$DIMUNIT
 70
     2
  9
$DIMDEC
 70
     3
  9
$DIMTDEC
 70
     3
  9
$DIMALTU
 70
     2
  9
$DIMALTTD
 70
     2
  9
$DIMTXSTY
  7
STANDARD
  9
$DIMAUNIT
 70
     0
  9
$LUNITS
 70
     2
  9
$LUPREC
 70
     3
  9
$SKETCHINC
 40
1.0
  9
$FILLETRAD
 40
0.0
  9
$AUNITS
 70
     0
  9
$AUPREC
 70
     3
  9
$MENU
  1
.
  9
$ELEVATION
 40
0.0
  9
$PELEVATION
 40
0.0
  9
$THICKNESS
 40
0.0
  9
$LIMCHECK
 70
     0
  9
$BLIPMODE
 70
     0
  9
$CHAMFERA
 40
10.0
  9
$CHAMFERB
 40
10.0
  9
$CHAMFERC
 40
0.0
  9
$CHAMFERD
 40
0.0
  9
$SKPOLY
 70
     0
  9
$TDCREATE
 40
2455902.440271620
  9
$TDUPDATE
 40
2455902.487697661
  9
$TDINDWG
 40
0.0216936111
  9
$TDUSRTIMER
 40
0.0216934375
  9
$USRTIMER
 70
     1
  9
$ANGBASE
 50
0.0
  9
$ANGDIR
 70
     0
  9
$PDMODE
 70
     1
  9
$PDSIZE
 40
-5.0
  9
$PLINEWID
 40
0.0
  9
$COORDS
 70
     2
  9
$SPLFRAME
 70
     0
  9
$SPLINETYPE
 70
     6
  9
$SPLINESEGS
 70
     8
  9
$ATTDIA
 70
     0
  9
$ATTREQ
 70
     0
  9
$HANDLING
 70
-16383
  9
$HANDSEED
  5
129D
  9
$SURFTAB1
 70
     6
  9
$SURFTAB2
 70
     6
  9
$SURFTYPE
 70
     6
  9
$SURFU
 70
     6
  9
$SURFV
 70
     6
  9
$UCSNAME
  2

  9
$UCSORG
 10
0.0
 20
0.0
 30
0.0
  9
$UCSXDIR
 10
1.0
 20
0.0
 30
0.0
  9
$UCSYDIR
 10
0.0
 20
1.0
 30
0.0
  9
$PUCSNAME
  2

  9
$PUCSORG
 10
0.0
 20
0.0
 30
0.0
  9
$PUCSXDIR
 10
1.0
 20
0.0
 30
0.0
  9
$PUCSYDIR
 10
0.0
 20
1.0
 30
0.0
  9
$USERI1
 70
     1
  9
$USERI2
 70
     0
  9
$USERI3
 70
     0
  9
$USERI4
 70
     0
  9
$USERI5
 70
     0
  9
$USERR1
 40
0.0
  9
$USERR2
 40
0.0
  9
$USERR3
 40
0.0
  9
$USERR4
 40
0.0
  9
$USERR5
 40
0.0
  9
$WORLDVIEW
 70
     1
  9
$SHADEDGE
 70
     3
  9
$SHADEDIF
 70
    70
  9
$TILEMODE
 70
     1
  9
$MAXACTVP
 70
    16
  9
$PINSBASE
 10
0.0
 20
0.0
 30
0.0
  9
$PLIMCHECK
 70
     0
  9
$PEXTMIN
 10
1.00000000E+20
 20
1.00000000E+20
 30
1.00000000E+20
  9
$PEXTMAX
 10
-1.00000000E+20
 20
-1.00000000E+20
 30
-1.00000000E+20
  9
$PLIMMIN
 10
0.0
 20
0.0
  9
$PLIMMAX
 10
420.0
 20
297.0
  9
$UNITMODE
 70
     0
  9
$VISRETAIN
 70
     0
  9
$PLINEGEN
 70
     0
  9
$PSLTSCALE
 70
     1
  9
$TREEDEPTH
 70
  3020
  9
$PICKSTYLE
 70
     0
  9
$CMLSTYLE
  2
STANDARD
  9
$CMLJUST
 70
     0
  9
$CMLSCALE
 40
1.0
  9
$PROXYGRAPHICS
 70
     1
  9
$MEASUREMENT
 70
     1
  0
ENDSEC
  0
SECTION
  2
CLASSES
  0
CLASS
  1
XRECORD
  2
AcDbXrecord
  3
AutoCAD 2000
 90
        0
280
     0
281
     0
  0
CLASS
  1
ACDBDICTIONARYWDFLT
  2
AcDbDictionaryWithDefault
  3
AutoCAD 2000
 90
        0
280
     0
281
     0
  0
CLASS
  1
ACDBPLACEHOLDER
  2
AcDbPlaceHolder
  3
AutoCAD 2000
 90
        0
280
     0
281
     0
  0
CLASS
  1
LAYOUT
  2
AcDbLayout
  3
AutoCAD 2000
 90
        0
280
     0
281
     0
  0
CLASS
  1
PLOTSETTINGS
  2
AcDbPlotSettings
  3
AutoCAD 2000
 90
        0
280
     0
281
     0
  0
CLASS
  1
LONG_TRANSACTION
  2
AcDbLongTransaction
  3
AutoCAD 2000
 90
        0
280
     0
281
     0
  0
CLASS
  1
LWPOLYLINE
  2
AcDbPolyline
  3
AutoCAD 2000
 90
        0
280
     0
281
     1
  0
CLASS
  1
HATCH
  2
AcDbHatch
  3
AutoCAD 2000
 90
        0
280
     0
281
     1
  0
CLASS
  1
XRECORD
  2
AcDbXrecord
  3
AutoCAD 2000
 90
        0
280
     0
281
     0
  0
CLASS
  1
LONG_TRANSACTION
  2
AcDbLongTransaction
  3
AutoCAD 2000
 90
        0
280
     0
281
     0
  0
CLASS
  1
LWPOLYLINE
  2
AcDbPolyline
  3
AutoCAD 2000
 90
        0
280
     0
281
     1
  0
CLASS
  1
HATCH
  2
AcDbHatch
  3
AutoCAD 2000
 90
        0
280
     0
281
     1
  0
CLASS
  1
XRECORD
  2
AcDbXrecord
  3
AutoCAD 2000
 90
        0
280
     0
281
     0
  0
ENDSEC
  0
SECTION
  2
TABLES
  0
TABLE
  2
VPORT
  5
8
330
0
100
AcDbSymbolTable
 70
     6
  0
VPORT
  5
124E
330
8
100
AcDbSymbolTableRecord
100
AcDbViewportTableRecord
  2
*ACTIVE
 70
     0
 10
0.0
 20
0.0
 11
1.0
 21
1.0
 12
103.495492
 22
-40.99480516
 13
0.0
 23
0.0
 14
7.0
 24
7.0
 15
7.0
 25
7.0
 16
0.0
 26
0.0
 36
1.0
 17
0.0
 27
0.0
 37
0.0
 40
210.31525999
 41
1.36242424
 42
50.0
 43
0.0
 44
0.0
 50
0.0
 51
0.0
 71
     0
 72
  2000
 73
     1
 74
     0
 75
     0
 76
     0
 77
     0
 78
     0
  0
ENDTAB
  0
TABLE
  2
LTYPE
  5
5
330
0
100
AcDbSymbolTable
 70
     4
  0
LTYPE
  5
14
330
5
100
AcDbSymbolTableRecord
100
AcDbLinetypeTableRecord
  2
BYBLOCK
 70
     0
  3

 72
    65
 73
     0
 40
0.0
  0
LTYPE
  5
15
330
5
100
AcDbSymbolTableRecord
100
AcDbLinetypeTableRecord
  2
BYLAYER
 70
     0
  3

 72
    65
 73
     0
 40
0.0
  0
LTYPE
  5
16
330
5
100
AcDbSymbolTableRecord
100
AcDbLinetypeTableRecord
  2
CONTINUOUS
 70
     0
  3
Solid line
 72
    65
 73
     0
 40
0.0
  0
LTYPE
  5
258
330
5
100
AcDbSymbolTableRecord
100
AcDbLinetypeTableRecord
  2
CENTER2
 70
     0
  3
___ _ ___ _ ___ _ ___ _ ___ _ ___ _ ___ _ ___ _
 72
    65
 73
     4
 40
1.125
 49
0.75
 74
     0
 49
-0.125
 74
     0
 49
0.125
 74
     0
 49
-0.125
 74
     0
  0
LTYPE
  5
25C
330
5
100
AcDbSymbolTableRecord
100
AcDbLinetypeTableRecord
  2
HIDDEN2
 70
     0
  3
_ _ _ _ _ _ _ _ _ _ _ _ _ _ _ _ _ _ _ _ _ _ _ _
 72
    65
 73
     2
 40
0.1875
 49
0.125
 74
     0
 49
-0.0625
 74
     0
  0
LTYPE
  5
25D
330
5
100
AcDbSymbolTableRecord
100
AcDbLinetypeTableRecord
  2
PHANTOM2
 70
     0
  3
___ _ _ ___ _ _ ___ _ _ ___ _ _ ___ _ _ ___ _ _
 72
    65
 73
     6
 40
1.25
 49
0.625
 74
     0
 49
-0.125
 74
     0
 49
0.125
 74
     0
 49
-0.125
 74
     0
 49
0.125
 74
     0
 49
-0.125
 74
     0
  0
ENDTAB
  0
TABLE
  2
LAYER
  5
2
330
0
100
AcDbSymbolTable
 70
    11
  0
LAYER
  5
F
330
2
100
AcDbSymbolTableRecord
100
AcDbLayerTableRecord
  2
0
 70
     0
 62
     7
  6
CONTINUOUS
  0
LAYER
  5
1AA
330
2
100
AcDbSymbolTableRecord
100
AcDbLayerTableRecord
  2
240
 70
     0
 62
     4
  6
CONTINUOUS
  0
LAYER
  5
1AB
330
2
100
AcDbSymbolTableRecord
100
AcDbLayerTableRecord
  2
241
 70
     0
 62
   211
  6
CONTINUOUS
  0
LAYER
  5
1AC
330
2
100
AcDbSymbolTableRecord
100
AcDbLayerTableRecord
  2
242
 70
     0
 62
     3
  6
CONTINUOUS
  0
LAYER
  5
1AF
330
2
100
AcDbSymbolTableRecord
100
AcDbLayerTableRecord
  2
245
 70
     0
 62
     2
  6
CENTER2
  0
LAYER
  5
21E
330
2
100
AcDbSymbolTableRecord
100
AcDbLayerTableRecord
  2
250
 70
     0
 62
     3
  6
CONTINUOUS
  0
LAYER
  5
21F
330
2
100
AcDbSymbolTableRecord
100
AcDbLayerTableRecord
  2
251
 70
     0
 62
    40
  6
CONTINUOUS
  0
LAYER
  5
5C4
330
2
100
AcDbSymbolTableRecord
100
AcDbLayerTableRecord
  2
DEFPOINTS
 70
     0
 62
     7
  6
CONTINUOUS
  0
ENDTAB
  0
TABLE
  2
STYLE
  5
3
330
0
100
AcDbSymbolTable
 70
     2
  0
STYLE
  5
10
330
3
100
AcDbSymbolTableRecord
100
AcDbTextStyleTableRecord
  2
STANDARD
 70
     0
 40
0.0
 41
1.0
 50
0.0
 71
     0
 42
3.0
  3
romans.shx
  4
BIGFONT.SHX
  0
STYLE
  5
339
330
3
100
AcDbSymbolTableRecord
100
AcDbTextStyleTableRecord
  2
YOKO
 70
     0
 40
0.0
 41
1.0
 50
0.0
 71
     0
 42
3.0
  3
romans.shx
  4
extfont.shx
  0
ENDTAB
  0
TABLE
  2
VIEW
  5
6
330
0
100
AcDbSymbolTable
 70
     0
  0
ENDTAB
  0
TABLE
  2
UCS
  5
7
330
0
100
AcDbSymbolTable
 70
     0
  0
ENDTAB
  0
TABLE
  2
APPID
  5
9
330
0
100
AcDbSymbolTable
 70
    13
  0
APPID
  5
11
330
9
100
AcDbSymbolTableRecord
100
AcDbRegAppTableRecord
  2
ACAD
 70
     0
  0
APPID
  5
1B1
330
9
100
AcDbSymbolTableRecord
100
AcDbRegAppTableRecord
  2
GLOBAL
 70
     0
  0
APPID
  5
2A4
330
9
100
AcDbSymbolTableRecord
100
AcDbRegAppTableRecord
  2
DETAIL
 70
     0
  0
APPID
  5
5FD
330
9
100
AcDbSymbolTableRecord
100
AcDbRegAppTableRecord
  2
GRPNAME
 70
     0
  0
APPID
  5
5FE
330
9
100
AcDbSymbolTableRecord
100
AcDbRegAppTableRecord
  2
GPARA
 70
     0
  0
APPID
  5
6C4
330
9
100
AcDbSymbolTableRecord
100
AcDbRegAppTableRecord
  2
DCO15
 70
     0
  0
APPID
  5
6C5
330
9
100
AcDbSymbolTableRecord
100
AcDbRegAppTableRecord
  2
ITEMNAME
 70
     0
  0
APPID
  5
6C6
330
9
100
AcDbSymbolTableRecord
100
AcDbRegAppTableRecord
  2
GRADE_0
 70
     0
  0
APPID
  5
78C
330
9
100
AcDbSymbolTableRecord
100
AcDbRegAppTableRecord
  2
LAYER_SCALE
 70
     0
  0
APPID
  5
78D
330
9
100
AcDbSymbolTableRecord
100
AcDbRegAppTableRecord
  2
ACAD_PSEXT
 70
     0
  0
APPID
  5
78E
330
9
100
AcDbSymbolTableRecord
100
AcDbRegAppTableRecord
  2
ASK_MEN_XD
 70
     0
  0
APPID
  5
BE8
330
9
100
AcDbSymbolTableRecord
100
AcDbRegAppTableRecord
  2
CONTENTBLOCKICON
 70
     0
  0
APPID
  5
C33
330
9
100
AcDbSymbolTableRecord
100
AcDbRegAppTableRecord
  2
ASKLEADERCHILD
 70
     0
  0
ENDTAB
  0
TABLE
  2
DIMSTYLE
  5
A
330
0
100
AcDbSymbolTable
 70
     4
  0
DIMSTYLE
105
725
102
{ACAD_REACTORS
330
98C
330
99B
330
9C1
330
A14
330
A15
330
A4E
102
}
330
A
100
AcDbSymbolTableRecord
100
AcDbDimStyleTableRecord
  2
BIGT
 70
     0
  3

  4

  5

  6
OPEN
  7
OPEN
 40
1.0
 41
2.23
 42
0.5
 43
2.5
 44
1.0
 45
0.0
 46
0.0
 47
0.0
 48
0.0
140
2.8
141
0.0
142
0.0
143
25.4
144
1.0
145
0.0
146
1.0
147
1.0
 71
     0
 72
     0
 73
     0
 74
     0
 75
     0
 76
     0
 77
     3
 78
     8
170
     0
171
     2
172
     1
173
     1
174
     1
175
     0
176
   256
177
   256
178
    40
270
     2
271
     3
272
     3
273
     2
274
     2
340
10
275
     0
280
     0
281
     0
282
     0
283
     1
284
     8
285
     0
286
     0
287
     3
288
     0
  0
DIMSTYLE
105
92A
330
A
100
AcDbSymbolTableRecord
100
AcDbDimStyleTableRecord
  2
BIGT$7
 70
     0
  3

  4
"
  5
OPEN
  6

  7

 40
1.0
 41
2.5
 42
0.5
 43
7.0
 44
1.0
 45
0.0
 46
0.0
 47
0.1
 48
0.1
140
5.0
141
0.0
142
0.0
143
0.0393701
144
1.0
145
0.0
146
0.71
147
1.5
 71
     0
 72
     0
 73
     0
 74
     0
 75
     0
 76
     0
 77
     3
 78
     8
170
     0
171
     2
172
     1
173
     0
174
     0
175
     0
176
     3
177
     3
178
    40
270
     2
271
     3
272
     3
273
     2
274
     2
340
10
275
     0
280
     0
281
     0
282
     0
283
     1
284
     8
285
     0
286
     0
287
     3
288
     0
  0
ENDTAB
  0
TABLE
  2
BLOCK_RECORD
  5
1
330
0
100
AcDbSymbolTable
 70
    11
  0
BLOCK_RECORD
  5
1A
102
{ACAD_XDICTIONARY
360
BBC
102
}
330
1
100
AcDbSymbolTableRecord
100
AcDbBlockTableRecord
  2
*MODEL_SPACE
  0
BLOCK_RECORD
  5
17
102
{ACAD_XDICTIONARY
360
BBA
102
}
330
1
100
AcDbSymbolTableRecord
100
AcDbBlockTableRecord
  2
*PAPER_SPACE
  0
BLOCK_RECORD
  5
594
330
1
100
AcDbSymbolTableRecord
100
AcDbBlockTableRecord
  2
_OPEN
  0
BLOCK_RECORD
  5
6E3
330
1
100
AcDbSymbolTableRecord
100
AcDbBlockTableRecord
  2
矢印なし
  0
BLOCK_RECORD
  5
98D
330
1
100
AcDbSymbolTableRecord
100
AcDbBlockTableRecord
  2
*D2
  0
BLOCK_RECORD
  5
99C
330
1
100
AcDbSymbolTableRecord
100
AcDbBlockTableRecord
  2
*D3
  0
BLOCK_RECORD
  5
9C2
330
1
100
AcDbSymbolTableRecord
100
AcDbBlockTableRecord
  2
*D4
  0
BLOCK_RECORD
  5
A16
330
1
100
AcDbSymbolTableRecord
100
AcDbBlockTableRecord
  2
*D5
  0
BLOCK_RECORD
  5
A1F
330
1
100
AcDbSymbolTableRecord
100
AcDbBlockTableRecord
  2
*D6
  0
BLOCK_RECORD
  5
A4F
330
1
100
AcDbSymbolTableRecord
100
AcDbBlockTableRecord
  2
*D7
  0
BLOCK_RECORD
  5
A8E
330
1
100
AcDbSymbolTableRecord
100
AcDbBlockTableRecord
  2
1
1001
CONTENTBLOCKICON
1071
        0
1004
2800000020000000200000000100080000000000000400000000000000000000000000000000000000000000000080000080000000808000800000008000800080800000C0C0C000C0DCC000F0CAA6000020400000206000002080000020A0000020C0000020E00000400000004020000040400000406000004080000040A0
1004
000040C0000040E00000600000006020000060400000606000006080000060A0000060C0000060E00000800000008020000080400000806000008080000080A0000080C0000080E00000A0000000A0200000A0400000A0600000A0800000A0A00000A0C00000A0E00000C0000000C0200000C0400000C0600000C0800000C0
1004
A00000C0C00000C0E00000E0000000E0200000E0400000E0600000E0800000E0A00000E0C00000E0E00040000000400020004000400040006000400080004000A0004000C0004000E00040200000402020004020400040206000402080004020A0004020C0004020E000404000004040200040404000404060004040800040
1004
40A0004040C0004040E00040600000406020004060400040606000406080004060A0004060C0004060E00040800000408020004080400040806000408080004080A0004080C0004080E00040A0000040A0200040A0400040A0600040A0800040A0A00040A0C00040A0E00040C0000040C0200040C0400040C0600040C08000
1004
40C0A00040C0C00040C0E00040E0000040E0200040E0400040E0600040E0800040E0A00040E0C00040E0E00080000000800020008000400080006000800080008000A0008000C0008000E00080200000802020008020400080206000802080008020A0008020C0008020E00080400000804020008040400080406000804080
1004
008040A0008040C0008040E00080600000806020008060400080606000806080008060A0008060C0008060E00080800000808020008080400080806000808080008080A0008080C0008080E00080A0000080A0200080A0400080A0600080A0800080A0A00080A0C00080A0E00080C0000080C0200080C0400080C0600080C0
1004
800080C0A00080C0C00080C0E00080E0000080E0200080E0400080E0600080E0800080E0A00080E0C00080E0E000C0000000C0002000C0004000C0006000C0008000C000A000C000C000C000E000C0200000C0202000C0204000C0206000C0208000C020A000C020C000C020E000C0400000C0402000C0404000C0406000C0
1004
408000C040A000C040C000C040E000C0600000C0602000C0604000C0606000C0608000C060A000C060C000C060E000C0800000C0802000C0804000C0806000C0808000C080A000C080C000C080E000C0A00000C0A02000C0A04000C0A06000C0A08000C0A0A000C0A0C000C0A0E000C0C00000C0C02000C0C04000C0C06000
1004
C0C08000C0C0A000F0FBFF00A4A0A000808080000000FF0000FF000000FFFF00FF000000FF00FF00FFFF0000FFFFFF0000000000000000000000000000000000000000000000000000000000000000000000000000000000000000000000000000000000000000000000000000000000000000000000000000000000000000
1004
0000000000000000000000000000000000000000000000000000000000000000000000000000000000000000000000000000000000000000000000000000000000000000000000000000000000000000000000000000000000000000000000000000000000000000000000000000000000000000000000000000FEFEFEFEFE
1004
FEFEFEE7FE000000000000000000000000000000000000FEE7E7FEE7E700000000000000E7000000000000000000000000000000FAFEFEFEE7E7E7E7E7E7E7E7E7E7E7E7E7000000000000000000000000000000FA0000E7E7E7E7E70000000000000000FE0000000000000000000000000000FBE7FBFBE7FBFBE7E7E7E7E7
1004
E7E7E7E7E7FE000000000000000000000000000000E70000E7E7E7E7E7E700000000000000FE000000000000000000000000000000E70000E7E7E7E70000FB0000FB00FB00FE000000000000000000000000000000FEFEFEFEE7E7E70000E7E7E7FB00E7E7FE000000000000000000000000000000000000FEE7E7E7FEFEFB
1004
FEFEFBFEFBFE000000000000000000000000000000000000000000000000000000000000000000000000000000000000000000000000000000000000000000000000000000000000000000FAFAFBFAFA000000000000000000FEE7E7FEE7FEFEFEFEFEFEFEFEFE000000FA0000E7FEE7FE0000000000FEFEFEFEE7E7E7E700
1004
E7FA00E700E7FAFE0000FA00FEFEE700E7FAFE00000000FE0000E7E7E7E7E700E7E7FAE7FBE7E7FE0000FAE7E7E7E700E700FE000000FBE7FBFBE7E7E7E7E7E7E7E7E7E7E7E7E7FE00FBFBE7E7E7E7E7E7FBFEFB000000E70000E7E7E7E7000000000000000000FE00FA00FEE700FB000000FE00000000FE0000E7E7E7E700
1004
00000000000000FEFE0000FAFEE7E7FBE7E7E7FE00000000FEFEFEFEE7E7E700000000FEFEFEFEFE000000FA00FEFEFBE7E7E7FE00000000000000FEFEFEFEFEFEFEFE000000000000000000FAFA00FEFEFEFE000000000000000000000000000000000000000000000000000000FAFBFAFA00000000000000000000000000
1004
00000000000000000000000000000000000000000000000000000000000000000000000000000000000000000000000000000000000000000000000000000000000000000000000000000000000000000000000000000000000000000000000000000000000000000000000000000000000000000000000000000000000000
1004
0000000000000000000000000000000000000000000000000000000000000000000000000000000000000000000000000000000000000000
  0
ENDTAB
  0
ENDSEC
  0
SECTION
  2
BLOCKS
  0
BLOCK
  5
1B
330
1A
100
AcDbEntity
  8
0
100
AcDbBlockBegin
  2
*MODEL_SPACE
 70
     0
 10
0.0
 20
0.0
 30
0.0
  3
*MODEL_SPACE
  1

  0
ENDBLK
  5
1C
330
1A
100
AcDbEntity
  8
0
100
AcDbBlockEnd
  0
BLOCK
  5
18
330
17
100
AcDbEntity
 67
     1
  8
0
100
AcDbBlockBegin
  2
*PAPER_SPACE
 70
     0
 10
0.0
 20
0.0
 30
0.0
  3
*PAPER_SPACE
  1

  0
ENDBLK
  5
19
330
17
100
AcDbEntity
 67
     1
  8
0
100
AcDbBlockEnd
  0
BLOCK
  5
598
330
594
100
AcDbEntity
  8
0
100
AcDbBlockBegin
  2
_OPEN
 70
     0
 10
0.0
 20
0.0
 30
0.0
  3
_OPEN
  1

  0
LINE
  5
595
330
594
100
AcDbEntity
  8
0
  6
BYBLOCK
 62
     0
100
AcDbLine
 10
-1.0
 20
0.16666667
 30
0.0
 11
0.0
 21
0.0
 31
0.0
  0
LINE
  5
596
330
594
100
AcDbEntity
  8
0
  6
BYBLOCK
 62
     0
100
AcDbLine
 10
-1.0
 20
-0.16666667
 30
0.0
 11
0.0
 21
0.0
 31
0.0
  0
LINE
  5
597
330
594
100
AcDbEntity
  8
0
  6
BYBLOCK
 62
     0
100
AcDbLine
 10
0.0
 20
0.0
 30
0.0
 11
-1.0
 21
0.0
 31
0.0
  0
ENDBLK
  5
599
330
594
100
AcDbEntity
  8
0
100
AcDbBlockEnd
  0
BLOCK
  5
6E4
330
6E3
100
AcDbEntity
  8
0
100
AcDbBlockBegin
  2
矢印なし
 70
     0
 10
0.0
 20
0.0
 30
0.0
  3
矢印なし
  1

  0
ENDBLK
  5
6E5
330
6E3
100
AcDbEntity
  8
0
100
AcDbBlockEnd
  0
BLOCK
  5
997
330
98D
100
AcDbEntity
  8
0
100
AcDbBlockBegin
  2
*D2
 70
     1
 10
0.0
 20
0.0
 30
0.0
  3
*D2
  1

  0
LINE
  5
1272
330
98D
100
AcDbEntity
  8
250
  6
CONTINUOUS
100
AcDbLine
 10
0.0
 20
31.9925
 30
0.0
 11
0.0
 21
43.0
 31
0.0
  0
LINE
  5
1273
330
98D
100
AcDbEntity
  8
250
  6
CONTINUOUS
100
AcDbLine
 10
119.99999982
 20
10.35786444
 30
0.0
 11
119.99999982
 21
43.0
 31
0.0
  0
LINE
  5
1274
330
98D
100
AcDbEntity
  8
250
  6
CONTINUOUS
100
AcDbLine
 10
2.23
 20
42.0
 30
0.0
 11
117.76999982
 21
42.0
 31
0.0
  0
INSERT
  5
1275
330
98D
100
AcDbEntity
  8
250
  6
CONTINUOUS
100
AcDbBlockReference
  2
_OPEN
 10
0.0
 20
42.0
 30
0.0
 41
2.23
 42
2.23
 43
2.23
 50
180.0
  0
INSERT
  5
1276
330
98D
100
AcDbEntity
  8
250
  6
CONTINUOUS
100
AcDbBlockReference
  2
_OPEN
 10
119.99999982
 20
42.0
 30
0.0
 41
2.23
 42
2.23
 43
2.23
  0
MTEXT
  5
1277
330
98D
100
AcDbEntity
  8
250
  6
CONTINUOUS
 62
    40
100
AcDbMText
 10
59.99999991
 20
44.4
 30
0.0
 40
2.8
 41
0.0
 71
     5
 72
     1
  1
\A1;120
  0
POINT
  5
1278
330
98D
100
AcDbEntity
  8
DEFPOINTS
  6
CONTINUOUS
 62
     0
100
AcDbPoint
 10
0.0
 20
31.4925
 30
0.0
  0
POINT
  5
1279
330
98D
100
AcDbEntity
  8
DEFPOINTS
  6
CONTINUOUS
 62
     0
100
AcDbPoint
 10
119.99999982
 20
9.85786444
 30
0.0
  0
POINT
  5
127A
330
98D
100
AcDbEntity
  8
DEFPOINTS
  6
CONTINUOUS
 62
     0
100
AcDbPoint
 10
119.99999982
 20
42.0
 30
0.0
  0
ENDBLK
  5
998
330
98D
100
AcDbEntity
  8
0
100
AcDbBlockEnd
  0
BLOCK
  5
9A6
330
99C
100
AcDbEntity
  8
0
100
AcDbBlockBegin
  2
*D3
 70
     1
 10
0.0
 20
0.0
 30
0.0
  3
*D3
  1

  0
LINE
  5
127B
330
99C
100
AcDbEntity
  8
250
  6
CONTINUOUS
100
AcDbLine
 10
119.59105675
 20
-29.5
 30
0.0
 11
134.0
 21
-29.5
 31
0.0
  0
LINE
  5
127C
330
99C
100
AcDbEntity
  8
250
  6
CONTINUOUS
100
AcDbLine
 10
121.49999982
 20
0.0
 30
0.0
 11
134.0
 21
0.0
 31
0.0
  0
LINE
  5
127D
330
99C
100
AcDbEntity
  8
250
  6
CONTINUOUS
100
AcDbLine
 10
133.0
 20
-27.27
 30
0.0
 11
133.0
 21
-2.23
 31
0.0
  0
INSERT
  5
127E
330
99C
100
AcDbEntity
  8
250
  6
CONTINUOUS
100
AcDbBlockReference
  2
_OPEN
 10
133.0
 20
-29.5
 30
0.0
 41
2.23
 42
2.23
 43
2.23
 50
270.0
  0
INSERT
  5
127F
330
99C
100
AcDbEntity
  8
250
  6
CONTINUOUS
100
AcDbBlockReference
  2
_OPEN
 10
133.0
 20
0.0
 30
0.0
 41
2.23
 42
2.23
 43
2.23
 50
90.0
  0
MTEXT
  5
1280
330
99C
100
AcDbEntity
  8
250
  6
CONTINUOUS
 62
    40
100
AcDbMText
 10
130.6
 20
-14.75
 30
0.0
 40
2.8
 41
0.0
 71
     5
 72
     1
  1
\A1;29.5
 11
0.0
 21
1.0
 31
0.0
  0
POINT
  5
1281
330
99C
100
AcDbEntity
  8
DEFPOINTS
  6
CONTINUOUS
 62
     0
100
AcDbPoint
 10
119.09105675
 20
-29.5
 30
0.0
  0
POINT
  5
1282
330
99C
100
AcDbEntity
  8
DEFPOINTS
  6
CONTINUOUS
 62
     0
100
AcDbPoint
 10
120.99999982
 20
0.0
 30
0.0
  0
POINT
  5
1283
330
99C
100
AcDbEntity
  8
DEFPOINTS
  6
CONTINUOUS
 62
     0
100
AcDbPoint
 10
133.0
 20
0.0
 30
0.0
  0
ENDBLK
  5
9A7
330
99C
100
AcDbEntity
  8
0
100
AcDbBlockEnd
  0
BLOCK
  5
9CC
330
9C2
100
AcDbEntity
  8
0
100
AcDbBlockBegin
  2
*D4
 70
     1
 10
0.0
 20
0.0
 30
0.0
  3
*D4
  1

  0
LINE
  5
1284
330
9C2
100
AcDbEntity
  8
250
  6
CONTINUOUS
100
AcDbLine
 10
37.99999982
 20
-30.0
 30
0.0
 11
37.99999982
 21
-43.0
 31
0.0
  0
LINE
  5
1285
330
9C2
100
AcDbEntity
  8
250
  6
CONTINUOUS
100
AcDbLine
 10
119.99999982
 20
-29.10148242
 30
0.0
 11
119.99999982
 21
-43.0
 31
0.0
  0
LINE
  5
1286
330
9C2
100
AcDbEntity
  8
250
  6
CONTINUOUS
100
AcDbLine
 10
40.22999982
 20
-42.0
 30
0.0
 11
117.76999982
 21
-42.0
 31
0.0
  0
INSERT
  5
1287
330
9C2
100
AcDbEntity
  8
250
  6
CONTINUOUS
100
AcDbBlockReference
  2
_OPEN
 10
37.99999982
 20
-42.0
 30
0.0
 41
2.23
 42
2.23
 43
2.23
 50
180.0
  0
INSERT
  5
1288
330
9C2
100
AcDbEntity
  8
250
  6
CONTINUOUS
100
AcDbBlockReference
  2
_OPEN
 10
119.99999982
 20
-42.0
 30
0.0
 41
2.23
 42
2.23
 43
2.23
  0
MTEXT
  5
1289
330
9C2
100
AcDbEntity
  8
250
  6
CONTINUOUS
 62
    40
100
AcDbMText
 10
78.99999982
 20
-39.6
 30
0.0
 40
2.8
 41
0.0
 71
     5
 72
     1
  1
\A1;82
  0
POINT
  5
128A
330
9C2
100
AcDbEntity
  8
DEFPOINTS
  6
CONTINUOUS
 62
     0
100
AcDbPoint
 10
37.99999982
 20
-29.5
 30
0.0
  0
POINT
  5
128B
330
9C2
100
AcDbEntity
  8
DEFPOINTS
  6
CONTINUOUS
 62
     0
100
AcDbPoint
 10
119.99999982
 20
-28.60148242
 30
0.0
  0
POINT
  5
128C
330
9C2
100
AcDbEntity
  8
DEFPOINTS
  6
CONTINUOUS
 62
     0
100
AcDbPoint
 10
119.99999982
 20
-42.0
 30
0.0
  0
ENDBLK
  5
9CD
330
9C2
100
AcDbEntity
  8
0
100
AcDbBlockEnd
  0
BLOCK
  5
A1D
330
A16
100
AcDbEntity
  8
0
100
AcDbBlockBegin
  2
*D5
 70
     1
 10
0.0
 20
0.0
 30
0.0
  3
*D5
  1

  0
LINE
  5
128D
330
A16
100
AcDbEntity
  8
250
  6
CONTINUOUS
100
AcDbLine
 10
164.50693123
 20
35.06226579
 30
0.0
 11
213.49306877
 21
-35.06226579
 31
0.0
  0
INSERT
  5
128E
330
A16
100
AcDbEntity
  8
250
  6
CONTINUOUS
100
AcDbBlockReference
  2
_OPEN
 10
163.22987855
 20
36.89038953
 30
0.0
 41
2.23
 42
2.23
 43
2.23
 50
124.9365793
  0
INSERT
  5
128F
330
A16
100
AcDbEntity
  8
250
  6
CONTINUOUS
100
AcDbBlockReference
  2
_OPEN
 10
214.77012145
 20
-36.89038953
 30
0.0
 41
2.23
 42
2.23
 43
2.23
 50
304.9365793
  0
MTEXT
  5
1290
330
A16
100
AcDbEntity
  8
250
  6
CONTINUOUS
 62
    40
100
AcDbMText
 10
201.87905521
 20
-14.24569784
 30
0.0
 40
2.8
 41
0.0
 71
     5
 72
     1
  1
\A1;（{\H2.8;\U+2205}90）
 11
0.57266937
 21
-0.81978643
 31
0.0
  0
POINT
  5
1291
330
A16
100
AcDbEntity
  8
DEFPOINTS
  6
CONTINUOUS
 62
     0
100
AcDbPoint
 10
214.77012145
 20
-36.89038953
 30
0.0
  0
POINT
  5
1292
330
A16
100
AcDbEntity
  8
DEFPOINTS
  6
CONTINUOUS
 62
     0
100
AcDbPoint
 10
163.22987855
 20
36.89038953
 30
0.0
  0
ENDBLK
  5
A1E
330
A16
100
AcDbEntity
  8
0
100
AcDbBlockEnd
  0
BLOCK
  5
A29
330
A1F
100
AcDbEntity
  8
0
100
AcDbBlockBegin
  2
*D6
 70
     1
 10
0.0
 20
0.0
 30
0.0
  3
*D6
  1

  0
LINE
  5
F4E
330
A1F
100
AcDbEntity
  8
250
  6
CONTINUOUS
100
AcDbLine
 10
189.0
 20
-46.5
 30
0.0
 11
189.0
 21
-56.99976975
 31
0.0
  0
LINE
  5
F4F
330
A1F
100
AcDbEntity
  8
250
  6
CONTINUOUS
100
AcDbLine
 10
214.0
 20
-30.0
 30
0.0
 11
214.0
 21
-56.99976975
 31
0.0
  0
LINE
  5
F50
330
A1F
100
AcDbEntity
  8
250
  6
CONTINUOUS
100
AcDbLine
 10
191.23
 20
-55.99976975
 30
0.0
 11
211.77
 21
-55.99976975
 31
0.0
  0
INSERT
  5
F51
330
A1F
100
AcDbEntity
  8
250
  6
CONTINUOUS
100
AcDbBlockReference
  2
_OPEN
 10
189.0
 20
-55.99976975
 30
0.0
 41
2.23
 42
2.23
 43
2.23
 50
180.0
  0
INSERT
  5
F52
330
A1F
100
AcDbEntity
  8
250
  6
CONTINUOUS
100
AcDbBlockReference
  2
_OPEN
 10
214.0
 20
-55.99976975
 30
0.0
 41
2.23
 42
2.23
 43
2.23
  0
MTEXT
  5
F53
330
A1F
100
AcDbEntity
  8
250
  6
CONTINUOUS
 62
    40
100
AcDbMText
 10
201.5
 20
-53.59976975
 30
0.0
 40
2.8
 41
0.0
 71
     5
 72
     1
  1
\A1;□25
1001
ACAD
1000
MTEXTBEGIN
1070
    73
1070
     1
1070
    44
1040
1.0
1070
    74
1070
     0
1000
MTEXTEND
  0
POINT
  5
F54
330
A1F
100
AcDbEntity
  8
DEFPOINTS
  6
CONTINUOUS
 62
     0
100
AcDbPoint
 10
189.0
 20
-46.0
 30
0.0
  0
POINT
  5
F55
330
A1F
100
AcDbEntity
  8
DEFPOINTS
  6
CONTINUOUS
 62
     0
100
AcDbPoint
 10
214.0
 20
-29.5
 30
0.0
  0
POINT
  5
F56
330
A1F
100
AcDbEntity
  8
DEFPOINTS
  6
CONTINUOUS
 62
     0
100
AcDbPoint
 10
214.0
 20
-55.99976975
 30
0.0
  0
ENDBLK
  5
A2A
330
A1F
100
AcDbEntity
  8
0
100
AcDbBlockEnd
  0
BLOCK
  5
A59
330
A4F
100
AcDbEntity
  8
0
100
AcDbBlockBegin
  2
*D7
 70
     1
 10
0.0
 20
0.0
 30
0.0
  3
*D7
  1

  0
LINE
  5
1293
330
A4F
100
AcDbEntity
  8
250
  6
CONTINUOUS
100
AcDbLine
 10
215.76309197
 20
-29.5
 30
0.0
 11
246.0
 21
-29.5
 31
0.0
  0
LINE
  5
1294
330
A4F
100
AcDbEntity
  8
250
  6
CONTINUOUS
100
AcDbLine
 10
214.5
 20
-4.5
 30
0.0
 11
246.0
 21
-4.5
 31
0.0
  0
LINE
  5
1295
330
A4F
100
AcDbEntity
  8
250
  6
CONTINUOUS
100
AcDbLine
 10
245.0
 20
-27.27
 30
0.0
 11
245.0
 21
-6.73
 31
0.0
  0
INSERT
  5
1296
330
A4F
100
AcDbEntity
  8
250
  6
CONTINUOUS
100
AcDbBlockReference
  2
_OPEN
 10
245.0
 20
-29.5
 30
0.0
 41
2.23
 42
2.23
 43
2.23
 50
270.0
  0
INSERT
  5
1297
330
A4F
100
AcDbEntity
  8
250
  6
CONTINUOUS
100
AcDbBlockReference
  2
_OPEN
 10
245.0
 20
-4.5
 30
0.0
 41
2.23
 42
2.23
 43
2.23
 50
90.0
  0
MTEXT
  5
1298
330
A4F
100
AcDbEntity
  8
250
  6
CONTINUOUS
 62
    40
100
AcDbMText
 10
242.6
 20
-17.0
 30
0.0
 40
2.8
 41
0.0
 71
     5
 72
     1
  1
\A1;25
 11
0.0
 21
1.0
 31
0.0
  0
POINT
  5
1299
330
A4F
100
AcDbEntity
  8
DEFPOINTS
  6
CONTINUOUS
 62
     0
100
AcDbPoint
 10
215.26309197
 20
-29.5
 30
0.0
  0
POINT
  5
129A
330
A4F
100
AcDbEntity
  8
DEFPOINTS
  6
CONTINUOUS
 62
     0
100
AcDbPoint
 10
214.0
 20
-4.5
 30
0.0
  0
POINT
  5
129B
330
A4F
100
AcDbEntity
  8
DEFPOINTS
  6
CONTINUOUS
 62
     0
100
AcDbPoint
 10
245.0
 20
-4.5
 30
0.0
  0
ENDBLK
  5
A5A
330
A4F
100
AcDbEntity
  8
0
100
AcDbBlockEnd
  0
BLOCK
  5
A8F
330
A8E
100
AcDbEntity
  8
0
100
AcDbBlockBegin
  2
1
 70
     0
 10
0.0
 20
0.0
 30
0.0
  3
1
  1

  0
CIRCLE
  5
1197
330
A8E
100
AcDbEntity
  8
242
  6
PHANTOM2
100
AcDbCircle
 10
189.0
 20
0.0
 30
0.0
 40
45.0
  0
LINE
  5
1198
330
A8E
100
AcDbEntity
  8
241
  6
CONTINUOUS
100
AcDbLine
 10
225.57016829
 20
25.40827089
 30
0.0
 11
170.38092993
 21
25.40827089
 31
0.0
  0
LINE
  5
1199
330
A8E
100
AcDbEntity
  8
241
  6
CONTINUOUS
100
AcDbLine
 10
230.69425926
 20
16.92893219
 30
0.0
 11
162.43571467
 21
16.92893219
 31
0.0
  0
LINE
  5
119A
330
A8E
100
AcDbEntity
  8
245
100
AcDbLine
 10
143.0
 20
0.0
 30
0.0
 11
235.0
 21
0.0
 31
0.0
  0
LINE
  5
119B
330
A8E
100
AcDbEntity
  8
241
  6
CONTINUOUS
100
AcDbLine
 10
214.0
 20
-4.5
 30
0.0
 11
188.8
 21
-4.5
 31
0.0
  0
LINE
  5
119C
330
A8E
100
AcDbEntity
  8
240
  6
CONTINUOUS
100
AcDbLine
 10
215.26309197
 20
-29.5
 30
0.0
 11
187.0
 21
-29.5
 31
0.0
  0
LINE
  5
119D
330
A8E
100
AcDbEntity
  8
240
  6
CONTINUOUS
100
AcDbLine
 10
211.19797288
 20
31.5
 30
0.0
 11
189.0
 21
31.5
 31
0.0
  0
LINE
  5
119E
330
A8E
100
AcDbEntity
  8
240
  6
CONTINUOUS
100
AcDbLine
 10
-38.0
 20
-98.0
 30
0.0
 11
-38.0
 21
-116.26242639
 31
0.0
  0
LINE
  5
119F
330
A8E
100
AcDbEntity
  8
241
  6
CONTINUOUS
100
AcDbLine
 10
-36.5
 20
-98.0
 30
0.0
 11
-36.5
 21
-117.76242639
 31
0.0
  0
LINE
  5
11A0
330
A8E
100
AcDbEntity
  8
241
100
AcDbLine
 10
23.99999982
 20
-128.7925
 30
0.0
 11
23.99999982
 21
-98.0
 31
0.0
  0
LINE
  5
11A1
330
A8E
100
AcDbEntity
  8
241
  6
CONTINUOUS
100
AcDbLine
 10
22.0
 20
-98.0
 30
0.0
 11
22.0
 21
-128.7925
 31
0.0
  0
LINE
  5
11A2
330
A8E
100
AcDbEntity
  8
241
100
AcDbLine
 10
0.0
 20
-98.0
 30
0.0
 11
0.0
 21
-118.62000332
 31
0.0
  0
LINE
  5
11A3
330
A8E
100
AcDbEntity
  8
241
100
AcDbLine
 10
-2.19993752
 20
-98.0
 30
0.0
 11
-2.19993752
 21
-118.62000332
 31
0.0
  0
LINE
  5
11A4
330
A8E
100
AcDbEntity
  8
241
  6
CONTINUOUS
100
AcDbLine
 10
37.99999982
 20
-123.0
 30
0.0
 11
37.99999982
 21
-98.0
 31
0.0
  0
LWPOLYLINE
  5
11A5
330
A8E
100
AcDbEntity
  8
240
  6
CONTINUOUS
100
AcDbPolyline
 90
       14
 70
   128
 43
0.0
 10
119.99999982
 20
-138.0
 10
119.99999986
 20
-137.95352639
 10
119.99999986
 20
-137.76843834
 10
119.99999986
 20
-137.44286515
 10
119.99999986
 20
-136.97795692
 10
119.99999985
 20
-136.37535599
 10
119.99999985
 20
-135.63719108
 10
119.99999985
 20
-134.76606983
 10
119.99999985
 20
-133.76506954
 10
119.99999985
 20
-132.63772632
 10
119.99999985
 20
-131.3880226
 10
119.99999985
 20
-130.02037306
 10
119.99999984
 20
-128.53960903
 10
119.99999944
 20
-98.0
  0
LINE
  5
11A6
330
A8E
100
AcDbEntity
  8
241
  6
CONTINUOUS
100
AcDbLine
 10
39.04882915
 20
-137.39463796
 30
0.0
 11
114.99999982
 21
-137.39463796
 31
0.0
  0
LINE
  5
11A7
330
A8E
100
AcDbEntity
  8
240
  6
CONTINUOUS
100
AcDbLine
 10
39.04882915
 20
-143.0
 30
0.0
 11
114.99999982
 21
-143.0
 31
0.0
  0
ARC
  5
11A8
330
A8E
100
AcDbEntity
  8
241
  6
CONTINUOUS
100
AcDbCircle
 10
42.99999982
 20
-123.0
 30
0.0
 40
4.999999999999917
100
AcDbArc
 50
200.98793353
 51
339.01206647
  0
LINE
  5
11A9
330
A8E
100
AcDbEntity
  8
240
  6
CONTINUOUS
100
AcDbLine
 10
-2.19993752
 20
-118.62000332
 30
0.0
 11
-36.5
 21
-117.76242639
 31
0.0
  0
LINE
  5
11AA
330
A8E
100
AcDbEntity
  8
242
  6
HIDDEN2
100
AcDbLine
 10
-38.0
 20
-116.0
 30
0.0
 11
-31.8
 21
-116.0
 31
0.0
  0
LINE
  5
11AB
330
A8E
100
AcDbEntity
  8
240
  6
CONTINUOUS
100
AcDbLine
 10
-36.5
 20
-117.76242639
 30
0.0
 11
-38.0
 21
-116.26242639
 31
0.0
  0
LINE
  5
11AC
330
A8E
100
AcDbEntity
  8
242
  6
HIDDEN2
100
AcDbLine
 10
-31.8
 20
-117.87993672
 30
0.0
 11
-31.8
 21
-116.0
 31
0.0
  0
LINE
  5
11AD
330
A8E
100
AcDbEntity
  8
242
  6
HIDDEN2
100
AcDbLine
 10
-29.87185543
 20
-117.92814457
 30
0.0
 11
-31.8
 21
-116.0
 31
0.0
  0
LINE
  5
11AE
330
A8E
100
AcDbEntity
  8
240
  6
CONTINUOUS
100
AcDbLine
 10
0.0
 20
-129.4925
 30
0.0
 11
22.0
 21
-129.4925
 31
0.0
  0
LINE
  5
11AF
330
A8E
100
AcDbEntity
  8
241
  6
CONTINUOUS
100
AcDbLine
 10
9.95
 20
-128.18137426
 30
0.0
 11
14.05
 21
-128.18137426
 31
0.0
  0
LINE
  5
11B0
330
A8E
100
AcDbEntity
  8
241
  6
CONTINUOUS
100
AcDbLine
 10
9.95
 20
-106.99234142
 30
0.0
 11
14.05
 21
-106.99234142
 31
0.0
  0
LINE
  5
11B1
330
A8E
100
AcDbEntity
  8
240
100
AcDbLine
 10
0.0
 20
-129.4925
 30
0.0
 11
0.0
 21
-118.62000332
 31
0.0
  0
LINE
  5
11B2
330
A8E
100
AcDbEntity
  8
241
  6
CONTINUOUS
100
AcDbLine
 10
9.95
 20
-106.99234142
 30
0.0
 11
9.95
 21
-128.18137426
 31
0.0
  0
SPLINE
  5
11B3
330
A8E
100
AcDbEntity
  8
241
  6
CONTINUOUS
100
AcDbSpline
210
0.0
220
0.0
230
1.0
 70
     8
 71
     3
 72
     9
 73
     5
 74
     3
 42
0.0000000001
 43
0.0000000001
 44
0.0000000001
 40
0.0
 40
0.0
 40
0.0
 40
0.0
 40
10.74384375536301
 40
21.48768751072615
 40
21.48768751072615
 40
21.48768751072615
 40
21.48768751072615
 10
9.950000000000102
 20
-106.9923414211631
 30
0.0
 10
9.057475418454041
 20
-110.5238468937311
 30
0.0
 10
7.272426255361907
 20
-117.586857838867
 30
0.0
 10
9.057475418453993
 20
-124.649868784003
 30
0.0
 10
9.950000000000045
 20
-128.181374256571
 30
0.0
 11
9.950000000000102
 21
-106.9923414211631
 31
0.0
 11
8.164950836907962
 21
-117.586857838867
 31
0.0
 11
9.950000000000045
 21
-128.181374256571
 31
0.0
  0
LINE
  5
11B4
330
A8E
100
AcDbEntity
  8
240
100
AcDbLine
 10
-2.19993752
 20
-118.62000332
 30
0.0
 11
0.0
 21
-118.62000332
 31
0.0
  0
LINE
  5
11B5
330
A8E
100
AcDbEntity
  8
240
  6
CONTINUOUS
100
AcDbLine
 10
22.0
 20
-128.7925
 30
0.0
 11
22.0
 21
-129.4925
 31
0.0
  0
ARC
  5
11B6
330
A8E
100
AcDbEntity
  8
240
100
AcDbCircle
 10
23.3333751
 20
-131.7925
 30
0.0
 40
3.0
100
AcDbArc
 50
64.94391117
 51
90.0
  0
LINE
  5
11B7
330
A8E
100
AcDbEntity
  8
241
100
AcDbLine
 10
32.99999982
 20
-135.1183651
 30
0.0
 11
32.99999982
 21
-119.10600529
 31
0.0
  0
ARC
  5
11B8
330
A8E
100
AcDbEntity
  8
241
  6
CONTINUOUS
100
AcDbCircle
 10
52.71343969
 20
-124.80544312
 30
0.0
 40
18.62820166251305
100
AcDbArc
 50
189.67824076
 51
222.81564869
  0
LINE
  5
11B9
330
A8E
100
AcDbEntity
  8
240
100
AcDbLine
 10
24.60389092
 20
-129.07481909
 30
0.0
 11
31.84701037
 21
-132.46097743
 31
0.0
  0
LINE
  5
11BA
330
A8E
100
AcDbEntity
  8
241
  6
CONTINUOUS
100
AcDbLine
 10
39.04882915
 20
-143.0
 30
0.0
 11
39.04882915
 21
-137.39463796
 31
0.0
  0
ARC
  5
11BB
330
A8E
100
AcDbEntity
  8
240
  6
PHANTOM2
100
AcDbCircle
 10
39.04882915
 20
-138.0
 30
0.0
 40
5.0
100
AcDbArc
 50
200.0
 51
270.0
  0
LINE
  5
11BC
330
A8E
100
AcDbEntity
  8
241
100
AcDbLine
 10
35.54779146
 20
-141.56969678
 30
0.0
 11
35.54779146
 21
-132.04080198
 31
0.0
  0
ARC
  5
11BD
330
A8E
100
AcDbEntity
  8
240
100
AcDbCircle
 10
37.99999982
 20
-135.1183651
 30
0.0
 40
5.0
100
AcDbArc
 50
180.0
 51
200.0
  0
LINE
  5
11BE
330
A8E
100
AcDbEntity
  8
240
  6
PHANTOM2
100
AcDbLine
 10
34.35036605
 20
-139.71010072
 30
0.0
 11
33.30153672
 21
-136.82846581
 31
0.0
  0
ARC
  5
11BF
330
A8E
100
AcDbEntity
  8
240
100
AcDbCircle
 10
30.99999982
 20
-134.27276471
 30
0.0
 40
2.0
100
AcDbArc
 50
0.0
 51
64.94391117
  0
ARC
  5
11C0
330
A8E
100
AcDbEntity
  8
241
  6
CONTINUOUS
100
AcDbCircle
 10
62.3354067
 20
-80.96542848
 30
0.0
 40
46.30234640585558
100
AcDbArc
 50
215.42309324
 51
228.8172188
  0
LINE
  5
11C1
330
A8E
100
AcDbEntity
  8
241
  6
CONTINUOUS
100
AcDbLine
 10
14.05
 20
-106.99234142
 30
0.0
 11
14.05
 21
-128.18137426
 31
0.0
  0
SPLINE
  5
11C2
330
A8E
100
AcDbEntity
  8
241
  6
CONTINUOUS
100
AcDbSpline
210
0.0
220
0.0
230
1.0
 70
     8
 71
     3
 72
     9
 73
     5
 74
     3
 42
0.0000000001
 43
0.0000000001
 44
0.0000000001
 40
0.0
 40
0.0
 40
0.0
 40
0.0
 40
10.74384375536293
 40
21.48768751072604
 40
21.48768751072604
 40
21.48768751072604
 40
21.48768751072604
 10
14.05000000000009
 20
-128.1813742565709
 30
0.0
 10
14.94252458154613
 20
-124.6498687840029
 30
0.0
 10
16.72757374463822
 20
-117.586857838867
 30
0.0
 10
14.94252458154614
 20
-110.5238468937311
 30
0.0
 10
14.05000000000009
 20
-106.9923414211631
 30
0.0
 11
14.05000000000009
 21
-128.1813742565709
 31
0.0
 11
15.83504916309218
 21
-117.5868578388671
 31
0.0
 11
14.05000000000009
 21
-106.9923414211631
 31
0.0
  0
LINE
  5
11C3
330
A8E
100
AcDbEntity
  8
240
100
AcDbLine
 10
23.44582787
 20
-128.7925
 30
0.0
 11
22.0
 21
-128.7925
 31
0.0
  0
ARC
  5
11C4
330
A8E
100
AcDbEntity
  8
241
  6
CONTINUOUS
100
AcDbCircle
 10
23.03466878
 20
-108.54561302
 30
0.0
 40
1.736189555728835
100
AcDbArc
 50
25.3336887
 51
56.21999683
  0
ARC
  5
11C5
330
A8E
100
AcDbEntity
  8
241
  6
CONTINUOUS
100
AcDbCircle
 10
42.99999982
 20
-123.0
 30
0.0
 40
5.0
100
AcDbArc
 50
180.0
 51
200.98793353
  0
LWPOLYLINE
  5
11C6
330
A8E
100
AcDbEntity
  8
241
  6
CONTINUOUS
100
AcDbPolyline
 90
        3
 70
   128
 43
0.0
 10
32.99999982
 20
-120.52827174
 10
33.17306338
 20
-122.61779949
 10
33.30153672
 20
-123.24677717
  0
LINE
  5
11C7
330
A8E
100
AcDbEntity
  8
241
  6
CONTINUOUS
100
AcDbLine
 10
33.54480332
 20
-124.26309197
 30
0.0
 11
37.8527094
 21
-124.26309197
 31
0.0
  0
LWPOLYLINE
  5
11C8
330
A8E
100
AcDbEntity
  8
241
  6
CONTINUOUS
100
AcDbPolyline
 90
        3
 70
   128
 43
0.0
 10
33.54480332
 20
-124.26309197
 10
33.9670453
 20
-126.09539802
 10
34.35036605
 20
-127.93712373
  0
LINE
  5
11C9
330
A8E
100
AcDbEntity
  8
241
  6
CONTINUOUS
100
AcDbLine
 10
33.30153672
 20
-123.24677717
 30
0.0
 11
33.54480332
 21
-124.26309197
 31
0.0
  0
ARC
  5
11CA
330
A8E
100
AcDbEntity
  8
241
  6
CONTINUOUS
100
AcDbCircle
 10
28.75962318
 20
-118.69747115
 30
0.0
 40
4.2600110609418
100
AcDbArc
 50
354.49688988
 51
43.55303486
  0
LINE
  5
11CB
330
A8E
100
AcDbEntity
  8
241
  6
CONTINUOUS
100
AcDbLine
 10
119.09105675
 20
-123.0
 30
0.0
 11
47.99999982
 21
-123.0
 31
0.0
  0
ARC
  5
11CC
330
A8E
100
AcDbEntity
  8
241
  6
CONTINUOUS
100
AcDbCircle
 10
100.04991524
 20
-124.12404297
 30
0.0
 40
20.0158158485014
100
AcDbArc
 50
318.3237249
 51
350.15910822
  0
ARC
  5
11CD
330
A8E
100
AcDbEntity
  8
240
  6
CONTINUOUS
100
AcDbCircle
 10
114.99999982
 20
-138.0
 30
0.0
 40
5.0
100
AcDbArc
 50
270.0
 51
0.0
  0
ARC
  5
11CE
330
A8E
100
AcDbEntity
  8
241
  6
CONTINUOUS
100
AcDbCircle
 10
42.99999982
 20
-123.0
 30
0.0
 40
5.000000000000021
100
AcDbArc
 50
339.01206647
 51
0.0
  0
LINE
  5
11CF
330
A8E
100
AcDbEntity
  8
241
  6
CONTINUOUS
100
AcDbLine
 10
114.99999982
 20
-143.0
 30
0.0
 11
114.99999982
 21
-137.39463796
 31
0.0
  0
LINE
  5
11D0
330
A8E
100
AcDbEntity
  8
241
  6
CONTINUOUS
100
AcDbLine
 10
119.79999982
 20
-123.0
 30
0.0
 11
119.09105675
 21
-123.0
 31
0.0
  0
LINE
  5
11D1
330
A8E
100
AcDbEntity
  8
241
100
AcDbLine
 10
119.79999982
 20
-123.0
 30
0.0
 11
119.99999982
 21
-123.2
 31
0.0
1001
ASKLEADERCHILD
1000
LEADER
1005
0
1000
MYHANDLE
1005
11D1
1001
ASK_MEN_XD
1005
11D0
1070
     1
1005
0
1070
     1
  0
LINE
  5
11D2
330
A8E
100
AcDbEntity
  8
240
  6
CONTINUOUS
100
AcDbLine
 10
114.99999982
 20
-66.5
 30
0.0
 11
0.0
 21
-66.5
 31
0.0
  0
LINE
  5
11D3
330
A8E
100
AcDbEntity
  8
245
100
AcDbLine
 10
-39.0
 20
-98.0
 30
0.0
 11
120.99999944
 21
-98.0
 31
0.0
  0
LINE
  5
11D4
330
A8E
100
AcDbEntity
  8
240
100
AcDbLine
 10
102.80735112
 20
25.98925317
 30
0.0
 11
24.10725482
 21
31.4925
 31
0.0
  0
LINE
  5
11D5
330
A8E
100
AcDbEntity
  8
240
  6
CONTINUOUS
100
AcDbLine
 10
22.0
 20
-29.5
 30
0.0
 11
119.09105675
 21
-29.5
 31
0.0
  0
LINE
  5
11D6
330
A8E
100
AcDbEntity
  8
245
100
AcDbLine
 10
120.99999982
 20
0.0
 30
0.0
 11
-39.0
 21
0.0
 31
0.0
  0
ARC
  5
11D7
330
A8E
100
AcDbEntity
  8
241
  6
CONTINUOUS
100
AcDbCircle
 10
42.99999982
 20
-98.0
 30
0.0
 40
5.000000000000033
100
AcDbArc
 50
2.29244278
 51
36.86989765
  0
LINE
  5
11D8
330
A8E
100
AcDbEntity
  8
241
  6
HIDDEN2
100
AcDbLine
 10
37.99999982
 20
-4.5
 30
0.0
 11
119.99999982
 21
-4.5
 31
0.0
  0
SPLINE
  5
11D9
330
A8E
100
AcDbEntity
  8
241
  6
CONTINUOUS
100
AcDbSpline
210
0.0
220
0.0
230
1.0
 70
     8
 71
     3
 72
     9
 73
     5
 74
     3
 42
0.0000000001
 43
0.0000000001
 44
0.0000000001
 40
0.0
 40
0.0
 40
0.0
 40
0.0
 40
10.74384375536298
 40
21.48768751072605
 40
21.48768751072605
 40
21.48768751072605
 40
21.48768751072605
 10
14.05000000000018
 20
30.1813742565713
 30
0.0
 10
14.94252458154623
 20
26.64986878400335
 30
0.0
 10
16.72757374463833
 20
19.58685783886741
 30
0.0
 10
14.94252458154615
 20
12.5238468937315
 30
0.0
 10
14.05000000000006
 20
8.99234142116353
 30
0.0
 11
14.05000000000018
 21
30.1813742565713
 31
0.0
 11
15.83504916309226
 21
19.58685783886744
 31
0.0
 11
14.05000000000006
 21
8.99234142116353
 31
0.0
  0
LINE
  5
11DA
330
A8E
100
AcDbEntity
  8
241
  6
CONTINUOUS
100
AcDbLine
 10
14.05
 20
8.99234142
 30
0.0
 11
14.05
 21
30.18137426
 31
0.0
  0
LINE
  5
11DB
330
A8E
100
AcDbEntity
  8
241
  6
CONTINUOUS
100
AcDbLine
 10
9.95
 20
8.99234142
 30
0.0
 11
9.95
 21
30.18137426
 31
0.0
  0
LINE
  5
11DC
330
A8E
100
AcDbEntity
  8
241
100
AcDbLine
 10
22.0
 20
0.0
 30
0.0
 11
22.0
 21
31.4925
 31
0.0
  0
LINE
  5
11DD
330
A8E
100
AcDbEntity
  8
241
100
AcDbLine
 10
-36.5
 20
21.21334402
 30
0.0
 11
-36.5
 21
0.0
 31
0.0
  0
LINE
  5
11DE
330
A8E
100
AcDbEntity
  8
241
100
AcDbLine
 10
-2.2
 20
22.07078641
 30
0.0
 11
-2.2
 21
0.0
 31
0.0
  0
LINE
  5
11DF
330
A8E
100
AcDbEntity
  8
241
100
AcDbLine
 10
0.0
 20
22.07078641
 30
0.0
 11
0.0
 21
0.0
 31
0.0
  0
SPLINE
  5
11E0
330
A8E
100
AcDbEntity
  8
241
  6
CONTINUOUS
100
AcDbSpline
210
0.0
220
0.0
230
1.0
 70
     8
 71
     3
 72
     9
 73
     5
 74
     3
 42
0.0000000001
 43
0.0000000001
 44
0.0000000001
 40
0.0
 40
0.0
 40
0.0
 40
0.0
 40
10.74384375536297
 40
21.48768751072607
 40
21.48768751072607
 40
21.48768751072607
 40
21.48768751072607
 10
9.950000000000102
 20
8.992341421163501
 30
0.0
 10
9.057475418454039
 20
12.52384689373144
 30
0.0
 10
7.272426255361906
 20
19.58685783886736
 30
0.0
 10
9.057475418453996
 20
26.64986878400331
 30
0.0
 10
9.950000000000045
 20
30.1813742565713
 30
0.0
 11
9.950000000000102
 21
8.992341421163501
 31
0.0
 11
8.164950836907962
 21
19.58685783886733
 31
0.0
 11
9.950000000000045
 21
30.1813742565713
 31
0.0
  0
LINE
  5
11E1
330
A8E
100
AcDbEntity
  8
240
  6
CONTINUOUS
100
AcDbLine
 10
-38.0
 20
20.34731862
 30
0.0
 11
-38.0
 21
0.0
 31
0.0
1001
GRPNAME
1000
PASTMD1D
  0
LINE
  5
11E2
330
A8E
100
AcDbEntity
  8
240
  6
CONTINUOUS
100
AcDbLine
 10
-36.5
 20
-75.43757361
 30
0.0
 11
-2.19993751
 21
-74.57999668
 31
0.0
  0
LINE
  5
11E3
330
A8E
100
AcDbEntity
  8
240
  6
CONTINUOUS
100
AcDbLine
 10
-2.2
 20
-22.07078641
 30
0.0
 11
-36.5
 21
-21.21334402
 31
0.0
1001
GRPNAME
1000
PASTMD1E
  0
LINE
  5
11E4
330
A8E
100
AcDbEntity
  8
240
  6
CONTINUOUS
100
AcDbLine
 10
-38.0
 20
-76.30359901
 30
0.0
 11
-38.0
 21
-98.0
 31
0.0
  0
LINE
  5
11E5
330
A8E
100
AcDbEntity
  8
241
  6
CONTINUOUS
100
AcDbLine
 10
-36.5
 20
-75.43757361
 30
0.0
 11
-36.5
 21
-98.0
 31
0.0
  0
LINE
  5
11E6
330
A8E
100
AcDbEntity
  8
240
  6
CONTINUOUS
100
AcDbLine
 10
-38.0
 20
-76.30359901
 30
0.0
 11
-36.5
 21
-75.43757361
 31
0.0
  0
LINE
  5
11E7
330
A8E
100
AcDbEntity
  8
241
100
AcDbLine
 10
-36.5
 20
-21.21334402
 30
0.0
 11
-36.5
 21
0.0
 31
0.0
  0
LINE
  5
11E8
330
A8E
100
AcDbEntity
  8
240
  6
CONTINUOUS
100
AcDbLine
 10
-38.0
 20
-20.34731862
 30
0.0
 11
-38.0
 21
0.0
 31
0.0
1001
GRPNAME
1000
PASTMD1D
  0
LINE
  5
11E9
330
A8E
100
AcDbEntity
  8
240
  6
CONTINUOUS
100
AcDbLine
 10
-36.5
 20
-21.21334402
 30
0.0
 11
-38.0
 21
-20.34731862
 31
0.0
1001
GRPNAME
1000
PASTMD16
  0
LINE
  5
11EA
330
A8E
100
AcDbEntity
  8
241
  6
HIDDEN2
100
AcDbLine
 10
-36.5
 20
-3.5945
 30
0.0
 11
-31.8
 21
-3.5945
 31
0.0
  0
LINE
  5
11EB
330
A8E
100
AcDbEntity
  8
241
  6
HIDDEN2
100
AcDbLine
 10
-36.5
 20
3.5945
 30
0.0
 11
-31.8
 21
3.5945
 31
0.0
  0
LINE
  5
11EC
330
A8E
100
AcDbEntity
  8
241
  6
HIDDEN2
100
AcDbLine
 10
-38.0
 20
-2.7284746
 30
0.0
 11
-36.5
 21
-3.5945
 31
0.0
  0
LINE
  5
11ED
330
A8E
100
AcDbEntity
  8
241
  6
HIDDEN2
100
AcDbLine
 10
-38.0
 20
2.7284746
 30
0.0
 11
-36.5
 21
3.5945
 31
0.0
  0
LINE
  5
11EE
330
A8E
100
AcDbEntity
  8
241
  6
HIDDEN2
100
AcDbLine
 10
-31.8
 20
-3.5945
 30
0.0
 11
-31.8
 21
3.5945
 31
0.0
  0
SPLINE
  5
11EF
330
A8E
100
AcDbEntity
  8
241
  6
HIDDEN2
100
AcDbSpline
210
0.0
220
0.0
230
1.0
 70
     8
 71
     3
 72
     9
 73
     5
 74
     3
 42
0.0000000001
 43
0.0000000001
 44
0.0000000001
 40
0.0
 40
0.0
 40
0.0
 40
0.0
 40
4.078991509015605
 40
8.157983018031185
 40
8.157983018031185
 40
8.157983018031185
 40
8.157983018031185
 10
-31.80000000000006
 20
3.594499999999982
 30
0.0
 10
-30.83592771528518
 20
2.396333333333323
 30
0.0
 10
-28.90778314585542
 20
0.0000000000000138
 30
0.0
 10
-30.83592771528514
 20
-2.396333333333318
 30
0.0
 10
-31.80000000000001
 20
-3.594499999999982
 30
0.0
 11
-31.80000000000006
 21
3.594499999999982
 31
0.0
 11
-29.87185543057029
 21
0.0
 31
0.0
 11
-31.80000000000001
 21
-3.594499999999982
 31
0.0
  0
LINE
  5
11F0
330
A8E
100
AcDbEntity
  8
241
  6
CONTINUOUS
100
AcDbLine
 10
9.95
 20
-89.00765858
 30
0.0
 11
14.05
 21
-89.00765858
 31
0.0
  0
LINE
  5
11F1
330
A8E
100
AcDbEntity
  8
241
  6
CONTINUOUS
100
AcDbLine
 10
9.95
 20
-67.81862574
 30
0.0
 11
14.05
 21
-67.81862574
 31
0.0
  0
LINE
  5
11F2
330
A8E
100
AcDbEntity
  8
240
  6
CONTINUOUS
100
AcDbLine
 10
0.0
 20
-66.5
 30
0.0
 11
0.0
 21
-74.57999668
 31
0.0
  0
SPLINE
  5
11F3
330
A8E
100
AcDbEntity
  8
241
  6
CONTINUOUS
100
AcDbSpline
210
0.0
220
0.0
230
1.0
 70
     8
 71
     3
 72
     9
 73
     5
 74
     3
 42
0.0000000001
 43
0.0000000001
 44
0.0000000001
 40
0.0
 40
0.0
 40
0.0
 40
0.0
 40
10.74384375536295
 40
21.48768751072607
 40
21.48768751072607
 40
21.48768751072607
 40
21.48768751072607
 10
9.950000000000102
 20
-89.00765857883616
 30
0.0
 10
9.057475418454041
 20
-85.47615310626822
 30
0.0
 10
7.272426255361907
 20
-78.41314216113229
 30
0.0
 10
9.057475418453996
 20
-71.35013121599637
 30
0.0
 10
9.950000000000045
 20
-67.81862574342835
 30
0.0
 11
9.950000000000102
 21
-89.00765857883616
 31
0.0
 11
8.164950836907962
 21
-78.41314216113234
 31
0.0
 11
9.950000000000045
 21
-67.81862574342835
 31
0.0
  0
LINE
  5
11F4
330
A8E
100
AcDbEntity
  8
241
  6
CONTINUOUS
100
AcDbLine
 10
9.95
 20
-89.00765858
 30
0.0
 11
9.95
 21
-67.81862574
 31
0.0
  0
LINE
  5
11F5
330
A8E
100
AcDbEntity
  8
241
100
AcDbLine
 10
-2.19993752
 20
-74.57999668
 30
0.0
 11
-2.19993752
 21
-98.0
 31
0.0
  0
LINE
  5
11F6
330
A8E
100
AcDbEntity
  8
241
100
AcDbLine
 10
0.0
 20
-74.57999668
 30
0.0
 11
0.0
 21
-98.0
 31
0.0
  0
LINE
  5
11F7
330
A8E
100
AcDbEntity
  8
240
100
AcDbLine
 10
-2.19993751
 20
-74.57999668
 30
0.0
 11
0.0
 21
-74.57999668
 31
0.0
  0
LINE
  5
11F8
330
A8E
100
AcDbEntity
  8
241
100
AcDbLine
 10
23.99999982
 20
-98.0
 30
0.0
 11
23.99999982
 21
-66.5
 31
0.0
  0
LINE
  5
11F9
330
A8E
100
AcDbEntity
  8
241
  6
CONTINUOUS
100
AcDbLine
 10
22.0
 20
-98.0
 30
0.0
 11
22.0
 21
-66.5075
 31
0.0
  0
LINE
  5
11FA
330
A8E
100
AcDbEntity
  8
241
  6
CONTINUOUS
100
AcDbLine
 10
14.05
 20
-89.00765858
 30
0.0
 11
14.05
 21
-67.81862574
 31
0.0
  0
SPLINE
  5
11FB
330
A8E
100
AcDbEntity
  8
241
  6
CONTINUOUS
100
AcDbSpline
210
0.0
220
0.0
230
1.0
 70
     8
 71
     3
 72
     9
 73
     5
 74
     3
 42
0.0000000001
 43
0.0000000001
 44
0.0000000001
 40
0.0
 40
0.0
 40
0.0
 40
0.0
 40
10.74384375536308
 40
21.48768751072606
 40
21.48768751072606
 40
21.48768751072606
 40
21.48768751072606
 10
14.05000000000009
 20
-67.81862574342835
 30
0.0
 10
14.94252458154614
 20
-71.35013121599634
 30
0.0
 10
16.72757374463822
 20
-78.41314216113229
 30
0.0
 10
14.94252458154613
 20
-85.4761531062682
 30
0.0
 10
14.05000000000009
 20
-89.00765857883616
 30
0.0
 11
14.05000000000009
 21
-67.81862574342835
 31
0.0
 11
15.83504916309218
 21
-78.41314216113231
 31
0.0
 11
14.05000000000009
 21
-89.00765857883616
 31
0.0
  0
ARC
  5
11FC
330
A8E
100
AcDbEntity
  8
241
  6
CONTINUOUS
100
AcDbCircle
 10
42.99999982
 20
-98.0
 30
0.0
 40
5.000000000000011
100
AcDbArc
 50
143.13010235
 51
180.0
  0
ARC
  5
11FD
330
A8E
100
AcDbEntity
  8
241
  6
CONTINUOUS
100
AcDbCircle
 10
43.00005964
 20
-97.99909464
 30
0.0
 40
4.999504701081903
100
AcDbArc
 50
36.86347141
 51
143.1388142
  0
LINE
  5
11FE
330
A8E
100
AcDbEntity
  8
241
  6
CONTINUOUS
100
AcDbLine
 10
9.95
 20
-30.18137426
 30
0.0
 11
14.05
 21
-30.18137426
 31
0.0
  0
LINE
  5
11FF
330
A8E
100
AcDbEntity
  8
240
  6
CONTINUOUS
100
AcDbLine
 10
0.0
 20
-31.4925
 30
0.0
 11
22.0
 21
-31.4925
 31
0.0
  0
LINE
  5
1200
330
A8E
100
AcDbEntity
  8
241
  6
CONTINUOUS
100
AcDbLine
 10
9.95
 20
8.99234142
 30
0.0
 11
14.05
 21
8.99234142
 31
0.0
  0
LINE
  5
1201
330
A8E
100
AcDbEntity
  8
241
  6
CONTINUOUS
100
AcDbLine
 10
9.95
 20
-8.99234142
 30
0.0
 11
14.05
 21
-8.99234142
 31
0.0
  0
CIRCLE
  5
1202
330
A8E
100
AcDbEntity
  8
241
100
AcDbCircle
 10
11.99999988
 20
0.0
 30
0.0
 40
5.0
  0
LINE
  5
1203
330
A8E
100
AcDbEntity
  8
241
100
AcDbLine
 10
0.0
 20
-22.07078641
 30
0.0
 11
0.0
 21
0.0
 31
0.0
  0
LINE
  5
1204
330
A8E
100
AcDbEntity
  8
241
100
AcDbLine
 10
-2.2
 20
-22.07078641
 30
0.0
 11
-2.2
 21
0.0
 31
0.0
  0
LINE
  5
1205
330
A8E
100
AcDbEntity
  8
241
  6
CONTINUOUS
100
AcDbLine
 10
9.95
 20
-8.99234142
 30
0.0
 11
9.95
 21
-30.18137426
 31
0.0
  0
SPLINE
  5
1206
330
A8E
100
AcDbEntity
  8
241
  6
CONTINUOUS
100
AcDbSpline
210
0.0
220
0.0
230
1.0
 70
     8
 71
     3
 72
     9
 73
     5
 74
     3
 42
0.0000000001
 43
0.0000000001
 44
0.0000000001
 40
0.0
 40
0.0
 40
0.0
 40
0.0
 40
10.74384375536299
 40
21.4876875107261
 40
21.4876875107261
 40
21.4876875107261
 40
21.4876875107261
 10
9.950000000000102
 20
-8.992341421163501
 30
0.0
 10
9.057475418454039
 20
-12.52384689373145
 30
0.0
 10
7.272426255361908
 20
-19.58685783886739
 30
0.0
 10
9.057475418453996
 20
-26.64986878400334
 30
0.0
 10
9.950000000000045
 20
-30.18137425657133
 30
0.0
 11
9.950000000000102
 21
-8.992341421163501
 31
0.0
 11
8.164950836907962
 21
-19.58685783886735
 31
0.0
 11
9.950000000000045
 21
-30.18137425657133
 31
0.0
  0
LINE
  5
1207
330
A8E
100
AcDbEntity
  8
240
  6
CONTINUOUS
100
AcDbLine
 10
0.0
 20
-22.07078641
 30
0.0
 11
0.0
 21
-31.4925
 31
0.0
  0
LINE
  5
1208
330
A8E
100
AcDbEntity
  8
240
100
AcDbLine
 10
-2.2
 20
-22.07078641
 30
0.0
 11
0.0
 21
-22.07078641
 31
0.0
  0
LINE
  5
1209
330
A8E
100
AcDbEntity
  8
241
100
AcDbLine
 10
22.0
 20
-29.5
 30
0.0
 11
22.0
 21
0.0
 31
0.0
  0
LINE
  5
120A
330
A8E
100
AcDbEntity
  8
241
  6
CONTINUOUS
100
AcDbLine
 10
14.05
 20
-8.99234142
 30
0.0
 11
14.05
 21
-30.18137426
 31
0.0
  0
SPLINE
  5
120B
330
A8E
100
AcDbEntity
  8
241
  6
CONTINUOUS
100
AcDbSpline
210
0.0
220
0.0
230
1.0
 70
     8
 71
     3
 72
     9
 73
     5
 74
     3
 42
0.0000000001
 43
0.0000000001
 44
0.0000000001
 40
0.0
 40
0.0
 40
0.0
 40
0.0
 40
10.74384375536301
 40
21.48768751072608
 40
21.48768751072608
 40
21.48768751072608
 40
21.48768751072608
 10
14.05000000000018
 20
-30.1813742565713
 30
0.0
 10
14.94252458154623
 20
-26.64986878400334
 30
0.0
 10
16.72757374463833
 20
-19.58685783886739
 30
0.0
 10
14.94252458154615
 20
-12.52384689373147
 30
0.0
 10
14.05000000000006
 20
-8.992341421163501
 30
0.0
 11
14.05000000000018
 21
-30.1813742565713
 31
0.0
 11
15.83504916309226
 21
-19.58685783886741
 31
0.0
 11
14.05000000000006
 21
-8.992341421163501
 31
0.0
  0
LINE
  5
120C
330
A8E
100
AcDbEntity
  8
241
  6
HIDDEN2
100
AcDbLine
 10
37.99999982
 20
-4.5
 30
0.0
 11
37.99999982
 21
-29.5
 31
0.0
  0
LINE
  5
120D
330
A8E
100
AcDbEntity
  8
240
  6
CONTINUOUS
100
AcDbLine
 10
22.0
 20
-31.4925
 30
0.0
 11
22.0
 21
-29.5
 31
0.0
  0
LINE
  5
120E
330
A8E
100
AcDbEntity
  8
240
  6
CONTINUOUS
100
AcDbLine
 10
-2.2
 20
22.07078641
 30
0.0
 11
-36.5
 21
21.21334402
 31
0.0
1001
GRPNAME
1000
PASTMD15
  0
LINE
  5
120F
330
A8E
100
AcDbEntity
  8
240
  6
CONTINUOUS
100
AcDbLine
 10
-38.0
 20
20.34731862
 30
0.0
 11
-36.5
 21
21.21334402
 31
0.0
1001
GRPNAME
1000
PASTMD1D
  0
LINE
  5
1210
330
A8E
100
AcDbEntity
  8
241
  6
CONTINUOUS
100
AcDbLine
 10
9.95
 20
30.18137426
 30
0.0
 11
14.05
 21
30.18137426
 31
0.0
  0
LINE
  5
1211
330
A8E
100
AcDbEntity
  8
240
  6
CONTINUOUS
100
AcDbLine
 10
0.0
 20
31.4925
 30
0.0
 11
24.10725482
 21
31.4925
 31
0.0
  0
LINE
  5
1212
330
A8E
100
AcDbEntity
  8
240
  6
CONTINUOUS
100
AcDbLine
 10
0.0
 20
22.07078641
 30
0.0
 11
0.0
 21
31.4925
 31
0.0
  0
LINE
  5
1213
330
A8E
100
AcDbEntity
  8
240
100
AcDbLine
 10
-2.2
 20
22.07078641
 30
0.0
 11
0.0
 21
22.07078641
 31
0.0
  0
LINE
  5
1214
330
A8E
100
AcDbEntity
  8
245
100
AcDbLine
 10
189.0
 20
46.0
 30
0.0
 11
189.0
 21
-46.0
 31
0.0
  0
ARC
  5
1215
330
A8E
100
AcDbEntity
  8
240
  6
CONTINUOUS
100
AcDbCircle
 10
189.0
 20
0.0
 30
0.0
 40
31.4999999999998
100
AcDbArc
 50
90.0
 51
180.0
  0
LINE
  5
1216
330
A8E
100
AcDbEntity
  8
240
  6
CONTINUOUS
100
AcDbLine
 10
119.99999982
 20
9.85786444
 30
0.0
 11
119.99999982
 21
-28.60148242
 31
0.0
  0
LINE
  5
1217
330
A8E
100
AcDbEntity
  8
241
  6
CONTINUOUS
100
AcDbLine
 10
119.79999982
 20
-97.8
 30
0.0
 11
47.99599822
 21
-97.8
 31
0.0
  0
ARC
  5
1218
330
A8E
100
AcDbEntity
  8
240
  6
CONTINUOUS
100
AcDbCircle
 10
114.99999982
 20
-71.5
 30
0.0
 40
5.0
100
AcDbArc
 50
0.0
 51
90.0
  0
LWPOLYLINE
  5
1219
330
A8E
100
AcDbEntity
  8
241
  6
CONTINUOUS
100
AcDbPolyline
 90
       38
 70
   128
 43
0.0
 10
81.99999982
 20
-68.21964339
 10
81.00655823
 20
-68.24882425
 10
80.04140666
 20
-68.33636399
 10
79.13304384
 20
-68.48376032
 10
78.30415128
 20
-68.69160045
 10
77.56820947
 20
-68.96484531
 10
76.94978793
 20
-69.29942923
 10
76.43896713
 20
-69.71444502
 10
76.07109629
 20
-70.1883056
 10
75.83022054
 20
-70.76950327
 10
75.75002943
 20
-71.40200858
 10
75.84290393
 20
-72.17967394
 10
76.11618187
 20
-72.99194602
 10
76.64646581
 20
-73.96164582
 10
77.39290772
 20
-74.91857479
 10
78.13313443
 20
-75.63516316
 10
79.01377094
 20
-76.28073275
 10
79.70299159
 20
-76.6569288
 10
80.45888141
 20
-76.95178667
 10
81.80842438
 20
-77.18657309
 10
83.18354049
 20
-77.04987539
 10
83.94653761
 20
-76.80833333
 10
84.65000391
 20
-76.47764472
 10
85.54614231
 20
-75.89348264
 10
86.31049061
 20
-75.22767861
 10
87.15585287
 20
-74.2469845
 10
87.76901334
 20
-73.23927259
 10
88.14305073
 20
-72.23743852
 10
88.24703517
 20
-71.28560826
 10
88.11690001
 20
-70.59602577
 10
87.78549988
 20
-69.97359396
 10
87.23443915
 20
-69.43063187
 10
86.47090806
 20
-68.98210723
 10
85.6423249
 20
-68.67601072
 10
84.68683685
 20
-68.44849395
 10
83.73052433
 20
-68.31004842
 10
82.72180012
 20
-68.23490576
 10
81.99999982
 20
-68.21964339
  0
LINE
  5
121A
330
A8E
100
AcDbEntity
  8
245
100
AcDbLine
 10
81.99999982
 20
-66.21964339
 30
0.0
 11
81.99999982
 21
-79.16752894
 31
0.0
  0
LINE
  5
121B
330
A8E
100
AcDbEntity
  8
245
100
AcDbLine
 10
56.99999982
 20
-66.21964339
 30
0.0
 11
56.99999982
 21
-79.21990239
 31
0.0
  0
LWPOLYLINE
  5
121C
330
A8E
100
AcDbEntity
  8
241
  6
CONTINUOUS
100
AcDbPolyline
 90
       38
 70
   128
 43
0.0
 10
56.99999982
 20
-68.21964339
 10
56.00655823
 20
-68.24882425
 10
55.04140666
 20
-68.33636399
 10
54.13304384
 20
-68.48376032
 10
53.30415128
 20
-68.69160045
 10
52.56820947
 20
-68.96484531
 10
51.94978793
 20
-69.29942923
 10
51.43896713
 20
-69.71444502
 10
51.07109629
 20
-70.1883056
 10
50.83022054
 20
-70.76950327
 10
50.75002943
 20
-71.40200858
 10
50.84290393
 20
-72.17967394
 10
51.11618187
 20
-72.99194602
 10
51.64646581
 20
-73.96164582
 10
52.39290772
 20
-74.91857479
 10
53.13313443
 20
-75.63516316
 10
54.01377094
 20
-76.28073275
 10
54.70299159
 20
-76.6569288
 10
55.45888141
 20
-76.95178667
 10
56.80842438
 20
-77.18657309
 10
58.18354049
 20
-77.04987539
 10
58.94653761
 20
-76.80833333
 10
59.65000391
 20
-76.47764472
 10
60.54614231
 20
-75.89348264
 10
61.31049061
 20
-75.22767861
 10
62.15585287
 20
-74.2469845
 10
62.76901334
 20
-73.23927259
 10
63.14305073
 20
-72.23743852
 10
63.24703517
 20
-71.28560826
 10
63.11690001
 20
-70.59602577
 10
62.78549988
 20
-69.97359396
 10
62.23443915
 20
-69.43063187
 10
61.47090806
 20
-68.98210723
 10
60.6423249
 20
-68.67601072
 10
59.68683685
 20
-68.44849395
 10
58.73052433
 20
-68.31004842
 10
57.72180012
 20
-68.23490576
 10
56.99999982
 20
-68.21964339
  0
LINE
  5
121D
330
A8E
100
AcDbEntity
  8
245
100
AcDbLine
 10
107.0
 20
-66.18113687
 30
0.0
 11
107.0
 21
-79.16752892
 31
0.0
  0
LWPOLYLINE
  5
121E
330
A8E
100
AcDbEntity
  8
241
  6
CONTINUOUS
100
AcDbPolyline
 90
       38
 70
   128
 43
0.0
 10
106.99999982
 20
-68.21964339
 10
106.00655823
 20
-68.24882425
 10
105.04140666
 20
-68.33636399
 10
104.13304384
 20
-68.48376032
 10
103.30415128
 20
-68.69160045
 10
102.56820947
 20
-68.96484531
 10
101.94978793
 20
-69.29942923
 10
101.43896713
 20
-69.71444502
 10
101.07109629
 20
-70.1883056
 10
100.83022054
 20
-70.76950327
 10
100.75002943
 20
-71.40200858
 10
100.84290393
 20
-72.17967394
 10
101.11618187
 20
-72.99194602
 10
101.64646581
 20
-73.96164582
 10
102.39290772
 20
-74.91857479
 10
103.13313443
 20
-75.63516316
 10
104.01377094
 20
-76.28073275
 10
104.70299159
 20
-76.6569288
 10
105.45888141
 20
-76.95178667
 10
106.80842438
 20
-77.18657309
 10
108.18354049
 20
-77.04987539
 10
108.94653761
 20
-76.80833333
 10
109.65000391
 20
-76.47764472
 10
110.54614231
 20
-75.89348264
 10
111.31049061
 20
-75.22767861
 10
112.15585287
 20
-74.2469845
 10
112.76901334
 20
-73.23927259
 10
113.14305073
 20
-72.23743852
 10
113.24703517
 20
-71.28560826
 10
113.11690001
 20
-70.59602577
 10
112.78549988
 20
-69.97359396
 10
112.23443915
 20
-69.43063187
 10
111.47090806
 20
-68.98210723
 10
110.6423249
 20
-68.67601072
 10
109.68683685
 20
-68.44849395
 10
108.73052433
 20
-68.31004842
 10
107.72180012
 20
-68.23490576
 10
106.99999982
 20
-68.21964339
  0
LINE
  5
121F
330
A8E
100
AcDbEntity
  8
245
100
AcDbLine
 10
50.0
 20
-17.0
 30
0.0
 11
113.99999982
 21
-17.0
 31
0.0
  0
CIRCLE
  5
1220
330
A8E
100
AcDbEntity
  8
241
100
AcDbCircle
 10
82.0
 20
-17.0
 30
0.0
 40
6.0
  0
CIRCLE
  5
1221
330
A8E
100
AcDbEntity
  8
242
  6
CONTINUOUS
100
AcDbCircle
 10
81.99999982
 20
-17.0
 30
0.0
 40
5.125
  0
LINE
  5
1222
330
A8E
100
AcDbEntity
  8
241
100
AcDbLine
 10
82.0
 20
-13.53589838
 30
0.0
 11
85.0
 21
-15.26794919
 31
0.0
  0
LINE
  5
1223
330
A8E
100
AcDbEntity
  8
241
100
AcDbLine
 10
85.0
 20
-18.73205081
 30
0.0
 11
82.0
 21
-20.46410162
 31
0.0
  0
LINE
  5
1224
330
A8E
100
AcDbEntity
  8
245
100
AcDbLine
 10
57.0
 20
-24.0
 30
0.0
 11
57.0
 21
-10.0
 31
0.0
  0
CIRCLE
  5
1225
330
A8E
100
AcDbEntity
  8
241
100
AcDbCircle
 10
57.0
 20
-17.0
 30
0.0
 40
6.0
  0
CIRCLE
  5
1226
330
A8E
100
AcDbEntity
  8
242
  6
CONTINUOUS
100
AcDbCircle
 10
56.99999982
 20
-17.0
 30
0.0
 40
5.125
  0
LINE
  5
1227
330
A8E
100
AcDbEntity
  8
241
100
AcDbLine
 10
54.0
 20
-18.73205081
 30
0.0
 11
54.0
 21
-15.26794919
 31
0.0
  0
LINE
  5
1228
330
A8E
100
AcDbEntity
  8
241
100
AcDbLine
 10
60.0
 20
-15.26794919
 30
0.0
 11
60.0
 21
-18.73205081
 31
0.0
  0
LINE
  5
1229
330
A8E
100
AcDbEntity
  8
245
100
AcDbLine
 10
82.0
 20
-24.0
 30
0.0
 11
82.0
 21
-10.0
 31
0.0
  0
LINE
  5
122A
330
A8E
100
AcDbEntity
  8
241
100
AcDbLine
 10
79.0
 20
-18.73205081
 30
0.0
 11
79.0
 21
-15.26794919
 31
0.0
  0
LINE
  5
122B
330
A8E
100
AcDbEntity
  8
241
100
AcDbLine
 10
57.0
 20
-20.46410162
 30
0.0
 11
54.0
 21
-18.73205081
 31
0.0
  0
LINE
  5
122C
330
A8E
100
AcDbEntity
  8
241
100
AcDbLine
 10
60.0
 20
-18.73205081
 30
0.0
 11
57.0
 21
-20.46410162
 31
0.0
  0
LINE
  5
122D
330
A8E
100
AcDbEntity
  8
241
100
AcDbLine
 10
82.0
 20
-20.46410162
 30
0.0
 11
79.0
 21
-18.73205081
 31
0.0
  0
LINE
  5
122E
330
A8E
100
AcDbEntity
  8
241
100
AcDbLine
 10
54.0
 20
-15.26794919
 30
0.0
 11
57.0
 21
-13.53589838
 31
0.0
  0
LINE
  5
122F
330
A8E
100
AcDbEntity
  8
241
100
AcDbLine
 10
57.0
 20
-13.53589838
 30
0.0
 11
60.0
 21
-15.26794919
 31
0.0
  0
LINE
  5
1230
330
A8E
100
AcDbEntity
  8
241
100
AcDbLine
 10
79.0
 20
-15.26794919
 30
0.0
 11
82.0
 21
-13.53589838
 31
0.0
  0
CIRCLE
  5
1231
330
A8E
100
AcDbEntity
  8
241
100
AcDbCircle
 10
106.99999982
 20
-17.0
 30
0.0
 40
6.0
  0
LINE
  5
1232
330
A8E
100
AcDbEntity
  8
241
100
AcDbLine
 10
85.0
 20
-15.26794919
 30
0.0
 11
85.0
 21
-18.73205081
 31
0.0
  0
LINE
  5
1233
330
A8E
100
AcDbEntity
  8
245
100
AcDbLine
 10
106.99999982
 20
-24.0
 30
0.0
 11
106.99999982
 21
-10.0
 31
0.0
  0
CIRCLE
  5
1234
330
A8E
100
AcDbEntity
  8
242
  6
CONTINUOUS
100
AcDbCircle
 10
106.99999964
 20
-17.0
 30
0.0
 40
5.125
  0
LINE
  5
1235
330
A8E
100
AcDbEntity
  8
241
100
AcDbLine
 10
103.99999982
 20
-18.73205081
 30
0.0
 11
103.99999982
 21
-15.26794919
 31
0.0
  0
LINE
  5
1236
330
A8E
100
AcDbEntity
  8
241
100
AcDbLine
 10
109.99999982
 20
-15.26794919
 30
0.0
 11
109.99999982
 21
-18.73205081
 31
0.0
  0
LINE
  5
1237
330
A8E
100
AcDbEntity
  8
241
100
AcDbLine
 10
109.99999982
 20
-18.73205081
 30
0.0
 11
106.99999982
 21
-20.46410162
 31
0.0
  0
LINE
  5
1238
330
A8E
100
AcDbEntity
  8
241
100
AcDbLine
 10
106.99999982
 20
-20.46410162
 30
0.0
 11
103.99999982
 21
-18.73205081
 31
0.0
  0
LINE
  5
1239
330
A8E
100
AcDbEntity
  8
241
100
AcDbLine
 10
106.99999982
 20
-13.53589838
 30
0.0
 11
109.99999982
 21
-15.26794919
 31
0.0
  0
LINE
  5
123A
330
A8E
100
AcDbEntity
  8
241
100
AcDbLine
 10
103.99999982
 20
-15.26794919
 30
0.0
 11
106.99999982
 21
-13.53589838
 31
0.0
  0
LINE
  5
123B
330
A8E
100
AcDbEntity
  8
240
  6
CONTINUOUS
100
AcDbLine
 10
119.99999982
 20
-98.0
 30
0.0
 11
119.99999982
 21
-71.5
 31
0.0
  0
ARC
  5
123C
330
A8E
100
AcDbEntity
  8
240
  6
CONTINUOUS
100
AcDbCircle
 10
187.0
 20
0.0
 30
0.0
 40
29.49999999999977
100
AcDbArc
 50
180.0
 51
270.0
  0
ARC
  5
123D
330
A8E
100
AcDbEntity
  8
240
  6
CONTINUOUS
100
AcDbCircle
 10
119.00478926
 20
-28.50372799
 30
0.0
 40
1.000000000000019
100
AcDbArc
 50
274.94891456
 51
354.39012503
  0
LINE
  5
123E
330
A8E
100
AcDbEntity
  8
241
  6
CONTINUOUS
100
AcDbLine
 10
188.8
 20
-4.5
 30
0.0
 11
188.8
 21
-29.5
 31
0.0
  0
LWPOLYLINE
  5
123F
330
A8E
100
AcDbEntity
  8
241
  6
CONTINUOUS
100
AcDbPolyline
 90
       43
 70
   128
 43
0.0
 10
172.0
 20
-9.03052813
 10
171.1057464
 20
-8.9724914
 10
170.23146895
 20
-8.79967766
 10
169.39669757
 20
-8.51594727
 10
168.62007965
 20
-8.12763832
 10
167.91896357
 20
-7.64342497
 10
167.30901111
 20
-7.07412375
 10
166.80384758
 20
-6.43245192
 10
166.41475751
 20
-5.73274336
 10
166.15043253
 20
-4.9906284
 10
166.01677722
 20
-4.22268466
 10
166.01677722
 20
-3.44606675
 10
166.15043253
 20
-2.67812302
 10
166.41475751
 20
-1.93600806
 10
166.80384758
 20
-1.2362995
 10
167.30901111
 20
-0.59462766
 10
167.91896357
 20
-0.02532645
 10
168.62007965
 20
0.4588869
 10
169.39669757
 20
0.84719586
 10
170.23146895
 20
1.13092624
 10
171.1057464
 20
1.30373999
 10
172.0
 20
1.36177671
 10
172.8942536
 20
1.30373999
 10
173.76853105
 20
1.13092624
 10
174.60330243
 20
0.84719586
 10
175.37992035
 20
0.4588869
 10
176.08103643
 20
-0.02532645
 10
176.69098889
 20
-0.59462766
 10
177.19615242
 20
-1.2362995
 10
177.58524249
 20
-1.93600806
 10
177.84956747
 20
-2.67812302
 10
177.98322278
 20
-3.44606675
 10
177.98322278
 20
-4.22268466
 10
177.84956747
 20
-4.9906284
 10
177.58524249
 20
-5.73274336
 10
177.19615242
 20
-6.43245192
 10
176.69098889
 20
-7.07412375
 10
176.08103643
 20
-7.64342497
 10
175.37992035
 20
-8.12763832
 10
174.60330243
 20
-8.51594727
 10
173.76853105
 20
-8.79967766
 10
172.8942536
 20
-8.9724914
 10
172.0
 20
-9.03052813
  0
ELLIPSE
  5
1240
330
A8E
100
AcDbEntity
  8
241
  6
CONTINUOUS
100
AcDbEllipse
 10
172.0
 20
-5.77350269
 30
0.0
 11
0.0000000000000006
 21
9.237604307034018
 31
0.0
210
0.0
220
0.0
230
1.0
 40
0.8660254
 41
1.881761130281499
 42
4.401424176898101
  0
ARC
  5
1241
330
A8E
100
AcDbEntity
  8
241
  6
CONTINUOUS
100
AcDbCircle
 10
172.0
 20
-6.48012702
 30
0.0
 40
7.905823561234222
100
AcDbArc
 50
344.44634305
 51
195.55365695
  0
ARC
  5
1242
330
A8E
100
AcDbEntity
  8
240
  6
CONTINUOUS
100
AcDbCircle
 10
110.0
 20
9.85786438
 30
0.0
 40
10.0
100
AcDbArc
 50
0.0
 51
45.0
  0
ARC
  5
1243
330
A8E
100
AcDbEntity
  8
240
  6
CONTINUOUS
100
AcDbCircle
 10
101.76100402
 20
11.02579241
 30
0.0
 40
15.0
100
AcDbArc
 50
45.0
 51
86.0
  0
LINE
  5
1244
330
A8E
100
AcDbEntity
  8
240
  6
CONTINUOUS
100
AcDbLine
 10
112.3676058
 20
21.6323942
 30
0.0
 11
115.0
 21
19.0
 31
0.0
  0
SPLINE
  5
1245
330
A8E
100
AcDbEntity
  8
240
  6
CONTINUOUS
100
AcDbSpline
210
0.0
220
0.0
230
1.0
 70
    24
 71
     3
 72
    14
 73
    10
 74
     0
 42
0.0000000001
 43
0.0000000001
 40
49.14148803189471
 40
49.14148803189471
 40
49.14148803189471
 40
49.14148803189471
 40
49.77447542161488
 40
49.77447542161488
 40
50.53343234137053
 40
50.53343234137053
 40
51.29238926112618
 40
51.29238926112618
 40
52.05134618088184
 40
52.05134618088184
 40
52.05134618088184
 40
52.05134618088184
 10
117.0710678118645
 20
16.92893218813472
 30
0.0
 10
116.920312225698
 20
17.07968777430133
 30
0.0
 10
116.7654013855847
 20
17.23459861441463
 30
0.0
 10
116.422077623569
 20
17.57792237643016
 30
0.0
 10
116.233132009674
 20
17.7668679903252
 30
0.0
 10
115.8612309336156
 20
18.13876906638373
 30
0.0
 10
115.6781878821399
 20
18.32181211785931
 30
0.0
 10
115.3264512068244
 20
18.67354879317488
 30
0.0
 10
115.1577503819128
 20
18.84224961808652
 30
0.0
 10
114.9999999999991
 20
19.00000000000025
 30
0.0
  0
ARC
  5
1246
330
A8E
100
AcDbEntity
  8
240
  6
CONTINUOUS
100
AcDbCircle
 10
189.0
 20
0.0
 30
0.0
 40
44.99999999999997
100
AcDbArc
 50
331.09666546
 51
24.97496542
  0
ARC
  5
1247
330
A8E
100
AcDbEntity
  8
240
  6
CONTINUOUS
100
AcDbCircle
 10
215.26309197
 20
-14.5
 30
0.0
 40
15.0
100
AcDbArc
 50
270.0
 51
331.09666546
1001
ASK_MEN_XD
1005
1246
1070
     1
1005
0
1070
     1
  0
LINE
  5
1248
330
A8E
100
AcDbEntity
  8
241
  6
CONTINUOUS
100
AcDbLine
 10
214.0
 20
-4.5
 30
0.0
 11
214.0
 21
-29.5
 31
0.0
  0
ARC
  5
1249
330
A8E
100
AcDbEntity
  8
240
  6
CONTINUOUS
100
AcDbCircle
 10
211.19797288
 20
11.5
 30
0.0
 40
19.99999999997523
100
AcDbArc
 50
28.59384951
 51
44.06018053
  0
ARC
  5
124A
330
A8E
100
AcDbEntity
  8
240
  6
CONTINUOUS
100
AcDbCircle
 10
211.19797288
 20
11.5
 30
0.0
 40
20.00000000000075
100
AcDbArc
 50
44.06018053
 51
90.0
  0
ARC
  5
124B
330
A8E
100
AcDbEntity
  8
241
  6
CONTINUOUS
100
AcDbCircle
 10
211.19797288
 20
11.5
 30
0.0
 40
20.00000000000001
100
AcDbArc
 50
27.3871075
 51
28.59384951
  0
ARC
  5
124C
330
A8E
100
AcDbEntity
  8
240
  6
CONTINUOUS
100
AcDbCircle
 10
189.0
 20
0.0
 30
0.0
 40
45.0000000000003
100
AcDbArc
 50
24.97496542
 51
27.3871075
  0
ENDBLK
  5
A90
330
A8E
100
AcDbEntity
  8
0
100
AcDbBlockEnd
  0
ENDSEC
  0
SECTION
  2
ENTITIES
  0
INSERT
  5
6E6
330
1A
100
AcDbEntity
  8
245
100
AcDbBlockReference
  2
矢印なし
 10
175.62382697
 20
90.55123572
 30
0.0
  0
LINE
  5
964
330
1A
100
AcDbEntity
  8
250
  6
CONTINUOUS
100
AcDbLine
 10
-22.39241901
 20
-28.40901065
 30
0.0
 11
-32.65908568
 21
-28.40901065
 31
0.0
1001
ITEMNAME
1000
LNSP2
  0
MTEXT
  5
968
330
1A
100
AcDbEntity
  8
251
  6
CONTINUOUS
100
AcDbMText
 10
-29.85908568
 20
-27.40901065
 30
0.0
 40
2.8
 41
0.0
 71
     7
 72
     1
  1
C6
  7
YOKO
1001
ITEMNAME
1000
LNSP3
1001
ACAD
1000
MTEXTBEGIN
1070
    73
1070
     1
1070
    44
1040
1.0
1070
    74
1070
     0
1000
MTEXTEND
1000
MTEXTBEGIN
1070
    73
1070
     1
1070
    44
1040
1.0
1070
    74
1070
     0
1000
MTEXTEND
1000
MTEXTBEGIN
1070
    73
1070
     1
1070
    44
1040
1.0
1070
    74
1070
     0
1000
MTEXTEND
1000
MTEXTBEGIN
1070
    73
1070
     1
1070
    44
1040
1.0
1070
    74
1070
     0
1000
MTEXTEND
1000
MTEXTBEGIN
1070
    73
1070
     1
1070
    44
1040
1.0
1070
    74
1070
     0
1000
MTEXTEND
  0
LEADER
  5
978
330
1A
100
AcDbEntity
  8
250
  6
CONTINUOUS
100
AcDbLeader
  3
BIGT$7
 76
     2
 10
-18.49782056
 20
-21.66336827
 30
0.0
 10
-22.39241901
 20
-28.40901065
 30
0.0
1001
ACAD
1000
DSTYLE
1002
{
1070
     3
1000
<>
1070
     5
1000
OPEN
1070
    41
1040
2.0
1070
    42
1040
2.0
1070
    44
1040
2.0
1070
    79
1070
     2
1070
   140
1040
4.0
1070
   179
1070
     3
1070
   288
1070
     1
1070
   342
1005
594
1070
   371
1070
    -1
1070
   372
1070
    -1
1002
}
  0
DIMENSION
  5
98C
330
1A
100
AcDbEntity
  8
250
  6
CONTINUOUS
100
AcDbDimension
  2
*D2
 10
119.99999982
 20
42.0
 30
0.0
 11
59.99999991
 21
44.4
 31
0.0
 70
    32
  3
BIGT
100
AcDbAlignedDimension
 13
0.0
 23
31.4925
 33
0.0
 14
119.99999982
 24
9.85786444
 34
0.0
100
AcDbRotatedDimension
1001
ACAD
1000
DSTYLE
1002
{
1070
   287
1070
     0
1070
   287
1070
     0
1070
     3
1000
<>
1070
   289
1070
     0
1002
}
  0
DIMENSION
  5
99B
330
1A
100
AcDbEntity
  8
250
  6
CONTINUOUS
100
AcDbDimension
  2
*D3
 10
133.0
 20
0.0
 30
0.0
 11
130.6
 21
-14.75
 31
0.0
 70
    32
  3
BIGT
100
AcDbAlignedDimension
 13
119.09105675
 23
-29.5
 33
0.0
 14
120.99999982
 24
0.0
 34
0.0
 50
90.0
100
AcDbRotatedDimension
1001
ACAD
1000
DSTYLE
1002
{
1070
   287
1070
     0
1070
   287
1070
     0
1070
     3
1000
<>
1070
   289
1070
     0
1002
}
  0
TEXT
  5
9AF
330
1A
100
AcDbEntity
  8
241
100
AcDbText
 10
-38.0
 20
56.0
 30
0.0
 40
5.0
  1
C6-180-BH25L-32120S
  7
YOKO
 11
-38.0
 21
56.0
 31
0.0
100
AcDbText
 73
     1
  0
DIMENSION
  5
9C1
330
1A
100
AcDbEntity
  8
250
  6
CONTINUOUS
100
AcDbDimension
  2
*D4
 10
119.99999982
 20
-42.0
 30
0.0
 11
78.99999982
 21
-39.6
 31
0.0
 70
    32
  3
BIGT
100
AcDbAlignedDimension
 13
37.99999982
 23
-29.5
 33
0.0
 14
119.99999982
 24
-28.60148242
 34
0.0
100
AcDbRotatedDimension
1001
ACAD
1000
DSTYLE
1002
{
1070
   287
1070
     0
1070
   287
1070
     0
1070
     3
1000
<>
1070
   289
1070
     0
1002
}
  0
DIMENSION
  5
A14
330
1A
100
AcDbEntity
  8
250
  6
CONTINUOUS
100
AcDbDimension
  2
*D5
 10
163.22987855
 20
36.89038953
 30
0.0
 11
199.91156777
 21
-15.62010432
 31
0.0
 70
   163
  1
（{\H2.8;\U+2205}<>）
  3
BIGT
100
AcDbDiametricDimension
 15
214.77012145
 25
-36.89038953
 35
0.0
 40
0.0
1001
ACAD
1000
DSTYLE
1002
{
1070
   287
1070
     0
1070
   287
1070
     0
1070
     3
1000
<>
1070
    42
1040
0.5
1070
    77
1070
     3
1070
   284
1070
     8
1070
   288
1070
     1
1070
   289
1070
     0
1002
}
  0
DIMENSION
  5
A15
330
1A
100
AcDbEntity
  8
250
  6
CONTINUOUS
100
AcDbDimension
  2
*D6
 10
214.0
 20
-55.99976975
 30
0.0
 11
201.5
 21
-55.99976975
 31
0.0
 70
   160
  1
□<>
  3
BIGT
100
AcDbAlignedDimension
 13
189.0
 23
-46.0
 33
0.0
 14
214.0
 24
-29.5
 34
0.0
100
AcDbRotatedDimension
1001
ACAD
1000
DSTYLE
1002
{
1070
    42
1040
0.5
1070
    77
1070
     3
1070
   284
1070
     8
1002
}
  0
DIMENSION
  5
A4E
330
1A
100
AcDbEntity
  8
250
  6
CONTINUOUS
100
AcDbDimension
  2
*D7
 10
245.0
 20
-4.5
 30
0.0
 11
242.6
 21
-17.0
 31
0.0
 70
    32
  3
BIGT
100
AcDbAlignedDimension
 13
215.26309197
 23
-29.5
 33
0.0
 14
214.0
 24
-4.5
 34
0.0
 50
90.0
100
AcDbRotatedDimension
1001
ACAD
1000
DSTYLE
1002
{
1070
   287
1070
     0
1070
   287
1070
     0
1070
     3
1000
<>
1070
   289
1070
     0
1002
}
  0
MTEXT
  5
E9A
330
1A
100
AcDbEntity
  8
251
  6
CONTINUOUS
100
AcDbMText
 10
-28.46666667
 20
-125.0
 30
0.0
 40
2.8
 41
0.0
 71
     7
 72
     1
  1
C6
  7
YOKO
1001
ITEMNAME
1000
LNSP3
1001
ACAD
1000
MTEXTBEGIN
1070
    73
1070
     1
1070
    44
1040
1.0
1070
    74
1070
     0
1000
MTEXTEND
1000
MTEXTBEGIN
1070
    73
1070
     1
1070
    44
1040
1.0
1070
    74
1070
     0
1000
MTEXTEND
1000
MTEXTBEGIN
1070
    73
1070
     1
1070
    44
1040
1.0
1070
    74
1070
     0
1000
MTEXTEND
1000
MTEXTBEGIN
1070
    73
1070
     1
1070
    44
1040
1.0
1070
    74
1070
     0
1000
MTEXTEND
1000
MTEXTBEGIN
1070
    73
1070
     1
1070
    44
1040
1.0
1070
    74
1070
     0
1000
MTEXTEND
1000
MTEXTBEGIN
1070
    73
1070
     1
1070
    44
1040
1.0
1070
    74
1070
     0
1000
MTEXTEND
1000
MTEXTBEGIN
1070
    73
1070
     1
1070
    44
1040
1.0
1070
    74
1070
     0
1000
MTEXTEND
1000
MTEXTBEGIN
1070
    73
1070
     1
1070
    44
1040
1.0
1070
    74
1070
     0
1000
MTEXTEND
1000
MTEXTBEGIN
1070
    73
1070
     1
1070
    44
1040
1.0
1070
    74
1070
     0
1000
MTEXTEND
1000
MTEXTBEGIN
1070
    73
1070
     1
1070
    44
1040
1.0
1070
    74
1070
     0
1000
MTEXTEND
1000
MTEXTBEGIN
1070
    73
1070
     1
1070
    44
1040
1.0
1070
    74
1070
     0
1000
MTEXTEND
1000
MTEXTBEGIN
1070
    73
1070
     1
1070
    44
1040
1.0
1070
    74
1070
     0
1000
MTEXTEND
1000
MTEXTBEGIN
1070
    73
1070
     1
1070
    44
1040
1.0
1070
    74
1070
     0
1000
MTEXTEND
  0
LINE
  5
E9B
330
1A
100
AcDbEntity
  8
250
  6
CONTINUOUS
100
AcDbLine
 10
-21.0
 20
-126.0
 30
0.0
 11
-31.26666667
 21
-126.0
 31
0.0
1001
ITEMNAME
1000
LNSP2
  0
LEADER
  5
EAB
330
1A
100
AcDbEntity
  8
250
  6
CONTINUOUS
100
AcDbLeader
  3
BIGT
 76
     2
 10
-16.47540101
 20
-118.26308537
 30
0.0
 10
-21.0
 20
-126.0
 30
0.0
1001
ACAD
1000
DSTYLE
1002
{
1070
     6
1000
OPEN
1070
    41
1040
2.0
1070
    42
1040
2.0
1070
    44
1040
2.0
1070
   140
1040
4.0
1070
   343
1005
594
1002
}
  0
INSERT
  5
124D
330
1A
100
AcDbEntity
  8
245
100
AcDbBlockReference
  2
1
 10
0.0
 20
0.0
 30
0.0
  0
VIEWPORT
  5
22
330
17
100
AcDbEntity
 67
     1
  8
0
100
AcDbViewport
 10
261.51769912
 20
148.5
 30
0.0
 40
523.03539823
 41
297.0
 68
     1
 69
     1
1001
ACAD
1000
MVIEW
1002
{
1070
    16
1010
0.0
1020
0.0
1030
0.0
1010
0.0
1020
0.0
1030
1.0
1040
0.0
1040
297.0
1040
261.51769912
1040
148.5
1040
50.0
1040
0.0
1040
0.0
1070
     0
1070
   100
1070
     1
1070
     1
1070
     0
1070
     0
1070
     0
1070
     0
1040
0.0
1040
0.0
1040
0.0
1040
1.0
1040
1.0
1040
10.0
1040
10.0
1070
     0
1002
{
1002
}
1002
}
  0
ENDSEC
  0
SECTION
  2
OBJECTS
  0
DICTIONARY
  5
C
330
0
100
AcDbDictionary
  3
ACAD_GROUP
350
D
  3
ACAD_LAYOUT
350
565
  3
ACAD_MLINESTYLE
350
E
  3
ACAD_PLOTSETTINGS
350
566
  3
ACAD_PLOTSTYLENAME
350
563
  3
ACDBHEADERROUNDTRIPXREC
350
124F
  3
GRADE_DWG
350
540
  0
DICTIONARY
  5
BBC
330
1A
100
AcDbDictionary
280
     1
  3
ACAD_LAYOUTSELFREF
360
1271
  0
DICTIONARY
  5
BBA
330
17
100
AcDbDictionary
280
     1
  3
ACAD_LAYOUTSELFREF
360
1270
  0
DICTIONARY
  5
D
102
{ACAD_REACTORS
330
C
102
}
330
C
100
AcDbDictionary
  3
*A1
350
6C7
  3
*A2
350
6C8
  3
*A3
350
6D4
  3
*A4
350
6D5
  3
DREC-1
350
5FC
  3
DREC-2
350
654
  3
DREC-3
350
673
  0
DICTIONARY
  5
565
102
{ACAD_REACTORS
330
C
102
}
330
C
100
AcDbDictionary
  0
DICTIONARY
  5
E
102
{ACAD_REACTORS
330
C
102
}
330
C
100
AcDbDictionary
  3
STANDARD
350
13
  0
DICTIONARY
  5
566
102
{ACAD_REACTORS
330
C
102
}
330
C
100
AcDbDictionary
  3
A3_0_5倍_
350
772
  3
A3_1倍_
350
773
  3
A3_1倍__2000_
350
774
  3
A3_2倍_
350
775
  3
A4_0_5倍_
350
776
  3
A4_1倍_
350
777
  3
A4_1倍__2000_
350
778
  3
A4_2倍_
350
779
  0
ACDBDICTIONARYWDFLT
  5
563
102
{ACAD_REACTORS
330
C
102
}
330
C
100
AcDbDictionary
281
     1
  3
Normal
350
564
100
AcDbDictionaryWithDefault
340
564
  0
DICTIONARY
  5
124F
102
{ACAD_REACTORS
330
C
102
}
330
C
100
AcDbDictionary
  3
CEPSNTYPE
350
1259
  3
DIMSTYLEDATA
350
125D
  3
FINGERPRINTGUID
350
125A
  3
HYPERLINKBASE
350
1252
  3
INSUNITS
350
1258
  3
LAYOUTDICT
350
1254
  3
LWETCUNION
350
1257
  3
PLOTSETDICT
350
1255
  3
PLOTSTYLNAMDICT
350
1256
  3
PSVPSCALE
350
125C
  3
PUCSBASE
350
1260
  3
PUCSORGBACK
350
1266
  3
PUCSORGBOTTOM
350
1262
  3
PUCSORGFRONT
350
1265
  3
PUCSORGLEFT
350
1263
  3
PUCSORGRIGHT
350
1264
  3
PUCSORGTOP
350
1261
  3
PUCSORTHOREF
350
125E
  3
PUCSORTHOVIEW
350
125F
  3
STYLESHEET
350
1253
  3
TSTACKALIGN
350
1250
  3
TSTACKSIZE
350
1251
  3
UCSBASE
350
1269
  3
UCSORGBACK
350
126F
  3
UCSORGBOTTOM
350
126B
  3
UCSORGFRONT
350
126E
  3
UCSORGLEFT
350
126C
  3
UCSORGRIGHT
350
126D
  3
UCSORGTOP
350
126A
  3
UCSORTHOREF
350
1267
  3
UCSORTHOVIEW
350
1268
  3
VERSIONGUID
350
125B
  0
DICTIONARY
  5
540
102
{ACAD_REACTORS
330
C
102
}
330
C
100
AcDbDictionary
  3
VERSION
350
560
  0
XRECORD
  5
1271
102
{ACAD_REACTORS
330
BBC
102
}
330
BBC
100
AcDbXrecord
340
1A
  0
XRECORD
  5
1270
102
{ACAD_REACTORS
330
BBA
102
}
330
BBA
100
AcDbXrecord
340
17
  0
GROUP
  5
6C7
102
{ACAD_REACTORS
330
D
102
}
330
D
100
AcDbGroup
300

 70
     0
 71
     1
1001
GRPNAME
1000
DMA00
  0
GROUP
  5
6C8
102
{ACAD_REACTORS
330
D
102
}
330
D
100
AcDbGroup
300

 70
     0
 71
     1
1001
GRPNAME
1000
DMA00
  0
GROUP
  5
6D4
102
{ACAD_REACTORS
330
D
102
}
330
D
100
AcDbGroup
300

 70
     0
 71
     1
1001
GRPNAME
1000
DMA00
  0
GROUP
  5
6D5
102
{ACAD_REACTORS
330
D
102
}
330
D
100
AcDbGroup
300

 70
     0
 71
     1
1001
GRPNAME
1000
DMA00
  0
GROUP
  5
5FC
102
{ACAD_REACTORS
330
D
102
}
330
D
100
AcDbGroup
300

 70
     0
 71
     1
1001
GRPNAME
1000
DREC-
1001
GPARA
1000
xsiz
1000
44.182
1000
ysiz
1000
40.677
1000
angl
1000
0
1000
ctyp
1000
0
1000
csiz
1000
5
1000
lfnt
1000
cont
1000
hcnt
1000
hoff
1000
vcnt
1000
voff
1000
opnt
1000
4
1000
dxpt
1000
0
1000
dypt
1000
0
  0
GROUP
  5
654
102
{ACAD_REACTORS
330
D
102
}
330
D
100
AcDbGroup
300

 70
     0
 71
     1
1001
GRPNAME
1000
DREC-
1001
GPARA
1000
xsiz
1000
54.592
1000
ysiz
1000
53.036
1000
angl
1000
0
1000
ctyp
1000
0
1000
csiz
1000
5
1000
lfnt
1000
cont
1000
hcnt
1000
hoff
1000
vcnt
1000
voff
1000
opnt
1000
4
1000
dxpt
1000
0
1000
dypt
1000
0
  0
GROUP
  5
673
102
{ACAD_REACTORS
330
D
102
}
330
D
100
AcDbGroup
300

 70
     0
 71
     1
1001
GRPNAME
1000
DREC-
1001
GPARA
1000
xsiz
1000
30.363
1000
ysiz
1000
36.175
1000
angl
1000
0
1000
ctyp
1000
0
1000
csiz
1000
5
1000
lfnt
1000
cont
1000
hcnt
1000
hoff
1000
vcnt
1000
voff
1000
opnt
1000
4
1000
dxpt
1000
0
1000
dypt
1000
0
  0
MLINESTYLE
  5
13
102
{ACAD_REACTORS
330
E
102
}
330
E
100
AcDbMlineStyle
  2
STANDARD
 70
     0
  3

 62
     0
 51
90.0
 52
90.0
 71
     2
 49
0.5
 62
   256
  6
BYLAYER
 49
-0.5
 62
   256
  6
BYLAYER
  0
PLOTSETTINGS
  5
772
102
{ACAD_REACTORS
330
566
102
}
330
566
100
AcDbPlotSettings
  1
A3(0.5倍)
  2
Canon LBP5600.pc3
  4
A3
  6

 40
5.87374973
 41
5.87374783
 42
5.87374878
 43
5.87374878
 44
296.92599487
 45
419.94665527
 46
90.09
 47
129.85
 48
0.0
 49
0.0
140
0.0
141
0.0
142
1.0
143
2.0
 70
  1716
 72
     1
 73
     1
 74
     2
  7
big.ctb
 75
    17
147
0.5
148
0.0
149
0.0
  0
PLOTSETTINGS
  5
773
102
{ACAD_REACTORS
330
566
102
}
330
566
100
AcDbPlotSettings
  1
A3(1倍)
  2
Canon LBP5600.pc3
  4
A3
  6

 40
5.87374973
 41
5.87374783
 42
5.87374878
 43
5.87374878
 44
296.92599487
 45
419.94665527
 46
37.59
 47
55.6
 48
0.0
 49
0.0
140
0.0
141
0.0
142
1.0
143
1.0
 70
  1716
 72
     1
 73
     1
 74
     2
  7
big.ctb
 75
    16
147
1.0
148
0.0
149
0.0
  0
PLOTSETTINGS
  5
774
102
{ACAD_REACTORS
330
566
102
}
330
566
100
AcDbPlotSettings
  1
A3(1倍)(2000)
  2
Canon LBP5600.pc3
  4
A3
  6

 40
5.87374973
 41
5.87374783
 42
5.87374878
 43
5.87374878
 44
296.92599487
 45
419.94665527
 46
37.59
 47
55.6
 48
0.0
 49
0.0
140
0.0
141
0.0
142
1.0
143
1.0
 70
  1716
 72
     1
 73
     1
 74
     2
  7
big.ctb
 75
    16
147
1.0
148
0.0
149
0.0
  0
PLOTSETTINGS
  5
775
102
{ACAD_REACTORS
330
566
102
}
330
566
100
AcDbPlotSettings
  1
A3(2倍)
  2
Canon LBP5600.pc3
  4
A3
  6

 40
5.87374973
 41
5.87374783
 42
5.87374878
 43
5.87374878
 44
296.92599487
 45
419.94665527
 46
-67.41
 47
-92.9
 48
0.0
 49
0.0
140
0.0
141
0.0
142
1.0
143
0.5
 70
  1716
 72
     1
 73
     1
 74
     2
  7
big.ctb
 75
    27
147
2.0
148
0.0
149
0.0
  0
PLOTSETTINGS
  5
776
102
{ACAD_REACTORS
330
566
102
}
330
566
100
AcDbPlotSettings
  1
A4(0.5倍)
  2
Canon LBP5600.pc3
  4
A3
  6

 40
5.87374973
 41
5.87374783
 42
5.87374878
 43
5.87374878
 44
296.92599487
 45
419.94665527
 46
90.09
 47
129.85
 48
0.0
 49
0.0
140
0.0
141
0.0
142
1.0
143
2.0
 70
  1716
 72
     1
 73
     1
 74
     2
  7
big.ctb
 75
    17
147
0.5
148
0.0
149
0.0
  0
PLOTSETTINGS
  5
777
102
{ACAD_REACTORS
330
566
102
}
330
566
100
AcDbPlotSettings
  1
A4(1倍)
  2
Canon LBP5600.pc3
  4
A3
  6

 40
5.87374973
 41
5.87374783
 42
5.87374878
 43
5.87374878
 44
296.92599487
 45
419.94665527
 46
37.59
 47
55.6
 48
0.0
 49
0.0
140
0.0
141
0.0
142
1.0
143
1.0
 70
  1716
 72
     1
 73
     1
 74
     2
  7
big.ctb
 75
    16
147
1.0
148
0.0
149
0.0
  0
PLOTSETTINGS
  5
778
102
{ACAD_REACTORS
330
566
102
}
330
566
100
AcDbPlotSettings
  1
A4(1倍)(2000)
  2
Canon LBP5600.pc3
  4
A3
  6

 40
5.87374973
 41
5.87374783
 42
5.87374878
 43
5.87374878
 44
296.92599487
 45
419.94665527
 46
37.59
 47
55.6
 48
0.0
 49
0.0
140
0.0
141
0.0
142
1.0
143
1.0
 70
  1716
 72
     1
 73
     1
 74
     2
  7
big.ctb
 75
    16
147
1.0
148
0.0
149
0.0
  0
PLOTSETTINGS
  5
779
102
{ACAD_REACTORS
330
566
102
}
330
566
100
AcDbPlotSettings
  1
A4(2倍)
  2
Canon LBP5600.pc3
  4
A3
  6

 40
5.87374973
 41
5.87374783
 42
5.87374878
 43
5.87374878
 44
296.92599487
 45
419.94665527
 46
-67.41
 47
-92.9
 48
0.0
 49
0.0
140
0.0
141
0.0
142
1.0
143
0.5
 70
  1716
 72
     1
 73
     1
 74
     2
  7
big.ctb
 75
    27
147
2.0
148
0.0
149
0.0
  0
ACDBPLACEHOLDER
  5
564
102
{ACAD_REACTORS
330
563
102
}
330
563
100
AcDbPlaceHolder
280
     0
  0
XRECORD
  5
1259
102
{ACAD_REACTORS
330
124F
102
}
330
124F
100
AcDbXrecord
 90
        0
  0
XRECORD
  5
125D
102
{ACAD_REACTORS
330
124F
102
}
330
124F
100
AcDbXrecord
1000
DSTYLE
1002
{
1070
    79
 70
     2
1070
   179
 70
     3
1070
   341
340
594
1070
   343
340
594
1070
   344
340
594
1070
   371
 70
    -1
1070
   372
 70
    -1
1002
}
  0
XRECORD
  5
125A
102
{ACAD_REACTORS
330
124F
102
}
330
124F
100
AcDbXrecord
  1
{51294030-9CB4-11D3-8E18-00A0C925D94D}
  0
XRECORD
  5
1252
102
{ACAD_REACTORS
330
124F
102
}
330
124F
100
AcDbXrecord
  1

  0
XRECORD
  5
1258
102
{ACAD_REACTORS
330
124F
102
}
330
124F
100
AcDbXrecord
 90
        0
  0
XRECORD
  5
1254
102
{ACAD_REACTORS
330
124F
102
}
330
124F
100
AcDbXrecord
340
565
  0
XRECORD
  5
1257
102
{ACAD_REACTORS
330
124F
102
}
330
124F
100
AcDbXrecord
 90
    10781
  0
XRECORD
  5
1255
102
{ACAD_REACTORS
330
124F
102
}
330
124F
100
AcDbXrecord
340
566
  0
XRECORD
  5
1256
102
{ACAD_REACTORS
330
124F
102
}
330
124F
100
AcDbXrecord
340
563
  0
XRECORD
  5
125C
102
{ACAD_REACTORS
330
124F
102
}
330
124F
100
AcDbXrecord
 40
0.0
  0
XRECORD
  5
1260
102
{ACAD_REACTORS
330
124F
102
}
330
124F
100
AcDbXrecord
340
0
  0
XRECORD
  5
1266
102
{ACAD_REACTORS
330
124F
102
}
330
124F
100
AcDbXrecord
 10
0.0
 20
0.0
 30
0.0
  0
XRECORD
  5
1262
102
{ACAD_REACTORS
330
124F
102
}
330
124F
100
AcDbXrecord
 10
0.0
 20
0.0
 30
0.0
  0
XRECORD
  5
1265
102
{ACAD_REACTORS
330
124F
102
}
330
124F
100
AcDbXrecord
 10
0.0
 20
0.0
 30
0.0
  0
XRECORD
  5
1263
102
{ACAD_REACTORS
330
124F
102
}
330
124F
100
AcDbXrecord
 10
0.0
 20
0.0
 30
0.0
  0
XRECORD
  5
1264
102
{ACAD_REACTORS
330
124F
102
}
330
124F
100
AcDbXrecord
 10
0.0
 20
0.0
 30
0.0
  0
XRECORD
  5
1261
102
{ACAD_REACTORS
330
124F
102
}
330
124F
100
AcDbXrecord
 10
0.0
 20
0.0
 30
0.0
  0
XRECORD
  5
125E
102
{ACAD_REACTORS
330
124F
102
}
330
124F
100
AcDbXrecord
340
0
  0
XRECORD
  5
125F
102
{ACAD_REACTORS
330
124F
102
}
330
124F
100
AcDbXrecord
 70
     0
  0
XRECORD
  5
1253
102
{ACAD_REACTORS
330
124F
102
}
330
124F
100
AcDbXrecord
  1
big.ctb
  0
XRECORD
  5
1250
102
{ACAD_REACTORS
330
124F
102
}
330
124F
100
AcDbXrecord
 90
        1
  0
XRECORD
  5
1251
102
{ACAD_REACTORS
330
124F
102
}
330
124F
100
AcDbXrecord
 90
       70
  0
XRECORD
  5
1269
102
{ACAD_REACTORS
330
124F
102
}
330
124F
100
AcDbXrecord
340
0
  0
XRECORD
  5
126F
102
{ACAD_REACTORS
330
124F
102
}
330
124F
100
AcDbXrecord
 10
0.0
 20
0.0
 30
0.0
  0
XRECORD
  5
126B
102
{ACAD_REACTORS
330
124F
102
}
330
124F
100
AcDbXrecord
 10
0.0
 20
0.0
 30
0.0
  0
XRECORD
  5
126E
102
{ACAD_REACTORS
330
124F
102
}
330
124F
100
AcDbXrecord
 10
0.0
 20
0.0
 30
0.0
  0
XRECORD
  5
126C
102
{ACAD_REACTORS
330
124F
102
}
330
124F
100
AcDbXrecord
 10
0.0
 20
0.0
 30
0.0
  0
XRECORD
  5
126D
102
{ACAD_REACTORS
330
124F
102
}
330
124F
100
AcDbXrecord
 10
0.0
 20
0.0
 30
0.0
  0
XRECORD
  5
126A
102
{ACAD_REACTORS
330
124F
102
}
330
124F
100
AcDbXrecord
 10
0.0
 20
0.0
 30
0.0
  0
XRECORD
  5
1267
102
{ACAD_REACTORS
330
124F
102
}
330
124F
100
AcDbXrecord
340
0
  0
XRECORD
  5
1268
102
{ACAD_REACTORS
330
124F
102
}
330
124F
100
AcDbXrecord
 70
     0
  0
XRECORD
  5
125B
102
{ACAD_REACTORS
330
124F
102
}
330
124F
100
AcDbXrecord
  1
{742F5751-28C6-4166-85BD-156A737E3765}
  0
XRECORD
  5
560
102
{ACAD_REACTORS
330
540
102
}
330
540
100
AcDbXrecord
  1
2.0.0
  0
ENDSEC
  0
EOF
